osu file format v14

[General]
AudioFilename: audio.mp3
AudioLeadIn: 0
PreviewTime: 95902
Countdown: 0
SampleSet: None
StackLeniency: 0.7
Mode: 1
LetterboxInBreaks: 0
WidescreenStoryboard: 1

[Editor]
DistanceSpacing: 0.2
BeatDivisor: 1
GridSize: 32
TimelineZoom: 1

[Metadata]
Title:Angels aren't fly
TitleUnicode:Ангелы не летают
Artist:pyrokinesis
ArtistUnicode:pyrokinesis
Creator:Deluxe100
Version:D
Source:
Tags: pyrokinesis, taiko, ангелы не летают, пирокинезис, русский, тайко, дьявол, russian, rap, angels don't fly
BeatmapID:3632440
BeatmapSetID:1774056

[Difficulty]
HPDrainRate:8
CircleSize:2
OverallDifficulty:4
ApproachRate:9
SliderMultiplier:1.2
SliderTickRate:1

[Events]
//Background and Video events
0,0,"z.jpg",0,0
//Break Periods
2,81638,95410
2,122781,129695
2,163924,174267
2,205924,211981
//Storyboard Layer 0 (Background)
//Storyboard Layer 1 (Fail)
//Storyboard Layer 2 (Pass)
//Storyboard Layer 3 (Foreground)
//Storyboard Layer 4 (Overlay)
//Storyboard Sound Samples

[TimingPoints]
10,428.571428571429,4,2,0,100,1,0
96010,-83.3333333333333,4,3,0,100,0,1
123438,-83.3333333333333,4,3,0,100,0,0
125152,-100,4,2,0,100,0,0
178295,-71.4285714285714,4,3,0,100,0,1
205724,-71.4285714285714,4,3,0,100,0,0
206152,-100,4,3,0,100,0,0
212581,-125,4,3,0,100,0,0
213438,-117.647058823529,4,3,0,100,0,0
214295,-111.111111111111,4,3,0,100,0,0
215152,-105.263157894737,4,3,0,100,0,0
216010,-100,4,3,0,100,0,0
216438,-97.5609756097561,4,3,0,100,0,0
216867,-95.2380952380952,4,3,0,100,0,0
217295,-93.0232558139535,4,3,0,100,0,0
217724,-90.9090909090909,4,3,0,100,0,0
218152,-88.8888888888889,4,3,0,100,0,0
218581,-86.9565217391304,4,3,0,100,0,0
219010,-85.1063829787234,4,3,0,100,0,0
219438,-83.3333333333333,4,3,0,100,0,0

[HitObjects]
256,192,13724,5,8,0:0:0:0:
256,192,15438,5,8,0:0:0:0:
256,192,17152,5,8,0:0:0:0:
256,192,18867,5,8,0:0:0:0:
256,192,20581,5,8,0:0:0:0:
256,192,22295,5,8,0:0:0:0:
256,192,24010,5,8,0:0:0:0:
256,192,25724,5,8,0:0:0:0:
256,192,27438,5,0,0:0:0:0:
256,192,28295,5,8,0:0:0:0:
256,192,29581,5,0,0:0:0:0:
256,192,30010,5,8,0:0:0:0:
256,192,30867,5,0,0:0:0:0:
256,192,31724,5,8,0:0:0:0:
256,192,32152,5,0,0:0:0:0:
256,192,33010,5,0,0:0:0:0:
256,192,33438,5,8,0:0:0:0:
256,192,34295,5,0,0:0:0:0:
256,192,35152,5,8,0:0:0:0:
256,192,35581,5,0,0:0:0:0:
256,192,36438,5,0,0:0:0:0:
256,192,36867,5,8,0:0:0:0:
256,192,37724,5,0,0:0:0:0:
256,192,38581,5,8,0:0:0:0:
256,192,39010,5,0,0:0:0:0:
256,192,39867,5,0,0:0:0:0:
256,192,40295,5,8,0:0:0:0:
256,192,40724,5,8,0:0:0:0:
256,192,41152,5,0,0:0:0:0:
256,192,42010,5,8,0:0:0:0:
256,192,42867,5,0,0:0:0:0:
256,192,43295,5,0,0:0:0:0:
256,192,43724,5,8,0:0:0:0:
256,192,44581,5,0,0:0:0:0:
256,192,45438,5,8,0:0:0:0:
256,192,46295,5,0,0:0:0:0:
256,192,47152,5,8,0:0:0:0:
256,192,48010,5,0,0:0:0:0:
256,192,48867,5,8,0:0:0:0:
256,192,49295,5,0,0:0:0:0:
256,192,50152,5,0,0:0:0:0:
256,192,50581,5,8,0:0:0:0:
256,192,51438,5,0,0:0:0:0:
256,192,52295,5,8,0:0:0:0:
256,192,52724,5,0,0:0:0:0:
256,192,53581,5,0,0:0:0:0:
256,192,54010,5,8,0:0:0:0:
256,192,54867,5,0,0:0:0:0:
256,192,55724,5,8,0:0:0:0:
256,192,56152,5,8,0:0:0:0:
256,192,56581,5,0,0:0:0:0:
256,192,57010,5,0,0:0:0:0:
256,192,57438,5,8,0:0:0:0:
256,192,58295,5,0,0:0:0:0:
256,192,59152,5,8,0:0:0:0:
256,192,60010,5,0,0:0:0:0:
256,192,60438,5,0,0:0:0:0:
256,192,60867,5,8,0:0:0:0:
256,192,61295,5,0,0:0:0:0:
256,192,61724,5,0,0:0:0:0:
256,192,62581,5,8,0:0:0:0:
256,192,63010,5,0,0:0:0:0:
256,192,63438,5,0,0:0:0:0:
256,192,63867,5,0,0:0:0:0:
256,192,64295,5,8,0:0:0:0:
256,192,65152,5,0,0:0:0:0:
256,192,66010,5,8,0:0:0:0:
256,192,66438,5,0,0:0:0:0:
256,192,67295,5,0,0:0:0:0:
256,192,67724,5,8,0:0:0:0:
256,192,68581,5,0,0:0:0:0:
256,192,69438,5,8,0:0:0:0:
256,192,69867,5,0,0:0:0:0:
256,192,70295,5,0,0:0:0:0:
256,192,70724,5,8,0:0:0:0:
256,192,71152,5,8,0:0:0:0:
256,192,72010,5,0,0:0:0:0:
256,192,72867,5,8,0:0:0:0:
256,192,73295,5,0,0:0:0:0:
256,192,74152,5,0,0:0:0:0:
256,192,74581,5,8,0:0:0:0:
256,192,75010,5,8,0:0:0:0:
256,192,75438,5,0,0:0:0:0:
256,192,76295,5,8,0:0:0:0:
256,192,76724,5,0,0:0:0:0:
256,192,77581,5,0,0:0:0:0:
256,192,78010,5,8,0:0:0:0:
256,192,78867,5,0,0:0:0:0:
256,192,79724,5,8,0:0:0:0:
256,192,80152,5,0,0:0:0:0:
256,192,81010,5,0,0:0:0:0:
256,192,81438,5,8,0:0:0:0:
256,192,96010,5,0,0:0:0:0:
256,192,96438,5,0,0:0:0:0:
256,192,96867,5,8,0:0:0:0:
256,192,97295,5,0,0:0:0:0:
256,192,97724,5,0,0:0:0:0:
256,192,98152,5,0,0:0:0:0:
256,192,98581,5,8,0:0:0:0:
256,192,99010,5,0,0:0:0:0:
256,192,99438,5,0,0:0:0:0:
256,192,99867,5,0,0:0:0:0:
256,192,100295,5,8,0:0:0:0:
256,192,100724,5,0,0:0:0:0:
256,192,101581,5,0,0:0:0:0:
256,192,102010,5,8,0:0:0:0:
256,192,102438,5,0,0:0:0:0:
256,192,102867,5,0,0:0:0:0:
256,192,103295,5,0,0:0:0:0:
256,192,103724,5,8,0:0:0:0:
256,192,104152,5,0,0:0:0:0:
256,192,104581,5,0,0:0:0:0:
256,192,105438,5,8,0:0:0:0:
256,192,106295,5,0,0:0:0:0:
256,192,107152,5,8,0:0:0:0:
256,192,107581,5,0,0:0:0:0:
256,192,108438,5,0,0:0:0:0:
256,192,108867,5,8,0:0:0:0:
256,192,109724,5,0,0:0:0:0:
256,192,110152,5,0,0:0:0:0:
256,192,110581,5,8,0:0:0:0:
256,192,111009,5,0,0:0:0:0:
256,192,111438,5,0,0:0:0:0:
256,192,111866,5,0,0:0:0:0:
256,192,112295,5,8,0:0:0:0:
256,192,112724,5,0,0:0:0:0:
256,192,113152,5,0,0:0:0:0:
256,192,114009,5,8,0:0:0:0:
256,192,114438,5,0,0:0:0:0:
256,192,115295,5,0,0:0:0:0:
256,192,115724,5,8,0:0:0:0:
256,192,116152,5,0,0:0:0:0:
256,192,116581,5,0,0:0:0:0:
256,192,117009,5,0,0:0:0:0:
256,192,117438,5,8,0:0:0:0:
256,192,117866,5,0,0:0:0:0:
256,192,118295,5,0,0:0:0:0:
256,192,119152,5,8,0:0:0:0:
256,192,120009,5,0,0:0:0:0:
256,192,120866,5,8,0:0:0:0:
256,192,121295,5,0,0:0:0:0:
256,192,122152,5,0,0:0:0:0:
256,192,122581,5,8,0:0:0:0:
256,192,130295,5,0,0:0:0:0:
256,192,131581,5,0,0:0:0:0:
256,192,132867,5,8,0:0:0:0:
256,192,133724,5,0,0:0:0:0:
256,192,135010,5,0,0:0:0:0:
256,192,135867,5,0,0:0:0:0:
256,192,136295,5,8,0:0:0:0:
256,192,137152,5,0,0:0:0:0:
256,192,137581,5,0,0:0:0:0:
256,192,138010,5,8,0:0:0:0:
256,192,138438,5,0,0:0:0:0:
256,192,138867,5,0,0:0:0:0:
256,192,139295,5,0,0:0:0:0:
256,192,139724,5,8,0:0:0:0:
256,192,140581,5,0,0:0:0:0:
256,192,141438,5,8,0:0:0:0:
256,192,141867,5,0,0:0:0:0:
256,192,142724,5,0,0:0:0:0:
256,192,143152,5,8,0:0:0:0:
256,192,143581,5,8,0:0:0:0:
256,192,144010,5,0,0:0:0:0:
256,192,144867,5,8,0:0:0:0:
256,192,145295,5,0,0:0:0:0:
256,192,146152,5,0,0:0:0:0:
256,192,146581,5,8,0:0:0:0:
256,192,147438,5,0,0:0:0:0:
256,192,147867,5,0,0:0:0:0:
256,192,148295,5,8,0:0:0:0:
256,192,148724,5,0,0:0:0:0:
256,192,149152,5,0,0:0:0:0:
256,192,149581,5,0,0:0:0:0:
256,192,150010,5,8,0:0:0:0:
256,192,150867,5,0,0:0:0:0:
256,192,151724,5,8,0:0:0:0:
256,192,152152,5,0,0:0:0:0:
256,192,153010,5,0,0:0:0:0:
256,192,153438,5,8,0:0:0:0:
256,192,154295,5,0,0:0:0:0:
256,192,154724,5,0,0:0:0:0:
256,192,155152,5,8,0:0:0:0:
256,192,155581,5,0,0:0:0:0:
256,192,156010,5,0,0:0:0:0:
256,192,156438,5,0,0:0:0:0:
256,192,156867,5,8,0:0:0:0:
256,192,157724,5,0,0:0:0:0:
256,192,158581,5,8,0:0:0:0:
256,192,159010,5,0,0:0:0:0:
256,192,159867,5,0,0:0:0:0:
256,192,160295,5,8,0:0:0:0:
256,192,160724,5,0,0:0:0:0:
256,192,161152,5,0,0:0:0:0:
256,192,162010,5,8,0:0:0:0:
256,192,162438,5,0,0:0:0:0:
256,192,163295,5,0,0:0:0:0:
256,192,163724,5,0,0:0:0:0:
256,192,174867,12,0,177438,0:0:0:0:
256,192,178295,5,0,0:0:0:0:
256,192,178723,5,0,0:0:0:0:
256,192,179152,5,8,0:0:0:0:
256,192,179580,5,0,0:0:0:0:
256,192,180009,5,0,0:0:0:0:
256,192,180437,5,0,0:0:0:0:
256,192,180866,5,8,0:0:0:0:
256,192,181295,5,0,0:0:0:0:
256,192,181723,5,0,0:0:0:0:
256,192,182152,5,0,0:0:0:0:
256,192,182580,5,8,0:0:0:0:
256,192,183009,5,0,0:0:0:0:
256,192,183866,5,0,0:0:0:0:
256,192,184295,5,8,0:0:0:0:
256,192,184723,5,0,0:0:0:0:
256,192,185152,5,0,0:0:0:0:
256,192,185580,5,0,0:0:0:0:
256,192,186009,5,8,0:0:0:0:
256,192,186437,5,0,0:0:0:0:
256,192,186866,5,0,0:0:0:0:
256,192,187723,5,8,0:0:0:0:
256,192,188580,5,0,0:0:0:0:
256,192,189437,5,8,0:0:0:0:
256,192,189866,5,0,0:0:0:0:
256,192,190723,5,0,0:0:0:0:
256,192,191152,5,8,0:0:0:0:
256,192,192009,5,0,0:0:0:0:
256,192,192437,5,0,0:0:0:0:
256,192,192866,5,8,0:0:0:0:
256,192,193294,5,0,0:0:0:0:
256,192,193723,5,0,0:0:0:0:
256,192,194151,5,0,0:0:0:0:
256,192,194580,5,8,0:0:0:0:
256,192,195009,5,0,0:0:0:0:
256,192,195437,5,0,0:0:0:0:
256,192,196294,5,8,0:0:0:0:
256,192,196723,5,0,0:0:0:0:
256,192,197580,5,0,0:0:0:0:
256,192,198009,5,8,0:0:0:0:
256,192,198437,5,8,0:0:0:0:
256,192,198866,5,0,0:0:0:0:
256,192,199294,5,0,0:0:0:0:
256,192,199723,5,8,0:0:0:0:
256,192,200151,5,0,0:0:0:0:
256,192,200580,5,0,0:0:0:0:
256,192,201437,5,8,0:0:0:0:
256,192,202294,5,0,0:0:0:0:
256,192,203151,5,8,0:0:0:0:
256,192,203580,5,0,0:0:0:0:
256,192,204437,5,0,0:0:0:0:
256,192,204866,5,8,0:0:0:0:
256,192,205724,5,8,0:0:0:0:
256,192,212581,5,0,0:0:0:0:
256,192,213438,5,8,0:0:0:0:
256,192,214295,5,8,0:0:0:0:
256,192,215152,5,0,0:0:0:0:
256,192,216010,5,0,0:0:0:0:
256,192,216438,5,8,0:0:0:0:
256,192,216867,5,0,0:0:0:0:
256,192,217295,5,8,0:0:0:0:
256,192,217724,5,0,0:0:0:0:
256,192,218152,5,8,0:0:0:0:
256,192,218581,5,0,0:0:0:0:
256,192,219010,5,8,0:0:0:0:
256,192,219438,5,4,0:0:0:0:
