osu file format v14

[General]
AudioFilename: audio.mp3
AudioLeadIn: 0
PreviewTime: 95902
Countdown: 0
SampleSet: None
StackLeniency: 0.7
Mode: 1
LetterboxInBreaks: 0
WidescreenStoryboard: 0

[Editor]
DistanceSpacing: 0.2
BeatDivisor: 2
GridSize: 32
TimelineZoom: 1

[Metadata]
Title:Angels aren't fly
TitleUnicode:Ангелы не летают
Artist:pyrokinesis
ArtistUnicode:pyrokinesis
Creator:Deluxe100
Version:B
Source:
Tags: pyrokinesis, taiko, ангелы не летают, пирокинезис, русский, тайко, дьявол, russian, rap, angels don't fly
BeatmapID:3632438
BeatmapSetID:1774056

[Difficulty]
HPDrainRate:6
CircleSize:2
OverallDifficulty:5
ApproachRate:9
SliderMultiplier:1.4
SliderTickRate:1

[Events]
//Background and Video events
0,0,"z.jpg",0,0
//Break Periods
2,82281,95410
2,163924,177695
2,205923,211981
//Storyboard Layer 0 (Background)
//Storyboard Layer 1 (Fail)
//Storyboard Layer 2 (Pass)
//Storyboard Layer 3 (Foreground)
//Storyboard Layer 4 (Overlay)
//Storyboard Sound Samples

[TimingPoints]
10,428.571428571429,4,2,0,100,1,0
96010,-83.3333333333333,4,3,0,100,0,1
123438,-83.3333333333333,4,3,0,100,0,0
125152,-100,4,2,0,100,0,0
178295,-71.4285714285714,4,3,0,100,0,1
205724,-71.4285714285714,4,3,0,100,0,0
206152,-100,4,3,0,100,0,0
212581,-125,4,3,0,100,0,0
213438,-117.647058823529,4,3,0,100,0,0
214295,-111.111111111111,4,3,0,100,0,0
215152,-105.263157894737,4,3,0,100,0,0
216010,-100,4,3,0,100,0,0
216438,-97.5609756097561,4,3,0,100,0,0
216867,-95.2380952380952,4,3,0,100,0,0
217295,-93.0232558139535,4,3,0,100,0,0
217724,-90.9090909090909,4,3,0,100,0,0
218152,-88.8888888888889,4,3,0,100,0,0
218581,-86.9565217391304,4,3,0,100,0,0
219010,-85.1063829787234,4,3,0,100,0,0
219438,-83.3333333333333,4,3,0,100,0,0

[HitObjects]
256,192,13724,5,8,0:0:0:0:
256,192,14581,1,8,0:0:0:0:
256,192,15438,1,8,0:0:0:0:
256,192,16295,1,8,0:0:0:0:
256,192,17152,1,8,0:0:0:0:
256,192,18010,1,8,0:0:0:0:
256,192,18867,1,8,0:0:0:0:
256,192,19724,1,8,0:0:0:0:
256,192,20367,1,8,0:0:0:0:
256,192,20474,1,8,0:0:0:0:
256,192,20581,1,8,0:0:0:0:
256,192,21438,1,8,0:0:0:0:
256,192,22295,1,8,0:0:0:0:
256,192,23152,1,8,0:0:0:0:
256,192,23795,1,8,0:0:0:0:
256,192,23902,1,8,0:0:0:0:
256,192,24010,1,8,0:0:0:0:
256,192,24867,1,8,0:0:0:0:
256,192,25724,1,8,0:0:0:0:
256,192,26581,1,8,0:0:0:0:
256,192,27224,1,0,0:0:0:0:
256,192,27438,1,4,0:0:0:0:
256,192,28081,1,0,0:0:0:0:
256,192,28295,1,8,0:0:0:0:
256,192,28724,1,0,0:0:0:0:
256,192,29152,1,8,0:0:0:0:
256,192,29581,1,0,0:0:0:0:
256,192,29795,1,0,0:0:0:0:
256,192,30010,1,8,0:0:0:0:
256,192,30438,1,8,0:0:0:0:
256,192,30867,1,4,0:0:0:0:
256,192,31295,1,8,0:0:0:0:
256,192,31510,1,0,0:0:0:0:
256,192,31724,1,8,0:0:0:0:
256,192,32152,1,0,0:0:0:0:
256,192,33010,1,0,0:0:0:0:
256,192,33438,1,8,0:0:0:0:
256,192,33867,1,0,0:0:0:0:
256,192,34081,1,0,0:0:0:0:
256,192,34295,1,4,0:0:0:0:
256,192,34938,1,0,0:0:0:0:
256,192,35152,1,8,0:0:0:0:
256,192,35581,1,0,0:0:0:0:
256,192,36438,1,0,0:0:0:0:
256,192,36652,1,0,0:0:0:0:
256,192,36867,1,8,0:0:0:0:
256,192,37295,1,8,0:0:0:0:
256,192,37724,1,4,0:0:0:0:
256,192,38152,1,2,0:0:0:0:
256,192,38367,1,0,0:0:0:0:
256,192,38581,1,8,0:0:0:0:
256,192,38795,1,0,0:0:0:0:
256,192,39010,1,0,0:0:0:0:
256,192,39438,1,2,0:0:0:0:
256,192,39867,1,0,0:0:0:0:
256,192,40081,1,0,0:0:0:0:
256,192,40188,1,0,0:0:0:0:
256,192,40295,1,8,0:0:0:0:
256,192,40724,1,8,0:0:0:0:
256,192,40938,1,8,0:0:0:0:
256,192,41152,1,4,0:0:0:0:
256,192,41581,1,0,0:0:0:0:
256,192,41795,1,0,0:0:0:0:
256,192,42010,1,8,0:0:0:0:
256,192,42438,1,0,0:0:0:0:
256,192,42652,1,2,0:0:0:0:
256,192,42867,1,0,0:0:0:0:
256,192,43081,1,0,0:0:0:0:
256,192,43295,1,0,0:0:0:0:
256,192,43510,1,2,0:0:0:0:
256,192,43724,1,2,0:0:0:0:
256,192,44152,1,0,0:0:0:0:
256,192,44581,1,4,0:0:0:0:
256,192,45010,1,0,0:0:0:0:
256,192,45224,1,0,0:0:0:0:
256,192,45438,1,8,0:0:0:0:
256,192,45867,1,0,0:0:0:0:
256,192,46081,1,0,0:0:0:0:
256,192,46295,1,0,0:0:0:0:
256,192,46724,1,0,0:0:0:0:
256,192,47152,1,2,0:0:0:0:
256,192,47367,1,0,0:0:0:0:
256,192,47581,1,0,0:0:0:0:
256,192,47795,1,0,0:0:0:0:
256,192,48010,1,4,0:0:0:0:
256,192,48438,1,0,0:0:0:0:
256,192,48652,1,0,0:0:0:0:
256,192,48867,1,2,0:0:0:0:
256,192,49295,1,0,0:0:0:0:
256,192,49510,1,2,0:0:0:0:
256,192,49938,1,2,0:0:0:0:
256,192,50152,1,0,0:0:0:0:
256,192,50367,1,0,0:0:0:0:
256,192,50581,1,2,0:0:0:0:
256,192,51010,1,2,0:0:0:0:
256,192,51224,1,0,0:0:0:0:
256,192,51438,1,4,0:0:0:0:
256,192,51867,1,0,0:0:0:0:
256,192,52081,1,0,0:0:0:0:
256,192,52295,1,2,0:0:0:0:
256,192,52724,1,0,0:0:0:0:
256,192,53152,1,0,0:0:0:0:
256,192,53581,1,8,0:0:0:0:
256,192,53795,1,0,0:0:0:0:
256,192,53902,1,0,0:0:0:0:
256,192,54010,1,2,0:0:0:0:
256,192,54867,1,0,0:0:0:0:
256,192,55510,1,0,0:0:0:0:
256,192,55724,1,8,0:0:0:0:
256,192,56152,1,0,0:0:0:0:
256,192,56367,1,0,0:0:0:0:
256,192,56581,1,4,0:0:0:0:
256,192,57010,1,0,0:0:0:0:
256,192,57438,1,8,0:0:0:0:
256,192,57652,1,8,0:0:0:0:
256,192,57760,1,8,0:0:0:0:
256,192,57867,1,8,0:0:0:0:
256,192,58081,1,8,0:0:0:0:
256,192,58295,1,4,0:0:0:0:
256,192,58510,1,2,0:0:0:0:
256,192,58724,1,2,0:0:0:0:
256,192,58938,1,0,0:0:0:0:
256,192,59152,1,2,0:0:0:0:
256,192,59367,1,0,0:0:0:0:
256,192,59581,1,2,0:0:0:0:
256,192,59795,1,0,0:0:0:0:
256,192,60010,1,2,0:0:0:0:
256,192,60438,1,0,0:0:0:0:
256,192,60652,1,0,0:0:0:0:
256,192,60760,1,0,0:0:0:0:
256,192,60867,1,2,0:0:0:0:
256,192,61081,1,0,0:0:0:0:
256,192,61295,1,0,0:0:0:0:
256,192,61724,1,4,0:0:0:0:
256,192,62152,1,0,0:0:0:0:
256,192,62367,1,0,0:0:0:0:
256,192,62581,1,2,0:0:0:0:
256,192,63010,1,0,0:0:0:0:
256,192,63224,1,0,0:0:0:0:
256,192,63331,1,0,0:0:0:0:
256,192,63438,1,2,0:0:0:0:
256,192,63652,1,2,0:0:0:0:
256,192,63867,1,0,0:0:0:0:
256,192,64081,1,2,0:0:0:0:
256,192,64295,1,0,0:0:0:0:
256,192,64724,1,2,0:0:0:0:
256,192,64938,1,0,0:0:0:0:
256,192,65152,1,4,0:0:0:0:
256,192,65581,1,0,0:0:0:0:
256,192,65795,1,0,0:0:0:0:
256,192,66010,1,8,0:0:0:0:
256,192,66438,1,0,0:0:0:0:
256,192,66545,1,0,0:0:0:0:
256,192,66652,1,0,0:0:0:0:
256,192,66867,1,0,0:0:0:0:
256,192,67081,1,2,0:0:0:0:
256,192,67295,1,0,0:0:0:0:
256,192,67510,1,8,0:0:0:0:
256,192,67724,1,8,0:0:0:0:
256,192,68152,1,8,0:0:0:0:
256,192,68581,1,4,0:0:0:0:
256,192,69010,1,0,0:0:0:0:
256,192,69224,1,8,0:0:0:0:
256,192,69438,1,0,0:0:0:0:
256,192,69867,1,0,0:0:0:0:
256,192,70081,1,0,0:0:0:0:
256,192,70295,1,0,0:0:0:0:
256,192,70724,1,0,0:0:0:0:
256,192,70938,1,8,0:0:0:0:
256,192,71045,1,8,0:0:0:0:
256,192,71152,1,0,0:0:0:0:
256,192,71581,1,0,0:0:0:0:
256,192,71688,1,0,0:0:0:0:
256,192,71795,1,0,0:0:0:0:
256,192,72010,1,4,0:0:0:0:
256,192,72224,1,2,0:0:0:0:
256,192,72438,1,0,0:0:0:0:
256,192,72652,1,0,0:0:0:0:
256,192,72867,1,8,0:0:0:0:
256,192,73295,1,0,0:0:0:0:
256,192,73510,1,0,0:0:0:0:
256,192,73938,1,2,0:0:0:0:
256,192,74152,1,0,0:0:0:0:
256,192,74367,1,0,0:0:0:0:
256,192,74581,1,2,0:0:0:0:
256,192,75010,1,0,0:0:0:0:
256,192,75117,1,0,0:0:0:0:
256,192,75224,1,0,0:0:0:0:
256,192,75331,1,0,0:0:0:0:
256,192,75438,1,0,0:0:0:0:
256,192,75867,1,2,0:0:0:0:
256,192,76081,1,0,0:0:0:0:
256,192,76295,1,2,0:0:0:0:
256,192,76724,1,0,0:0:0:0:
256,192,76938,1,0,0:0:0:0:
256,192,77152,1,4,0:0:0:0:
256,192,77581,1,0,0:0:0:0:
256,192,78010,1,8,0:0:0:0:
256,192,78438,1,0,0:0:0:0:
256,192,78867,1,4,0:0:0:0:
256,192,79510,1,0,0:0:0:0:
256,192,79724,1,8,0:0:0:0:
256,192,80152,1,0,0:0:0:0:
256,192,80367,1,2,0:0:0:0:
256,192,80581,1,2,0:0:0:0:
256,192,80795,1,2,0:0:0:0:
256,192,80902,1,2,0:0:0:0:
256,192,81010,1,0,0:0:0:0:
256,192,81438,1,2,0:0:0:0:
256,192,81867,1,0,0:0:0:0:
256,192,82081,1,2,0:0:0:0:
256,192,96010,5,4,0:0:0:0:
256,192,96224,1,0,0:0:0:0:
256,192,96438,1,2,0:0:0:0:
256,192,96652,1,0,0:0:0:0:
256,192,96867,1,2,0:0:0:0:
256,192,97081,1,0,0:0:0:0:
256,192,97295,1,0,0:0:0:0:
256,192,97510,1,4,0:0:0:0:
256,192,97724,1,0,0:0:0:0:
256,192,97938,1,0,0:0:0:0:
256,192,98152,1,10,0:0:0:0:
256,192,98581,1,2,0:0:0:0:
256,192,98795,1,2,0:0:0:0:
256,192,99010,1,0,0:0:0:0:
256,192,99224,1,0,0:0:0:0:
256,192,99438,1,4,0:0:0:0:
256,192,99867,1,2,0:0:0:0:
256,192,99974,1,2,0:0:0:0:
256,192,100081,1,0,0:0:0:0:
256,192,100295,1,2,0:0:0:0:
256,192,100510,1,0,0:0:0:0:
256,192,100724,1,0,0:0:0:0:
256,192,100938,1,8,0:0:0:0:
256,192,101152,1,0,0:0:0:0:
256,192,101367,1,0,0:0:0:0:
256,192,101474,1,0,0:0:0:0:
256,192,101581,1,2,0:0:0:0:
256,192,101795,1,0,0:0:0:0:
256,192,102010,1,2,0:0:0:0:
256,192,102224,1,0,0:0:0:0:
256,192,102438,1,0,0:0:0:0:
256,192,102652,1,0,0:0:0:0:
256,192,102867,1,4,0:0:0:0:
256,192,103081,1,0,0:0:0:0:
256,192,103295,1,8,0:0:0:0:
256,192,103510,1,4,0:0:0:0:
256,192,103724,1,8,0:0:0:0:
256,192,103938,1,8,0:0:0:0:
256,192,104152,1,0,0:0:0:0:
256,192,104367,1,0,0:0:0:0:
256,192,104581,1,4,0:0:0:0:
256,192,105010,1,0,0:0:0:0:
256,192,105224,1,8,0:0:0:0:
256,192,105438,1,8,0:0:0:0:
256,192,105867,1,0,0:0:0:0:
256,192,105974,1,0,0:0:0:0:
256,192,106081,1,0,0:0:0:0:
256,192,106295,1,0,0:0:0:0:
256,192,106724,1,0,0:0:0:0:
256,192,106938,1,8,0:0:0:0:
256,192,107152,1,8,0:0:0:0:
256,192,107581,1,0,0:0:0:0:
256,192,107795,1,0,0:0:0:0:
256,192,108010,1,0,0:0:0:0:
256,192,108438,1,0,0:0:0:0:
256,192,108867,1,2,0:0:0:0:
256,192,109295,1,0,0:0:0:0:
256,192,109724,1,4,0:0:0:0:
256,192,109938,1,0,0:0:0:0:
256,192,110152,1,2,0:0:0:0:
256,192,110366,1,0,0:0:0:0:
256,192,110581,1,2,0:0:0:0:
256,192,110795,1,0,0:0:0:0:
256,192,111009,1,0,0:0:0:0:
256,192,111224,1,4,0:0:0:0:
256,192,111438,1,0,0:0:0:0:
256,192,111652,1,0,0:0:0:0:
256,192,111866,1,10,0:0:0:0:
256,192,112295,1,2,0:0:0:0:
256,192,112509,1,2,0:0:0:0:
256,192,112617,1,0,0:0:0:0:
256,192,112724,1,0,0:0:0:0:
256,192,112938,1,0,0:0:0:0:
256,192,113152,1,4,0:0:0:0:
256,192,113581,1,2,0:0:0:0:
256,192,113688,1,2,0:0:0:0:
256,192,113795,1,0,0:0:0:0:
256,192,114009,1,2,0:0:0:0:
256,192,114224,1,0,0:0:0:0:
256,192,114438,1,0,0:0:0:0:
256,192,114652,1,8,0:0:0:0:
256,192,114866,1,0,0:0:0:0:
256,192,115081,1,0,0:0:0:0:
256,192,115188,1,0,0:0:0:0:
256,192,115295,1,2,0:0:0:0:
256,192,115509,1,0,0:0:0:0:
256,192,115724,1,2,0:0:0:0:
256,192,115938,1,0,0:0:0:0:
256,192,116152,1,0,0:0:0:0:
256,192,116366,1,0,0:0:0:0:
256,192,116581,1,4,0:0:0:0:
256,192,116795,1,0,0:0:0:0:
256,192,117009,1,8,0:0:0:0:
256,192,117224,1,0,0:0:0:0:
256,192,117331,1,0,0:0:0:0:
256,192,117438,1,8,0:0:0:0:
256,192,117652,1,8,0:0:0:0:
256,192,117866,1,0,0:0:0:0:
256,192,118081,1,0,0:0:0:0:
256,192,118295,1,4,0:0:0:0:
256,192,118724,1,0,0:0:0:0:
256,192,118938,1,8,0:0:0:0:
256,192,119152,1,8,0:0:0:0:
256,192,119581,1,0,0:0:0:0:
256,192,119688,1,0,0:0:0:0:
256,192,119795,1,0,0:0:0:0:
256,192,120009,1,0,0:0:0:0:
256,192,120438,1,0,0:0:0:0:
256,192,120652,1,8,0:0:0:0:
256,192,120866,1,8,0:0:0:0:
256,192,121081,1,8,0:0:0:0:
256,192,121295,1,0,0:0:0:0:
256,192,121509,1,0,0:0:0:0:
256,192,121617,1,0,0:0:0:0:
256,192,121724,1,0,0:0:0:0:
256,192,122152,1,0,0:0:0:0:
256,192,122581,1,2,0:0:0:0:
256,192,123009,1,0,0:0:0:0:
256,192,123438,1,2,0:0:0:0:
256,192,125152,1,2,0:0:0:0:
256,192,126010,1,10,0:0:0:0:
256,192,126867,1,0,0:0:0:0:
256,192,127724,1,8,0:0:0:0:
256,192,128581,1,0,0:0:0:0:
256,192,129438,1,8,0:0:0:0:
256,192,130295,1,0,0:0:0:0:
256,192,130938,1,0,0:0:0:0:
256,192,131152,1,8,0:0:0:0:
256,192,131581,1,8,0:0:0:0:
256,192,131795,1,0,0:0:0:0:
256,192,132224,1,0,0:0:0:0:
256,192,132331,1,0,0:0:0:0:
256,192,132438,1,0,0:0:0:0:
256,192,132867,1,8,0:0:0:0:
256,192,133295,1,8,0:0:0:0:
256,192,133510,1,8,0:0:0:0:
256,192,133617,1,8,0:0:0:0:
256,192,133724,1,0,0:0:0:0:
256,192,134152,1,0,0:0:0:0:
256,192,134367,1,0,0:0:0:0:
256,192,134581,1,8,0:0:0:0:
256,192,135010,1,0,0:0:0:0:
256,192,135224,1,0,0:0:0:0:
256,192,135652,1,0,0:0:0:0:
256,192,135867,1,8,0:0:0:0:
256,192,136295,1,8,0:0:0:0:
256,192,136724,1,0,0:0:0:0:
256,192,136938,1,0,0:0:0:0:
256,192,137152,1,4,0:0:0:0:
256,192,137581,1,0,0:0:0:0:
256,192,137795,1,0,0:0:0:0:
256,192,138010,1,8,0:0:0:0:
256,192,138224,1,0,0:0:0:0:
256,192,138438,1,0,0:0:0:0:
256,192,138652,1,0,0:0:0:0:
256,192,138867,1,2,0:0:0:0:
256,192,139295,1,0,0:0:0:0:
256,192,139510,1,0,0:0:0:0:
256,192,139724,1,8,0:0:0:0:
256,192,140152,1,0,0:0:0:0:
256,192,140259,1,0,0:0:0:0:
256,192,140367,1,0,0:0:0:0:
256,192,140581,1,0,0:0:0:0:
256,192,141010,1,0,0:0:0:0:
256,192,141224,1,8,0:0:0:0:
256,192,141438,1,0,0:0:0:0:
256,192,141867,1,0,0:0:0:0:
256,192,142081,1,0,0:0:0:0:
256,192,142724,1,0,0:0:0:0:
256,192,143152,1,2,0:0:0:0:
256,192,143581,1,0,0:0:0:0:
256,192,143795,1,0,0:0:0:0:
256,192,144010,1,4,0:0:0:0:
256,192,144652,1,0,0:0:0:0:
256,192,144867,1,8,0:0:0:0:
256,192,145295,1,0,0:0:0:0:
256,192,145510,1,0,0:0:0:0:
256,192,145724,1,2,0:0:0:0:
256,192,146152,1,0,0:0:0:0:
256,192,146367,1,8,0:0:0:0:
256,192,146581,1,2,0:0:0:0:
256,192,147010,1,0,0:0:0:0:
256,192,147224,1,0,0:0:0:0:
256,192,147438,1,0,0:0:0:0:
256,192,147652,1,0,0:0:0:0:
256,192,147867,1,8,0:0:0:0:
256,192,148081,1,0,0:0:0:0:
256,192,148295,1,8,0:0:0:0:
256,192,148724,1,0,0:0:0:0:
256,192,148938,1,8,0:0:0:0:
256,192,149152,1,0,0:0:0:0:
256,192,149581,1,0,0:0:0:0:
256,192,149795,1,2,0:0:0:0:
256,192,150010,1,0,0:0:0:0:
256,192,150438,1,0,0:0:0:0:
256,192,150652,1,0,0:0:0:0:
256,192,150867,1,4,0:0:0:0:
256,192,151188,1,8,0:0:0:0:
256,192,151295,1,8,0:0:0:0:
256,192,151510,1,8,0:0:0:0:
256,192,151724,1,10,0:0:0:0:
256,192,151938,1,0,0:0:0:0:
256,192,152152,1,0,0:0:0:0:
256,192,152367,1,2,0:0:0:0:
256,192,152474,1,2,0:0:0:0:
256,192,152581,1,2,0:0:0:0:
256,192,152902,1,2,0:0:0:0:
256,192,153010,1,0,0:0:0:0:
256,192,153224,1,0,0:0:0:0:
256,192,153438,1,8,0:0:0:0:
256,192,153652,1,0,0:0:0:0:
256,192,153760,1,0,0:0:0:0:
256,192,153867,1,8,0:0:0:0:
256,192,154081,1,8,0:0:0:0:
256,192,154295,1,4,0:0:0:0:
256,192,154510,1,0,0:0:0:0:
256,192,154724,1,2,0:0:0:0:
256,192,154938,1,0,0:0:0:0:
256,192,155152,1,8,0:0:0:0:
256,192,155474,1,8,0:0:0:0:
256,192,155581,1,0,0:0:0:0:
256,192,155795,1,0,0:0:0:0:
256,192,156010,1,0,0:0:0:0:
256,192,156224,1,2,0:0:0:0:
256,192,156438,1,0,0:0:0:0:
256,192,156867,1,2,0:0:0:0:
256,192,157081,1,0,0:0:0:0:
256,192,157510,1,2,0:0:0:0:
256,192,157617,1,0,0:0:0:0:
256,192,157724,1,0,0:0:0:0:
256,192,158152,1,0,0:0:0:0:
256,192,158367,1,8,0:0:0:0:
256,192,158581,1,0,0:0:0:0:
256,192,159010,1,0,0:0:0:0:
256,192,159224,1,0,0:0:0:0:
256,192,159438,1,0,0:0:0:0:
256,192,159867,1,0,0:0:0:0:
256,192,160081,1,8,0:0:0:0:
256,192,160295,1,0,0:0:0:0:
256,192,160724,1,0,0:0:0:0:
256,192,160938,1,0,0:0:0:0:
256,192,161152,1,4,0:0:0:0:
256,192,161795,1,0,0:0:0:0:
256,192,162010,1,8,0:0:0:0:
256,192,162438,1,0,0:0:0:0:
256,192,162652,1,0,0:0:0:0:
256,192,162867,1,2,0:0:0:0:
256,192,163295,1,0,0:0:0:0:
256,192,163510,1,2,0:0:0:0:
256,192,163724,1,0,0:0:0:0:
256,192,178295,5,4,0:0:0:0:
256,192,178509,1,0,0:0:0:0:
256,192,178723,1,2,0:0:0:0:
256,192,178937,1,0,0:0:0:0:
256,192,179152,1,2,0:0:0:0:
256,192,179366,1,0,0:0:0:0:
256,192,179580,1,0,0:0:0:0:
256,192,179795,1,4,0:0:0:0:
256,192,180009,1,0,0:0:0:0:
256,192,180117,1,0,0:0:0:0:
256,192,180223,1,0,0:0:0:0:
256,192,180438,1,4,0:0:0:0:
256,192,180866,1,2,0:0:0:0:
256,192,181080,1,2,0:0:0:0:
256,192,181295,1,0,0:0:0:0:
256,192,181509,1,0,0:0:0:0:
256,192,181617,1,8,0:0:0:0:
256,192,181723,1,4,0:0:0:0:
256,192,182152,1,2,0:0:0:0:
256,192,182259,1,2,0:0:0:0:
256,192,182366,1,0,0:0:0:0:
256,192,182580,1,2,0:0:0:0:
256,192,182795,1,0,0:0:0:0:
256,192,182902,1,0,0:0:0:0:
256,192,183009,1,0,0:0:0:0:
256,192,183223,1,8,0:0:0:0:
256,192,183437,1,0,0:0:0:0:
256,192,183652,1,0,0:0:0:0:
256,192,183759,1,0,0:0:0:0:
256,192,183866,1,2,0:0:0:0:
256,192,184080,1,0,0:0:0:0:
256,192,184295,1,2,0:0:0:0:
256,192,184509,1,0,0:0:0:0:
256,192,184723,1,0,0:0:0:0:
256,192,184937,1,0,0:0:0:0:
256,192,185152,1,4,0:0:0:0:
256,192,185366,1,0,0:0:0:0:
256,192,185580,1,8,0:0:0:0:
256,192,185795,1,4,0:0:0:0:
256,192,186009,1,8,0:0:0:0:
256,192,186223,1,8,0:0:0:0:
256,192,186437,1,0,0:0:0:0:
256,192,186545,1,0,0:0:0:0:
256,192,186652,1,2,0:0:0:0:
256,192,186866,1,4,0:0:0:0:
256,192,187295,1,0,0:0:0:0:
256,192,187509,1,8,0:0:0:0:
256,192,187723,1,8,0:0:0:0:
256,192,188152,1,0,0:0:0:0:
256,192,188259,1,0,0:0:0:0:
256,192,188366,1,0,0:0:0:0:
256,192,188580,1,0,0:0:0:0:
256,192,189009,1,0,0:0:0:0:
256,192,189223,1,8,0:0:0:0:
256,192,189331,1,8,0:0:0:0:
256,192,189437,1,8,0:0:0:0:
256,192,189866,1,0,0:0:0:0:
256,192,190080,1,0,0:0:0:0:
256,192,190295,1,0,0:0:0:0:
256,192,190723,1,0,0:0:0:0:
256,192,191152,1,2,0:0:0:0:
256,192,191580,1,0,0:0:0:0:
256,192,192009,1,4,0:0:0:0:
256,192,192223,1,0,0:0:0:0:
256,192,192437,1,2,0:0:0:0:
256,192,192651,1,0,0:0:0:0:
256,192,192866,1,2,0:0:0:0:
256,192,193080,1,0,0:0:0:0:
256,192,193294,1,0,0:0:0:0:
256,192,193509,1,4,0:0:0:0:
256,192,193723,1,0,0:0:0:0:
256,192,193937,1,0,0:0:0:0:
256,192,194151,1,10,0:0:0:0:
256,192,194580,1,2,0:0:0:0:
256,192,194794,1,2,0:0:0:0:
256,192,194902,1,0,0:0:0:0:
256,192,195009,1,0,0:0:0:0:
256,192,195223,1,0,0:0:0:0:
256,192,195331,1,8,0:0:0:0:
256,192,195437,1,4,0:0:0:0:
256,192,195866,1,2,0:0:0:0:
256,192,195973,1,2,0:0:0:0:
256,192,196080,1,0,0:0:0:0:
256,192,196294,1,2,0:0:0:0:
256,192,196509,1,0,0:0:0:0:
256,192,196723,1,0,0:0:0:0:
256,192,196937,1,8,0:0:0:0:
256,192,197151,1,0,0:0:0:0:
256,192,197366,1,0,0:0:0:0:
256,192,197473,1,0,0:0:0:0:
256,192,197580,1,2,0:0:0:0:
256,192,197794,1,0,0:0:0:0:
256,192,198009,1,2,0:0:0:0:
256,192,198223,1,0,0:0:0:0:
256,192,198437,1,0,0:0:0:0:
256,192,198651,1,0,0:0:0:0:
256,192,198866,1,4,0:0:0:0:
256,192,199080,1,0,0:0:0:0:
256,192,199294,1,8,0:0:0:0:
256,192,199509,1,4,0:0:0:0:
256,192,199616,1,2,0:0:0:0:
256,192,199723,1,8,0:0:0:0:
256,192,199937,1,8,0:0:0:0:
256,192,200151,1,0,0:0:0:0:
256,192,200260,1,0,0:0:0:0:
256,192,200366,1,0,0:0:0:0:
256,192,200580,1,4,0:0:0:0:
256,192,201009,1,0,0:0:0:0:
256,192,201223,1,8,0:0:0:0:
256,192,201437,1,8,0:0:0:0:
256,192,201866,1,0,0:0:0:0:
256,192,201973,1,0,0:0:0:0:
256,192,202080,1,0,0:0:0:0:
256,192,202294,1,0,0:0:0:0:
256,192,202723,1,0,0:0:0:0:
256,192,202937,1,8,0:0:0:0:
256,192,203151,1,8,0:0:0:0:
256,192,203580,1,0,0:0:0:0:
256,192,203794,1,0,0:0:0:0:
256,192,204009,1,0,0:0:0:0:
256,192,204437,1,0,0:0:0:0:
256,192,204866,1,2,0:0:0:0:
256,192,205294,1,0,0:0:0:0:
256,192,205456,1,0,0:0:0:0:
256,192,205590,1,0,0:0:0:0:
256,192,205723,1,2,0:0:0:0:
256,192,212581,5,0,0:0:0:0:
256,192,213438,1,0,0:0:0:0:
256,192,214295,1,0,0:0:0:0:
256,192,215152,1,0,0:0:0:0:
256,192,216010,1,0,0:0:0:0:
256,192,216438,1,0,0:0:0:0:
256,192,216867,1,0,0:0:0:0:
256,192,217295,1,0,0:0:0:0:
256,192,217724,1,0,0:0:0:0:
256,192,218152,1,0,0:0:0:0:
256,192,218581,1,0,0:0:0:0:
256,192,219010,1,0,0:0:0:0:
256,192,219438,1,10,0:0:0:0:
