osu file format v14

[General]
AudioFilename: audio.mp3
AudioLeadIn: 0
PreviewTime: 15757
Countdown: 0
SampleSet: Normal
StackLeniency: 0.7
Mode: 0
LetterboxInBreaks: 0
WidescreenStoryboard: 1

[Editor]
DistanceSpacing: 1.7
BeatDivisor: 4
GridSize: 32
TimelineZoom: 1.8

[Metadata]
Title:in luv w u
TitleUnicode:in luv w u
Artist:pxzvc ft. shiloh dynasty
ArtistUnicode:pxzvc ft. shiloh dynasty
Creator:phoneetic
Version:hard
Source:
Tags:
BeatmapID:1918928
BeatmapSetID:918987

[Difficulty]
HPDrainRate:7
CircleSize:4
OverallDifficulty:6
ApproachRate:7
SliderMultiplier:1.4
SliderTickRate:1

[Events]
//Background and Video events
0,0,"lunchspeedy18+(2)24.jpg",0,0
//Break Periods
//Storyboard Layer 0 (Background)
//Storyboard Layer 1 (Fail)
//Storyboard Layer 2 (Pass)
//Storyboard Layer 3 (Foreground)
//Storyboard Sound Samples

[TimingPoints]
39,491.19754601227,4,3,1,5,1,0
39,-100,4,3,1,5,0,0
6915,-76.9230769230769,4,3,1,5,0,0
8880,-76.9230769230769,4,3,1,27,0,0
8941,-76.9230769230769,4,3,1,5,0,0
10783,-76.9230769230769,4,3,1,27,0,0
10906,-76.9230769230769,4,3,1,5,0,0
12748,-76.9230769230769,4,3,1,25,0,0
12871,-76.9230769230769,4,3,1,5,0,0
14774,-76.9230769230769,4,3,1,28,0,0
15757,491.19754601227,4,3,1,28,1,1
15757,-66.6666666666667,4,3,1,28,0,1
22633,-52.6315789473684,4,3,1,28,0,1
23616,-66.6666666666667,4,3,1,28,0,1
46211,-66.6666666666667,4,3,2,28,0,1
46579,-66.6666666666667,4,3,1,28,0,1
47193,-100,4,3,1,28,0,0
47316,-100,4,3,1,24,0,0
47439,-100,4,3,1,20,0,0
47562,-100,4,3,1,16,0,0
47684,-100,4,3,1,12,0,0
47807,-100,4,3,1,8,0,0
47930,-100,4,3,1,7,0,0
48053,-100,4,3,1,6,0,0
48176,-100,4,3,1,5,0,0
51123,-100,4,3,1,5,0,0

[HitObjects]
51,84,39,6,0,P|140:62|144:60,1,70,0|0,0:0|0:0,0:0:0:0:
202,44,530,1,0,0:0:0:0:
248,115,775,2,0,L|226:213,1,70,0|0,0:0|0:0,0:0:0:0:
320,42,1512,1,0,2:0:0:0:
232,183,2003,1,0,0:0:0:0:
370,64,2494,6,0,P|398:122|399:150,2,70,0|0|0,0:0|0:0|0:0,0:0:0:0:
64,80,3477,1,0,0:0:0:0:
241,62,3968,2,0,P|308:71|380:127,1,140,0|0,0:0|0:0,0:0:0:0:
341,238,4705,1,0,0:0:0:0:
233,311,4950,6,0,P|184:316|149:315,1,70,0|0,0:0|0:0,0:0:0:0:
155,149,5442,2,0,P|204:144|239:145,1,70,0|0,0:0|0:0,0:0:0:0:
381,285,5933,1,0,0:0:0:0:
283,232,6178,1,0,0:0:0:0:
196,307,6424,1,0,0:0:0:0:
401,67,6915,6,0,P|338:113|289:109,1,90.9999958343508,0|0,0:0|0:0,0:0:0:0:
327,114,7406,2,0,P|358:81|401:67,1,90.9999958343508,0|0,0:0|0:0,0:0:0:0:
241,182,7898,2,0,P|234:245|340:342,1,181.999991668702,0|0,0:0|0:0,0:0:0:0:
358,234,8634,1,0,0:0:0:0:
100,277,8880,6,0,P|209:268|299:205,1,181.999991668702,8|0,0:0|0:0,0:0:0:0:
144,75,9617,1,0,0:0:0:0:
326,30,9862,2,0,B|416:61|416:61|478:135,1,181.999991668702,0|0,0:0|0:0,0:0:0:0:
377,171,10599,1,0,0:0:0:0:
275,137,10845,5,8,0:0:0:0:
25,152,11336,2,0,P|71:140|127:161,1,90.9999958343508,0|0,0:0|0:0,0:0:0:0:
172,244,11827,1,0,0:0:0:0:
333,66,12318,5,0,0:0:0:0:
339,200,12564,1,0,0:0:0:0:
225,140,12810,1,8,0:0:0:0:
97,311,13301,1,0,0:0:0:0:
128,311,13792,1,0,0:0:0:0:
351,63,14283,5,0,0:0:0:0:
196,158,14774,2,0,L|290:166,1,90.9999958343508,8|0,0:0|0:0,0:0:0:0:
82,251,15266,2,0,L|176:259,1,90.9999958343508,0|0,0:0|0:0,0:0:0:0:
83,36,15757,2,0,P|135:128|254:147,1,210.000008010865,4|0,0:0|0:0,0:0:0:0:
344,73,16493,2,0,L|425:59,2,52.5000020027161,4|0|8,0:0|0:0|0:0,0:0:0:0:
309,319,16984,6,0,P|359:273|391:218,1,105.000004005432,4|4,0:0|0:0,0:0:0:0:
442,149,17476,2,0,P|387:134|302:158,1,105.000004005432,0|0,0:0|0:0,0:0:0:0:
124,208,17967,2,0,P|121:196|147:218,1,105.000004005432,4|4,0:0|0:0,0:0:0:0:
233,64,18458,5,0,0:0:0:0:
289,82,18581,1,0,0:0:0:0:
345,100,18704,1,8,0:0:0:0:
454,189,18949,2,0,B|418:178|418:178|354:196,1,105.000004005432,0|4,0:0|0:0,0:0:0:0:
100,279,19440,5,0,0:0:0:0:
259,288,19686,1,4,0:0:0:0:
190,113,19932,1,0,0:0:0:0:
190,113,20177,2,0,P|260:85|330:110,1,105.000004005432,4|0,0:0|0:0,0:0:0:0:
348,164,20668,6,0,P|291:111|297:46,1,105.000004005432,8|4,0:0|0:0,0:0:0:0:
166,217,21160,2,0,P|237:233|273:224,1,105.000004005432,4|8,0:0|0:0,0:0:0:0:
427,166,21651,2,0,P|356:150|320:159,1,105.000004005432,0|8,0:0|0:0,0:0:0:0:
191,169,22142,5,4,0:0:0:0:
100,83,22388,1,0,0:0:0:0:
127,301,22633,2,0,P|216:289|264:295,1,132.999996448517,8|0,0:0|0:0,0:0:0:0:
309,103,23124,2,0,L|378:138,2,66.4999982242585,8|0|0,0:0|0:0|0:0,0:0:0:0:
90,137,23616,6,0,P|170:139|202:163,2,105.000004005432,4|0|0,0:0|0:0|0:0,0:0:0:0:
273,222,24352,2,0,L|316:243,2,26.2500010013581,4|0|0,0:0|0:0|0:0,0:0:0:0:
305,254,24598,2,0,P|223:252|202:241,1,105.000004005432,8|0,0:0|0:0,0:0:0:0:
107,188,25089,1,4,0:0:0:0:
89,86,25335,6,0,P|160:73|203:89,1,105.000004005432,0|0,0:0|0:0,0:0:0:0:
261,163,25826,2,0,P|312:173|363:159,1,105.000004005432,4|4,0:0|0:0,0:0:0:0:
248,223,26317,5,0,0:0:0:0:
298,328,26563,2,0,P|306:255|283:227,1,105.000004005432,8|0,0:0|0:0,0:0:0:0:
464,315,27054,2,0,L|443:301,3,26.2500010013581,4|0|0|0,0:0|0:0|0:0|0:0,0:0:0:0:
430,321,27300,2,0,L|409:307,3,26.2500010013581,0|0|0|0,0:0|0:0|0:0|0:0,0:0:0:0:
386,299,27545,6,0,P|408:217|410:166,1,105.000004005432,4|0,0:0|0:0,0:0:0:0:
401,98,27914,1,0,0:0:0:0:
382,73,28036,1,4,0:0:0:0:
104,196,28282,1,0,0:0:0:0:
381,195,28528,1,8,0:0:0:0:
243,326,28773,5,4,0:0:0:0:
260,72,29019,1,4,0:0:0:0:
238,101,29264,6,0,P|193:153|176:201,1,105.000004005432,8|0,0:0|0:0,0:0:0:0:
213,231,29756,2,0,P|274:236|341:229,1,105.000004005432,8|4,0:0|0:0,0:0:0:0:
348,98,30247,1,0,0:0:0:0:
116,73,30492,2,0,L|136:40,3,26.2500010013581,2|2|2|0,3:3|3:3|3:3|0:0,0:0:0:0:
234,75,30984,2,0,L|254:42,3,26.2500010013581,2|2|2|0,3:3|3:3|3:3|0:0,0:0:0:0:
52,148,31475,6,0,P|138:185|181:176,1,105.000004005432,4|0,0:0|0:0,0:0:0:0:
281,84,31966,2,0,P|351:85|398:109,1,105.000004005432,0|4,0:0|0:0,0:0:0:0:
411,138,32457,2,0,L|482:130,2,52.5000020027161,8|0|4,0:0|0:0|0:0,0:0:0:0:
371,309,32948,5,4,0:0:0:0:
298,115,33194,1,0,0:0:0:0:
169,287,33440,5,0,0:0:0:0:
223,260,33562,1,0,0:0:0:0:
276,237,33685,1,4,0:0:0:0:
333,256,33931,2,0,P|259:219|243:161,1,105.000004005432,4|0,0:0|0:0,0:0:0:0:
320,133,34422,6,0,P|295:178|249:202,1,105.000004005432,8|0,0:0|0:0,0:0:0:0:
260,65,34913,2,0,L|226:98,3,26.2500010013581,4|0|0|0,0:0|0:0|0:0|0:0,0:0:0:0:
210,57,35159,2,0,L|176:90,4,26.2500010013581,0|0|0|0|4,0:0|0:0|0:0|0:0|0:0,0:0:0:0:
128,128,35650,6,0,P|116:212|134:246,1,105.000004005432,0|4,0:0|0:0,0:0:0:0:
199,291,36141,2,0,P|268:277|312:286,1,105.000004005432,0|8,0:0|0:0,0:0:0:0:
345,209,36632,2,0,P|385:263|456:294,1,105.000004005432,4|4,0:0|0:0,0:0:0:0:
412,158,37124,2,0,P|452:212|523:243,1,105.000004005432,8|0,0:0|0:0,0:0:0:0:
346,59,37615,2,0,P|410:79|485:62,1,105.000004005432,8|4,0:0|0:0,0:0:0:0:
253,292,38106,5,0,0:0:0:0:
150,127,38352,2,0,P|219:154|262:124,1,105.000004005432,8|0,0:0|0:0,0:0:0:0:
243,143,38843,2,0,P|174:116|131:146,1,105.000004005432,8|8,0:0|0:0,0:0:0:0:
293,217,39334,2,0,L|258:296,2,52.5000020027161,4|0|0,0:0|0:0|0:0,0:0:0:0:
324,112,39825,6,0,P|391:100|439:120,1,105.000004005432,0|4,0:0|0:0,0:0:0:0:
374,181,40316,2,0,L|369:305,1,105.000004005432,8|0,0:0|0:0,0:0:0:0:
276,227,40808,1,4,0:0:0:0:
465,254,41053,1,0,0:0:0:0:
260,198,41299,6,0,P|201:176|141:181,1,105.000004005432,0|4,0:0|0:0,0:0:0:0:
146,117,41790,2,0,P|93:115|45:95,1,105.000004005432,4|0,0:0|0:0,0:0:0:0:
224,86,42281,5,8,0:0:0:0:
283,253,42527,1,0,0:0:0:0:
452,306,42772,5,4,0:0:0:0:
393,139,43018,1,0,0:0:0:0:
156,156,43264,2,0,P|212:115|253:97,1,105.000004005432,4|0,0:0|0:0,0:0:0:0:
61,88,43755,1,4,0:0:0:0:
309,252,44000,1,0,0:0:0:0:
33,183,44246,5,8,0:0:0:0:
350,187,44492,1,4,0:0:0:0:
69,167,44737,1,4,0:0:0:0:
305,213,44983,1,8,0:0:0:0:
119,130,45228,6,0,P|176:152|246:138,1,105.000004005432,0|8,0:0|0:0,0:0:0:0:
268,175,45720,2,0,P|256:226|263:278,1,105.000004005432,4|0,0:0|0:0,0:0:0:0:
393,157,46211,6,0,P|398:156|378:181,1,105.000004005432,4|0,2:0|2:0,0:0:0:0:
378,182,46702,2,0,P|373:183|393:158,1,105.000004005432,8|8,0:0|0:0,0:0:0:0:
256,192,47193,12,0,51246,0:0:0:0:
