osu file format v14

[General]
AudioFilename: audio.mp3
AudioLeadIn: 0
PreviewTime: 190
Countdown: 0
SampleSet: Normal
StackLeniency: 0
Mode: 1
LetterboxInBreaks: 0
WidescreenStoryboard: 0

[Editor]
DistanceSpacing: 1.1
BeatDivisor: 2
GridSize: 32
TimelineZoom: 1

[Metadata]
Title:killer fish from mario paint
TitleUnicode:killer fish from mario paint
Artist:puz
ArtistUnicode:puz
Creator:liku
Version:san diego
Source:マリオペイント
Tags:english novelty electronic video game instrumental ytpmv mario paint creative exercise Hirokazu Tanaka 田中 宏和 Ryoji Yoshitomi 吉冨 亮二 Kazumi Totaka 戸高 一生
BeatmapID:4039502
BeatmapSetID:1950903

[Difficulty]
HPDrainRate:9.5
CircleSize:5
OverallDifficulty:4
ApproachRate:5
SliderMultiplier:1.4
SliderTickRate:1

[Events]
//Background and Video events
Video,0,"output.mp4"
0,0,"i dont know what i am but i taste pretty good.jpg",0,40
//Break Periods
//Storyboard Layer 0 (Background)
//Storyboard Layer 1 (Fail)
//Storyboard Layer 2 (Pass)
//Storyboard Layer 3 (Foreground)
//Storyboard Layer 4 (Overlay)
//Storyboard Sound Samples

[TimingPoints]
190.245229007633,455.062571103527,4,1,0,50,1,0

[HitObjects]
256,192,190,5,0,0:0:0:0:
256,192,645,1,0,0:0:0:0:
256,192,1100,1,8,0:0:0:0:
256,192,1555,1,0,0:0:0:0:
256,192,2010,1,8,0:0:0:0:
256,192,2238,1,8,0:0:0:0:
256,192,2465,1,0,0:0:0:0:
256,192,2693,1,8,0:0:0:0:
253,192,3830,1,8,0:0:0:0:
253,192,4058,1,8,0:0:0:0:
253,192,4285,1,0,0:0:0:0:
253,192,4513,1,8,0:0:0:0:
253,192,5650,1,8,0:0:0:0:
253,192,5878,1,0,0:0:0:0:
253,192,6106,1,0,0:0:0:0:
253,192,6333,1,8,0:0:0:0:
253,192,7471,1,0,0:0:0:0:
253,192,7926,1,0,0:0:0:0:
253,192,8381,1,8,0:0:0:0:
253,192,8836,1,0,0:0:0:0:
193,215,9063,1,0,0:0:0:0:
253,192,9291,1,8,0:0:0:0:
253,192,9519,1,8,0:0:0:0:
253,192,9746,1,0,0:0:0:0:
253,192,9974,1,8,0:0:0:0:
193,215,10656,1,8,0:0:0:0:
193,215,10884,1,0,0:0:0:0:
253,192,11111,1,8,0:0:0:0:
256,192,11339,1,8,0:0:0:0:
256,192,11566,1,0,0:0:0:0:
256,192,11794,1,8,0:0:0:0:
193,215,12476,1,0,0:0:0:0:
193,215,12704,1,0,0:0:0:0:
256,192,12931,1,8,0:0:0:0:
256,192,13159,1,0,0:0:0:0:
256,192,13387,1,0,0:0:0:0:
256,192,13614,1,8,0:0:0:0:
256,192,14752,1,8,0:0:0:0:
256,192,15207,1,0,0:0:0:0:
256,192,15662,1,8,0:0:0:0:
256,192,16117,1,8,0:0:0:0:
256,192,16572,1,0,0:0:0:0:
256,192,17027,1,0,0:0:0:0:
256,192,17255,1,8,0:0:0:0:
256,192,18392,1,8,0:0:0:0:
256,192,18847,1,0,0:0:0:0:
256,192,19075,1,8,0:0:0:0:
256,192,19757,1,8,0:0:0:0:
256,192,20212,1,0,0:0:0:0:
256,192,20668,1,0,0:0:0:0:
256,192,20895,1,8,0:0:0:0:
256,192,22033,1,8,0:0:0:0:
256,192,22260,1,0,0:0:0:0:
256,192,22488,1,8,0:0:0:0:
256,192,22715,1,0,0:0:0:0:
256,192,22943,1,8,0:0:0:0:
256,192,23398,1,8,0:0:0:0:
256,192,23853,1,0,0:0:0:0:
256,192,24308,1,0,0:0:0:0:
256,192,24763,1,8,0:0:0:0:
256,192,24991,1,0,0:0:0:0:
256,192,25218,1,8,0:0:0:0:
256,192,25446,1,8,0:0:0:0:
256,192,25673,1,8,0:0:0:0:
256,192,26128,1,0,0:0:0:0:
256,192,26356,1,8,0:0:0:0:
256,192,26811,1,0,0:0:0:0:
256,192,27038,1,8,0:0:0:0:
256,192,27266,1,8,0:0:0:0:
256,192,27493,1,0,0:0:0:0:
256,192,28176,1,0,0:0:0:0:
256,192,28404,1,0,0:0:0:0:
256,192,28631,1,0,0:0:0:0:
256,192,28859,1,8,0:0:0:0:
256,192,29086,1,0,0:0:0:0:
256,192,29314,1,8,0:0:0:0:
256,192,29769,1,8,0:0:0:0:
256,192,29996,1,0,0:0:0:0:
256,192,30224,1,8,0:0:0:0:
256,192,30679,1,0,0:0:0:0:
256,192,30906,1,0,0:0:0:0:
256,192,31134,1,8,0:0:0:0:
256,192,31589,1,8,0:0:0:0:
256,192,31817,1,0,0:0:0:0:
256,192,32044,1,8,0:0:0:0:
256,192,32272,1,8,0:0:0:0:
256,192,32499,1,0,0:0:0:0:
256,192,32727,1,0,0:0:0:0:
256,192,32954,1,8,0:0:0:0:
256,192,33409,1,8,0:0:0:0:
256,192,33637,1,0,0:0:0:0:
256,192,33864,1,8,0:0:0:0:
256,192,34319,1,0,0:0:0:0:
256,192,34547,1,0,0:0:0:0:
256,192,34775,1,8,0:0:0:0:
256,192,35230,1,8,0:0:0:0:
256,192,35457,1,0,0:0:0:0:
256,192,35685,1,8,0:0:0:0:
256,192,35912,1,8,0:0:0:0:
256,192,36140,1,0,0:0:0:0:
256,192,36367,1,0,0:0:0:0:
256,192,36595,1,8,0:0:0:0:
256,192,37050,1,8,0:0:0:0:
256,192,37277,1,0,0:0:0:0:
256,192,37505,1,8,0:0:0:0:
256,192,37960,1,0,0:0:0:0:
256,192,38187,1,0,0:0:0:0:
256,192,38415,1,8,0:0:0:0:
256,192,38870,1,8,0:0:0:0:
256,192,39098,1,8,0:0:0:0:
256,192,39325,1,0,0:0:0:0:
256,192,39780,1,8,0:0:0:0:
256,192,40008,1,0,0:0:0:0:
256,192,40235,1,8,0:0:0:0:
256,192,40463,1,8,0:0:0:0:
256,192,40690,1,8,0:0:0:0:
256,192,40918,1,0,0:0:0:0:
256,192,41145,1,0,0:0:0:0:
256,192,41373,1,8,0:0:0:0:
256,192,41600,1,8,0:0:0:0:
256,192,41828,1,0,0:0:0:0:
252,193,43421,1,8,0:0:0:0:
252,193,43648,1,0,0:0:0:0:
252,193,43876,1,8,0:0:0:0:
252,193,44103,1,8,0:0:0:0:
252,193,44331,1,0,0:0:0:0:
252,193,44558,1,0,0:0:0:0:
252,193,44786,1,8,0:0:0:0:
252,193,45013,1,8,0:0:0:0:
252,193,45241,1,8,0:0:0:0:
252,193,45468,1,0,0:0:0:0:
