osu file format v14

[General]
AudioFilename: audio.mp3
AudioLeadIn: 0
PreviewTime: 129865
Countdown: 0
SampleSet: Soft
StackLeniency: 0.7
Mode: 3
LetterboxInBreaks: 0
SpecialStyle: 0
WidescreenStoryboard: 1

[Editor]
Bookmarks: 47983,84689
DistanceSpacing: 0.8
BeatDivisor: 4
GridSize: 4
TimelineZoom: 3.299999

[Metadata]
Title:Toki (SprightS Remix)
TitleUnicode:Toki (SprightS Remix)
Artist:puru
ArtistUnicode:puru
Creator:JamesHappy
Version:4K Infinity
Source:
Tags:
BeatmapID:1351633
BeatmapSetID:637114

[Difficulty]
HPDrainRate:7
CircleSize:4
OverallDifficulty:8.2
ApproachRate:9.6
SliderMultiplier:1.8
SliderTickRate:2

[Events]
//Background and Video events
0,0,"Konachan.com - 246298 sample.jpg",0,0
//Break Periods
//Storyboard Layer 0 (Background)
//Storyboard Layer 1 (Fail)
//Storyboard Layer 2 (Pass)
//Storyboard Layer 3 (Foreground)
//Storyboard Sound Samples

[TimingPoints]
1395,352.941176470588,4,2,2,30,1,0
84689,-100,4,2,2,30,0,1
129865,-100,4,2,2,30,0,0
200453,-100,4,2,2,30,0,1
245277,-100,4,2,2,30,0,0

[Colours]
Combo1 : 39,216,192
Combo2 : 226,226,226
Combo3 : 255,0,0
Combo4 : 182,102,22
Combo5 : 0,128,255
Combo6 : 155,155,155
Combo7 : 255,89,0
Combo8 : 98,74,210

[HitObjects]
448,192,1395,128,0,2806:0:0:0:0:
64,192,2806,1,0,0:0:0:0:
320,192,2806,1,0,0:0:0:0:
192,192,2806,1,0,0:0:0:0:
192,192,3512,1,0,0:0:0:0:
448,192,3512,1,0,0:0:0:0:
320,192,3512,1,0,0:0:0:0:
64,192,3689,1,0,0:0:0:0:
320,192,4042,1,0,0:0:0:0:
192,192,4924,1,0,0:0:0:0:
64,192,4924,1,0,0:0:0:0:
448,192,4924,1,0,0:0:0:0:
320,192,5277,1,0,0:0:0:0:
192,192,5453,1,0,0:0:0:0:
448,192,5630,1,0,0:0:0:0:
320,192,5630,1,0,0:0:0:0:
64,192,6336,1,0,0:0:0:0:
448,192,6336,1,0,0:0:0:0:
192,192,6689,1,0,0:0:0:0:
320,192,6865,1,0,0:0:0:0:
64,192,7042,1,0,0:0:0:0:
448,192,7042,1,0,0:0:0:0:
192,192,7571,1,0,0:0:0:0:
64,192,7747,1,0,0:0:0:0:
448,192,7747,1,0,0:0:0:0:
320,192,8100,1,0,0:0:0:0:
192,192,8453,1,0,0:0:0:0:
64,192,8453,1,0,0:0:0:0:
64,192,9159,1,0,0:0:0:0:
320,192,9159,1,0,0:0:0:0:
448,192,9159,1,0,0:0:0:0:
192,192,9512,1,0,0:0:0:0:
320,192,9689,1,0,0:0:0:0:
448,192,10042,1,0,0:0:0:0:
64,192,10218,1,0,0:0:0:0:
192,192,10571,1,0,0:0:0:0:
320,192,10571,1,0,0:0:0:0:
448,192,10571,1,0,0:0:0:0:
64,192,10747,1,0,0:0:0:0:
320,192,11100,1,0,0:0:0:0:
448,192,11277,1,0,0:0:0:0:
192,192,11277,1,0,0:0:0:0:
64,192,11277,1,0,0:0:0:0:
320,192,11983,1,0,0:0:0:0:
448,192,11983,1,0,0:0:0:0:
64,192,12689,1,0,0:0:0:0:
320,192,12689,1,0,0:0:0:0:
192,192,13218,1,0,0:0:0:0:
64,192,13218,1,0,0:0:0:0:
320,192,13262,1,0,0:0:0:0:
448,192,13262,1,0,0:0:0:0:
192,192,13306,1,0,0:0:0:0:
64,192,13306,1,0,0:0:0:0:
320,192,13350,1,0,0:0:0:0:
448,192,13350,1,0,0:0:0:0:
192,192,13394,1,0,0:0:0:0:
64,192,13394,1,0,0:0:0:0:
192,192,13571,1,0,0:0:0:0:
320,192,13571,1,0,0:0:0:0:
320,192,13747,1,0,0:0:0:0:
448,192,13747,1,0,0:0:0:0:
64,192,13924,1,0,0:0:0:0:
192,192,13924,1,0,0:0:0:0:
320,192,14100,1,0,0:0:0:0:
448,192,14100,1,0,0:0:0:0:
64,192,14100,1,0,0:0:0:0:
192,192,14453,1,0,0:0:0:0:
320,192,14806,1,0,0:0:0:0:
448,192,14806,1,0,0:0:0:0:
64,192,14983,1,0,0:0:0:0:
192,192,15512,1,0,0:0:0:0:
320,192,15865,1,0,0:0:0:0:
448,192,15865,1,0,0:0:0:0:
192,192,16042,1,0,0:0:0:0:
64,192,16218,1,0,0:0:0:0:
320,192,16218,1,0,0:0:0:0:
192,192,16218,1,0,0:0:0:0:
192,192,16924,1,0,0:0:0:0:
448,192,16924,1,0,0:0:0:0:
320,192,16924,1,0,0:0:0:0:
448,192,17277,1,0,0:0:0:0:
64,192,17630,1,0,0:0:0:0:
192,192,17630,1,0,0:0:0:0:
448,192,17806,1,0,0:0:0:0:
64,192,18336,1,0,0:0:0:0:
320,192,18336,1,0,0:0:0:0:
64,192,18689,1,0,0:0:0:0:
192,192,18689,1,0,0:0:0:0:
448,192,18865,1,0,0:0:0:0:
320,192,19042,1,0,0:0:0:0:
448,192,19042,1,0,0:0:0:0:
64,192,19042,1,0,0:0:0:0:
192,192,19394,1,0,0:0:0:0:
320,192,19571,1,0,0:0:0:0:
64,192,19747,1,0,0:0:0:0:
192,192,19747,1,0,0:0:0:0:
448,192,20100,1,0,0:0:0:0:
64,192,20453,1,0,0:0:0:0:
192,192,20453,1,0,0:0:0:0:
320,192,20630,1,0,0:0:0:0:
448,192,21159,1,0,0:0:0:0:
64,192,21512,1,0,0:0:0:0:
192,192,21512,1,0,0:0:0:0:
320,192,21689,1,0,0:0:0:0:
448,192,21865,1,0,0:0:0:0:
192,192,21865,1,0,0:0:0:0:
320,192,21865,1,0,0:0:0:0:
192,192,22042,1,0,0:0:0:0:
64,192,22218,1,0,0:0:0:0:
64,192,22394,1,0,0:0:0:0:
320,192,22571,1,0,0:0:0:0:
448,192,22571,1,0,0:0:0:0:
192,192,22571,1,0,0:0:0:0:
64,192,22924,1,0,0:0:0:0:
320,192,23277,1,0,0:0:0:0:
448,192,23277,1,0,0:0:0:0:
64,192,23277,1,0,0:0:0:0:
192,192,23983,1,0,0:0:0:0:
320,192,24159,1,0,0:0:0:0:
448,192,24159,1,0,0:0:0:0:
64,192,24218,1,0,0:0:0:0:
192,192,24218,1,0,0:0:0:0:
448,192,24277,1,0,0:0:0:0:
320,192,24277,1,0,0:0:0:0:
192,192,24336,1,0,0:0:0:0:
64,192,24336,1,0,0:0:0:0:
448,192,24512,1,0,0:0:0:0:
320,192,24512,1,0,0:0:0:0:
192,192,24600,1,0,0:0:0:0:
64,192,24600,1,0,0:0:0:0:
320,192,24689,1,0,0:0:0:0:
448,192,24689,1,0,0:0:0:0:
192,192,24777,1,0,0:0:0:0:
64,192,24777,1,0,0:0:0:0:
320,192,24865,1,0,0:0:0:0:
448,192,24865,1,0,0:0:0:0:
192,192,24924,1,0,0:0:0:0:
64,192,24924,1,0,0:0:0:0:
320,192,24983,1,0,0:0:0:0:
448,192,24983,1,0,0:0:0:0:
192,192,25042,1,0,0:0:0:0:
64,192,25042,1,0,0:0:0:0:
448,192,25218,1,0,0:0:0:0:
320,192,25218,1,0,0:0:0:0:
192,192,25394,1,0,0:0:0:0:
448,192,25394,1,0,0:0:0:0:
64,192,25394,1,0,0:0:0:0:
64,192,25747,1,0,0:0:0:0:
192,192,25747,1,0,0:0:0:0:
64,192,26100,1,0,0:0:0:0:
192,192,26100,1,0,0:0:0:0:
448,192,26100,1,0,0:0:0:0:
64,192,26453,1,0,0:0:0:0:
192,192,26453,1,0,0:0:0:0:
320,192,26630,1,0,0:0:0:0:
64,192,26806,1,0,0:0:0:0:
192,192,26806,1,0,0:0:0:0:
320,192,26806,1,0,0:0:0:0:
192,192,27159,1,0,0:0:0:0:
64,192,27159,1,0,0:0:0:0:
64,192,27512,1,0,0:0:0:0:
192,192,27512,1,0,0:0:0:0:
448,192,27512,1,0,0:0:0:0:
192,192,27865,1,0,0:0:0:0:
64,192,27865,1,0,0:0:0:0:
64,192,28218,1,0,0:0:0:0:
192,192,28218,1,0,0:0:0:0:
320,192,28218,1,0,0:0:0:0:
64,192,28571,1,0,0:0:0:0:
192,192,28571,1,0,0:0:0:0:
64,192,28924,1,0,0:0:0:0:
192,192,28924,1,0,0:0:0:0:
64,192,29277,1,0,0:0:0:0:
192,192,29277,1,0,0:0:0:0:
320,192,29277,1,0,0:0:0:0:
448,192,29453,1,0,0:0:0:0:
64,192,29630,1,0,0:0:0:0:
192,192,29630,1,0,0:0:0:0:
320,192,29630,1,0,0:0:0:0:
64,192,29983,1,0,0:0:0:0:
192,192,29983,1,0,0:0:0:0:
320,192,29983,1,0,0:0:0:0:
448,192,30159,1,0,0:0:0:0:
64,192,30336,1,0,0:0:0:0:
192,192,30336,1,0,0:0:0:0:
320,192,30512,1,0,0:0:0:0:
64,192,30689,1,0,0:0:0:0:
192,192,30689,1,0,0:0:0:0:
448,192,30689,1,0,0:0:0:0:
320,192,31042,1,0,0:0:0:0:
448,192,31042,1,0,0:0:0:0:
64,192,31042,1,0,0:0:0:0:
320,192,31218,1,0,0:0:0:0:
448,192,31218,1,0,0:0:0:0:
192,192,31394,1,0,0:0:0:0:
64,192,31394,1,0,0:0:0:0:
64,192,31571,1,0,0:0:0:0:
192,192,31571,1,0,0:0:0:0:
320,192,31747,1,0,0:0:0:0:
448,192,31747,1,0,0:0:0:0:
64,192,31747,1,0,0:0:0:0:
448,192,31924,1,0,0:0:0:0:
320,192,31924,1,0,0:0:0:0:
64,192,32100,1,0,0:0:0:0:
192,192,32100,1,0,0:0:0:0:
192,192,32277,1,0,0:0:0:0:
64,192,32277,1,0,0:0:0:0:
192,192,32453,1,0,0:0:0:0:
320,192,32453,1,0,0:0:0:0:
448,192,32453,1,0,0:0:0:0:
320,192,32630,1,0,0:0:0:0:
448,192,32630,1,0,0:0:0:0:
64,192,32806,1,0,0:0:0:0:
192,192,32806,1,0,0:0:0:0:
64,192,32983,1,0,0:0:0:0:
192,192,32983,1,0,0:0:0:0:
320,192,33159,1,0,0:0:0:0:
448,192,33159,1,0,0:0:0:0:
64,192,33159,1,0,0:0:0:0:
448,192,33336,1,0,0:0:0:0:
320,192,33336,1,0,0:0:0:0:
192,192,33512,1,0,0:0:0:0:
64,192,33512,1,0,0:0:0:0:
64,192,33689,1,0,0:0:0:0:
192,192,33689,1,0,0:0:0:0:
320,192,33865,1,0,0:0:0:0:
448,192,33865,1,0,0:0:0:0:
192,192,33953,1,0,0:0:0:0:
64,192,33953,1,0,0:0:0:0:
320,192,34042,1,0,0:0:0:0:
448,192,34042,1,0,0:0:0:0:
192,192,34130,1,0,0:0:0:0:
64,192,34130,1,0,0:0:0:0:
320,192,34218,1,0,0:0:0:0:
448,192,34218,1,0,0:0:0:0:
192,192,34306,1,0,0:0:0:0:
64,192,34306,1,0,0:0:0:0:
320,192,34394,1,0,0:0:0:0:
448,192,34394,1,0,0:0:0:0:
192,192,34483,1,0,0:0:0:0:
64,192,34483,1,0,0:0:0:0:
320,192,34571,1,0,0:0:0:0:
448,192,34571,1,0,0:0:0:0:
192,192,34659,1,0,0:0:0:0:
64,192,34659,1,0,0:0:0:0:
320,192,34747,1,0,0:0:0:0:
448,192,34747,1,0,0:0:0:0:
192,192,34836,1,0,0:0:0:0:
64,192,34836,1,0,0:0:0:0:
320,192,34924,1,0,0:0:0:0:
448,192,34924,1,0,0:0:0:0:
192,192,35012,1,0,0:0:0:0:
64,192,35012,1,0,0:0:0:0:
320,192,35100,1,0,0:0:0:0:
448,192,35100,1,0,0:0:0:0:
192,192,35189,1,0,0:0:0:0:
64,192,35189,1,0,0:0:0:0:
320,192,35277,1,0,0:0:0:0:
448,192,35277,1,0,0:0:0:0:
192,192,35365,1,0,0:0:0:0:
64,192,35365,1,0,0:0:0:0:
320,192,35453,1,0,0:0:0:0:
448,192,35453,1,0,0:0:0:0:
64,192,35542,1,0,0:0:0:0:
192,192,35542,1,0,0:0:0:0:
320,192,35630,1,0,0:0:0:0:
448,192,35630,1,0,0:0:0:0:
192,192,35718,1,0,0:0:0:0:
64,192,35718,1,0,0:0:0:0:
320,192,35806,1,0,0:0:0:0:
448,192,35806,1,0,0:0:0:0:
192,192,35894,1,0,0:0:0:0:
64,192,35894,1,0,0:0:0:0:
320,192,35983,1,0,0:0:0:0:
448,192,35983,1,0,0:0:0:0:
192,192,36247,1,0,0:0:0:0:
64,192,36247,1,0,0:0:0:0:
320,192,36512,1,0,0:0:0:0:
448,192,36512,1,0,0:0:0:0:
192,192,36689,1,0,0:0:0:0:
448,192,36689,1,0,0:0:0:0:
64,192,36689,128,0,38100:0:0:0:0:
320,192,37218,1,0,0:0:0:0:
448,192,37218,1,0,0:0:0:0:
192,192,37394,1,0,0:0:0:0:
448,192,37571,1,0,0:0:0:0:
320,192,37747,1,0,0:0:0:0:
192,192,38100,128,0,38806:0:0:0:0:
448,192,38100,1,0,0:0:0:0:
320,192,38277,1,0,0:0:0:0:
64,192,38630,1,0,0:0:0:0:
320,192,38806,128,0,39512:0:0:0:0:
448,192,38806,1,0,0:0:0:0:
64,192,39159,1,0,0:0:0:0:
448,192,39512,128,0,42336:0:0:0:0:
192,192,39512,1,0,0:0:0:0:
64,192,40042,1,0,0:0:0:0:
320,192,40924,1,0,0:0:0:0:
64,192,41453,1,0,0:0:0:0:
320,192,41983,1,0,0:0:0:0:
192,192,42336,128,0,45159:0:0:0:0:
64,192,42336,1,0,0:0:0:0:
320,192,42865,1,0,0:0:0:0:
448,192,43747,1,0,0:0:0:0:
64,192,44277,1,0,0:0:0:0:
448,192,44806,1,0,0:0:0:0:
64,192,45159,128,0,47983:0:0:0:0:
320,192,45159,1,0,0:0:0:0:
448,192,45689,1,0,0:0:0:0:
192,192,46571,1,0,0:0:0:0:
320,192,47100,1,0,0:0:0:0:
448,192,47630,1,0,0:0:0:0:
192,192,47718,1,0,0:0:0:0:
320,192,47806,1,0,0:0:0:0:
448,192,47894,1,0,0:0:0:0:
320,192,47983,1,0,0:0:0:0:
192,192,47983,1,0,0:0:0:0:
64,192,48336,1,0,0:0:0:0:
192,192,48336,1,0,0:0:0:0:
320,192,48865,1,0,0:0:0:0:
448,192,48865,1,0,0:0:0:0:
64,192,49042,1,0,0:0:0:0:
192,192,49042,1,0,0:0:0:0:
320,192,49394,1,0,0:0:0:0:
448,192,49394,1,0,0:0:0:0:
64,192,49394,1,0,0:0:0:0:
64,192,49747,1,0,0:0:0:0:
192,192,49747,1,0,0:0:0:0:
64,192,50277,1,0,0:0:0:0:
192,192,50277,1,0,0:0:0:0:
320,192,50453,1,0,0:0:0:0:
448,192,50453,1,0,0:0:0:0:
64,192,50806,1,0,0:0:0:0:
192,192,50806,1,0,0:0:0:0:
320,192,50806,1,0,0:0:0:0:
320,192,51159,1,0,0:0:0:0:
448,192,51159,1,0,0:0:0:0:
192,192,51689,1,0,0:0:0:0:
320,192,51689,1,0,0:0:0:0:
64,192,51865,1,0,0:0:0:0:
448,192,51865,1,0,0:0:0:0:
192,192,52218,1,0,0:0:0:0:
320,192,52218,1,0,0:0:0:0:
64,192,52571,1,0,0:0:0:0:
192,192,52571,1,0,0:0:0:0:
320,192,53100,1,0,0:0:0:0:
448,192,53100,1,0,0:0:0:0:
64,192,53277,1,0,0:0:0:0:
192,192,53277,1,0,0:0:0:0:
320,192,53630,1,0,0:0:0:0:
448,192,53630,1,0,0:0:0:0:
64,192,53630,1,0,0:0:0:0:
192,192,53983,1,0,0:0:0:0:
64,192,53983,1,0,0:0:0:0:
64,192,54512,1,0,0:0:0:0:
448,192,54512,1,0,0:0:0:0:
192,192,54689,1,0,0:0:0:0:
320,192,54689,1,0,0:0:0:0:
64,192,55042,1,0,0:0:0:0:
448,192,55042,1,0,0:0:0:0:
192,192,55394,1,0,0:0:0:0:
320,192,55394,1,0,0:0:0:0:
192,192,55924,1,0,0:0:0:0:
320,192,55924,1,0,0:0:0:0:
64,192,56100,1,0,0:0:0:0:
448,192,56100,1,0,0:0:0:0:
320,192,56453,1,0,0:0:0:0:
448,192,56453,1,0,0:0:0:0:
64,192,56453,1,0,0:0:0:0:
64,192,56806,1,0,0:0:0:0:
192,192,56806,1,0,0:0:0:0:
64,192,57336,1,0,0:0:0:0:
192,192,57336,1,0,0:0:0:0:
320,192,57512,1,0,0:0:0:0:
448,192,57512,1,0,0:0:0:0:
64,192,57865,1,0,0:0:0:0:
192,192,57865,1,0,0:0:0:0:
448,192,57865,1,0,0:0:0:0:
320,192,58042,1,0,0:0:0:0:
192,192,58042,1,0,0:0:0:0:
320,192,58218,1,0,0:0:0:0:
448,192,58218,1,0,0:0:0:0:
64,192,58394,1,0,0:0:0:0:
448,192,58394,1,0,0:0:0:0:
192,192,58394,1,0,0:0:0:0:
192,192,58571,1,0,0:0:0:0:
320,192,58571,1,0,0:0:0:0:
320,192,58747,1,0,0:0:0:0:
448,192,58747,1,0,0:0:0:0:
64,192,58924,1,0,0:0:0:0:
192,192,58924,1,0,0:0:0:0:
448,192,58924,1,0,0:0:0:0:
320,192,59100,1,0,0:0:0:0:
192,192,59100,1,0,0:0:0:0:
320,192,59277,1,0,0:0:0:0:
448,192,59277,128,0,64924:0:0:0:0:
64,192,59277,128,0,64924:0:0:0:0:
192,192,59806,1,0,0:0:0:0:
192,192,60336,1,0,0:0:0:0:
192,192,61394,1,0,0:0:0:0:
320,192,61747,1,0,0:0:0:0:
192,192,62100,1,0,0:0:0:0:
320,192,63512,1,0,0:0:0:0:
320,192,64042,1,0,0:0:0:0:
320,192,64571,1,0,0:0:0:0:
192,192,64924,1,0,0:0:0:0:
64,192,65453,1,0,0:0:0:0:
64,192,65983,1,0,0:0:0:0:
64,192,66336,1,0,0:0:0:0:
320,192,66512,1,0,0:0:0:0:
192,192,66777,1,0,0:0:0:0:
320,192,66865,1,0,0:0:0:0:
448,192,67042,1,0,0:0:0:0:
448,192,67218,1,0,0:0:0:0:
64,192,67394,1,0,0:0:0:0:
192,192,67483,1,0,0:0:0:0:
320,192,67571,1,0,0:0:0:0:
64,192,67747,1,0,0:0:0:0:
192,192,67747,1,0,0:0:0:0:
64,192,67924,1,0,0:0:0:0:
320,192,68100,1,0,0:0:0:0:
192,192,68189,1,0,0:0:0:0:
320,192,68277,1,0,0:0:0:0:
192,192,68365,1,0,0:0:0:0:
448,192,68453,1,0,0:0:0:0:
448,192,68630,1,0,0:0:0:0:
320,192,68806,1,0,0:0:0:0:
192,192,68894,1,0,0:0:0:0:
320,192,68983,1,0,0:0:0:0:
64,192,69159,1,0,0:0:0:0:
64,192,69336,1,0,0:0:0:0:
320,192,69512,1,0,0:0:0:0:
192,192,69600,1,0,0:0:0:0:
320,192,69689,1,0,0:0:0:0:
64,192,69777,1,0,0:0:0:0:
192,192,69865,1,0,0:0:0:0:
448,192,69865,1,0,0:0:0:0:
448,192,70042,1,0,0:0:0:0:
192,192,70218,1,0,0:0:0:0:
320,192,70306,1,0,0:0:0:0:
192,192,70394,1,0,0:0:0:0:
64,192,70571,1,0,0:0:0:0:
320,192,70571,1,0,0:0:0:0:
448,192,70571,1,0,0:0:0:0:
320,192,70924,1,0,0:0:0:0:
448,192,70924,1,0,0:0:0:0:
192,192,71100,1,0,0:0:0:0:
64,192,71277,1,0,0:0:0:0:
320,192,71277,1,0,0:0:0:0:
192,192,71453,1,0,0:0:0:0:
320,192,71630,1,0,0:0:0:0:
448,192,71630,1,0,0:0:0:0:
192,192,71806,1,0,0:0:0:0:
64,192,71983,1,0,0:0:0:0:
320,192,71983,1,0,0:0:0:0:
448,192,72159,1,0,0:0:0:0:
192,192,72336,1,0,0:0:0:0:
64,192,72336,1,0,0:0:0:0:
320,192,72512,1,0,0:0:0:0:
448,192,72689,1,0,0:0:0:0:
192,192,72689,1,0,0:0:0:0:
64,192,72865,1,0,0:0:0:0:
320,192,73042,1,0,0:0:0:0:
448,192,73042,1,0,0:0:0:0:
192,192,73218,1,0,0:0:0:0:
64,192,73394,1,0,0:0:0:0:
320,192,73394,1,0,0:0:0:0:
448,192,73571,1,0,0:0:0:0:
192,192,73747,1,0,0:0:0:0:
64,192,73747,1,0,0:0:0:0:
320,192,73924,1,0,0:0:0:0:
192,192,74100,1,0,0:0:0:0:
448,192,74100,1,0,0:0:0:0:
64,192,74277,1,0,0:0:0:0:
320,192,74453,1,0,0:0:0:0:
448,192,74453,1,0,0:0:0:0:
192,192,74630,1,0,0:0:0:0:
64,192,74806,1,0,0:0:0:0:
320,192,74806,1,0,0:0:0:0:
448,192,74983,1,0,0:0:0:0:
192,192,75159,1,0,0:0:0:0:
64,192,75159,1,0,0:0:0:0:
320,192,75336,1,0,0:0:0:0:
192,192,75512,1,0,0:0:0:0:
448,192,75512,1,0,0:0:0:0:
64,192,75689,1,0,0:0:0:0:
192,192,75865,1,0,0:0:0:0:
448,192,75865,1,0,0:0:0:0:
320,192,76042,1,0,0:0:0:0:
64,192,76218,1,0,0:0:0:0:
192,192,76218,1,0,0:0:0:0:
448,192,76218,1,0,0:0:0:0:
192,192,76394,1,0,0:0:0:0:
64,192,76394,1,0,0:0:0:0:
320,192,76571,1,0,0:0:0:0:
448,192,76571,1,0,0:0:0:0:
320,192,76747,1,0,0:0:0:0:
448,192,76747,1,0,0:0:0:0:
192,192,76924,1,0,0:0:0:0:
64,192,76924,1,0,0:0:0:0:
64,192,77100,1,0,0:0:0:0:
192,192,77100,1,0,0:0:0:0:
448,192,77277,1,0,0:0:0:0:
320,192,77277,1,0,0:0:0:0:
320,192,77453,1,0,0:0:0:0:
448,192,77453,1,0,0:0:0:0:
192,192,77630,1,0,0:0:0:0:
64,192,77630,1,0,0:0:0:0:
192,192,77806,1,0,0:0:0:0:
64,192,77806,1,0,0:0:0:0:
320,192,77983,1,0,0:0:0:0:
448,192,77983,1,0,0:0:0:0:
448,192,78159,1,0,0:0:0:0:
320,192,78159,1,0,0:0:0:0:
192,192,78336,1,0,0:0:0:0:
64,192,78336,1,0,0:0:0:0:
64,192,78512,1,0,0:0:0:0:
192,192,78512,1,0,0:0:0:0:
448,192,78689,1,0,0:0:0:0:
320,192,78689,1,0,0:0:0:0:
448,192,78865,1,0,0:0:0:0:
320,192,78865,1,0,0:0:0:0:
192,192,79042,1,0,0:0:0:0:
64,192,79042,1,0,0:0:0:0:
448,192,79130,1,0,0:0:0:0:
320,192,79130,1,0,0:0:0:0:
192,192,79218,1,0,0:0:0:0:
64,192,79218,1,0,0:0:0:0:
320,192,79306,1,0,0:0:0:0:
448,192,79306,1,0,0:0:0:0:
192,192,79394,1,0,0:0:0:0:
64,192,79394,1,0,0:0:0:0:
320,192,79483,1,0,0:0:0:0:
448,192,79483,1,0,0:0:0:0:
192,192,79571,1,0,0:0:0:0:
64,192,79571,1,0,0:0:0:0:
320,192,79659,1,0,0:0:0:0:
448,192,79659,1,0,0:0:0:0:
192,192,79747,1,0,0:0:0:0:
64,192,79747,1,0,0:0:0:0:
320,192,79836,1,0,0:0:0:0:
448,192,79836,1,0,0:0:0:0:
192,192,79924,1,0,0:0:0:0:
64,192,79924,1,0,0:0:0:0:
448,192,80012,1,0,0:0:0:0:
320,192,80012,1,0,0:0:0:0:
192,192,80100,1,0,0:0:0:0:
64,192,80100,1,0,0:0:0:0:
320,192,80189,1,0,0:0:0:0:
448,192,80189,1,0,0:0:0:0:
192,192,80277,1,0,0:0:0:0:
64,192,80277,1,0,0:0:0:0:
320,192,80365,1,0,0:0:0:0:
448,192,80365,1,0,0:0:0:0:
64,192,80453,1,0,0:0:0:0:
192,192,80453,1,0,0:0:0:0:
320,192,80497,1,0,0:0:0:0:
448,192,80497,1,0,0:0:0:0:
192,192,80542,1,0,0:0:0:0:
64,192,80542,1,0,0:0:0:0:
320,192,80586,1,0,0:0:0:0:
448,192,80586,1,0,0:0:0:0:
192,192,80630,1,0,0:0:0:0:
64,192,80630,1,0,0:0:0:0:
320,192,80674,1,0,0:0:0:0:
448,192,80674,1,0,0:0:0:0:
192,192,80718,1,0,0:0:0:0:
64,192,80718,1,0,0:0:0:0:
320,192,80762,1,0,0:0:0:0:
448,192,80762,1,0,0:0:0:0:
192,192,80806,1,0,0:0:0:0:
64,192,80806,1,0,0:0:0:0:
320,192,80850,1,0,0:0:0:0:
448,192,80850,1,0,0:0:0:0:
192,192,80894,1,0,0:0:0:0:
64,192,80894,1,0,0:0:0:0:
320,192,80939,1,0,0:0:0:0:
448,192,80939,1,0,0:0:0:0:
192,192,80983,1,0,0:0:0:0:
64,192,80983,1,0,0:0:0:0:
320,192,81027,1,0,0:0:0:0:
448,192,81027,1,0,0:0:0:0:
192,192,81071,1,0,0:0:0:0:
64,192,81071,1,0,0:0:0:0:
320,192,81115,1,0,0:0:0:0:
448,192,81115,1,0,0:0:0:0:
192,192,81159,1,0,0:0:0:0:
64,192,81159,1,0,0:0:0:0:
320,192,81203,1,0,0:0:0:0:
448,192,81203,1,0,0:0:0:0:
192,192,81247,1,0,0:0:0:0:
64,192,81247,1,0,0:0:0:0:
320,192,81292,1,0,0:0:0:0:
448,192,81292,1,0,0:0:0:0:
192,192,81336,1,0,0:0:0:0:
64,192,81336,1,0,0:0:0:0:
320,192,81380,1,0,0:0:0:0:
448,192,81380,1,0,0:0:0:0:
192,192,81424,1,0,0:0:0:0:
64,192,81424,1,0,0:0:0:0:
320,192,81468,1,0,0:0:0:0:
448,192,81468,1,0,0:0:0:0:
192,192,81512,1,0,0:0:0:0:
64,192,81512,1,0,0:0:0:0:
320,192,81556,1,0,0:0:0:0:
448,192,81556,1,0,0:0:0:0:
192,192,81600,1,0,0:0:0:0:
64,192,81600,1,0,0:0:0:0:
320,192,81644,1,0,0:0:0:0:
448,192,81644,1,0,0:0:0:0:
192,192,81689,1,0,0:0:0:0:
64,192,81689,1,0,0:0:0:0:
320,192,81733,1,0,0:0:0:0:
448,192,81733,1,0,0:0:0:0:
192,192,81777,1,0,0:0:0:0:
64,192,81777,1,0,0:0:0:0:
320,192,81821,1,0,0:0:0:0:
448,192,81821,1,0,0:0:0:0:
64,192,81865,128,0,83630:0:0:0:0:
192,192,81865,1,0,0:0:0:0:
192,192,83630,1,0,0:0:0:0:
448,192,83718,1,0,0:0:0:0:
320,192,83806,1,0,0:0:0:0:
192,192,83894,1,0,0:0:0:0:
64,192,83983,1,0,0:0:0:0:
448,192,83983,1,0,0:0:0:0:
320,192,84159,1,0,0:0:0:0:
192,192,84336,1,0,0:0:0:0:
64,192,84424,1,0,0:0:0:0:
320,192,84512,1,0,0:0:0:0:
448,192,84600,1,0,0:0:0:0:
192,192,84689,128,0,85394:0:0:0:0:
64,192,84689,128,0,85394:0:0:0:0:
320,192,84689,1,0,0:0:0:0:
448,192,85394,128,0,85512:0:0:0:0:
320,192,85394,128,0,85512:0:0:0:0:
192,192,85512,128,0,85630:0:0:0:0:
64,192,85512,128,0,85630:0:0:0:0:
320,192,85630,128,0,85747:0:0:0:0:
448,192,85630,128,0,85747:0:0:0:0:
192,192,85747,128,0,85865:0:0:0:0:
64,192,85747,128,0,85865:0:0:0:0:
448,192,85865,128,0,85983:0:0:0:0:
320,192,85865,128,0,85983:0:0:0:0:
192,192,85983,128,0,86100:0:0:0:0:
64,192,85983,128,0,86100:0:0:0:0:
320,192,86100,128,0,86453:0:0:0:0:
448,192,86100,128,0,86630:0:0:0:0:
64,192,86453,128,0,86630:0:0:0:0:
192,192,86630,128,0,86806:0:0:0:0:
320,192,86806,128,0,87336:0:0:0:0:
448,192,86806,128,0,87247:0:0:0:0:
64,192,86806,1,0,0:0:0:0:
64,192,87159,128,0,87512:0:0:0:0:
192,192,87159,128,0,87424:0:0:0:0:
448,192,87512,128,0,87865:0:0:0:0:
320,192,87512,128,0,87689:0:0:0:0:
192,192,87689,128,0,87865:0:0:0:0:
64,192,87865,128,0,88042:0:0:0:0:
320,192,88042,128,0,88086:0:0:0:0:
448,192,88042,128,0,88086:0:0:0:0:
320,192,88130,128,0,88174:0:0:0:0:
448,192,88130,128,0,88174:0:0:0:0:
320,192,88218,1,0,0:0:0:0:
448,192,88218,1,0,0:0:0:0:
192,192,88218,128,0,88306:0:0:0:0:
192,192,88394,128,0,88571:0:0:0:0:
320,192,88571,128,0,88659:0:0:0:0:
448,192,88571,128,0,88615:0:0:0:0:
64,192,88659,128,0,88703:0:0:0:0:
192,192,88659,128,0,88747:0:0:0:0:
448,192,88747,128,0,88836:0:0:0:0:
320,192,88747,128,0,88792:0:0:0:0:
64,192,88836,128,0,88924:0:0:0:0:
192,192,88836,128,0,88880:0:0:0:0:
320,192,88924,128,0,89012:0:0:0:0:
448,192,88924,128,0,88968:0:0:0:0:
192,192,89012,128,0,89100:0:0:0:0:
64,192,89012,128,0,89056:0:0:0:0:
448,192,89100,128,0,89189:0:0:0:0:
320,192,89100,128,0,89144:0:0:0:0:
192,192,89189,128,0,89233:0:0:0:0:
64,192,89189,128,0,89277:0:0:0:0:
320,192,89277,128,0,89365:0:0:0:0:
448,192,89277,128,0,89365:0:0:0:0:
320,192,89453,128,0,89630:0:0:0:0:
448,192,89453,128,0,89630:0:0:0:0:
192,192,89630,128,0,89894:0:0:0:0:
64,192,89630,128,0,89894:0:0:0:0:
320,192,89718,128,0,89806:0:0:0:0:
448,192,89806,128,0,89983:0:0:0:0:
320,192,89894,128,0,90071:0:0:0:0:
64,192,89983,128,0,90247:0:0:0:0:
192,192,89983,128,0,90159:0:0:0:0:
448,192,90071,128,0,90159:0:0:0:0:
320,192,90159,128,0,90247:0:0:0:0:
192,192,90247,128,0,90336:0:0:0:0:
64,192,90336,128,0,91042:0:0:0:0:
448,192,90336,128,0,91042:0:0:0:0:
320,192,91042,128,0,91100:0:0:0:0:
192,192,91042,1,0,0:0:0:0:
448,192,91100,128,0,91159:0:0:0:0:
64,192,91100,1,0,0:0:0:0:
192,192,91159,128,0,91218:0:0:0:0:
320,192,91159,1,0,0:0:0:0:
320,192,91277,128,0,91336:0:0:0:0:
64,192,91277,1,0,0:0:0:0:
448,192,91394,128,0,91453:0:0:0:0:
192,192,91394,1,0,0:0:0:0:
64,192,91394,1,0,0:0:0:0:
64,192,91571,128,0,91747:0:0:0:0:
448,192,91571,128,0,91747:0:0:0:0:
192,192,91747,128,0,91806:0:0:0:0:
320,192,91747,128,0,91806:0:0:0:0:
192,192,91865,128,0,91924:0:0:0:0:
320,192,91865,128,0,91924:0:0:0:0:
192,192,91983,128,0,92042:0:0:0:0:
320,192,91983,128,0,92042:0:0:0:0:
192,192,92100,128,0,92159:0:0:0:0:
320,192,92100,128,0,92159:0:0:0:0:
192,192,92277,128,0,92336:0:0:0:0:
320,192,92277,128,0,92336:0:0:0:0:
64,192,92277,1,0,0:0:0:0:
64,192,92453,128,0,92630:0:0:0:0:
448,192,92542,128,0,93159:0:0:0:0:
320,192,92630,128,0,93159:0:0:0:0:
64,192,93159,128,0,93336:0:0:0:0:
192,192,93159,1,0,0:0:0:0:
448,192,93336,128,0,93512:0:0:0:0:
192,192,93512,128,0,93689:0:0:0:0:
64,192,93512,128,0,93689:0:0:0:0:
320,192,93512,1,0,0:0:0:0:
448,192,93689,128,0,93865:0:0:0:0:
320,192,93689,1,0,0:0:0:0:
192,192,93865,128,0,94042:0:0:0:0:
64,192,94042,128,0,94218:0:0:0:0:
320,192,94042,1,0,0:0:0:0:
448,192,94218,128,0,94306:0:0:0:0:
320,192,94218,1,0,0:0:0:0:
192,192,94306,128,0,94394:0:0:0:0:
320,192,94394,128,0,94571:0:0:0:0:
64,192,94571,1,0,0:0:0:0:
192,192,94571,1,0,0:0:0:0:
448,192,94571,128,0,94689:0:0:0:0:
320,192,94689,1,0,0:0:0:0:
64,192,94747,1,0,0:0:0:0:
192,192,94792,1,0,0:0:0:0:
320,192,94836,1,0,0:0:0:0:
448,192,94836,1,0,0:0:0:0:
448,192,94924,1,0,0:0:0:0:
64,192,94924,1,0,0:0:0:0:
64,192,95100,1,0,0:0:0:0:
192,192,95100,1,0,0:0:0:0:
448,192,95100,1,0,0:0:0:0:
320,192,95189,1,0,0:0:0:0:
192,192,95277,1,0,0:0:0:0:
448,192,95277,1,0,0:0:0:0:
64,192,95277,1,0,0:0:0:0:
320,192,95453,1,0,0:0:0:0:
448,192,95453,1,0,0:0:0:0:
320,192,95542,1,0,0:0:0:0:
448,192,95542,1,0,0:0:0:0:
64,192,95630,1,0,0:0:0:0:
192,192,95630,1,0,0:0:0:0:
64,192,95806,1,0,0:0:0:0:
192,192,95806,1,0,0:0:0:0:
320,192,95983,1,0,0:0:0:0:
448,192,95983,1,0,0:0:0:0:
64,192,95983,128,0,96689:0:0:0:0:
192,192,96159,1,0,0:0:0:0:
320,192,96336,1,0,0:0:0:0:
448,192,96336,1,0,0:0:0:0:
192,192,96512,1,0,0:0:0:0:
320,192,96556,1,0,0:0:0:0:
448,192,96600,1,0,0:0:0:0:
192,192,96689,128,0,97042:0:0:0:0:
320,192,96689,1,0,0:0:0:0:
320,192,97042,128,0,97130:0:0:0:0:
448,192,97042,1,0,0:0:0:0:
64,192,97130,1,0,0:0:0:0:
192,192,97130,128,0,97218:0:0:0:0:
320,192,97218,1,0,0:0:0:0:
448,192,97218,128,0,97306:0:0:0:0:
192,192,97306,1,0,0:0:0:0:
64,192,97306,128,0,97394:0:0:0:0:
320,192,97394,128,0,97483:0:0:0:0:
448,192,97394,1,0,0:0:0:0:
192,192,97483,128,0,97571:0:0:0:0:
64,192,97483,1,0,0:0:0:0:
320,192,97571,1,0,0:0:0:0:
448,192,97571,128,0,97659:0:0:0:0:
192,192,97659,1,0,0:0:0:0:
64,192,97659,128,0,97747:0:0:0:0:
448,192,97747,1,0,0:0:0:0:
320,192,97747,128,0,97836:0:0:0:0:
64,192,97836,1,0,0:0:0:0:
192,192,97836,128,0,97924:0:0:0:0:
448,192,97924,128,0,98012:0:0:0:0:
320,192,97924,1,0,0:0:0:0:
64,192,98012,128,0,98100:0:0:0:0:
192,192,98012,1,0,0:0:0:0:
320,192,98100,1,0,0:0:0:0:
448,192,98100,1,0,0:0:0:0:
192,192,98189,1,0,0:0:0:0:
64,192,98277,1,0,0:0:0:0:
320,192,98277,128,0,98365:0:0:0:0:
448,192,98277,128,0,98365:0:0:0:0:
192,192,98365,1,0,0:0:0:0:
64,192,98453,1,0,0:0:0:0:
320,192,98453,128,0,98542:0:0:0:0:
448,192,98453,128,0,98542:0:0:0:0:
192,192,98542,1,0,0:0:0:0:
64,192,98630,1,0,0:0:0:0:
448,192,98630,128,0,98718:0:0:0:0:
320,192,98630,128,0,98718:0:0:0:0:
192,192,98718,1,0,0:0:0:0:
320,192,98806,128,0,98894:0:0:0:0:
448,192,98806,1,0,0:0:0:0:
64,192,98983,128,0,99071:0:0:0:0:
320,192,99159,128,0,99247:0:0:0:0:
192,192,99336,128,0,99424:0:0:0:0:
448,192,99424,128,0,99512:0:0:0:0:
64,192,99512,128,0,99689:0:0:0:0:
320,192,99689,128,0,99777:0:0:0:0:
192,192,99865,128,0,100042:0:0:0:0:
64,192,99865,128,0,100218:0:0:0:0:
448,192,99865,1,0,0:0:0:0:
320,192,100042,1,0,0:0:0:0:
448,192,100086,1,0,0:0:0:0:
320,192,100130,1,0,0:0:0:0:
448,192,100174,1,0,0:0:0:0:
192,192,100218,1,0,0:0:0:0:
192,192,100306,1,0,0:0:0:0:
192,192,100394,1,0,0:0:0:0:
320,192,100394,1,0,0:0:0:0:
192,192,100483,1,0,0:0:0:0:
192,192,100571,1,0,0:0:0:0:
192,192,100659,1,0,0:0:0:0:
320,192,100747,1,0,0:0:0:0:
192,192,100747,1,0,0:0:0:0:
192,192,100836,1,0,0:0:0:0:
64,192,100924,1,0,0:0:0:0:
320,192,100924,1,0,0:0:0:0:
448,192,100924,128,0,101012:0:0:0:0:
192,192,101012,128,0,101100:0:0:0:0:
320,192,101100,128,0,101189:0:0:0:0:
64,192,101189,128,0,101277:0:0:0:0:
192,192,101277,128,0,101365:0:0:0:0:
448,192,101365,128,0,101453:0:0:0:0:
64,192,101453,128,0,101542:0:0:0:0:
320,192,101542,128,0,101630:0:0:0:0:
448,192,101630,128,0,101983:0:0:0:0:
64,192,101630,1,0,0:0:0:0:
192,192,101630,1,0,0:0:0:0:
64,192,101983,1,0,0:0:0:0:
192,192,101983,1,0,0:0:0:0:
320,192,101983,1,0,0:0:0:0:
448,192,102071,1,0,0:0:0:0:
192,192,102159,1,0,0:0:0:0:
320,192,102247,1,0,0:0:0:0:
64,192,102336,128,0,102512:0:0:0:0:
192,192,102336,1,0,0:0:0:0:
320,192,102512,1,0,0:0:0:0:
192,192,102600,1,0,0:0:0:0:
320,192,102689,128,0,102777:0:0:0:0:
448,192,102689,1,0,0:0:0:0:
64,192,102689,1,0,0:0:0:0:
192,192,102777,128,0,102865:0:0:0:0:
448,192,102865,128,0,103042:0:0:0:0:
64,192,102953,1,0,0:0:0:0:
192,192,103042,1,0,0:0:0:0:
320,192,103042,1,0,0:0:0:0:
64,192,103130,1,0,0:0:0:0:
320,192,103218,1,0,0:0:0:0:
192,192,103306,1,0,0:0:0:0:
320,192,103394,1,0,0:0:0:0:
448,192,103394,1,0,0:0:0:0:
64,192,103394,1,0,0:0:0:0:
192,192,103571,128,0,103747:0:0:0:0:
320,192,103747,1,0,0:0:0:0:
448,192,103747,1,0,0:0:0:0:
64,192,103924,128,0,104100:0:0:0:0:
192,192,104100,1,0,0:0:0:0:
448,192,104100,1,0,0:0:0:0:
320,192,104100,1,0,0:0:0:0:
448,192,104277,128,0,104453:0:0:0:0:
64,192,104453,128,0,104983:0:0:0:0:
192,192,104453,128,0,104983:0:0:0:0:
320,192,104453,1,0,0:0:0:0:
320,192,104983,1,0,0:0:0:0:
448,192,104983,1,0,0:0:0:0:
64,192,105159,1,0,0:0:0:0:
192,192,105159,128,0,105247:0:0:0:0:
320,192,105159,1,0,0:0:0:0:
64,192,105336,1,0,0:0:0:0:
320,192,105336,128,0,105424:0:0:0:0:
448,192,105336,1,0,0:0:0:0:
64,192,105512,128,0,105600:0:0:0:0:
192,192,105512,1,0,0:0:0:0:
448,192,105512,1,0,0:0:0:0:
320,192,105689,1,0,0:0:0:0:
448,192,105689,128,0,105777:0:0:0:0:
192,192,105689,1,0,0:0:0:0:
64,192,105865,128,0,106218:0:0:0:0:
192,192,105865,1,0,0:0:0:0:
320,192,106042,128,0,106394:0:0:0:0:
192,192,106218,128,0,106394:0:0:0:0:
64,192,106394,1,0,0:0:0:0:
448,192,106394,128,0,106747:0:0:0:0:
192,192,106483,1,0,0:0:0:0:
320,192,106571,128,0,106924:0:0:0:0:
64,192,106747,128,0,107100:0:0:0:0:
192,192,106924,128,0,107100:0:0:0:0:
320,192,107100,128,0,107277:0:0:0:0:
64,192,107277,128,0,107983:0:0:0:0:
192,192,107277,128,0,107983:0:0:0:0:
448,192,107277,128,0,107542:0:0:0:0:
448,192,107630,128,0,107894:0:0:0:0:
320,192,107983,128,0,108336:0:0:0:0:
448,192,107983,1,0,0:0:0:0:
64,192,108336,1,0,0:0:0:0:
192,192,108380,1,0,0:0:0:0:
320,192,108424,1,0,0:0:0:0:
448,192,108468,1,0,0:0:0:0:
192,192,108512,1,0,0:0:0:0:
64,192,108556,1,0,0:0:0:0:
320,192,108600,1,0,0:0:0:0:
192,192,108644,1,0,0:0:0:0:
64,192,108689,128,0,109042:0:0:0:0:
448,192,108689,1,0,0:0:0:0:
320,192,108689,1,0,0:0:0:0:
320,192,109042,128,0,109394:0:0:0:0:
448,192,109042,1,0,0:0:0:0:
192,192,109394,128,0,109571:0:0:0:0:
64,192,109394,1,0,0:0:0:0:
448,192,109571,128,0,109924:0:0:0:0:
320,192,109571,1,0,0:0:0:0:
64,192,109571,1,0,0:0:0:0:
64,192,109747,128,0,109806:0:0:0:0:
192,192,109806,128,0,109865:0:0:0:0:
320,192,109865,128,0,109924:0:0:0:0:
64,192,109924,1,0,0:0:0:0:
192,192,109968,1,0,0:0:0:0:
320,192,110012,1,0,0:0:0:0:
448,192,110056,1,0,0:0:0:0:
64,192,110100,1,0,0:0:0:0:
192,192,110100,1,0,0:0:0:0:
320,192,110100,1,0,0:0:0:0:
320,192,110453,128,0,110542:0:0:0:0:
448,192,110453,128,0,110497:0:0:0:0:
192,192,110542,128,0,110630:0:0:0:0:
64,192,110542,128,0,110586:0:0:0:0:
448,192,110630,128,0,110718:0:0:0:0:
320,192,110630,128,0,110674:0:0:0:0:
64,192,110718,128,0,110806:0:0:0:0:
192,192,110718,128,0,110762:0:0:0:0:
320,192,110806,128,0,111071:0:0:0:0:
448,192,110806,128,0,110894:0:0:0:0:
448,192,110983,128,0,111071:0:0:0:0:
64,192,111159,1,0,0:0:0:0:
448,192,111159,128,0,111512:0:0:0:0:
320,192,111159,128,0,111247:0:0:0:0:
320,192,111336,128,0,111424:0:0:0:0:
64,192,111512,128,0,111865:0:0:0:0:
192,192,111512,1,0,0:0:0:0:
320,192,111512,1,0,0:0:0:0:
192,192,111689,1,0,0:0:0:0:
448,192,111733,1,0,0:0:0:0:
320,192,111777,1,0,0:0:0:0:
192,192,111821,1,0,0:0:0:0:
320,192,111865,128,0,111909:0:0:0:0:
448,192,111865,1,0,0:0:0:0:
192,192,111953,128,0,111997:0:0:0:0:
64,192,111953,1,0,0:0:0:0:
320,192,112042,128,0,112086:0:0:0:0:
448,192,112042,1,0,0:0:0:0:
192,192,112130,128,0,112174:0:0:0:0:
64,192,112130,1,0,0:0:0:0:
64,192,112218,128,0,112924:0:0:0:0:
320,192,112218,1,0,0:0:0:0:
448,192,112218,1,0,0:0:0:0:
320,192,112571,128,0,112615:0:0:0:0:
448,192,112571,128,0,112615:0:0:0:0:
320,192,112659,128,0,112703:0:0:0:0:
448,192,112659,128,0,112703:0:0:0:0:
320,192,112747,128,0,112792:0:0:0:0:
448,192,112747,128,0,112792:0:0:0:0:
320,192,112836,128,0,112880:0:0:0:0:
448,192,112836,128,0,112880:0:0:0:0:
448,192,112924,128,0,113189:0:0:0:0:
192,192,112924,128,0,113012:0:0:0:0:
192,192,113100,128,0,113189:0:0:0:0:
320,192,113277,128,0,113453:0:0:0:0:
64,192,113277,1,0,0:0:0:0:
448,192,113277,1,0,0:0:0:0:
192,192,113453,128,0,113497:0:0:0:0:
64,192,113542,128,0,113586:0:0:0:0:
320,192,113630,128,0,113674:0:0:0:0:
448,192,113630,1,0,0:0:0:0:
192,192,113718,128,0,113762:0:0:0:0:
448,192,113806,128,0,114336:0:0:0:0:
192,192,113983,128,0,114071:0:0:0:0:
320,192,114159,128,0,114247:0:0:0:0:
64,192,114159,1,0,0:0:0:0:
192,192,114247,1,0,0:0:0:0:
64,192,114336,128,0,114689:0:0:0:0:
320,192,114336,1,0,0:0:0:0:
320,192,114512,1,0,0:0:0:0:
320,192,114689,128,0,114777:0:0:0:0:
448,192,114689,128,0,114777:0:0:0:0:
192,192,114777,128,0,114865:0:0:0:0:
64,192,114777,128,0,114865:0:0:0:0:
320,192,114865,128,0,114953:0:0:0:0:
448,192,114865,128,0,114953:0:0:0:0:
64,192,114953,128,0,115042:0:0:0:0:
192,192,114953,128,0,115042:0:0:0:0:
320,192,115042,1,0,0:0:0:0:
448,192,115042,128,0,115130:0:0:0:0:
192,192,115218,1,0,0:0:0:0:
320,192,115218,128,0,115306:0:0:0:0:
448,192,115218,128,0,115306:0:0:0:0:
64,192,115394,1,0,0:0:0:0:
192,192,115394,128,0,115483:0:0:0:0:
320,192,115394,128,0,115483:0:0:0:0:
448,192,115571,1,0,0:0:0:0:
64,192,115571,128,0,115659:0:0:0:0:
192,192,115571,128,0,115659:0:0:0:0:
64,192,115747,1,0,0:0:0:0:
192,192,115747,1,0,0:0:0:0:
448,192,115747,128,0,116365:0:0:0:0:
320,192,115924,1,0,0:0:0:0:
64,192,116012,1,0,0:0:0:0:
192,192,116100,1,0,0:0:0:0:
320,192,116100,1,0,0:0:0:0:
64,192,116277,128,0,116453:0:0:0:0:
448,192,116453,128,0,117159:0:0:0:0:
320,192,116453,128,0,116542:0:0:0:0:
192,192,116630,128,0,116718:0:0:0:0:
64,192,116630,1,0,0:0:0:0:
320,192,116806,1,0,0:0:0:0:
64,192,116806,1,0,0:0:0:0:
192,192,116983,128,0,117159:0:0:0:0:
64,192,117159,128,0,117865:0:0:0:0:
320,192,117159,1,0,0:0:0:0:
448,192,117336,1,0,0:0:0:0:
320,192,117380,1,0,0:0:0:0:
192,192,117424,1,0,0:0:0:0:
448,192,117468,1,0,0:0:0:0:
320,192,117512,1,0,0:0:0:0:
192,192,117512,128,0,117600:0:0:0:0:
320,192,117600,128,0,117689:0:0:0:0:
448,192,117689,128,0,117777:0:0:0:0:
192,192,117777,128,0,117865:0:0:0:0:
320,192,117865,128,0,117953:0:0:0:0:
64,192,117953,128,0,118042:0:0:0:0:
192,192,118042,128,0,118130:0:0:0:0:
320,192,118130,128,0,118218:0:0:0:0:
448,192,118218,128,0,118306:0:0:0:0:
192,192,118306,128,0,118394:0:0:0:0:
320,192,118394,128,0,118483:0:0:0:0:
64,192,118483,128,0,118571:0:0:0:0:
192,192,118571,1,0,0:0:0:0:
320,192,118571,1,0,0:0:0:0:
448,192,118571,128,0,119189:0:0:0:0:
64,192,118747,1,0,0:0:0:0:
320,192,118924,1,0,0:0:0:0:
64,192,119100,1,0,0:0:0:0:
192,192,119144,1,0,0:0:0:0:
320,192,119189,1,0,0:0:0:0:
64,192,119277,128,0,119983:0:0:0:0:
448,192,119277,1,0,0:0:0:0:
192,192,119277,128,0,119983:0:0:0:0:
320,192,119630,1,0,0:0:0:0:
448,192,119806,1,0,0:0:0:0:
448,192,119983,128,0,120336:0:0:0:0:
320,192,119983,1,0,0:0:0:0:
64,192,120159,1,0,0:0:0:0:
192,192,120336,128,0,120424:0:0:0:0:
64,192,120336,128,0,120600:0:0:0:0:
320,192,120512,128,0,120600:0:0:0:0:
448,192,120512,1,0,0:0:0:0:
192,192,120689,1,0,0:0:0:0:
448,192,120689,1,0,0:0:0:0:
64,192,120689,128,0,121394:0:0:0:0:
320,192,120777,128,0,120865:0:0:0:0:
192,192,120865,128,0,120953:0:0:0:0:
192,192,121042,128,0,121130:0:0:0:0:
192,192,121218,128,0,121306:0:0:0:0:
192,192,121394,1,0,0:0:0:0:
320,192,121394,128,0,121747:0:0:0:0:
448,192,121394,128,0,121747:0:0:0:0:
64,192,121747,128,0,121792:0:0:0:0:
192,192,121836,128,0,121880:0:0:0:0:
448,192,121924,128,0,121968:0:0:0:0:
320,192,122012,128,0,122056:0:0:0:0:
64,192,122100,128,0,122189:0:0:0:0:
192,192,122100,1,0,0:0:0:0:
448,192,122100,128,0,122806:0:0:0:0:
320,192,122277,128,0,122365:0:0:0:0:
192,192,122277,1,0,0:0:0:0:
64,192,122453,128,0,122542:0:0:0:0:
192,192,122453,1,0,0:0:0:0:
192,192,122630,1,0,0:0:0:0:
320,192,122630,128,0,122718:0:0:0:0:
64,192,122806,128,0,122850:0:0:0:0:
192,192,122806,1,0,0:0:0:0:
448,192,122894,128,0,122939:0:0:0:0:
320,192,122894,1,0,0:0:0:0:
64,192,122983,128,0,123027:0:0:0:0:
192,192,122983,1,0,0:0:0:0:
64,192,123159,128,0,123247:0:0:0:0:
320,192,123159,1,0,0:0:0:0:
64,192,123336,128,0,123424:0:0:0:0:
320,192,123336,1,0,0:0:0:0:
448,192,123512,1,0,0:0:0:0:
320,192,123512,1,0,0:0:0:0:
192,192,123512,128,0,123600:0:0:0:0:
64,192,123600,128,0,123689:0:0:0:0:
320,192,123689,128,0,123777:0:0:0:0:
192,192,123777,128,0,123865:0:0:0:0:
448,192,123865,128,0,123953:0:0:0:0:
320,192,123953,128,0,124042:0:0:0:0:
192,192,124042,128,0,124130:0:0:0:0:
64,192,124130,128,0,124218:0:0:0:0:
192,192,124218,1,0,0:0:0:0:
320,192,124218,1,0,0:0:0:0:
448,192,124218,128,0,124571:0:0:0:0:
64,192,124571,1,0,0:0:0:0:
192,192,124571,1,0,0:0:0:0:
320,192,124571,1,0,0:0:0:0:
320,192,124659,1,0,0:0:0:0:
192,192,124747,1,0,0:0:0:0:
64,192,124836,1,0,0:0:0:0:
448,192,124924,128,0,125630:0:0:0:0:
320,192,124924,128,0,125100:0:0:0:0:
64,192,125100,1,0,0:0:0:0:
192,192,125277,1,0,0:0:0:0:
320,192,125277,1,0,0:0:0:0:
64,192,125365,1,0,0:0:0:0:
320,192,125453,1,0,0:0:0:0:
192,192,125542,1,0,0:0:0:0:
64,192,125630,1,0,0:0:0:0:
320,192,125630,128,0,125718:0:0:0:0:
192,192,125718,128,0,125806:0:0:0:0:
448,192,125806,128,0,125894:0:0:0:0:
64,192,125894,1,0,0:0:0:0:
192,192,125894,128,0,125983:0:0:0:0:
448,192,125983,1,0,0:0:0:0:
320,192,125983,128,0,126159:0:0:0:0:
64,192,125983,1,0,0:0:0:0:
64,192,126159,128,0,126336:0:0:0:0:
192,192,126159,1,0,0:0:0:0:
192,192,126336,1,0,0:0:0:0:
320,192,126336,1,0,0:0:0:0:
448,192,126336,1,0,0:0:0:0:
192,192,126424,1,0,0:0:0:0:
64,192,126512,1,0,0:0:0:0:
448,192,126600,1,0,0:0:0:0:
192,192,126689,1,0,0:0:0:0:
64,192,126689,1,0,0:0:0:0:
320,192,126689,1,0,0:0:0:0:
64,192,127042,1,0,0:0:0:0:
192,192,127042,1,0,0:0:0:0:
320,192,127042,1,0,0:0:0:0:
448,192,127042,128,0,128453:0:0:0:0:
64,192,127394,128,0,127439:0:0:0:0:
192,192,127483,128,0,127527:0:0:0:0:
64,192,127571,128,0,127615:0:0:0:0:
192,192,127659,128,0,127703:0:0:0:0:
64,192,127747,128,0,127836:0:0:0:0:
320,192,127747,1,0,0:0:0:0:
64,192,127924,128,0,128012:0:0:0:0:
320,192,127924,1,0,0:0:0:0:
64,192,128100,128,0,128189:0:0:0:0:
320,192,128100,1,0,0:0:0:0:
64,192,128277,128,0,128365:0:0:0:0:
320,192,128277,1,0,0:0:0:0:
64,192,128453,128,0,129159:0:0:0:0:
192,192,128453,128,0,129071:0:0:0:0:
448,192,129071,1,0,0:0:0:0:
320,192,129115,1,0,0:0:0:0:
192,192,129159,1,0,0:0:0:0:
64,192,129336,128,0,129777:0:0:0:0:
448,192,129336,128,0,129777:0:0:0:0:
192,192,129512,128,0,129777:0:0:0:0:
320,192,129512,128,0,129777:0:0:0:0:
64,192,129865,1,0,0:0:0:0:
192,192,129865,1,0,0:0:0:0:
320,192,129865,1,0,0:0:0:0:
448,192,129865,1,0,0:0:0:0:
192,192,130394,1,0,0:0:0:0:
320,192,130924,1,0,0:0:0:0:
320,192,131453,1,0,0:0:0:0:
64,192,131983,1,0,0:0:0:0:
192,192,131983,1,0,0:0:0:0:
320,192,132159,1,0,0:0:0:0:
192,192,132336,1,0,0:0:0:0:
320,192,132689,1,0,0:0:0:0:
448,192,132689,1,0,0:0:0:0:
64,192,133218,1,0,0:0:0:0:
192,192,134100,1,0,0:0:0:0:
448,192,134100,1,0,0:0:0:0:
64,192,134277,1,0,0:0:0:0:
320,192,134453,1,0,0:0:0:0:
192,192,134630,1,0,0:0:0:0:
64,192,134718,1,0,0:0:0:0:
448,192,134806,1,0,0:0:0:0:
192,192,134983,1,0,0:0:0:0:
320,192,135159,1,0,0:0:0:0:
64,192,135512,1,0,0:0:0:0:
192,192,135512,1,0,0:0:0:0:
320,192,136042,1,0,0:0:0:0:
64,192,136924,1,0,0:0:0:0:
448,192,137453,1,0,0:0:0:0:
192,192,137630,1,0,0:0:0:0:
320,192,137806,1,0,0:0:0:0:
64,192,137983,1,0,0:0:0:0:
192,192,138247,1,0,0:0:0:0:
320,192,138292,1,0,0:0:0:0:
448,192,138336,1,0,0:0:0:0:
64,192,138336,1,0,0:0:0:0:
192,192,138865,1,0,0:0:0:0:
320,192,139394,1,0,0:0:0:0:
64,192,139747,1,0,0:0:0:0:
192,192,139747,1,0,0:0:0:0:
320,192,140277,1,0,0:0:0:0:
64,192,141159,1,0,0:0:0:0:
320,192,141159,1,0,0:0:0:0:
192,192,141689,1,0,0:0:0:0:
448,192,142571,1,0,0:0:0:0:
64,192,143100,1,0,0:0:0:0:
320,192,143277,1,0,0:0:0:0:
64,192,143453,1,0,0:0:0:0:
192,192,143630,1,0,0:0:0:0:
448,192,143630,1,0,0:0:0:0:
64,192,143983,1,0,0:0:0:0:
320,192,143983,1,0,0:0:0:0:
448,192,144512,1,0,0:0:0:0:
320,192,144512,1,0,0:0:0:0:
64,192,145394,1,0,0:0:0:0:
192,192,145394,1,0,0:0:0:0:
320,192,145571,1,0,0:0:0:0:
64,192,145747,1,0,0:0:0:0:
192,192,145924,1,0,0:0:0:0:
320,192,146012,1,0,0:0:0:0:
448,192,146100,1,0,0:0:0:0:
192,192,146277,1,0,0:0:0:0:
320,192,146453,1,0,0:0:0:0:
64,192,146806,1,0,0:0:0:0:
192,192,146806,1,0,0:0:0:0:
320,192,147336,1,0,0:0:0:0:
448,192,147865,1,0,0:0:0:0:
320,192,148218,1,0,0:0:0:0:
64,192,148747,1,0,0:0:0:0:
192,192,148924,1,0,0:0:0:0:
320,192,149100,1,0,0:0:0:0:
448,192,149277,1,0,0:0:0:0:
192,192,149453,1,0,0:0:0:0:
320,192,149630,1,0,0:0:0:0:
64,192,149630,1,0,0:0:0:0:
448,192,150159,1,0,0:0:0:0:
192,192,150689,1,0,0:0:0:0:
320,192,151042,1,0,0:0:0:0:
448,192,151042,1,0,0:0:0:0:
64,192,151571,1,0,0:0:0:0:
192,192,152453,1,0,0:0:0:0:
448,192,152453,1,0,0:0:0:0:
320,192,152453,1,0,0:0:0:0:
64,192,152983,1,0,0:0:0:0:
192,192,153865,1,0,0:0:0:0:
64,192,154394,1,0,0:0:0:0:
448,192,154571,1,0,0:0:0:0:
320,192,154571,1,0,0:0:0:0:
192,192,154747,1,0,0:0:0:0:
320,192,154924,1,0,0:0:0:0:
64,192,155277,1,0,0:0:0:0:
192,192,155277,1,0,0:0:0:0:
448,192,155806,1,0,0:0:0:0:
320,192,156689,1,0,0:0:0:0:
64,192,156689,1,0,0:0:0:0:
448,192,156865,1,0,0:0:0:0:
192,192,157042,1,0,0:0:0:0:
320,192,157218,1,0,0:0:0:0:
448,192,157306,1,0,0:0:0:0:
64,192,157394,1,0,0:0:0:0:
320,192,157571,1,0,0:0:0:0:
192,192,157747,1,0,0:0:0:0:
448,192,158100,1,0,0:0:0:0:
320,192,158100,1,0,0:0:0:0:
192,192,158630,1,0,0:0:0:0:
448,192,159512,1,0,0:0:0:0:
64,192,160042,1,0,0:0:0:0:
320,192,160218,1,0,0:0:0:0:
192,192,160394,1,0,0:0:0:0:
448,192,160571,1,0,0:0:0:0:
320,192,160836,1,0,0:0:0:0:
192,192,160880,1,0,0:0:0:0:
64,192,160924,1,0,0:0:0:0:
448,192,160924,1,0,0:0:0:0:
320,192,161453,1,0,0:0:0:0:
192,192,161983,1,0,0:0:0:0:
320,192,162336,1,0,0:0:0:0:
448,192,162336,1,0,0:0:0:0:
192,192,162865,1,0,0:0:0:0:
192,192,163747,1,0,0:0:0:0:
448,192,163747,1,0,0:0:0:0:
64,192,163747,1,0,0:0:0:0:
192,192,164100,1,0,0:0:0:0:
320,192,164100,1,0,0:0:0:0:
64,192,164277,1,0,0:0:0:0:
320,192,164630,1,0,0:0:0:0:
448,192,164630,1,0,0:0:0:0:
64,192,164806,1,0,0:0:0:0:
192,192,164806,1,0,0:0:0:0:
448,192,165159,1,0,0:0:0:0:
320,192,165159,1,0,0:0:0:0:
64,192,165159,1,0,0:0:0:0:
192,192,165512,1,0,0:0:0:0:
320,192,165512,1,0,0:0:0:0:
448,192,165689,1,0,0:0:0:0:
192,192,165865,1,0,0:0:0:0:
448,192,166042,1,0,0:0:0:0:
320,192,166042,1,0,0:0:0:0:
192,192,166218,1,0,0:0:0:0:
64,192,166218,1,0,0:0:0:0:
320,192,166218,1,0,0:0:0:0:
192,192,166571,1,0,0:0:0:0:
448,192,166571,1,0,0:0:0:0:
64,192,166571,1,0,0:0:0:0:
320,192,166924,1,0,0:0:0:0:
448,192,166924,1,0,0:0:0:0:
64,192,167100,1,0,0:0:0:0:
320,192,167453,1,0,0:0:0:0:
448,192,167453,1,0,0:0:0:0:
192,192,167630,1,0,0:0:0:0:
64,192,167630,1,0,0:0:0:0:
448,192,167983,1,0,0:0:0:0:
320,192,167983,1,0,0:0:0:0:
64,192,167983,1,0,0:0:0:0:
192,192,168159,1,0,0:0:0:0:
448,192,168336,1,0,0:0:0:0:
64,192,168336,1,0,0:0:0:0:
320,192,168512,1,0,0:0:0:0:
192,192,168600,1,0,0:0:0:0:
64,192,168689,1,0,0:0:0:0:
320,192,168865,1,0,0:0:0:0:
448,192,168865,1,0,0:0:0:0:
192,192,169042,1,0,0:0:0:0:
64,192,169042,1,0,0:0:0:0:
320,192,169130,1,0,0:0:0:0:
448,192,169130,1,0,0:0:0:0:
192,192,169218,1,0,0:0:0:0:
64,192,169218,1,0,0:0:0:0:
320,192,169306,1,0,0:0:0:0:
448,192,169306,1,0,0:0:0:0:
192,192,169394,1,0,0:0:0:0:
64,192,169394,1,0,0:0:0:0:
64,192,169571,1,0,0:0:0:0:
192,192,169571,1,0,0:0:0:0:
320,192,169747,1,0,0:0:0:0:
448,192,169747,1,0,0:0:0:0:
320,192,169924,1,0,0:0:0:0:
448,192,169924,1,0,0:0:0:0:
192,192,170100,1,0,0:0:0:0:
64,192,170100,1,0,0:0:0:0:
192,192,170277,1,0,0:0:0:0:
64,192,170277,1,0,0:0:0:0:
320,192,170453,1,0,0:0:0:0:
448,192,170453,1,0,0:0:0:0:
448,192,170630,1,0,0:0:0:0:
320,192,170630,1,0,0:0:0:0:
192,192,170806,1,0,0:0:0:0:
64,192,170806,1,0,0:0:0:0:
64,192,170983,1,0,0:0:0:0:
192,192,170983,1,0,0:0:0:0:
320,192,171159,1,0,0:0:0:0:
448,192,171159,1,0,0:0:0:0:
448,192,171336,1,0,0:0:0:0:
320,192,171336,1,0,0:0:0:0:
192,192,171512,1,0,0:0:0:0:
64,192,171512,1,0,0:0:0:0:
192,192,171689,1,0,0:0:0:0:
64,192,171689,1,0,0:0:0:0:
320,192,171865,1,0,0:0:0:0:
448,192,171865,1,0,0:0:0:0:
320,192,172042,1,0,0:0:0:0:
448,192,172042,1,0,0:0:0:0:
64,192,172130,1,0,0:0:0:0:
192,192,172130,1,0,0:0:0:0:
448,192,172218,1,0,0:0:0:0:
320,192,172218,1,0,0:0:0:0:
64,192,172306,1,0,0:0:0:0:
192,192,172306,1,0,0:0:0:0:
320,192,172394,1,0,0:0:0:0:
448,192,172394,1,0,0:0:0:0:
192,192,172483,1,0,0:0:0:0:
64,192,172483,1,0,0:0:0:0:
320,192,172571,1,0,0:0:0:0:
448,192,172571,1,0,0:0:0:0:
192,192,172659,1,0,0:0:0:0:
64,192,172659,1,0,0:0:0:0:
320,192,172747,1,0,0:0:0:0:
448,192,172747,1,0,0:0:0:0:
192,192,172836,1,0,0:0:0:0:
64,192,172836,1,0,0:0:0:0:
320,192,172924,1,0,0:0:0:0:
448,192,172924,1,0,0:0:0:0:
192,192,173012,1,0,0:0:0:0:
64,192,173012,1,0,0:0:0:0:
320,192,173100,1,0,0:0:0:0:
448,192,173100,1,0,0:0:0:0:
192,192,173189,1,0,0:0:0:0:
64,192,173189,1,0,0:0:0:0:
320,192,173277,1,0,0:0:0:0:
448,192,173277,1,0,0:0:0:0:
192,192,173365,1,0,0:0:0:0:
64,192,173365,1,0,0:0:0:0:
320,192,173453,1,0,0:0:0:0:
448,192,173453,1,0,0:0:0:0:
192,192,173542,1,0,0:0:0:0:
64,192,173542,1,0,0:0:0:0:
320,192,173630,1,0,0:0:0:0:
448,192,173630,1,0,0:0:0:0:
192,192,173806,1,0,0:0:0:0:
320,192,173806,1,0,0:0:0:0:
64,192,173983,1,0,0:0:0:0:
192,192,173983,1,0,0:0:0:0:
448,192,174159,1,0,0:0:0:0:
320,192,174159,1,0,0:0:0:0:
192,192,174336,1,0,0:0:0:0:
320,192,174336,1,0,0:0:0:0:
64,192,174600,1,0,0:0:0:0:
192,192,174600,1,0,0:0:0:0:
320,192,174865,1,0,0:0:0:0:
448,192,174865,1,0,0:0:0:0:
448,192,175042,128,0,180689:0:0:0:0:
192,192,175042,1,0,0:0:0:0:
64,192,175042,1,0,0:0:0:0:
320,192,175571,1,0,0:0:0:0:
320,192,176100,1,0,0:0:0:0:
64,192,177159,1,0,0:0:0:0:
192,192,177336,1,0,0:0:0:0:
320,192,177512,1,0,0:0:0:0:
192,192,177865,1,0,0:0:0:0:
320,192,178394,1,0,0:0:0:0:
192,192,179277,1,0,0:0:0:0:
320,192,179453,1,0,0:0:0:0:
64,192,179630,1,0,0:0:0:0:
320,192,179806,1,0,0:0:0:0:
192,192,179894,1,0,0:0:0:0:
64,192,179983,1,0,0:0:0:0:
320,192,180159,1,0,0:0:0:0:
192,192,180336,1,0,0:0:0:0:
64,192,180512,1,0,0:0:0:0:
320,192,180689,1,0,0:0:0:0:
192,192,181130,1,0,0:0:0:0:
448,192,181218,1,0,0:0:0:0:
448,192,181571,1,0,0:0:0:0:
448,192,181924,1,0,0:0:0:0:
192,192,182100,1,0,0:0:0:0:
448,192,182277,1,0,0:0:0:0:
320,192,182542,1,0,0:0:0:0:
192,192,182630,1,0,0:0:0:0:
64,192,182806,1,0,0:0:0:0:
64,192,182983,1,0,0:0:0:0:
448,192,183159,1,0,0:0:0:0:
320,192,183247,1,0,0:0:0:0:
192,192,183336,1,0,0:0:0:0:
64,192,183424,1,0,0:0:0:0:
320,192,183512,1,0,0:0:0:0:
448,192,183512,1,0,0:0:0:0:
448,192,183689,1,0,0:0:0:0:
192,192,183953,1,0,0:0:0:0:
320,192,184042,1,0,0:0:0:0:
64,192,184218,1,0,0:0:0:0:
64,192,184394,1,0,0:0:0:0:
320,192,184659,1,0,0:0:0:0:
192,192,184747,1,0,0:0:0:0:
448,192,184924,1,0,0:0:0:0:
448,192,185100,1,0,0:0:0:0:
192,192,185277,1,0,0:0:0:0:
320,192,185365,1,0,0:0:0:0:
192,192,185453,1,0,0:0:0:0:
448,192,185542,1,0,0:0:0:0:
64,192,185630,1,0,0:0:0:0:
320,192,185630,1,0,0:0:0:0:
64,192,185806,1,0,0:0:0:0:
320,192,186071,1,0,0:0:0:0:
192,192,186159,1,0,0:0:0:0:
320,192,186336,1,0,0:0:0:0:
448,192,186336,1,0,0:0:0:0:
64,192,186336,1,0,0:0:0:0:
192,192,186689,1,0,0:0:0:0:
64,192,186689,1,0,0:0:0:0:
320,192,186865,1,0,0:0:0:0:
192,192,187042,1,0,0:0:0:0:
448,192,187042,1,0,0:0:0:0:
320,192,187218,1,0,0:0:0:0:
64,192,187394,1,0,0:0:0:0:
192,192,187394,1,0,0:0:0:0:
320,192,187571,1,0,0:0:0:0:
448,192,187747,1,0,0:0:0:0:
192,192,187747,1,0,0:0:0:0:
64,192,187924,1,0,0:0:0:0:
320,192,188100,1,0,0:0:0:0:
448,192,188100,1,0,0:0:0:0:
192,192,188277,1,0,0:0:0:0:
320,192,188453,1,0,0:0:0:0:
64,192,188453,1,0,0:0:0:0:
448,192,188630,1,0,0:0:0:0:
64,192,188806,1,0,0:0:0:0:
192,192,188806,1,0,0:0:0:0:
320,192,188983,1,0,0:0:0:0:
448,192,189159,1,0,0:0:0:0:
192,192,189159,1,0,0:0:0:0:
64,192,189336,1,0,0:0:0:0:
448,192,189512,1,0,0:0:0:0:
320,192,189512,1,0,0:0:0:0:
192,192,189689,1,0,0:0:0:0:
320,192,189865,1,0,0:0:0:0:
64,192,189865,1,0,0:0:0:0:
448,192,190042,1,0,0:0:0:0:
192,192,190218,1,0,0:0:0:0:
64,192,190218,1,0,0:0:0:0:
320,192,190394,1,0,0:0:0:0:
448,192,190571,1,0,0:0:0:0:
192,192,190571,1,0,0:0:0:0:
64,192,190747,1,0,0:0:0:0:
320,192,190924,1,0,0:0:0:0:
448,192,190924,1,0,0:0:0:0:
192,192,191100,1,0,0:0:0:0:
64,192,191277,1,0,0:0:0:0:
320,192,191277,1,0,0:0:0:0:
448,192,191453,1,0,0:0:0:0:
64,192,191630,1,0,0:0:0:0:
320,192,191630,1,0,0:0:0:0:
192,192,191806,1,0,0:0:0:0:
448,192,191983,1,0,0:0:0:0:
320,192,191983,1,0,0:0:0:0:
64,192,191983,1,0,0:0:0:0:
448,192,192159,1,0,0:0:0:0:
320,192,192159,1,0,0:0:0:0:
64,192,192336,1,0,0:0:0:0:
192,192,192336,1,0,0:0:0:0:
64,192,192512,1,0,0:0:0:0:
192,192,192512,1,0,0:0:0:0:
320,192,192689,1,0,0:0:0:0:
448,192,192689,1,0,0:0:0:0:
448,192,192865,1,0,0:0:0:0:
320,192,192865,1,0,0:0:0:0:
192,192,193042,1,0,0:0:0:0:
64,192,193042,1,0,0:0:0:0:
64,192,193218,1,0,0:0:0:0:
192,192,193218,1,0,0:0:0:0:
320,192,193394,1,0,0:0:0:0:
448,192,193394,1,0,0:0:0:0:
320,192,193571,1,0,0:0:0:0:
448,192,193571,1,0,0:0:0:0:
64,192,193747,1,0,0:0:0:0:
192,192,193747,1,0,0:0:0:0:
64,192,193924,1,0,0:0:0:0:
192,192,193924,1,0,0:0:0:0:
448,192,194100,1,0,0:0:0:0:
320,192,194100,1,0,0:0:0:0:
448,192,194277,1,0,0:0:0:0:
320,192,194277,1,0,0:0:0:0:
64,192,194453,1,0,0:0:0:0:
192,192,194453,1,0,0:0:0:0:
192,192,194630,1,0,0:0:0:0:
64,192,194630,1,0,0:0:0:0:
448,192,194806,1,0,0:0:0:0:
320,192,194806,1,0,0:0:0:0:
64,192,194894,1,0,0:0:0:0:
192,192,194894,1,0,0:0:0:0:
320,192,194983,1,0,0:0:0:0:
448,192,194983,1,0,0:0:0:0:
192,192,195071,1,0,0:0:0:0:
64,192,195071,1,0,0:0:0:0:
320,192,195159,1,0,0:0:0:0:
448,192,195159,1,0,0:0:0:0:
192,192,195247,1,0,0:0:0:0:
64,192,195247,1,0,0:0:0:0:
320,192,195336,1,0,0:0:0:0:
448,192,195336,1,0,0:0:0:0:
192,192,195424,1,0,0:0:0:0:
64,192,195424,1,0,0:0:0:0:
320,192,195512,1,0,0:0:0:0:
448,192,195512,1,0,0:0:0:0:
64,192,195600,1,0,0:0:0:0:
192,192,195600,1,0,0:0:0:0:
320,192,195689,1,0,0:0:0:0:
448,192,195689,1,0,0:0:0:0:
192,192,195777,1,0,0:0:0:0:
64,192,195777,1,0,0:0:0:0:
448,192,195865,1,0,0:0:0:0:
320,192,195865,1,0,0:0:0:0:
64,192,195953,1,0,0:0:0:0:
192,192,195953,1,0,0:0:0:0:
448,192,196042,1,0,0:0:0:0:
320,192,196042,1,0,0:0:0:0:
192,192,196130,1,0,0:0:0:0:
64,192,196130,1,0,0:0:0:0:
320,192,196218,1,0,0:0:0:0:
448,192,196218,1,0,0:0:0:0:
192,192,196262,1,0,0:0:0:0:
64,192,196262,1,0,0:0:0:0:
320,192,196306,1,0,0:0:0:0:
448,192,196306,1,0,0:0:0:0:
192,192,196350,1,0,0:0:0:0:
64,192,196350,1,0,0:0:0:0:
448,192,196394,1,0,0:0:0:0:
320,192,196394,1,0,0:0:0:0:
192,192,196439,1,0,0:0:0:0:
64,192,196439,1,0,0:0:0:0:
448,192,196483,1,0,0:0:0:0:
320,192,196483,1,0,0:0:0:0:
64,192,196527,1,0,0:0:0:0:
192,192,196527,1,0,0:0:0:0:
320,192,196571,1,0,0:0:0:0:
448,192,196571,1,0,0:0:0:0:
192,192,196615,1,0,0:0:0:0:
64,192,196615,1,0,0:0:0:0:
320,192,196659,1,0,0:0:0:0:
448,192,196659,1,0,0:0:0:0:
192,192,196703,1,0,0:0:0:0:
64,192,196703,1,0,0:0:0:0:
320,192,196747,1,0,0:0:0:0:
448,192,196747,1,0,0:0:0:0:
64,192,196792,1,0,0:0:0:0:
192,192,196792,1,0,0:0:0:0:
448,192,196836,1,0,0:0:0:0:
320,192,196836,1,0,0:0:0:0:
64,192,196880,1,0,0:0:0:0:
192,192,196880,1,0,0:0:0:0:
320,192,196924,1,0,0:0:0:0:
448,192,196924,1,0,0:0:0:0:
64,192,196968,1,0,0:0:0:0:
192,192,196968,1,0,0:0:0:0:
320,192,197012,1,0,0:0:0:0:
448,192,197012,1,0,0:0:0:0:
192,192,197056,1,0,0:0:0:0:
64,192,197056,1,0,0:0:0:0:
448,192,197100,1,0,0:0:0:0:
320,192,197100,1,0,0:0:0:0:
192,192,197144,1,0,0:0:0:0:
64,192,197144,1,0,0:0:0:0:
320,192,197189,1,0,0:0:0:0:
448,192,197189,1,0,0:0:0:0:
64,192,197233,1,0,0:0:0:0:
192,192,197233,1,0,0:0:0:0:
448,192,197277,1,0,0:0:0:0:
320,192,197277,1,0,0:0:0:0:
192,192,197321,1,0,0:0:0:0:
64,192,197321,1,0,0:0:0:0:
448,192,197365,1,0,0:0:0:0:
320,192,197365,1,0,0:0:0:0:
192,192,197409,1,0,0:0:0:0:
64,192,197409,1,0,0:0:0:0:
320,192,197453,1,0,0:0:0:0:
448,192,197453,1,0,0:0:0:0:
192,192,197497,1,0,0:0:0:0:
64,192,197497,1,0,0:0:0:0:
320,192,197542,1,0,0:0:0:0:
448,192,197542,1,0,0:0:0:0:
64,192,197586,1,0,0:0:0:0:
192,192,197586,1,0,0:0:0:0:
448,192,197630,128,0,199394:0:0:0:0:
320,192,197630,1,0,0:0:0:0:
320,192,199394,1,0,0:0:0:0:
64,192,199483,1,0,0:0:0:0:
192,192,199571,1,0,0:0:0:0:
320,192,199659,1,0,0:0:0:0:
64,192,199747,1,0,0:0:0:0:
448,192,199747,1,0,0:0:0:0:
192,192,199924,1,0,0:0:0:0:
320,192,200100,1,0,0:0:0:0:
448,192,200189,1,0,0:0:0:0:
192,192,200277,1,0,0:0:0:0:
64,192,200365,1,0,0:0:0:0:
448,192,200453,128,0,201159:0:0:0:0:
320,192,200453,128,0,201159:0:0:0:0:
192,192,200453,1,0,0:0:0:0:
192,192,201159,128,0,201277:0:0:0:0:
64,192,201159,128,0,201277:0:0:0:0:
448,192,201277,128,0,201394:0:0:0:0:
320,192,201277,128,0,201394:0:0:0:0:
64,192,201394,128,0,201512:0:0:0:0:
192,192,201394,128,0,201512:0:0:0:0:
448,192,201512,128,0,201630:0:0:0:0:
320,192,201512,128,0,201630:0:0:0:0:
64,192,201630,128,0,201747:0:0:0:0:
192,192,201630,128,0,201747:0:0:0:0:
448,192,201747,128,0,201865:0:0:0:0:
320,192,201747,128,0,201865:0:0:0:0:
64,192,201865,128,0,202394:0:0:0:0:
192,192,201865,128,0,202218:0:0:0:0:
448,192,202218,128,0,202394:0:0:0:0:
320,192,202394,128,0,202571:0:0:0:0:
64,192,202571,128,0,203012:0:0:0:0:
448,192,202571,1,0,0:0:0:0:
192,192,202571,128,0,203100:0:0:0:0:
448,192,202924,128,0,203277:0:0:0:0:
320,192,202924,128,0,203189:0:0:0:0:
64,192,203277,128,0,203630:0:0:0:0:
192,192,203277,128,0,203453:0:0:0:0:
320,192,203453,128,0,203630:0:0:0:0:
448,192,203630,128,0,203806:0:0:0:0:
64,192,203806,128,0,203850:0:0:0:0:
192,192,203806,128,0,203850:0:0:0:0:
64,192,203894,128,0,203939:0:0:0:0:
192,192,203894,128,0,203939:0:0:0:0:
320,192,203983,128,0,204115:0:0:0:0:
192,192,203983,1,0,0:0:0:0:
64,192,203983,1,0,0:0:0:0:
320,192,204159,128,0,204336:0:0:0:0:
64,192,204336,128,0,204380:0:0:0:0:
192,192,204336,128,0,204424:0:0:0:0:
448,192,204424,128,0,204468:0:0:0:0:
320,192,204424,128,0,204512:0:0:0:0:
192,192,204512,128,0,204556:0:0:0:0:
64,192,204512,128,0,204600:0:0:0:0:
448,192,204600,128,0,204689:0:0:0:0:
320,192,204600,128,0,204644:0:0:0:0:
192,192,204689,128,0,204777:0:0:0:0:
64,192,204689,128,0,204733:0:0:0:0:
448,192,204777,128,0,204821:0:0:0:0:
320,192,204777,128,0,204865:0:0:0:0:
192,192,204865,128,0,204909:0:0:0:0:
64,192,204865,128,0,204953:0:0:0:0:
320,192,204953,128,0,204997:0:0:0:0:
448,192,204953,128,0,205042:0:0:0:0:
192,192,205042,128,0,205174:0:0:0:0:
64,192,205042,128,0,205174:0:0:0:0:
192,192,205218,128,0,205394:0:0:0:0:
64,192,205218,128,0,205394:0:0:0:0:
448,192,205394,128,0,205659:0:0:0:0:
320,192,205394,128,0,205659:0:0:0:0:
192,192,205483,128,0,205571:0:0:0:0:
64,192,205571,128,0,205747:0:0:0:0:
192,192,205659,128,0,205836:0:0:0:0:
448,192,205747,128,0,206012:0:0:0:0:
320,192,205747,128,0,205924:0:0:0:0:
64,192,205836,128,0,205924:0:0:0:0:
192,192,205924,128,0,206012:0:0:0:0:
320,192,206012,128,0,206100:0:0:0:0:
64,192,206100,128,0,206806:0:0:0:0:
448,192,206100,128,0,206806:0:0:0:0:
192,192,206806,128,0,206865:0:0:0:0:
320,192,206806,1,0,0:0:0:0:
448,192,206865,1,0,0:0:0:0:
64,192,206865,128,0,206924:0:0:0:0:
192,192,206924,1,0,0:0:0:0:
320,192,206924,128,0,206983:0:0:0:0:
448,192,207042,1,0,0:0:0:0:
192,192,207042,128,0,207100:0:0:0:0:
448,192,207159,1,0,0:0:0:0:
320,192,207159,1,0,0:0:0:0:
64,192,207159,128,0,207218:0:0:0:0:
448,192,207336,128,0,207512:0:0:0:0:
64,192,207336,128,0,207512:0:0:0:0:
192,192,207512,128,0,207571:0:0:0:0:
320,192,207512,128,0,207571:0:0:0:0:
320,192,207630,128,0,207689:0:0:0:0:
192,192,207630,128,0,207689:0:0:0:0:
320,192,207747,128,0,207806:0:0:0:0:
192,192,207747,128,0,207806:0:0:0:0:
320,192,207865,128,0,207924:0:0:0:0:
192,192,207865,128,0,207924:0:0:0:0:
448,192,208042,1,0,0:0:0:0:
320,192,208042,128,0,208100:0:0:0:0:
192,192,208042,128,0,208100:0:0:0:0:
448,192,208218,128,0,208394:0:0:0:0:
64,192,208306,128,0,208924:0:0:0:0:
192,192,208394,128,0,208924:0:0:0:0:
448,192,208924,128,0,209100:0:0:0:0:
320,192,208924,1,0,0:0:0:0:
64,192,209100,128,0,209277:0:0:0:0:
192,192,209277,1,0,0:0:0:0:
320,192,209277,128,0,209453:0:0:0:0:
448,192,209277,128,0,209453:0:0:0:0:
192,192,209453,1,0,0:0:0:0:
64,192,209453,128,0,209630:0:0:0:0:
320,192,209630,128,0,209806:0:0:0:0:
448,192,209806,128,0,209983:0:0:0:0:
192,192,209806,1,0,0:0:0:0:
64,192,209983,128,0,210071:0:0:0:0:
192,192,209983,1,0,0:0:0:0:
320,192,210071,128,0,210159:0:0:0:0:
192,192,210159,128,0,210336:0:0:0:0:
320,192,210336,1,0,0:0:0:0:
64,192,210336,128,0,210453:0:0:0:0:
448,192,210336,1,0,0:0:0:0:
192,192,210453,1,0,0:0:0:0:
448,192,210512,1,0,0:0:0:0:
320,192,210556,1,0,0:0:0:0:
192,192,210600,1,0,0:0:0:0:
64,192,210600,1,0,0:0:0:0:
448,192,210689,1,0,0:0:0:0:
64,192,210689,1,0,0:0:0:0:
320,192,210865,1,0,0:0:0:0:
448,192,210865,1,0,0:0:0:0:
64,192,210865,1,0,0:0:0:0:
192,192,210953,1,0,0:0:0:0:
320,192,211042,1,0,0:0:0:0:
448,192,211042,1,0,0:0:0:0:
64,192,211042,1,0,0:0:0:0:
64,192,211218,1,0,0:0:0:0:
192,192,211218,1,0,0:0:0:0:
64,192,211306,1,0,0:0:0:0:
192,192,211306,1,0,0:0:0:0:
320,192,211394,1,0,0:0:0:0:
448,192,211394,1,0,0:0:0:0:
448,192,211571,1,0,0:0:0:0:
320,192,211571,1,0,0:0:0:0:
448,192,211747,128,0,212453:0:0:0:0:
192,192,211747,1,0,0:0:0:0:
64,192,211747,1,0,0:0:0:0:
320,192,211924,1,0,0:0:0:0:
64,192,212100,1,0,0:0:0:0:
192,192,212100,1,0,0:0:0:0:
320,192,212277,1,0,0:0:0:0:
192,192,212321,1,0,0:0:0:0:
64,192,212365,1,0,0:0:0:0:
192,192,212453,1,0,0:0:0:0:
320,192,212453,128,0,212806:0:0:0:0:
192,192,212806,128,0,212894:0:0:0:0:
64,192,212806,1,0,0:0:0:0:
320,192,212894,128,0,212983:0:0:0:0:
448,192,212894,1,0,0:0:0:0:
64,192,212983,128,0,213071:0:0:0:0:
192,192,212983,1,0,0:0:0:0:
448,192,213071,128,0,213159:0:0:0:0:
320,192,213071,1,0,0:0:0:0:
192,192,213159,128,0,213247:0:0:0:0:
64,192,213159,1,0,0:0:0:0:
320,192,213247,128,0,213336:0:0:0:0:
448,192,213247,1,0,0:0:0:0:
64,192,213336,128,0,213424:0:0:0:0:
192,192,213336,1,0,0:0:0:0:
448,192,213424,128,0,213512:0:0:0:0:
320,192,213424,1,0,0:0:0:0:
64,192,213512,1,0,0:0:0:0:
192,192,213512,128,0,213600:0:0:0:0:
320,192,213600,128,0,213689:0:0:0:0:
448,192,213600,1,0,0:0:0:0:
64,192,213689,128,0,213777:0:0:0:0:
192,192,213689,1,0,0:0:0:0:
320,192,213777,1,0,0:0:0:0:
448,192,213777,128,0,213865:0:0:0:0:
64,192,213865,1,0,0:0:0:0:
192,192,213865,1,0,0:0:0:0:
320,192,213953,1,0,0:0:0:0:
192,192,214042,128,0,214130:0:0:0:0:
448,192,214042,1,0,0:0:0:0:
64,192,214042,128,0,214130:0:0:0:0:
320,192,214130,1,0,0:0:0:0:
192,192,214218,128,0,214306:0:0:0:0:
448,192,214218,1,0,0:0:0:0:
64,192,214218,128,0,214306:0:0:0:0:
320,192,214306,1,0,0:0:0:0:
192,192,214394,128,0,214483:0:0:0:0:
448,192,214394,1,0,0:0:0:0:
64,192,214394,128,0,214483:0:0:0:0:
320,192,214483,1,0,0:0:0:0:
64,192,214571,1,0,0:0:0:0:
192,192,214571,128,0,214659:0:0:0:0:
448,192,214747,128,0,214836:0:0:0:0:
192,192,214924,128,0,215012:0:0:0:0:
320,192,215100,128,0,215189:0:0:0:0:
64,192,215189,128,0,215277:0:0:0:0:
448,192,215277,128,0,215453:0:0:0:0:
192,192,215453,128,0,215542:0:0:0:0:
64,192,215630,1,0,0:0:0:0:
448,192,215630,128,0,215983:0:0:0:0:
320,192,215630,128,0,215806:0:0:0:0:
192,192,215806,1,0,0:0:0:0:
64,192,215850,1,0,0:0:0:0:
192,192,215894,1,0,0:0:0:0:
64,192,215939,1,0,0:0:0:0:
320,192,215983,1,0,0:0:0:0:
320,192,216071,1,0,0:0:0:0:
192,192,216159,1,0,0:0:0:0:
320,192,216159,1,0,0:0:0:0:
320,192,216247,1,0,0:0:0:0:
320,192,216336,1,0,0:0:0:0:
320,192,216424,1,0,0:0:0:0:
192,192,216512,1,0,0:0:0:0:
320,192,216512,1,0,0:0:0:0:
320,192,216600,1,0,0:0:0:0:
192,192,216689,1,0,0:0:0:0:
64,192,216689,128,0,216777:0:0:0:0:
448,192,216689,1,0,0:0:0:0:
320,192,216777,128,0,216865:0:0:0:0:
192,192,216865,128,0,216953:0:0:0:0:
448,192,216953,128,0,217042:0:0:0:0:
320,192,217042,128,0,217130:0:0:0:0:
64,192,217130,128,0,217218:0:0:0:0:
448,192,217218,128,0,217306:0:0:0:0:
192,192,217306,128,0,217394:0:0:0:0:
64,192,217394,128,0,217747:0:0:0:0:
320,192,217394,1,0,0:0:0:0:
448,192,217394,1,0,0:0:0:0:
448,192,217747,1,0,0:0:0:0:
192,192,217747,1,0,0:0:0:0:
320,192,217747,1,0,0:0:0:0:
64,192,217836,1,0,0:0:0:0:
320,192,217924,1,0,0:0:0:0:
192,192,218012,1,0,0:0:0:0:
320,192,218100,1,0,0:0:0:0:
448,192,218100,128,0,218277:0:0:0:0:
192,192,218277,1,0,0:0:0:0:
320,192,218365,1,0,0:0:0:0:
64,192,218453,1,0,0:0:0:0:
448,192,218453,1,0,0:0:0:0:
192,192,218453,128,0,218542:0:0:0:0:
320,192,218542,128,0,218630:0:0:0:0:
64,192,218630,128,0,218806:0:0:0:0:
448,192,218718,1,0,0:0:0:0:
192,192,218806,1,0,0:0:0:0:
320,192,218806,1,0,0:0:0:0:
448,192,218894,1,0,0:0:0:0:
192,192,218983,1,0,0:0:0:0:
320,192,219071,1,0,0:0:0:0:
448,192,219159,1,0,0:0:0:0:
64,192,219159,1,0,0:0:0:0:
192,192,219159,1,0,0:0:0:0:
320,192,219336,128,0,219512:0:0:0:0:
64,192,219512,1,0,0:0:0:0:
192,192,219512,1,0,0:0:0:0:
448,192,219689,128,0,219865:0:0:0:0:
192,192,219865,1,0,0:0:0:0:
64,192,219865,1,0,0:0:0:0:
320,192,219865,1,0,0:0:0:0:
64,192,220042,128,0,220218:0:0:0:0:
192,192,220218,1,0,0:0:0:0:
320,192,220218,128,0,220747:0:0:0:0:
448,192,220218,128,0,220747:0:0:0:0:
192,192,220747,1,0,0:0:0:0:
64,192,220747,1,0,0:0:0:0:
192,192,220924,1,0,0:0:0:0:
448,192,220924,1,0,0:0:0:0:
320,192,220924,128,0,221012:0:0:0:0:
64,192,221100,1,0,0:0:0:0:
448,192,221100,1,0,0:0:0:0:
192,192,221100,128,0,221189:0:0:0:0:
320,192,221277,1,0,0:0:0:0:
64,192,221277,1,0,0:0:0:0:
448,192,221277,128,0,221365:0:0:0:0:
320,192,221453,1,0,0:0:0:0:
192,192,221453,1,0,0:0:0:0:
64,192,221453,128,0,221542:0:0:0:0:
320,192,221630,1,0,0:0:0:0:
448,192,221630,128,0,221983:0:0:0:0:
192,192,221806,128,0,222159:0:0:0:0:
320,192,221983,128,0,222159:0:0:0:0:
64,192,222159,128,0,222512:0:0:0:0:
448,192,222159,1,0,0:0:0:0:
320,192,222247,1,0,0:0:0:0:
192,192,222336,128,0,222689:0:0:0:0:
448,192,222512,128,0,222865:0:0:0:0:
320,192,222689,128,0,222865:0:0:0:0:
192,192,222865,128,0,223042:0:0:0:0:
64,192,223042,128,0,223306:0:0:0:0:
320,192,223042,128,0,223747:0:0:0:0:
448,192,223042,128,0,223747:0:0:0:0:
64,192,223394,128,0,223659:0:0:0:0:
192,192,223747,128,0,224100:0:0:0:0:
64,192,223747,1,0,0:0:0:0:
448,192,224100,1,0,0:0:0:0:
320,192,224144,1,0,0:0:0:0:
192,192,224189,1,0,0:0:0:0:
64,192,224233,1,0,0:0:0:0:
320,192,224277,1,0,0:0:0:0:
448,192,224321,1,0,0:0:0:0:
192,192,224365,1,0,0:0:0:0:
320,192,224409,1,0,0:0:0:0:
64,192,224453,1,0,0:0:0:0:
192,192,224453,1,0,0:0:0:0:
448,192,224453,128,0,224806:0:0:0:0:
192,192,224806,128,0,225159:0:0:0:0:
64,192,224806,1,0,0:0:0:0:
320,192,225159,128,0,225336:0:0:0:0:
448,192,225159,1,0,0:0:0:0:
64,192,225336,128,0,225689:0:0:0:0:
448,192,225336,1,0,0:0:0:0:
192,192,225336,1,0,0:0:0:0:
448,192,225512,128,0,225571:0:0:0:0:
320,192,225571,128,0,225630:0:0:0:0:
192,192,225630,128,0,225689:0:0:0:0:
448,192,225689,1,0,0:0:0:0:
320,192,225733,1,0,0:0:0:0:
192,192,225777,1,0,0:0:0:0:
64,192,225821,1,0,0:0:0:0:
192,192,225865,1,0,0:0:0:0:
320,192,225865,1,0,0:0:0:0:
448,192,225865,1,0,0:0:0:0:
64,192,226218,128,0,226262:0:0:0:0:
192,192,226218,128,0,226306:0:0:0:0:
320,192,226306,128,0,226394:0:0:0:0:
448,192,226306,128,0,226350:0:0:0:0:
64,192,226394,128,0,226483:0:0:0:0:
192,192,226394,128,0,226439:0:0:0:0:
448,192,226483,128,0,226571:0:0:0:0:
320,192,226483,128,0,226527:0:0:0:0:
64,192,226571,128,0,226659:0:0:0:0:
192,192,226571,128,0,226836:0:0:0:0:
64,192,226747,128,0,226836:0:0:0:0:
448,192,226924,1,0,0:0:0:0:
192,192,226924,128,0,227012:0:0:0:0:
64,192,226924,128,0,227277:0:0:0:0:
192,192,227100,128,0,227189:0:0:0:0:
320,192,227277,1,0,0:0:0:0:
448,192,227277,128,0,227630:0:0:0:0:
192,192,227277,1,0,0:0:0:0:
320,192,227453,1,0,0:0:0:0:
192,192,227497,1,0,0:0:0:0:
64,192,227542,1,0,0:0:0:0:
320,192,227586,1,0,0:0:0:0:
64,192,227630,128,0,227674:0:0:0:0:
192,192,227630,1,0,0:0:0:0:
320,192,227718,128,0,227762:0:0:0:0:
448,192,227718,1,0,0:0:0:0:
64,192,227806,128,0,227850:0:0:0:0:
192,192,227806,1,0,0:0:0:0:
320,192,227894,128,0,227939:0:0:0:0:
448,192,227894,1,0,0:0:0:0:
448,192,227983,128,0,228689:0:0:0:0:
64,192,227983,1,0,0:0:0:0:
192,192,227983,1,0,0:0:0:0:
192,192,228336,128,0,228380:0:0:0:0:
64,192,228336,128,0,228380:0:0:0:0:
192,192,228424,128,0,228468:0:0:0:0:
64,192,228424,128,0,228468:0:0:0:0:
64,192,228512,128,0,228556:0:0:0:0:
192,192,228512,128,0,228556:0:0:0:0:
192,192,228600,128,0,228644:0:0:0:0:
64,192,228600,128,0,228644:0:0:0:0:
320,192,228689,1,0,0:0:0:0:
64,192,228689,128,0,228865:0:0:0:0:
320,192,228865,128,0,229042:0:0:0:0:
192,192,229042,128,0,229218:0:0:0:0:
448,192,229042,1,0,0:0:0:0:
64,192,229042,1,0,0:0:0:0:
320,192,229218,128,0,229262:0:0:0:0:
448,192,229306,128,0,229350:0:0:0:0:
64,192,229394,128,0,229439:0:0:0:0:
320,192,229394,1,0,0:0:0:0:
192,192,229483,128,0,229527:0:0:0:0:
64,192,229571,128,0,230100:0:0:0:0:
448,192,229571,1,0,0:0:0:0:
448,192,229747,128,0,229836:0:0:0:0:
192,192,229924,128,0,230012:0:0:0:0:
320,192,230012,1,0,0:0:0:0:
192,192,230100,1,0,0:0:0:0:
448,192,230100,128,0,230453:0:0:0:0:
192,192,230277,1,0,0:0:0:0:
64,192,230453,128,0,230542:0:0:0:0:
192,192,230453,128,0,230542:0:0:0:0:
448,192,230542,128,0,230630:0:0:0:0:
320,192,230542,128,0,230630:0:0:0:0:
192,192,230630,128,0,230718:0:0:0:0:
64,192,230630,128,0,230718:0:0:0:0:
320,192,230718,128,0,230806:0:0:0:0:
448,192,230718,128,0,230806:0:0:0:0:
64,192,230806,128,0,230894:0:0:0:0:
192,192,230806,1,0,0:0:0:0:
320,192,230983,1,0,0:0:0:0:
192,192,230983,128,0,231071:0:0:0:0:
64,192,230983,128,0,231071:0:0:0:0:
192,192,231159,128,0,231247:0:0:0:0:
320,192,231159,128,0,231247:0:0:0:0:
448,192,231159,1,0,0:0:0:0:
64,192,231336,1,0,0:0:0:0:
320,192,231336,128,0,231424:0:0:0:0:
448,192,231336,128,0,231424:0:0:0:0:
448,192,231512,1,0,0:0:0:0:
64,192,231512,128,0,232130:0:0:0:0:
320,192,231512,1,0,0:0:0:0:
192,192,231689,1,0,0:0:0:0:
448,192,231777,1,0,0:0:0:0:
192,192,231865,1,0,0:0:0:0:
320,192,231865,1,0,0:0:0:0:
448,192,232042,128,0,232218:0:0:0:0:
192,192,232218,128,0,232394:0:0:0:0:
64,192,232218,128,0,232924:0:0:0:0:
320,192,232394,128,0,232571:0:0:0:0:
448,192,232394,1,0,0:0:0:0:
448,192,232571,1,0,0:0:0:0:
192,192,232571,1,0,0:0:0:0:
320,192,232747,128,0,232924:0:0:0:0:
448,192,232924,128,0,233630:0:0:0:0:
192,192,232924,1,0,0:0:0:0:
64,192,233100,1,0,0:0:0:0:
192,192,233144,1,0,0:0:0:0:
320,192,233189,1,0,0:0:0:0:
64,192,233233,1,0,0:0:0:0:
192,192,233277,1,0,0:0:0:0:
320,192,233277,128,0,233453:0:0:0:0:
192,192,233365,128,0,233542:0:0:0:0:
64,192,233453,128,0,233806:0:0:0:0:
320,192,233542,128,0,233718:0:0:0:0:
192,192,233630,128,0,233894:0:0:0:0:
448,192,233718,128,0,234159:0:0:0:0:
320,192,233806,128,0,233983:0:0:0:0:
64,192,233894,128,0,234247:0:0:0:0:
192,192,233983,128,0,234071:0:0:0:0:
320,192,234071,128,0,234247:0:0:0:0:
192,192,234159,128,0,234247:0:0:0:0:
448,192,234247,128,0,234336:0:0:0:0:
192,192,234336,1,0,0:0:0:0:
320,192,234336,1,0,0:0:0:0:
64,192,234336,128,0,234953:0:0:0:0:
448,192,234512,1,0,0:0:0:0:
192,192,234689,1,0,0:0:0:0:
448,192,234865,1,0,0:0:0:0:
320,192,234909,1,0,0:0:0:0:
192,192,234953,1,0,0:0:0:0:
64,192,235042,1,0,0:0:0:0:
448,192,235042,128,0,235747:0:0:0:0:
320,192,235042,128,0,235747:0:0:0:0:
192,192,235394,1,0,0:0:0:0:
64,192,235571,1,0,0:0:0:0:
192,192,235747,1,0,0:0:0:0:
64,192,235747,128,0,236100:0:0:0:0:
448,192,235924,1,0,0:0:0:0:
320,192,236100,128,0,236277:0:0:0:0:
192,192,236277,128,0,236453:0:0:0:0:
448,192,236277,1,0,0:0:0:0:
64,192,236453,1,0,0:0:0:0:
320,192,236453,1,0,0:0:0:0:
448,192,236453,128,0,237159:0:0:0:0:
192,192,236542,128,0,236630:0:0:0:0:
320,192,236630,128,0,236718:0:0:0:0:
320,192,236806,128,0,236894:0:0:0:0:
320,192,236983,128,0,237071:0:0:0:0:
192,192,237159,128,0,237512:0:0:0:0:
320,192,237159,1,0,0:0:0:0:
64,192,237159,128,0,237512:0:0:0:0:
448,192,237512,128,0,237556:0:0:0:0:
320,192,237600,128,0,237644:0:0:0:0:
64,192,237689,128,0,237733:0:0:0:0:
192,192,237777,128,0,237821:0:0:0:0:
448,192,237865,128,0,237953:0:0:0:0:
320,192,237865,1,0,0:0:0:0:
64,192,237865,128,0,238571:0:0:0:0:
320,192,238042,1,0,0:0:0:0:
192,192,238042,128,0,238130:0:0:0:0:
320,192,238218,128,0,238306:0:0:0:0:
448,192,238218,1,0,0:0:0:0:
448,192,238394,1,0,0:0:0:0:
192,192,238394,128,0,238483:0:0:0:0:
320,192,238571,128,0,238615:0:0:0:0:
448,192,238571,1,0,0:0:0:0:
192,192,238659,128,0,238703:0:0:0:0:
64,192,238659,1,0,0:0:0:0:
448,192,238747,1,0,0:0:0:0:
320,192,238747,128,0,238792:0:0:0:0:
448,192,238924,128,0,239012:0:0:0:0:
192,192,238924,1,0,0:0:0:0:
448,192,239100,128,0,239189:0:0:0:0:
192,192,239100,1,0,0:0:0:0:
320,192,239277,128,0,239453:0:0:0:0:
192,192,239277,1,0,0:0:0:0:
64,192,239277,1,0,0:0:0:0:
448,192,239365,128,0,239806:0:0:0:0:
192,192,239453,128,0,239630:0:0:0:0:
320,192,239542,128,0,239718:0:0:0:0:
64,192,239630,128,0,239894:0:0:0:0:
192,192,239718,128,0,239894:0:0:0:0:
320,192,239806,128,0,239894:0:0:0:0:
448,192,239894,128,0,239983:0:0:0:0:
320,192,239983,1,0,0:0:0:0:
192,192,239983,1,0,0:0:0:0:
64,192,239983,128,0,240336:0:0:0:0:
448,192,240336,1,0,0:0:0:0:
320,192,240336,1,0,0:0:0:0:
192,192,240336,1,0,0:0:0:0:
192,192,240424,1,0,0:0:0:0:
320,192,240512,1,0,0:0:0:0:
448,192,240600,1,0,0:0:0:0:
64,192,240689,128,0,241394:0:0:0:0:
192,192,240689,1,0,0:0:0:0:
448,192,240865,1,0,0:0:0:0:
192,192,241042,1,0,0:0:0:0:
320,192,241042,1,0,0:0:0:0:
448,192,241130,1,0,0:0:0:0:
192,192,241218,1,0,0:0:0:0:
320,192,241306,1,0,0:0:0:0:
448,192,241394,1,0,0:0:0:0:
192,192,241394,128,0,241483:0:0:0:0:
320,192,241483,128,0,241571:0:0:0:0:
64,192,241571,128,0,241659:0:0:0:0:
448,192,241659,1,0,0:0:0:0:
320,192,241659,128,0,241747:0:0:0:0:
64,192,241747,1,0,0:0:0:0:
448,192,241747,1,0,0:0:0:0:
192,192,241747,128,0,241924:0:0:0:0:
448,192,241924,128,0,242100:0:0:0:0:
320,192,241924,1,0,0:0:0:0:
64,192,242100,1,0,0:0:0:0:
320,192,242100,1,0,0:0:0:0:
192,192,242100,1,0,0:0:0:0:
448,192,242277,1,0,0:0:0:0:
448,192,242453,1,0,0:0:0:0:
192,192,242453,1,0,0:0:0:0:
64,192,242453,1,0,0:0:0:0:
192,192,242630,1,0,0:0:0:0:
64,192,242718,1,0,0:0:0:0:
448,192,242806,1,0,0:0:0:0:
320,192,242806,128,0,242983:0:0:0:0:
64,192,242983,1,0,0:0:0:0:
192,192,242983,1,0,0:0:0:0:
448,192,243159,128,0,243336:0:0:0:0:
320,192,243159,1,0,0:0:0:0:
192,192,243336,1,0,0:0:0:0:
64,192,243336,1,0,0:0:0:0:
320,192,243512,1,0,0:0:0:0:
448,192,243512,128,0,243689:0:0:0:0:
192,192,243689,1,0,0:0:0:0:
64,192,243689,1,0,0:0:0:0:
448,192,243865,128,0,244042:0:0:0:0:
320,192,243865,1,0,0:0:0:0:
192,192,244042,1,0,0:0:0:0:
64,192,244042,1,0,0:0:0:0:
448,192,244218,1,0,0:0:0:0:
320,192,244218,128,0,244306:0:0:0:0:
192,192,244394,128,0,244483:0:0:0:0:
320,192,244483,1,0,0:0:0:0:
448,192,244571,1,0,0:0:0:0:
64,192,244571,128,0,244659:0:0:0:0:
448,192,244747,128,0,244836:0:0:0:0:
64,192,244747,1,0,0:0:0:0:
192,192,244792,1,0,0:0:0:0:
320,192,244836,1,0,0:0:0:0:
64,192,244880,1,0,0:0:0:0:
192,192,244924,1,0,0:0:0:0:
320,192,245012,1,0,0:0:0:0:
448,192,245100,1,0,0:0:0:0:
192,192,245189,1,0,0:0:0:0:
320,192,245277,1,0,0:0:0:0:
448,192,245277,1,0,0:0:0:0:
64,192,245277,1,0,0:0:0:0:
192,192,245630,1,0,0:0:0:0:
320,192,245630,1,0,0:0:0:0:
448,192,245630,1,0,0:0:0:0:
64,192,245630,128,0,247747:0:0:0:0:
192,192,245983,1,0,0:0:0:0:
448,192,245983,1,0,0:0:0:0:
320,192,245983,1,0,0:0:0:0:
320,192,246512,1,0,0:0:0:0:
448,192,246512,1,0,0:0:0:0:
192,192,246689,1,0,0:0:0:0:
448,192,246689,1,0,0:0:0:0:
320,192,246689,1,0,0:0:0:0:
192,192,247042,1,0,0:0:0:0:
320,192,247042,1,0,0:0:0:0:
192,192,247394,1,0,0:0:0:0:
320,192,247394,1,0,0:0:0:0:
448,192,247394,1,0,0:0:0:0:
320,192,247571,1,0,0:0:0:0:
192,192,247571,1,0,0:0:0:0:
448,192,247747,128,0,248453:0:0:0:0:
192,192,247924,1,0,0:0:0:0:
320,192,247924,1,0,0:0:0:0:
64,192,248100,1,0,0:0:0:0:
192,192,248100,1,0,0:0:0:0:
320,192,248100,1,0,0:0:0:0:
64,192,248453,128,0,249865:0:0:0:0:
192,192,248453,1,0,0:0:0:0:
320,192,248453,1,0,0:0:0:0:
192,192,248806,1,0,0:0:0:0:
320,192,248806,1,0,0:0:0:0:
448,192,248806,1,0,0:0:0:0:
320,192,249336,1,0,0:0:0:0:
448,192,249336,1,0,0:0:0:0:
192,192,249512,1,0,0:0:0:0:
320,192,249512,1,0,0:0:0:0:
448,192,249512,1,0,0:0:0:0:
448,192,249865,1,0,0:0:0:0:
320,192,249865,1,0,0:0:0:0:
192,192,249865,128,0,250394:0:0:0:0:
320,192,250130,1,0,0:0:0:0:
448,192,250218,1,0,0:0:0:0:
320,192,250218,1,0,0:0:0:0:
64,192,250218,1,0,0:0:0:0:
448,192,250394,128,0,251277:0:0:0:0:
64,192,250394,1,0,0:0:0:0:
320,192,250747,1,0,0:0:0:0:
192,192,250747,1,0,0:0:0:0:
64,192,250924,1,0,0:0:0:0:
192,192,250924,1,0,0:0:0:0:
320,192,250924,1,0,0:0:0:0:
64,192,251277,128,0,251806:0:0:0:0:
192,192,251277,1,0,0:0:0:0:
320,192,251277,1,0,0:0:0:0:
192,192,251630,1,0,0:0:0:0:
320,192,251630,1,0,0:0:0:0:
448,192,251630,1,0,0:0:0:0:
320,192,251806,128,0,251894:0:0:0:0:
448,192,251806,128,0,251894:0:0:0:0:
192,192,251894,128,0,251983:0:0:0:0:
64,192,251894,128,0,251983:0:0:0:0:
320,192,251983,128,0,252071:0:0:0:0:
448,192,251983,128,0,252071:0:0:0:0:
192,192,252159,128,0,252247:0:0:0:0:
320,192,252159,128,0,252247:0:0:0:0:
64,192,252159,1,0,0:0:0:0:
64,192,252336,128,0,252424:0:0:0:0:
192,192,252336,128,0,252424:0:0:0:0:
448,192,252336,1,0,0:0:0:0:
64,192,252512,128,0,252600:0:0:0:0:
448,192,252512,128,0,252600:0:0:0:0:
192,192,252689,128,0,253042:0:0:0:0:
320,192,252689,128,0,253042:0:0:0:0:
448,192,252689,1,0,0:0:0:0:
64,192,253042,1,0,0:0:0:0:
448,192,253042,128,0,253218:0:0:0:0:
192,192,253218,128,0,253306:0:0:0:0:
64,192,253218,128,0,253306:0:0:0:0:
320,192,253306,128,0,253394:0:0:0:0:
448,192,253306,128,0,253394:0:0:0:0:
64,192,253394,128,0,253483:0:0:0:0:
192,192,253394,128,0,253483:0:0:0:0:
192,192,253571,128,0,253659:0:0:0:0:
320,192,253571,128,0,253659:0:0:0:0:
64,192,253571,1,0,0:0:0:0:
320,192,253747,128,0,253836:0:0:0:0:
448,192,253747,128,0,253836:0:0:0:0:
192,192,253747,1,0,0:0:0:0:
64,192,253924,128,0,254012:0:0:0:0:
448,192,253924,128,0,254012:0:0:0:0:
192,192,254100,128,0,254453:0:0:0:0:
320,192,254100,128,0,254453:0:0:0:0:
64,192,254100,1,0,0:0:0:0:
64,192,254453,128,0,254542:0:0:0:0:
448,192,254453,128,0,254542:0:0:0:0:
64,192,254630,128,0,254718:0:0:0:0:
320,192,254630,128,0,254718:0:0:0:0:
448,192,254718,128,0,254806:0:0:0:0:
192,192,254718,128,0,254806:0:0:0:0:
64,192,254806,128,0,254894:0:0:0:0:
320,192,254806,128,0,254894:0:0:0:0:
192,192,254983,128,0,255071:0:0:0:0:
448,192,254983,128,0,255071:0:0:0:0:
320,192,254983,1,0,0:0:0:0:
320,192,255159,128,0,255247:0:0:0:0:
448,192,255159,128,0,255247:0:0:0:0:
64,192,255159,1,0,0:0:0:0:
64,192,255336,128,0,255424:0:0:0:0:
192,192,255336,128,0,255424:0:0:0:0:
320,192,255512,128,0,255689:0:0:0:0:
448,192,255512,128,0,255777:0:0:0:0:
64,192,255512,1,0,0:0:0:0:
192,192,255600,128,0,255865:0:0:0:0:
64,192,255689,128,0,255777:0:0:0:0:
320,192,255777,128,0,255953:0:0:0:0:
448,192,255865,128,0,255953:0:0:0:0:
64,192,255865,128,0,256130:0:0:0:0:
192,192,255953,128,0,256042:0:0:0:0:
320,192,256042,128,0,256306:0:0:0:0:
448,192,256042,128,0,256394:0:0:0:0:
192,192,256130,128,0,256218:0:0:0:0:
64,192,256218,128,0,256306:0:0:0:0:
192,192,256306,128,0,256394:0:0:0:0:
320,192,256394,128,0,256483:0:0:0:0:
64,192,256394,1,0,0:0:0:0:
448,192,256483,128,0,256571:0:0:0:0:
192,192,256571,1,0,0:0:0:0:
64,192,256571,1,0,0:0:0:0:
64,192,256659,1,0,0:0:0:0:
192,192,256659,1,0,0:0:0:0:
192,192,256747,1,0,0:0:0:0:
64,192,256747,1,0,0:0:0:0:
64,192,256836,1,0,0:0:0:0:
192,192,256836,1,0,0:0:0:0:
448,192,256924,128,0,259042:0:0:0:0:
64,192,256924,1,0,0:0:0:0:
320,192,256924,1,0,0:0:0:0:
192,192,256924,1,0,0:0:0:0:
64,192,257277,1,0,0:0:0:0:
192,192,257277,1,0,0:0:0:0:
320,192,257277,1,0,0:0:0:0:
64,192,257806,1,0,0:0:0:0:
192,192,257806,1,0,0:0:0:0:
320,192,257983,1,0,0:0:0:0:
64,192,257983,1,0,0:0:0:0:
192,192,257983,1,0,0:0:0:0:
192,192,258336,1,0,0:0:0:0:
320,192,258336,1,0,0:0:0:0:
192,192,258689,1,0,0:0:0:0:
320,192,258689,1,0,0:0:0:0:
64,192,258689,1,0,0:0:0:0:
320,192,258865,1,0,0:0:0:0:
192,192,258865,1,0,0:0:0:0:
64,192,259042,128,0,259747:0:0:0:0:
192,192,259218,1,0,0:0:0:0:
320,192,259218,1,0,0:0:0:0:
192,192,259394,1,0,0:0:0:0:
448,192,259394,1,0,0:0:0:0:
320,192,259394,1,0,0:0:0:0:
320,192,259747,1,0,0:0:0:0:
192,192,259747,1,0,0:0:0:0:
448,192,259747,128,0,261159:0:0:0:0:
192,192,260100,1,0,0:0:0:0:
320,192,260100,1,0,0:0:0:0:
64,192,260100,1,0,0:0:0:0:
192,192,260630,1,0,0:0:0:0:
64,192,260630,1,0,0:0:0:0:
320,192,260806,1,0,0:0:0:0:
192,192,260806,1,0,0:0:0:0:
64,192,260806,1,0,0:0:0:0:
320,192,261159,128,0,261689:0:0:0:0:
64,192,261159,1,0,0:0:0:0:
192,192,261159,1,0,0:0:0:0:
192,192,261512,1,0,0:0:0:0:
64,192,261512,1,0,0:0:0:0:
448,192,261512,1,0,0:0:0:0:
448,192,261689,1,0,0:0:0:0:
64,192,261689,128,0,262571:0:0:0:0:
192,192,262042,1,0,0:0:0:0:
320,192,262042,1,0,0:0:0:0:
448,192,262218,1,0,0:0:0:0:
320,192,262218,1,0,0:0:0:0:
192,192,262218,1,0,0:0:0:0:
448,192,262571,128,0,263100:0:0:0:0:
320,192,262571,1,0,0:0:0:0:
192,192,262571,1,0,0:0:0:0:
192,192,262924,1,0,0:0:0:0:
64,192,262924,1,0,0:0:0:0:
320,192,262924,1,0,0:0:0:0:
64,192,263100,128,0,263189:0:0:0:0:
192,192,263100,128,0,263189:0:0:0:0:
320,192,263189,128,0,263277:0:0:0:0:
448,192,263189,128,0,263277:0:0:0:0:
64,192,263277,128,0,263365:0:0:0:0:
192,192,263277,128,0,263365:0:0:0:0:
320,192,263453,128,0,263542:0:0:0:0:
448,192,263453,1,0,0:0:0:0:
192,192,263453,128,0,263542:0:0:0:0:
320,192,263630,128,0,263718:0:0:0:0:
64,192,263630,1,0,0:0:0:0:
448,192,263630,128,0,263718:0:0:0:0:
64,192,263806,128,0,263894:0:0:0:0:
448,192,263806,128,0,263894:0:0:0:0:
320,192,263983,128,0,264336:0:0:0:0:
192,192,263983,128,0,264336:0:0:0:0:
64,192,263983,1,0,0:0:0:0:
64,192,264336,128,0,264512:0:0:0:0:
448,192,264336,1,0,0:0:0:0:
320,192,264512,128,0,264600:0:0:0:0:
448,192,264512,128,0,264600:0:0:0:0:
192,192,264600,128,0,264689:0:0:0:0:
64,192,264600,128,0,264689:0:0:0:0:
320,192,264689,128,0,264777:0:0:0:0:
448,192,264689,128,0,264777:0:0:0:0:
192,192,264865,128,0,264953:0:0:0:0:
320,192,264865,128,0,264953:0:0:0:0:
448,192,264865,1,0,0:0:0:0:
320,192,265042,1,0,0:0:0:0:
192,192,265042,128,0,265130:0:0:0:0:
64,192,265042,128,0,265130:0:0:0:0:
448,192,265218,128,0,265306:0:0:0:0:
64,192,265218,128,0,265306:0:0:0:0:
320,192,265394,128,0,265747:0:0:0:0:
192,192,265394,128,0,265747:0:0:0:0:
448,192,265394,1,0,0:0:0:0:
64,192,265747,128,0,265836:0:0:0:0:
448,192,265747,128,0,265836:0:0:0:0:
192,192,265924,128,0,266012:0:0:0:0:
448,192,265924,128,0,266012:0:0:0:0:
64,192,266012,128,0,266100:0:0:0:0:
320,192,266012,128,0,266100:0:0:0:0:
448,192,266100,128,0,266189:0:0:0:0:
192,192,266100,128,0,266189:0:0:0:0:
320,192,266277,128,0,266365:0:0:0:0:
192,192,266277,1,0,0:0:0:0:
64,192,266277,128,0,266365:0:0:0:0:
448,192,266453,1,0,0:0:0:0:
64,192,266453,128,0,266542:0:0:0:0:
192,192,266453,128,0,266542:0:0:0:0:
320,192,266630,128,0,266718:0:0:0:0:
448,192,266630,128,0,266718:0:0:0:0:
192,192,266806,128,0,266983:0:0:0:0:
64,192,266806,128,0,266894:0:0:0:0:
448,192,266806,1,0,0:0:0:0:
320,192,266894,128,0,267071:0:0:0:0:
448,192,266983,128,0,267071:0:0:0:0:
64,192,266983,128,0,267071:0:0:0:0:
192,192,267071,128,0,267159:0:0:0:0:
448,192,267159,128,0,267336:0:0:0:0:
64,192,267159,128,0,267247:0:0:0:0:
320,192,267159,128,0,267247:0:0:0:0:
192,192,267247,128,0,267424:0:0:0:0:
64,192,267336,128,0,267512:0:0:0:0:
320,192,267336,128,0,267424:0:0:0:0:
448,192,267424,128,0,267600:0:0:0:0:
192,192,267512,128,0,267600:0:0:0:0:
320,192,267512,128,0,267600:0:0:0:0:
64,192,267600,128,0,267689:0:0:0:0:
192,192,267689,128,0,267865:0:0:0:0:
320,192,267689,128,0,267777:0:0:0:0:
448,192,267689,128,0,267777:0:0:0:0:
64,192,267777,128,0,267865:0:0:0:0:
320,192,267865,1,0,0:0:0:0:
448,192,267865,1,0,0:0:0:0:
320,192,267953,1,0,0:0:0:0:
448,192,267953,1,0,0:0:0:0:
448,192,268042,1,0,0:0:0:0:
320,192,268042,1,0,0:0:0:0:
448,192,268130,1,0,0:0:0:0:
320,192,268130,1,0,0:0:0:0:
64,192,268218,1,0,0:0:0:0:
192,192,268218,1,0,0:0:0:0:
320,192,268218,1,0,0:0:0:0:
448,192,268218,1,0,0:0:0:0:
