osu file format v14

[General]
AudioFilename: audio.MP3
AudioLeadIn: 0
PreviewTime: 68370
Countdown: 1
SampleSet: None
StackLeniency: 0.7
Mode: 3
LetterboxInBreaks: 0
SpecialStyle: 0
WidescreenStoryboard: 0

[Editor]
Bookmarks: 175170,187970
DistanceSpacing: 0.5
BeatDivisor: 2
GridSize: 8
TimelineZoom: 1.9

[Metadata]
Title:Snow White (Extended Mix)
TitleUnicode:Snow White (Extended Mix)
Artist:puru
ArtistUnicode:puru
Creator:JamesHappy
Version:Freezing
Source:BMS
Tags:-BOFU2015 COMPILATION ALBUM- gdbg OF FIGHTERS ULTIMATE
BeatmapID:1542711
BeatmapSetID:730975

[Difficulty]
HPDrainRate:8
CircleSize:4
OverallDifficulty:8
ApproachRate:5
SliderMultiplier:1.4
SliderTickRate:1

[Events]
//Background and Video events
0,0,"BG.jpg",0,0
//Break Periods
//Storyboard Layer 0 (Background)
//Storyboard Layer 1 (Fail)
//Storyboard Layer 2 (Pass)
//Storyboard Layer 3 (Foreground)
//Storyboard Sound Samples

[TimingPoints]
770,800,4,1,0,100,1,0
19970,-90.9090909090909,4,1,0,100,0,0
33170,-100,4,1,0,100,0,0
42370,-76.9230769230769,4,1,0,100,0,0
43970,-90.9090909090909,4,1,0,100,0,0
47170,-83.3333333333333,4,1,0,100,0,0
50370,-76.9230769230769,4,1,0,100,0,0
53570,-71.4285714285714,4,1,0,100,0,0
55170,-66.6666666666667,4,1,0,100,0,0
56770,400,4,1,0,100,1,0

[HitObjects]
448,192,770,5,0,0:0:0:0:
320,192,820,1,0,0:0:0:0:
192,192,1170,1,0,0:0:0:0:
64,192,1570,1,0,0:0:0:0:
448,192,1970,1,0,0:0:0:0:
320,192,2370,1,0,0:0:0:0:
192,192,2770,1,0,0:0:0:0:
448,192,3170,1,0,0:0:0:0:
320,192,3570,1,0,0:0:0:0:
192,192,3970,1,0,0:0:0:0:
64,192,4370,1,0,0:0:0:0:
64,192,5520,1,0,0:0:0:0:
192,192,5570,1,0,0:0:0:0:
448,192,5970,1,0,0:0:0:0:
320,192,6370,1,0,0:0:0:0:
192,192,6770,1,0,0:0:0:0:
64,192,7170,1,0,0:0:0:0:
448,192,7570,1,0,0:0:0:0:
320,192,7970,1,0,0:0:0:0:
192,192,8370,1,0,0:0:0:0:
320,192,8770,1,0,0:0:0:0:
192,192,9170,1,0,0:0:0:0:
320,192,10320,1,0,0:0:0:0:
448,192,10370,1,0,0:0:0:0:
320,192,10770,1,0,0:0:0:0:
192,192,11170,1,0,0:0:0:0:
448,192,11570,1,0,0:0:0:0:
320,192,11970,1,0,0:0:0:0:
64,192,12370,1,0,0:0:0:0:
448,192,12770,1,0,0:0:0:0:
320,192,13170,1,0,0:0:0:0:
64,192,13570,1,0,0:0:0:0:
448,192,13970,1,0,0:0:0:0:
64,192,15170,1,0,0:0:0:0:
192,192,15170,1,0,0:0:0:0:
448,192,15170,1,0,0:0:0:0:
320,192,16370,1,0,0:0:0:0:
192,192,16370,1,0,0:0:0:0:
320,192,17570,1,0,0:0:0:0:
448,192,17570,1,0,0:0:0:0:
64,192,18770,1,0,0:0:0:0:
448,192,18770,1,0,0:0:0:0:
64,192,19970,1,0,0:0:0:0:
448,192,19970,1,0,0:0:0:0:
192,192,20170,1,0,0:0:0:0:
64,192,20370,1,0,0:0:0:0:
192,192,20570,1,0,0:0:0:0:
320,192,20770,1,0,0:0:0:0:
448,192,20770,1,0,0:0:0:0:
192,192,20970,1,0,0:0:0:0:
320,192,21170,1,0,0:0:0:0:
448,192,21170,1,0,0:0:0:0:
192,192,21370,1,0,0:0:0:0:
320,192,21570,1,0,0:0:0:0:
64,192,21570,1,0,0:0:0:0:
448,192,21770,1,0,0:0:0:0:
320,192,21970,1,0,0:0:0:0:
64,192,21970,1,0,0:0:0:0:
448,192,22170,1,0,0:0:0:0:
64,192,22370,1,0,0:0:0:0:
192,192,22370,1,0,0:0:0:0:
320,192,22570,1,0,0:0:0:0:
192,192,22770,1,0,0:0:0:0:
448,192,22770,1,0,0:0:0:0:
320,192,22970,1,0,0:0:0:0:
64,192,23170,1,0,0:0:0:0:
448,192,23170,1,0,0:0:0:0:
192,192,23370,1,0,0:0:0:0:
64,192,23570,1,0,0:0:0:0:
320,192,23570,1,0,0:0:0:0:
64,192,24770,1,0,0:0:0:0:
192,192,24770,1,0,0:0:0:0:
320,192,24970,1,0,0:0:0:0:
64,192,25170,1,0,0:0:0:0:
448,192,25170,1,0,0:0:0:0:
320,192,25370,1,0,0:0:0:0:
64,192,25570,1,0,0:0:0:0:
192,192,25570,1,0,0:0:0:0:
448,192,25770,1,0,0:0:0:0:
192,192,25970,1,0,0:0:0:0:
320,192,25970,1,0,0:0:0:0:
448,192,26170,1,0,0:0:0:0:
192,192,26370,1,0,0:0:0:0:
64,192,26370,1,0,0:0:0:0:
448,192,26570,1,0,0:0:0:0:
320,192,26770,1,0,0:0:0:0:
64,192,26770,1,0,0:0:0:0:
448,192,26970,1,0,0:0:0:0:
192,192,27170,1,0,0:0:0:0:
320,192,27370,1,0,0:0:0:0:
64,192,27570,1,0,0:0:0:0:
192,192,27570,1,0,0:0:0:0:
448,192,27770,1,0,0:0:0:0:
320,192,27970,1,0,0:0:0:0:
64,192,27970,1,0,0:0:0:0:
448,192,28170,1,0,0:0:0:0:
64,192,28370,1,0,0:0:0:0:
192,192,28370,1,0,0:0:0:0:
320,192,29570,1,0,0:0:0:0:
448,192,29570,1,0,0:0:0:0:
192,192,29770,1,0,0:0:0:0:
448,192,29970,1,0,0:0:0:0:
320,192,29970,1,0,0:0:0:0:
192,192,30170,1,0,0:0:0:0:
320,192,30370,1,0,0:0:0:0:
64,192,30370,1,0,0:0:0:0:
448,192,30570,1,0,0:0:0:0:
192,192,30770,1,0,0:0:0:0:
64,192,30770,1,0,0:0:0:0:
448,192,30970,1,0,0:0:0:0:
320,192,31170,1,0,0:0:0:0:
64,192,31170,1,0,0:0:0:0:
192,192,31370,1,0,0:0:0:0:
64,192,31570,1,0,0:0:0:0:
448,192,31570,1,0,0:0:0:0:
192,192,31770,1,0,0:0:0:0:
64,192,31970,1,0,0:0:0:0:
320,192,31970,1,0,0:0:0:0:
192,192,32170,1,0,0:0:0:0:
320,192,32370,1,0,0:0:0:0:
448,192,32370,1,0,0:0:0:0:
192,192,32570,1,0,0:0:0:0:
320,192,32770,1,0,0:0:0:0:
64,192,32770,1,0,0:0:0:0:
448,192,32970,1,0,0:0:0:0:
192,192,33170,1,0,0:0:0:0:
64,192,33170,1,0,0:0:0:0:
64,192,34370,1,0,0:0:0:0:
192,192,34370,1,0,0:0:0:0:
448,192,34370,1,0,0:0:0:0:
320,192,35570,1,0,0:0:0:0:
64,192,36770,1,0,0:0:0:0:
320,192,36770,1,0,0:0:0:0:
448,192,36770,1,0,0:0:0:0:
192,192,37970,1,0,0:0:0:0:
448,192,42370,1,0,0:0:0:0:
320,192,42470,1,0,0:0:0:0:
192,192,42570,1,0,0:0:0:0:
64,192,42670,1,0,0:0:0:0:
448,192,42770,1,0,0:0:0:0:
320,192,42870,1,0,0:0:0:0:
192,192,43070,1,0,0:0:0:0:
448,192,43970,128,0,55170:0:0:0:0:
320,192,43970,128,0,55170:0:0:0:0:
64,192,55170,5,0,0:0:0:0:
192,192,55370,1,0,0:0:0:0:
192,192,55470,1,0,0:0:0:0:
448,192,55970,128,0,56370:0:0:0:0:
64,192,56370,1,0,0:0:0:0:
192,192,56470,1,0,0:0:0:0:
320,192,56570,1,0,0:0:0:0:
64,192,56770,1,0,0:0:0:0:
320,192,56770,1,0,0:0:0:0:
448,192,56770,1,0,0:0:0:0:
192,192,56970,1,0,0:0:0:0:
320,192,57070,1,0,0:0:0:0:
448,192,57170,1,0,0:0:0:0:
320,192,57370,1,0,0:0:0:0:
448,192,57370,1,0,0:0:0:0:
64,192,57370,1,0,0:0:0:0:
192,192,57470,1,0,0:0:0:0:
320,192,57570,1,0,0:0:0:0:
64,192,57770,1,0,0:0:0:0:
192,192,57870,1,0,0:0:0:0:
448,192,57970,1,0,0:0:0:0:
192,192,58170,1,0,0:0:0:0:
320,192,58270,1,0,0:0:0:0:
448,192,58370,1,0,0:0:0:0:
192,192,58570,1,0,0:0:0:0:
320,192,58670,1,0,0:0:0:0:
64,192,58770,1,0,0:0:0:0:
192,192,58770,1,0,0:0:0:0:
64,192,58970,1,0,0:0:0:0:
320,192,59070,1,0,0:0:0:0:
192,192,59170,1,0,0:0:0:0:
64,192,59170,1,0,0:0:0:0:
448,192,59170,1,0,0:0:0:0:
320,192,59370,1,0,0:0:0:0:
192,192,59470,1,0,0:0:0:0:
448,192,59570,1,0,0:0:0:0:
64,192,59770,1,0,0:0:0:0:
320,192,59870,1,0,0:0:0:0:
448,192,59970,1,0,0:0:0:0:
192,192,59970,1,0,0:0:0:0:
64,192,59970,1,0,0:0:0:0:
320,192,60170,1,0,0:0:0:0:
192,192,60270,1,0,0:0:0:0:
448,192,60370,1,0,0:0:0:0:
64,192,60570,1,0,0:0:0:0:
320,192,60570,1,0,0:0:0:0:
448,192,60670,1,0,0:0:0:0:
192,192,60770,1,0,0:0:0:0:
320,192,60770,1,0,0:0:0:0:
64,192,60770,1,0,0:0:0:0:
192,192,60970,1,0,0:0:0:0:
320,192,61070,1,0,0:0:0:0:
448,192,61170,1,0,0:0:0:0:
320,192,61370,1,0,0:0:0:0:
64,192,61470,1,0,0:0:0:0:
320,192,61570,1,0,0:0:0:0:
448,192,61770,1,0,0:0:0:0:
192,192,61870,1,0,0:0:0:0:
448,192,61970,1,0,0:0:0:0:
320,192,61970,1,0,0:0:0:0:
64,192,61970,1,0,0:0:0:0:
192,192,62170,1,0,0:0:0:0:
64,192,62170,1,0,0:0:0:0:
320,192,62270,1,0,0:0:0:0:
192,192,62370,1,0,0:0:0:0:
448,192,62370,1,0,0:0:0:0:
64,192,62370,1,0,0:0:0:0:
320,192,62570,1,0,0:0:0:0:
192,192,62670,1,0,0:0:0:0:
448,192,62770,1,0,0:0:0:0:
64,192,62970,1,0,0:0:0:0:
64,192,63170,1,0,0:0:0:0:
192,192,63170,1,0,0:0:0:0:
448,192,63170,1,0,0:0:0:0:
320,192,63270,1,0,0:0:0:0:
192,192,63370,1,0,0:0:0:0:
320,192,63470,1,0,0:0:0:0:
192,192,63570,1,0,0:0:0:0:
64,192,63670,1,0,0:0:0:0:
320,192,63770,1,0,0:0:0:0:
448,192,63770,1,0,0:0:0:0:
64,192,63870,1,0,0:0:0:0:
192,192,63970,1,0,0:0:0:0:
448,192,63970,1,0,0:0:0:0:
320,192,63970,1,0,0:0:0:0:
64,192,64070,1,0,0:0:0:0:
448,192,64170,1,0,0:0:0:0:
192,192,64270,1,0,0:0:0:0:
448,192,64370,1,0,0:0:0:0:
64,192,64470,1,0,0:0:0:0:
320,192,64570,1,0,0:0:0:0:
192,192,64670,1,0,0:0:0:0:
320,192,64770,1,0,0:0:0:0:
64,192,64870,1,0,0:0:0:0:
448,192,64970,1,0,0:0:0:0:
192,192,65070,1,0,0:0:0:0:
320,192,65170,1,0,0:0:0:0:
448,192,65170,1,0,0:0:0:0:
64,192,65270,1,0,0:0:0:0:
448,192,65370,1,0,0:0:0:0:
192,192,65470,1,0,0:0:0:0:
64,192,65570,1,0,0:0:0:0:
320,192,65570,1,0,0:0:0:0:
448,192,65570,1,0,0:0:0:0:
192,192,65670,1,0,0:0:0:0:
448,192,65770,1,0,0:0:0:0:
64,192,65870,1,0,0:0:0:0:
320,192,65970,1,0,0:0:0:0:
64,192,66070,1,0,0:0:0:0:
448,192,66170,1,0,0:0:0:0:
320,192,66270,1,0,0:0:0:0:
192,192,66370,1,0,0:0:0:0:
64,192,66370,1,0,0:0:0:0:
448,192,66370,1,0,0:0:0:0:
320,192,66470,1,0,0:0:0:0:
64,192,66570,1,0,0:0:0:0:
448,192,66670,1,0,0:0:0:0:
192,192,66770,1,0,0:0:0:0:
64,192,66870,1,0,0:0:0:0:
320,192,66970,1,0,0:0:0:0:
448,192,66970,1,0,0:0:0:0:
192,192,67070,1,0,0:0:0:0:
448,192,67170,1,0,0:0:0:0:
320,192,67170,1,0,0:0:0:0:
64,192,67170,1,0,0:0:0:0:
192,192,67270,1,0,0:0:0:0:
448,192,67370,1,0,0:0:0:0:
64,192,67470,1,0,0:0:0:0:
320,192,67570,1,0,0:0:0:0:
64,192,67670,1,0,0:0:0:0:
448,192,67770,1,0,0:0:0:0:
192,192,67870,1,0,0:0:0:0:
320,192,67970,1,0,0:0:0:0:
64,192,68070,1,0,0:0:0:0:
448,192,68170,1,0,0:0:0:0:
192,192,68270,1,0,0:0:0:0:
448,192,68370,1,0,0:0:0:0:
320,192,68370,1,0,0:0:0:0:
64,192,68470,1,0,0:0:0:0:
192,192,68570,1,0,0:0:0:0:
320,192,68670,1,0,0:0:0:0:
64,192,68770,1,0,0:0:0:0:
192,192,68770,1,0,0:0:0:0:
448,192,68770,1,0,0:0:0:0:
320,192,68970,1,0,0:0:0:0:
64,192,69570,1,0,0:0:0:0:
192,192,69570,1,0,0:0:0:0:
448,192,69570,1,0,0:0:0:0:
320,192,69570,1,0,0:0:0:0:
320,192,69970,1,0,0:0:0:0:
64,192,70170,1,0,0:0:0:0:
192,192,70170,1,0,0:0:0:0:
320,192,70370,1,0,0:0:0:0:
448,192,70370,1,0,0:0:0:0:
64,192,70370,1,0,0:0:0:0:
192,192,70770,1,0,0:0:0:0:
448,192,70770,1,0,0:0:0:0:
64,192,71570,1,0,0:0:0:0:
192,192,71570,1,0,0:0:0:0:
448,192,71570,1,0,0:0:0:0:
320,192,71770,1,0,0:0:0:0:
192,192,71970,1,0,0:0:0:0:
320,192,72170,1,0,0:0:0:0:
448,192,72170,1,0,0:0:0:0:
64,192,72720,1,0,0:0:0:0:
320,192,72720,1,0,0:0:0:0:
192,192,72770,1,0,0:0:0:0:
448,192,72770,1,0,0:0:0:0:
64,192,73370,1,0,0:0:0:0:
192,192,73370,1,0,0:0:0:0:
320,192,73570,1,0,0:0:0:0:
448,192,73570,1,0,0:0:0:0:
64,192,73570,1,0,0:0:0:0:
192,192,73970,1,0,0:0:0:0:
64,192,73970,1,0,0:0:0:0:
448,192,74370,1,0,0:0:0:0:
320,192,74370,1,0,0:0:0:0:
64,192,74770,1,0,0:0:0:0:
192,192,74770,1,0,0:0:0:0:
448,192,74770,1,0,0:0:0:0:
320,192,74970,1,0,0:0:0:0:
192,192,75170,1,0,0:0:0:0:
64,192,75170,1,0,0:0:0:0:
320,192,75170,1,0,0:0:0:0:
448,192,75370,1,0,0:0:0:0:
64,192,75470,1,0,0:0:0:0:
192,192,75570,1,0,0:0:0:0:
320,192,75770,1,0,0:0:0:0:
64,192,75920,1,0,0:0:0:0:
192,192,75920,1,0,0:0:0:0:
320,192,75970,1,0,0:0:0:0:
448,192,75970,1,0,0:0:0:0:
64,192,76570,1,0,0:0:0:0:
320,192,76570,1,0,0:0:0:0:
192,192,76770,1,0,0:0:0:0:
320,192,76770,1,0,0:0:0:0:
448,192,76770,1,0,0:0:0:0:
64,192,77170,1,0,0:0:0:0:
192,192,77170,1,0,0:0:0:0:
192,192,77970,1,0,0:0:0:0:
448,192,77970,1,0,0:0:0:0:
64,192,78170,1,0,0:0:0:0:
64,192,78370,1,0,0:0:0:0:
320,192,78370,1,0,0:0:0:0:
448,192,78370,1,0,0:0:0:0:
192,192,78570,1,0,0:0:0:0:
64,192,78970,1,0,0:0:0:0:
192,192,79070,1,0,0:0:0:0:
320,192,79170,1,0,0:0:0:0:
448,192,79170,1,0,0:0:0:0:
64,192,79170,1,0,0:0:0:0:
192,192,79770,1,0,0:0:0:0:
64,192,79770,1,0,0:0:0:0:
320,192,79970,1,0,0:0:0:0:
448,192,79970,1,0,0:0:0:0:
64,192,79970,1,0,0:0:0:0:
192,192,80570,1,0,0:0:0:0:
64,192,80570,1,0,0:0:0:0:
448,192,80770,1,0,0:0:0:0:
320,192,80870,1,0,0:0:0:0:
192,192,80970,1,0,0:0:0:0:
64,192,81070,1,0,0:0:0:0:
320,192,81170,1,0,0:0:0:0:
448,192,81170,1,0,0:0:0:0:
192,192,81270,1,0,0:0:0:0:
448,192,81370,1,0,0:0:0:0:
64,192,81470,1,0,0:0:0:0:
320,192,81570,1,0,0:0:0:0:
192,192,81670,1,0,0:0:0:0:
64,192,81770,1,0,0:0:0:0:
448,192,81770,1,0,0:0:0:0:
320,192,81870,1,0,0:0:0:0:
192,192,81970,1,0,0:0:0:0:
64,192,81970,1,0,0:0:0:0:
320,192,82070,1,0,0:0:0:0:
448,192,82170,1,0,0:0:0:0:
192,192,82270,1,0,0:0:0:0:
320,192,82370,1,0,0:0:0:0:
448,192,82370,1,0,0:0:0:0:
64,192,82370,1,0,0:0:0:0:
192,192,82470,1,0,0:0:0:0:
320,192,82570,1,0,0:0:0:0:
64,192,82670,1,0,0:0:0:0:
320,192,82770,1,0,0:0:0:0:
192,192,82870,1,0,0:0:0:0:
448,192,82970,1,0,0:0:0:0:
320,192,82970,1,0,0:0:0:0:
192,192,83070,1,0,0:0:0:0:
320,192,83170,1,0,0:0:0:0:
64,192,83170,1,0,0:0:0:0:
448,192,83170,1,0,0:0:0:0:
192,192,83270,1,0,0:0:0:0:
448,192,83370,1,0,0:0:0:0:
64,192,83470,1,0,0:0:0:0:
320,192,83570,1,0,0:0:0:0:
192,192,83570,1,0,0:0:0:0:
448,192,83670,1,0,0:0:0:0:
192,192,83770,1,0,0:0:0:0:
320,192,83870,1,0,0:0:0:0:
64,192,83970,1,0,0:0:0:0:
448,192,84070,1,0,0:0:0:0:
192,192,84170,1,0,0:0:0:0:
320,192,84270,1,0,0:0:0:0:
448,192,84370,1,0,0:0:0:0:
192,192,84370,1,0,0:0:0:0:
64,192,84370,1,0,0:0:0:0:
320,192,84470,1,0,0:0:0:0:
192,192,84570,1,0,0:0:0:0:
64,192,84670,1,0,0:0:0:0:
320,192,84770,1,0,0:0:0:0:
448,192,84870,1,0,0:0:0:0:
192,192,84970,1,0,0:0:0:0:
64,192,84970,1,0,0:0:0:0:
320,192,85070,1,0,0:0:0:0:
64,192,85170,1,0,0:0:0:0:
320,192,85270,1,0,0:0:0:0:
192,192,85370,1,0,0:0:0:0:
64,192,85470,1,0,0:0:0:0:
192,192,85520,1,0,0:0:0:0:
448,192,85570,1,0,0:0:0:0:
320,192,85570,1,0,0:0:0:0:
64,192,85670,1,0,0:0:0:0:
192,192,85770,1,0,0:0:0:0:
320,192,85870,1,0,0:0:0:0:
64,192,85970,1,0,0:0:0:0:
192,192,86070,1,0,0:0:0:0:
448,192,86170,1,0,0:0:0:0:
320,192,86170,1,0,0:0:0:0:
64,192,86270,1,0,0:0:0:0:
192,192,86370,1,0,0:0:0:0:
320,192,86370,1,0,0:0:0:0:
448,192,86370,1,0,0:0:0:0:
64,192,86470,1,0,0:0:0:0:
320,192,86570,1,0,0:0:0:0:
192,192,86670,1,0,0:0:0:0:
64,192,86770,1,0,0:0:0:0:
448,192,86770,1,0,0:0:0:0:
320,192,86870,1,0,0:0:0:0:
192,192,86970,1,0,0:0:0:0:
320,192,87070,1,0,0:0:0:0:
64,192,87170,1,0,0:0:0:0:
192,192,87170,1,0,0:0:0:0:
448,192,87270,1,0,0:0:0:0:
192,192,87370,1,0,0:0:0:0:
320,192,87470,1,0,0:0:0:0:
448,192,87570,1,0,0:0:0:0:
192,192,87570,1,0,0:0:0:0:
64,192,87570,1,0,0:0:0:0:
320,192,87670,1,0,0:0:0:0:
64,192,87770,1,0,0:0:0:0:
192,192,87870,1,0,0:0:0:0:
320,192,87970,1,0,0:0:0:0:
448,192,87970,1,0,0:0:0:0:
64,192,87970,1,0,0:0:0:0:
192,192,88070,1,0,0:0:0:0:
448,192,88170,1,0,0:0:0:0:
320,192,88170,1,0,0:0:0:0:
64,192,88270,1,0,0:0:0:0:
192,192,88370,1,0,0:0:0:0:
320,192,88470,1,0,0:0:0:0:
192,192,88570,1,0,0:0:0:0:
448,192,88670,1,0,0:0:0:0:
320,192,88720,1,0,0:0:0:0:
192,192,88770,1,0,0:0:0:0:
64,192,88770,1,0,0:0:0:0:
320,192,88870,1,0,0:0:0:0:
64,192,88970,1,0,0:0:0:0:
192,192,89070,1,0,0:0:0:0:
448,192,89170,1,0,0:0:0:0:
64,192,89270,1,0,0:0:0:0:
448,192,89370,1,0,0:0:0:0:
192,192,89370,1,0,0:0:0:0:
320,192,89470,1,0,0:0:0:0:
448,192,89570,1,0,0:0:0:0:
192,192,89570,1,0,0:0:0:0:
64,192,89570,1,0,0:0:0:0:
320,192,89670,1,0,0:0:0:0:
64,192,89770,1,0,0:0:0:0:
192,192,89870,1,0,0:0:0:0:
448,192,89970,1,0,0:0:0:0:
320,192,89970,1,0,0:0:0:0:
64,192,90070,1,0,0:0:0:0:
192,192,90170,1,0,0:0:0:0:
448,192,90270,1,0,0:0:0:0:
192,192,90370,1,0,0:0:0:0:
320,192,90470,1,0,0:0:0:0:
448,192,90570,1,0,0:0:0:0:
192,192,90670,1,0,0:0:0:0:
320,192,90770,1,0,0:0:0:0:
64,192,90770,1,0,0:0:0:0:
192,192,90870,1,0,0:0:0:0:
448,192,90970,1,0,0:0:0:0:
320,192,91070,1,0,0:0:0:0:
448,192,91170,1,0,0:0:0:0:
192,192,91170,1,0,0:0:0:0:
64,192,91170,1,0,0:0:0:0:
320,192,91270,1,0,0:0:0:0:
64,192,91370,1,0,0:0:0:0:
192,192,91470,1,0,0:0:0:0:
320,192,91570,1,0,0:0:0:0:
192,192,91670,1,0,0:0:0:0:
448,192,91770,1,0,0:0:0:0:
320,192,91870,1,0,0:0:0:0:
192,192,91970,1,0,0:0:0:0:
64,192,91970,1,0,0:0:0:0:
448,192,91970,1,0,0:0:0:0:
320,192,92070,1,0,0:0:0:0:
64,192,92170,1,0,0:0:0:0:
320,192,92270,1,0,0:0:0:0:
64,192,92370,1,0,0:0:0:0:
192,192,92470,1,0,0:0:0:0:
320,192,92570,1,0,0:0:0:0:
448,192,92570,1,0,0:0:0:0:
192,192,92670,1,0,0:0:0:0:
320,192,92770,1,0,0:0:0:0:
64,192,92770,1,0,0:0:0:0:
448,192,92770,1,0,0:0:0:0:
192,192,92870,1,0,0:0:0:0:
64,192,92970,1,0,0:0:0:0:
320,192,93070,1,0,0:0:0:0:
192,192,93170,1,0,0:0:0:0:
320,192,93270,1,0,0:0:0:0:
192,192,93370,1,0,0:0:0:0:
448,192,93370,1,0,0:0:0:0:
64,192,93470,1,0,0:0:0:0:
320,192,93570,1,0,0:0:0:0:
192,192,93670,1,0,0:0:0:0:
320,192,93770,1,0,0:0:0:0:
448,192,93870,1,0,0:0:0:0:
192,192,93970,1,0,0:0:0:0:
64,192,93970,1,0,0:0:0:0:
320,192,94070,1,0,0:0:0:0:
64,192,94170,1,0,0:0:0:0:
448,192,94270,1,0,0:0:0:0:
192,192,94370,1,0,0:0:0:0:
320,192,94470,1,0,0:0:0:0:
448,192,94570,1,0,0:0:0:0:
64,192,94570,1,0,0:0:0:0:
192,192,94670,1,0,0:0:0:0:
320,192,94770,1,0,0:0:0:0:
448,192,94770,1,0,0:0:0:0:
192,192,94870,1,0,0:0:0:0:
64,192,94970,1,0,0:0:0:0:
320,192,95070,1,0,0:0:0:0:
192,192,95170,1,0,0:0:0:0:
64,192,95170,1,0,0:0:0:0:
448,192,95170,1,0,0:0:0:0:
192,192,95370,1,0,0:0:0:0:
320,192,95570,1,0,0:0:0:0:
448,192,95770,1,0,0:0:0:0:
64,192,96370,1,0,0:0:0:0:
320,192,96370,1,0,0:0:0:0:
448,192,97170,1,0,0:0:0:0:
192,192,97370,1,0,0:0:0:0:
64,192,98370,1,0,0:0:0:0:
192,192,98370,1,0,0:0:0:0:
192,192,98570,1,0,0:0:0:0:
320,192,98770,1,0,0:0:0:0:
448,192,98970,1,0,0:0:0:0:
64,192,99570,1,0,0:0:0:0:
320,192,100370,1,0,0:0:0:0:
192,192,100570,1,0,0:0:0:0:
320,192,100970,1,0,0:0:0:0:
64,192,101070,1,0,0:0:0:0:
448,192,101170,1,0,0:0:0:0:
192,192,101370,1,0,0:0:0:0:
64,192,101570,1,0,0:0:0:0:
320,192,101570,1,0,0:0:0:0:
192,192,101770,1,0,0:0:0:0:
320,192,101970,1,0,0:0:0:0:
448,192,102170,1,0,0:0:0:0:
448,192,102770,1,0,0:0:0:0:
448,192,103570,1,0,0:0:0:0:
64,192,103770,1,0,0:0:0:0:
64,192,104770,1,0,0:0:0:0:
448,192,104770,1,0,0:0:0:0:
192,192,104970,1,0,0:0:0:0:
320,192,105170,1,0,0:0:0:0:
448,192,105370,1,0,0:0:0:0:
448,192,105970,1,0,0:0:0:0:
448,192,106770,1,0,0:0:0:0:
64,192,106970,1,0,0:0:0:0:
320,192,107370,1,0,0:0:0:0:
64,192,107470,1,0,0:0:0:0:
448,192,107570,1,0,0:0:0:0:
192,192,107770,1,0,0:0:0:0:
64,192,107970,1,0,0:0:0:0:
320,192,107970,1,0,0:0:0:0:
192,192,108020,1,0,0:0:0:0:
448,192,108070,1,0,0:0:0:0:
320,192,108120,1,0,0:0:0:0:
192,192,108170,1,0,0:0:0:0:
64,192,108170,1,0,0:0:0:0:
448,192,108220,1,0,0:0:0:0:
320,192,108270,1,0,0:0:0:0:
64,192,108370,1,0,0:0:0:0:
448,192,108570,1,0,0:0:0:0:
320,192,108770,1,0,0:0:0:0:
64,192,108770,1,0,0:0:0:0:
192,192,108970,1,0,0:0:0:0:
320,192,109070,1,0,0:0:0:0:
448,192,109170,1,0,0:0:0:0:
64,192,109170,1,0,0:0:0:0:
192,192,109370,1,0,0:0:0:0:
64,192,109370,1,0,0:0:0:0:
320,192,109570,1,0,0:0:0:0:
192,192,109670,1,0,0:0:0:0:
448,192,109770,1,0,0:0:0:0:
320,192,109870,1,0,0:0:0:0:
64,192,109970,1,0,0:0:0:0:
448,192,109970,1,0,0:0:0:0:
192,192,110020,1,0,0:0:0:0:
320,192,110070,1,0,0:0:0:0:
448,192,110120,1,0,0:0:0:0:
64,192,110170,1,0,0:0:0:0:
192,192,110170,1,0,0:0:0:0:
64,192,110770,1,0,0:0:0:0:
192,192,110820,1,0,0:0:0:0:
448,192,110870,1,0,0:0:0:0:
320,192,110920,1,0,0:0:0:0:
64,192,110970,1,0,0:0:0:0:
192,192,111020,1,0,0:0:0:0:
448,192,111070,1,0,0:0:0:0:
320,192,111120,1,0,0:0:0:0:
192,192,111170,1,0,0:0:0:0:
64,192,111170,1,0,0:0:0:0:
320,192,111370,1,0,0:0:0:0:
192,192,111470,1,0,0:0:0:0:
448,192,111570,1,0,0:0:0:0:
320,192,111670,1,0,0:0:0:0:
192,192,111720,1,0,0:0:0:0:
64,192,111770,1,0,0:0:0:0:
320,192,111870,1,0,0:0:0:0:
192,192,111970,1,0,0:0:0:0:
64,192,111970,1,0,0:0:0:0:
320,192,112170,1,0,0:0:0:0:
64,192,112370,1,0,0:0:0:0:
192,192,112470,1,0,0:0:0:0:
320,192,112570,1,0,0:0:0:0:
448,192,112570,1,0,0:0:0:0:
64,192,112770,1,0,0:0:0:0:
192,192,112870,1,0,0:0:0:0:
64,192,112970,1,0,0:0:0:0:
192,192,113070,1,0,0:0:0:0:
320,192,113170,1,0,0:0:0:0:
448,192,113170,1,0,0:0:0:0:
64,192,113370,1,0,0:0:0:0:
192,192,113370,1,0,0:0:0:0:
448,192,113770,1,0,0:0:0:0:
64,192,113870,1,0,0:0:0:0:
192,192,113920,1,0,0:0:0:0:
320,192,113970,1,0,0:0:0:0:
192,192,114170,1,0,0:0:0:0:
64,192,114170,1,0,0:0:0:0:
448,192,114370,1,0,0:0:0:0:
192,192,114370,1,0,0:0:0:0:
320,192,114420,1,0,0:0:0:0:
64,192,114470,1,0,0:0:0:0:
192,192,114520,1,0,0:0:0:0:
320,192,114570,1,0,0:0:0:0:
448,192,114570,1,0,0:0:0:0:
64,192,114620,1,0,0:0:0:0:
192,192,114670,1,0,0:0:0:0:
448,192,114770,1,0,0:0:0:0:
64,192,114970,1,0,0:0:0:0:
192,192,115170,1,0,0:0:0:0:
448,192,115170,1,0,0:0:0:0:
320,192,115370,1,0,0:0:0:0:
192,192,115470,1,0,0:0:0:0:
64,192,115570,1,0,0:0:0:0:
448,192,115570,1,0,0:0:0:0:
320,192,115770,1,0,0:0:0:0:
448,192,115770,1,0,0:0:0:0:
192,192,115970,1,0,0:0:0:0:
320,192,116070,1,0,0:0:0:0:
64,192,116170,1,0,0:0:0:0:
192,192,116270,1,0,0:0:0:0:
448,192,116370,1,0,0:0:0:0:
64,192,116370,1,0,0:0:0:0:
320,192,116420,1,0,0:0:0:0:
192,192,116470,1,0,0:0:0:0:
64,192,116520,1,0,0:0:0:0:
448,192,116570,1,0,0:0:0:0:
320,192,116570,1,0,0:0:0:0:
448,192,117170,1,0,0:0:0:0:
320,192,117220,1,0,0:0:0:0:
64,192,117270,1,0,0:0:0:0:
192,192,117320,1,0,0:0:0:0:
448,192,117370,1,0,0:0:0:0:
320,192,117420,1,0,0:0:0:0:
64,192,117470,1,0,0:0:0:0:
192,192,117520,1,0,0:0:0:0:
320,192,117570,1,0,0:0:0:0:
448,192,117570,1,0,0:0:0:0:
192,192,117770,1,0,0:0:0:0:
320,192,117970,1,0,0:0:0:0:
448,192,118170,1,0,0:0:0:0:
192,192,118770,1,0,0:0:0:0:
64,192,119970,1,0,0:0:0:0:
192,192,119970,1,0,0:0:0:0:
448,192,119970,1,0,0:0:0:0:
320,192,120070,1,0,0:0:0:0:
64,192,120170,1,0,0:0:0:0:
320,192,120270,1,0,0:0:0:0:
64,192,120370,1,0,0:0:0:0:
64,192,120770,1,0,0:0:0:0:
320,192,120770,1,0,0:0:0:0:
192,192,120820,1,0,0:0:0:0:
320,192,120870,1,0,0:0:0:0:
192,192,120920,1,0,0:0:0:0:
320,192,120970,1,0,0:0:0:0:
192,192,121020,1,0,0:0:0:0:
320,192,121070,1,0,0:0:0:0:
192,192,121120,1,0,0:0:0:0:
320,192,121170,1,0,0:0:0:0:
192,192,121236,1,0,0:0:0:0:
320,192,121303,1,0,0:0:0:0:
192,192,121370,1,0,0:0:0:0:
320,192,121470,1,0,0:0:0:0:
192,192,121570,1,0,0:0:0:0:
320,192,121703,1,0,0:0:0:0:
192,192,121836,1,0,0:0:0:0:
320,192,121970,1,0,0:0:0:0:
192,192,122170,1,0,0:0:0:0:
320,192,122370,1,0,0:0:0:0:
192,192,122636,1,0,0:0:0:0:
320,192,122970,1,0,0:0:0:0:
192,192,123470,1,0,0:0:0:0:
320,192,123703,1,0,0:0:0:0:
192,192,123803,1,0,0:0:0:0:
320,192,123903,1,0,0:0:0:0:
192,192,124036,1,0,0:0:0:0:
320,192,124170,1,0,0:0:0:0:
192,192,124303,1,0,0:0:0:0:
320,192,124445,1,0,0:0:0:0:
448,192,124520,1,0,0:0:0:0:
64,192,124595,1,0,0:0:0:0:
320,192,124795,1,0,0:0:0:0:
192,192,124970,1,0,0:0:0:0:
320,192,125170,1,0,0:0:0:0:
64,192,125370,1,0,0:0:0:0:
320,192,125570,1,0,0:0:0:0:
192,192,125770,1,0,0:0:0:0:
448,192,125970,1,0,0:0:0:0:
192,192,126170,1,0,0:0:0:0:
64,192,126370,1,0,0:0:0:0:
448,192,126370,1,0,0:0:0:0:
320,192,126370,128,0,127170:0:0:0:0:
448,192,127170,1,0,0:0:0:0:
64,192,127170,128,0,131970:0:0:0:0:
320,192,129720,1,0,0:0:0:0:
320,192,130336,1,0,0:0:0:0:
192,192,130620,1,0,0:0:0:0:
320,192,130870,1,0,0:0:0:0:
192,192,131070,1,0,0:0:0:0:
320,192,131195,1,0,0:0:0:0:
192,192,131320,1,0,0:0:0:0:
320,192,131420,1,0,0:0:0:0:
192,192,131503,1,0,0:0:0:0:
320,192,131570,1,0,0:0:0:0:
192,192,131670,1,0,0:0:0:0:
320,192,131736,1,0,0:0:0:0:
192,192,131803,1,0,0:0:0:0:
320,192,131870,1,0,0:0:0:0:
192,192,131920,1,0,0:0:0:0:
448,192,131970,1,0,0:0:0:0:
320,192,132020,1,0,0:0:0:0:
192,192,132070,1,0,0:0:0:0:
64,192,132120,1,0,0:0:0:0:
192,192,132170,1,0,0:0:0:0:
320,192,132220,1,0,0:0:0:0:
448,192,132303,1,0,0:0:0:0:
64,192,132370,1,0,0:0:0:0:
192,192,132436,1,0,0:0:0:0:
320,192,132520,1,0,0:0:0:0:
448,192,132620,1,0,0:0:0:0:
64,192,132770,1,0,0:0:0:0:
192,192,132770,1,0,0:0:0:0:
320,192,132903,1,0,0:0:0:0:
192,192,133070,1,0,0:0:0:0:
64,192,133270,1,0,0:0:0:0:
64,192,133570,1,0,0:0:0:0:
192,192,133570,1,0,0:0:0:0:
448,192,133570,1,0,0:0:0:0:
320,192,133670,1,0,0:0:0:0:
192,192,133770,1,0,0:0:0:0:
64,192,133870,1,0,0:0:0:0:
448,192,133970,1,0,0:0:0:0:
320,192,134070,1,0,0:0:0:0:
192,192,134170,1,0,0:0:0:0:
64,192,134270,1,0,0:0:0:0:
448,192,134370,1,0,0:0:0:0:
320,192,134470,1,0,0:0:0:0:
192,192,134570,1,0,0:0:0:0:
64,192,134670,1,0,0:0:0:0:
448,192,134770,1,0,0:0:0:0:
320,192,134870,1,0,0:0:0:0:
192,192,134970,1,0,0:0:0:0:
64,192,135070,1,0,0:0:0:0:
448,192,135170,1,0,0:0:0:0:
320,192,135270,1,0,0:0:0:0:
192,192,135370,1,0,0:0:0:0:
64,192,135470,1,0,0:0:0:0:
320,192,135570,1,0,0:0:0:0:
192,192,135670,1,0,0:0:0:0:
64,192,135770,1,0,0:0:0:0:
448,192,135770,1,0,0:0:0:0:
320,192,135870,1,0,0:0:0:0:
192,192,135970,1,0,0:0:0:0:
448,192,136070,1,0,0:0:0:0:
320,192,136170,1,0,0:0:0:0:
192,192,136270,1,0,0:0:0:0:
64,192,136370,1,0,0:0:0:0:
448,192,136370,1,0,0:0:0:0:
192,192,136470,1,0,0:0:0:0:
320,192,136570,1,0,0:0:0:0:
64,192,136670,1,0,0:0:0:0:
448,192,136770,1,0,0:0:0:0:
320,192,136836,1,0,0:0:0:0:
64,192,136903,1,0,0:0:0:0:
192,192,136970,1,0,0:0:0:0:
320,192,137036,1,0,0:0:0:0:
448,192,137103,1,0,0:0:0:0:
192,192,137170,1,0,0:0:0:0:
64,192,137236,1,0,0:0:0:0:
320,192,137303,1,0,0:0:0:0:
192,192,137370,1,0,0:0:0:0:
448,192,137436,1,0,0:0:0:0:
320,192,137503,1,0,0:0:0:0:
192,192,137570,1,0,0:0:0:0:
64,192,137636,1,0,0:0:0:0:
320,192,137703,1,0,0:0:0:0:
448,192,137770,1,0,0:0:0:0:
192,192,137836,1,0,0:0:0:0:
320,192,137903,1,0,0:0:0:0:
64,192,137970,1,0,0:0:0:0:
192,192,138036,1,0,0:0:0:0:
320,192,138103,1,0,0:0:0:0:
448,192,138170,1,0,0:0:0:0:
192,192,138236,1,0,0:0:0:0:
64,192,138303,1,0,0:0:0:0:
320,192,138370,1,0,0:0:0:0:
192,192,138420,1,0,0:0:0:0:
448,192,138470,1,0,0:0:0:0:
320,192,138520,1,0,0:0:0:0:
64,192,138570,1,0,0:0:0:0:
192,192,138620,1,0,0:0:0:0:
320,192,138670,1,0,0:0:0:0:
448,192,138720,1,0,0:0:0:0:
64,192,138770,1,0,0:0:0:0:
192,192,138820,1,0,0:0:0:0:
448,192,138870,1,0,0:0:0:0:
320,192,138920,1,0,0:0:0:0:
64,192,138970,1,0,0:0:0:0:
192,192,139020,1,0,0:0:0:0:
448,192,139070,1,0,0:0:0:0:
320,192,139120,1,0,0:0:0:0:
64,192,139170,1,0,0:0:0:0:
192,192,139170,1,0,0:0:0:0:
320,192,139270,1,0,0:0:0:0:
64,192,139370,1,0,0:0:0:0:
320,192,139470,1,0,0:0:0:0:
64,192,139570,1,0,0:0:0:0:
192,192,139970,128,0,142270:0:0:0:0:
64,192,139970,128,0,142270:0:0:0:0:
320,192,141970,128,0,143036:0:0:0:0:
448,192,141970,128,0,142970:0:0:0:0:
64,192,142370,128,0,143170:0:0:0:0:
192,192,142370,128,0,143103:0:0:0:0:
448,192,143170,1,0,0:0:0:0:
320,192,143220,1,0,0:0:0:0:
192,192,143270,1,0,0:0:0:0:
64,192,143320,1,0,0:0:0:0:
448,192,143370,1,0,0:0:0:0:
320,192,143420,1,0,0:0:0:0:
64,192,143470,1,0,0:0:0:0:
192,192,143520,1,0,0:0:0:0:
320,192,143570,1,0,0:0:0:0:
448,192,143620,1,0,0:0:0:0:
192,192,143670,1,0,0:0:0:0:
64,192,143720,1,0,0:0:0:0:
448,192,143770,1,0,0:0:0:0:
320,192,143820,1,0,0:0:0:0:
192,192,143870,1,0,0:0:0:0:
64,192,143920,1,0,0:0:0:0:
320,192,143970,1,0,0:0:0:0:
448,192,144020,1,0,0:0:0:0:
64,192,144070,1,0,0:0:0:0:
192,192,144120,1,0,0:0:0:0:
320,192,144170,1,0,0:0:0:0:
448,192,144220,1,0,0:0:0:0:
192,192,144270,1,0,0:0:0:0:
64,192,144320,1,0,0:0:0:0:
448,192,144370,1,0,0:0:0:0:
320,192,144420,1,0,0:0:0:0:
192,192,144470,1,0,0:0:0:0:
64,192,144520,1,0,0:0:0:0:
320,192,144570,1,0,0:0:0:0:
448,192,144620,1,0,0:0:0:0:
64,192,144670,1,0,0:0:0:0:
192,192,144720,1,0,0:0:0:0:
320,192,144770,1,0,0:0:0:0:
448,192,144820,1,0,0:0:0:0:
192,192,144870,1,0,0:0:0:0:
64,192,144920,1,0,0:0:0:0:
320,192,144970,1,0,0:0:0:0:
192,192,145020,1,0,0:0:0:0:
448,192,145070,1,0,0:0:0:0:
320,192,145120,1,0,0:0:0:0:
192,192,145170,1,0,0:0:0:0:
64,192,145220,1,0,0:0:0:0:
320,192,145270,1,0,0:0:0:0:
448,192,145320,1,0,0:0:0:0:
192,192,145370,1,0,0:0:0:0:
320,192,145420,1,0,0:0:0:0:
64,192,145470,1,0,0:0:0:0:
192,192,145520,1,0,0:0:0:0:
320,192,145570,1,0,0:0:0:0:
448,192,145570,1,0,0:0:0:0:
64,192,145620,1,0,0:0:0:0:
192,192,145670,1,0,0:0:0:0:
448,192,145720,1,0,0:0:0:0:
320,192,145770,1,0,0:0:0:0:
64,192,145770,1,0,0:0:0:0:
192,192,145820,1,0,0:0:0:0:
320,192,145870,1,0,0:0:0:0:
448,192,145920,1,0,0:0:0:0:
64,192,145970,1,0,0:0:0:0:
192,192,145970,1,0,0:0:0:0:
320,192,146070,1,0,0:0:0:0:
448,192,146070,1,0,0:0:0:0:
192,192,146170,1,0,0:0:0:0:
64,192,146170,1,0,0:0:0:0:
320,192,146270,1,0,0:0:0:0:
448,192,146270,1,0,0:0:0:0:
64,192,146370,1,0,0:0:0:0:
192,192,146370,1,0,0:0:0:0:
448,192,146370,1,0,0:0:0:0:
192,192,146570,1,0,0:0:0:0:
320,192,146770,1,0,0:0:0:0:
448,192,146970,1,0,0:0:0:0:
64,192,147570,1,0,0:0:0:0:
192,192,147570,1,0,0:0:0:0:
64,192,148220,1,0,0:0:0:0:
320,192,148370,1,0,0:0:0:0:
192,192,148503,1,0,0:0:0:0:
448,192,148636,1,0,0:0:0:0:
64,192,148703,128,0,148836:0:0:0:0:
320,192,148836,128,0,148970:0:0:0:0:
64,192,148970,128,0,149103:0:0:0:0:
448,192,149103,128,0,149236:0:0:0:0:
192,192,149370,128,0,149570:0:0:0:0:
320,192,149570,128,0,150770:0:0:0:0:
448,192,149570,128,0,150770:0:0:0:0:
64,192,149570,1,0,0:0:0:0:
64,192,150770,1,0,0:0:0:0:
192,192,150770,1,0,0:0:0:0:
320,192,150970,1,0,0:0:0:0:
448,192,150970,1,0,0:0:0:0:
64,192,150970,1,0,0:0:0:0:
64,192,151170,1,0,0:0:0:0:
448,192,151170,1,0,0:0:0:0:
192,192,151220,1,0,0:0:0:0:
448,192,151270,1,0,0:0:0:0:
320,192,151320,1,0,0:0:0:0:
192,192,151370,1,0,0:0:0:0:
64,192,151370,1,0,0:0:0:0:
320,192,151470,1,0,0:0:0:0:
448,192,151570,1,0,0:0:0:0:
64,192,151570,1,0,0:0:0:0:
192,192,151670,1,0,0:0:0:0:
448,192,151770,1,0,0:0:0:0:
192,192,151870,1,0,0:0:0:0:
320,192,151970,1,0,0:0:0:0:
448,192,151970,1,0,0:0:0:0:
64,192,152070,1,0,0:0:0:0:
320,192,152170,1,0,0:0:0:0:
192,192,152170,1,0,0:0:0:0:
64,192,152270,1,0,0:0:0:0:
448,192,152370,1,0,0:0:0:0:
64,192,152770,1,0,0:0:0:0:
320,192,152770,1,0,0:0:0:0:
448,192,152770,1,0,0:0:0:0:
192,192,152870,1,0,0:0:0:0:
320,192,152970,1,0,0:0:0:0:
64,192,153070,1,0,0:0:0:0:
192,192,153170,1,0,0:0:0:0:
448,192,153170,1,0,0:0:0:0:
320,192,153270,1,0,0:0:0:0:
192,192,153370,1,0,0:0:0:0:
64,192,153370,1,0,0:0:0:0:
448,192,153470,1,0,0:0:0:0:
320,192,153570,1,0,0:0:0:0:
64,192,153570,1,0,0:0:0:0:
448,192,153670,1,0,0:0:0:0:
192,192,153770,1,0,0:0:0:0:
320,192,153870,1,0,0:0:0:0:
64,192,153970,1,0,0:0:0:0:
192,192,153970,1,0,0:0:0:0:
448,192,154070,1,0,0:0:0:0:
320,192,154170,1,0,0:0:0:0:
64,192,154270,1,0,0:0:0:0:
192,192,154370,1,0,0:0:0:0:
448,192,154470,1,0,0:0:0:0:
320,192,154570,1,0,0:0:0:0:
192,192,154670,1,0,0:0:0:0:
64,192,154770,1,0,0:0:0:0:
320,192,154770,1,0,0:0:0:0:
448,192,154770,1,0,0:0:0:0:
192,192,154870,1,0,0:0:0:0:
64,192,154970,1,0,0:0:0:0:
448,192,154970,1,0,0:0:0:0:
320,192,155070,1,0,0:0:0:0:
192,192,155170,1,0,0:0:0:0:
64,192,155170,1,0,0:0:0:0:
448,192,155170,1,0,0:0:0:0:
320,192,155270,1,0,0:0:0:0:
192,192,155370,1,0,0:0:0:0:
64,192,155370,1,0,0:0:0:0:
448,192,155470,1,0,0:0:0:0:
320,192,155570,1,0,0:0:0:0:
64,192,155670,1,0,0:0:0:0:
192,192,155770,1,0,0:0:0:0:
320,192,155870,1,0,0:0:0:0:
448,192,155970,1,0,0:0:0:0:
64,192,155970,1,0,0:0:0:0:
192,192,155970,1,0,0:0:0:0:
320,192,156070,1,0,0:0:0:0:
192,192,156170,1,0,0:0:0:0:
448,192,156270,1,0,0:0:0:0:
64,192,156370,1,0,0:0:0:0:
320,192,156470,1,0,0:0:0:0:
64,192,156570,1,0,0:0:0:0:
192,192,156570,1,0,0:0:0:0:
320,192,156670,1,0,0:0:0:0:
448,192,156770,1,0,0:0:0:0:
64,192,156770,1,0,0:0:0:0:
192,192,156770,1,0,0:0:0:0:
320,192,156870,1,0,0:0:0:0:
64,192,156970,1,0,0:0:0:0:
192,192,157070,1,0,0:0:0:0:
320,192,157170,1,0,0:0:0:0:
448,192,157270,1,0,0:0:0:0:
192,192,157370,1,0,0:0:0:0:
64,192,157370,1,0,0:0:0:0:
320,192,157470,1,0,0:0:0:0:
448,192,157570,1,0,0:0:0:0:
320,192,157670,1,0,0:0:0:0:
192,192,157770,1,0,0:0:0:0:
64,192,157870,1,0,0:0:0:0:
448,192,157970,1,0,0:0:0:0:
320,192,157970,1,0,0:0:0:0:
192,192,158070,1,0,0:0:0:0:
64,192,158170,1,0,0:0:0:0:
320,192,158270,1,0,0:0:0:0:
192,192,158370,1,0,0:0:0:0:
64,192,158370,1,0,0:0:0:0:
448,192,158370,1,0,0:0:0:0:
320,192,158470,1,0,0:0:0:0:
192,192,158570,1,0,0:0:0:0:
64,192,158570,1,0,0:0:0:0:
448,192,158670,1,0,0:0:0:0:
320,192,158770,1,0,0:0:0:0:
64,192,158770,1,0,0:0:0:0:
192,192,158870,1,0,0:0:0:0:
320,192,158970,1,0,0:0:0:0:
64,192,159070,1,0,0:0:0:0:
192,192,159170,1,0,0:0:0:0:
320,192,159170,1,0,0:0:0:0:
448,192,159170,1,0,0:0:0:0:
64,192,159370,1,0,0:0:0:0:
320,192,159570,1,0,0:0:0:0:
192,192,159770,1,0,0:0:0:0:
64,192,159970,128,0,160370:0:0:0:0:
192,192,160370,1,0,0:0:0:0:
448,192,160370,1,0,0:0:0:0:
320,192,160370,128,0,161170:0:0:0:0:
64,192,160770,1,0,0:0:0:0:
448,192,160770,128,0,161170:0:0:0:0:
64,192,161170,1,0,0:0:0:0:
192,192,161170,1,0,0:0:0:0:
64,192,161370,1,0,0:0:0:0:
192,192,161370,1,0,0:0:0:0:
320,192,161470,1,0,0:0:0:0:
448,192,161470,1,0,0:0:0:0:
64,192,161570,1,0,0:0:0:0:
192,192,161570,1,0,0:0:0:0:
448,192,161570,1,0,0:0:0:0:
320,192,161770,1,0,0:0:0:0:
64,192,161770,1,0,0:0:0:0:
192,192,161970,1,0,0:0:0:0:
320,192,162170,1,0,0:0:0:0:
448,192,162170,1,0,0:0:0:0:
64,192,162170,1,0,0:0:0:0:
192,192,162270,1,0,0:0:0:0:
320,192,162370,1,0,0:0:0:0:
448,192,162370,1,0,0:0:0:0:
64,192,162370,1,0,0:0:0:0:
192,192,162570,1,0,0:0:0:0:
448,192,162770,1,0,0:0:0:0:
320,192,162970,1,0,0:0:0:0:
64,192,162970,1,0,0:0:0:0:
192,192,163070,1,0,0:0:0:0:
448,192,163170,1,0,0:0:0:0:
320,192,163170,1,0,0:0:0:0:
64,192,163170,1,0,0:0:0:0:
192,192,163370,1,0,0:0:0:0:
320,192,163470,1,0,0:0:0:0:
192,192,163570,1,0,0:0:0:0:
64,192,163570,1,0,0:0:0:0:
448,192,163770,1,0,0:0:0:0:
320,192,163870,1,0,0:0:0:0:
64,192,163970,1,0,0:0:0:0:
192,192,163970,128,0,164370:0:0:0:0:
64,192,164370,1,0,0:0:0:0:
320,192,164370,1,0,0:0:0:0:
448,192,164370,1,0,0:0:0:0:
192,192,164570,1,0,0:0:0:0:
320,192,164770,1,0,0:0:0:0:
448,192,164770,1,0,0:0:0:0:
64,192,164770,1,0,0:0:0:0:
192,192,164970,1,0,0:0:0:0:
64,192,164970,1,0,0:0:0:0:
320,192,165070,1,0,0:0:0:0:
448,192,165170,1,0,0:0:0:0:
192,192,165370,1,0,0:0:0:0:
320,192,165470,1,0,0:0:0:0:
448,192,165570,1,0,0:0:0:0:
64,192,165570,128,0,166770:0:0:0:0:
192,192,165570,128,0,166770:0:0:0:0:
320,192,166770,1,0,0:0:0:0:
448,192,166770,1,0,0:0:0:0:
320,192,168170,1,0,0:0:0:0:
192,192,168570,1,0,0:0:0:0:
320,192,168670,1,0,0:0:0:0:
64,192,168770,1,0,0:0:0:0:
448,192,168770,1,0,0:0:0:0:
192,192,168820,1,0,0:0:0:0:
320,192,168870,1,0,0:0:0:0:
448,192,168920,1,0,0:0:0:0:
64,192,168970,1,0,0:0:0:0:
192,192,169020,1,0,0:0:0:0:
320,192,169070,1,0,0:0:0:0:
448,192,169120,1,0,0:0:0:0:
64,192,169170,1,0,0:0:0:0:
192,192,169220,1,0,0:0:0:0:
320,192,169270,1,0,0:0:0:0:
448,192,169320,1,0,0:0:0:0:
64,192,169370,1,0,0:0:0:0:
192,192,169420,1,0,0:0:0:0:
448,192,169470,1,0,0:0:0:0:
320,192,169520,1,0,0:0:0:0:
192,192,169570,1,0,0:0:0:0:
64,192,169620,1,0,0:0:0:0:
448,192,169670,1,0,0:0:0:0:
320,192,169720,1,0,0:0:0:0:
192,192,169770,1,0,0:0:0:0:
64,192,169820,1,0,0:0:0:0:
448,192,169870,1,0,0:0:0:0:
320,192,169920,1,0,0:0:0:0:
192,192,169970,1,0,0:0:0:0:
64,192,170020,1,0,0:0:0:0:
448,192,170070,1,0,0:0:0:0:
320,192,170120,1,0,0:0:0:0:
64,192,170170,1,0,0:0:0:0:
192,192,170220,1,0,0:0:0:0:
448,192,170270,1,0,0:0:0:0:
320,192,170320,1,0,0:0:0:0:
64,192,170370,1,0,0:0:0:0:
192,192,170420,1,0,0:0:0:0:
320,192,170470,1,0,0:0:0:0:
448,192,170520,1,0,0:0:0:0:
192,192,170570,1,0,0:0:0:0:
320,192,170620,1,0,0:0:0:0:
64,192,170670,1,0,0:0:0:0:
192,192,170720,1,0,0:0:0:0:
448,192,170770,1,0,0:0:0:0:
320,192,170820,1,0,0:0:0:0:
192,192,170870,1,0,0:0:0:0:
64,192,170920,1,0,0:0:0:0:
320,192,170970,1,0,0:0:0:0:
192,192,171020,1,0,0:0:0:0:
448,192,171070,1,0,0:0:0:0:
320,192,171120,1,0,0:0:0:0:
64,192,171170,1,0,0:0:0:0:
192,192,171220,1,0,0:0:0:0:
320,192,171270,1,0,0:0:0:0:
448,192,171320,1,0,0:0:0:0:
192,192,171370,1,0,0:0:0:0:
320,192,171420,1,0,0:0:0:0:
64,192,171470,1,0,0:0:0:0:
192,192,171520,1,0,0:0:0:0:
320,192,171570,1,0,0:0:0:0:
448,192,171620,1,0,0:0:0:0:
192,192,171670,1,0,0:0:0:0:
64,192,171720,1,0,0:0:0:0:
320,192,171770,1,0,0:0:0:0:
192,192,171820,1,0,0:0:0:0:
448,192,171870,1,0,0:0:0:0:
320,192,171920,1,0,0:0:0:0:
192,192,171970,1,0,0:0:0:0:
64,192,171970,1,0,0:0:0:0:
448,192,173170,1,0,0:0:0:0:
320,192,174570,128,0,175170:0:0:0:0:
448,192,175170,1,0,0:0:0:0:
192,192,175170,1,0,0:0:0:0:
64,192,175170,1,0,0:0:0:0:
320,192,175370,1,0,0:0:0:0:
192,192,175470,1,0,0:0:0:0:
64,192,175570,1,0,0:0:0:0:
192,192,175770,1,0,0:0:0:0:
64,192,175770,1,0,0:0:0:0:
448,192,175770,1,0,0:0:0:0:
320,192,175870,1,0,0:0:0:0:
192,192,175970,1,0,0:0:0:0:
448,192,176170,1,0,0:0:0:0:
320,192,176270,1,0,0:0:0:0:
64,192,176370,1,0,0:0:0:0:
320,192,176570,1,0,0:0:0:0:
192,192,176670,1,0,0:0:0:0:
64,192,176770,1,0,0:0:0:0:
320,192,176970,1,0,0:0:0:0:
192,192,177070,1,0,0:0:0:0:
448,192,177170,1,0,0:0:0:0:
320,192,177170,1,0,0:0:0:0:
448,192,177370,1,0,0:0:0:0:
192,192,177470,1,0,0:0:0:0:
320,192,177570,1,0,0:0:0:0:
448,192,177570,1,0,0:0:0:0:
64,192,177570,1,0,0:0:0:0:
192,192,177770,1,0,0:0:0:0:
320,192,177870,1,0,0:0:0:0:
64,192,177970,1,0,0:0:0:0:
448,192,178170,1,0,0:0:0:0:
192,192,178270,1,0,0:0:0:0:
64,192,178370,1,0,0:0:0:0:
320,192,178370,1,0,0:0:0:0:
448,192,178370,1,0,0:0:0:0:
192,192,178570,1,0,0:0:0:0:
320,192,178670,1,0,0:0:0:0:
64,192,178770,1,0,0:0:0:0:
448,192,178970,1,0,0:0:0:0:
192,192,178970,1,0,0:0:0:0:
64,192,179070,1,0,0:0:0:0:
320,192,179170,1,0,0:0:0:0:
192,192,179170,1,0,0:0:0:0:
448,192,179170,1,0,0:0:0:0:
320,192,179370,1,0,0:0:0:0:
192,192,179470,1,0,0:0:0:0:
64,192,179570,1,0,0:0:0:0:
192,192,179770,1,0,0:0:0:0:
448,192,179870,1,0,0:0:0:0:
192,192,179970,1,0,0:0:0:0:
64,192,180170,1,0,0:0:0:0:
320,192,180270,1,0,0:0:0:0:
64,192,180370,1,0,0:0:0:0:
192,192,180370,1,0,0:0:0:0:
448,192,180370,1,0,0:0:0:0:
320,192,180570,1,0,0:0:0:0:
448,192,180570,1,0,0:0:0:0:
192,192,180670,1,0,0:0:0:0:
320,192,180770,1,0,0:0:0:0:
64,192,180770,1,0,0:0:0:0:
448,192,180770,1,0,0:0:0:0:
192,192,180970,1,0,0:0:0:0:
320,192,181070,1,0,0:0:0:0:
64,192,181170,1,0,0:0:0:0:
320,192,181370,1,0,0:0:0:0:
448,192,181370,1,0,0:0:0:0:
192,192,181470,1,0,0:0:0:0:
448,192,181570,1,0,0:0:0:0:
320,192,181570,1,0,0:0:0:0:
64,192,181570,1,0,0:0:0:0:
192,192,181670,1,0,0:0:0:0:
320,192,181770,1,0,0:0:0:0:
192,192,181870,1,0,0:0:0:0:
320,192,181970,1,0,0:0:0:0:
448,192,182070,1,0,0:0:0:0:
192,192,182170,1,0,0:0:0:0:
64,192,182170,1,0,0:0:0:0:
448,192,182270,1,0,0:0:0:0:
320,192,182370,1,0,0:0:0:0:
64,192,182370,1,0,0:0:0:0:
192,192,182370,1,0,0:0:0:0:
448,192,182470,1,0,0:0:0:0:
64,192,182570,1,0,0:0:0:0:
320,192,182670,1,0,0:0:0:0:
64,192,182770,1,0,0:0:0:0:
448,192,182870,1,0,0:0:0:0:
192,192,182970,1,0,0:0:0:0:
320,192,183070,1,0,0:0:0:0:
192,192,183170,1,0,0:0:0:0:
448,192,183270,1,0,0:0:0:0:
64,192,183370,1,0,0:0:0:0:
320,192,183470,1,0,0:0:0:0:
192,192,183570,1,0,0:0:0:0:
64,192,183570,1,0,0:0:0:0:
448,192,183670,1,0,0:0:0:0:
64,192,183770,1,0,0:0:0:0:
320,192,183870,1,0,0:0:0:0:
448,192,183970,1,0,0:0:0:0:
192,192,183970,1,0,0:0:0:0:
64,192,183970,1,0,0:0:0:0:
320,192,184070,1,0,0:0:0:0:
64,192,184170,1,0,0:0:0:0:
448,192,184270,1,0,0:0:0:0:
192,192,184370,1,0,0:0:0:0:
448,192,184470,1,0,0:0:0:0:
64,192,184570,1,0,0:0:0:0:
192,192,184670,1,0,0:0:0:0:
320,192,184770,1,0,0:0:0:0:
448,192,184770,1,0,0:0:0:0:
64,192,184770,1,0,0:0:0:0:
192,192,184870,1,0,0:0:0:0:
448,192,184970,1,0,0:0:0:0:
64,192,185070,1,0,0:0:0:0:
320,192,185170,1,0,0:0:0:0:
448,192,185270,1,0,0:0:0:0:
192,192,185370,1,0,0:0:0:0:
64,192,185370,1,0,0:0:0:0:
320,192,185470,1,0,0:0:0:0:
64,192,185570,1,0,0:0:0:0:
192,192,185570,1,0,0:0:0:0:
448,192,185570,1,0,0:0:0:0:
320,192,185670,1,0,0:0:0:0:
64,192,185770,1,0,0:0:0:0:
448,192,185870,1,0,0:0:0:0:
192,192,185970,1,0,0:0:0:0:
448,192,186070,1,0,0:0:0:0:
64,192,186170,1,0,0:0:0:0:
320,192,186270,1,0,0:0:0:0:
192,192,186370,1,0,0:0:0:0:
448,192,186470,1,0,0:0:0:0:
64,192,186570,1,0,0:0:0:0:
320,192,186670,1,0,0:0:0:0:
64,192,186770,1,0,0:0:0:0:
192,192,186770,1,0,0:0:0:0:
448,192,186870,1,0,0:0:0:0:
320,192,186970,1,0,0:0:0:0:
192,192,187070,1,0,0:0:0:0:
448,192,187170,1,0,0:0:0:0:
320,192,187170,1,0,0:0:0:0:
64,192,187170,1,0,0:0:0:0:
192,192,187370,1,0,0:0:0:0:
320,192,187470,1,0,0:0:0:0:
448,192,187570,1,0,0:0:0:0:
64,192,187570,1,0,0:0:0:0:
320,192,187770,1,0,0:0:0:0:
192,192,187870,1,0,0:0:0:0:
64,192,187970,1,0,0:0:0:0:
320,192,187970,1,0,0:0:0:0:
448,192,187970,1,0,0:0:0:0:
192,192,188070,1,0,0:0:0:0:
320,192,188170,1,0,0:0:0:0:
192,192,188270,1,0,0:0:0:0:
64,192,188370,1,0,0:0:0:0:
320,192,188470,1,0,0:0:0:0:
192,192,188570,1,0,0:0:0:0:
64,192,188570,1,0,0:0:0:0:
320,192,188670,1,0,0:0:0:0:
448,192,188770,1,0,0:0:0:0:
64,192,188770,1,0,0:0:0:0:
192,192,188770,1,0,0:0:0:0:
320,192,188870,1,0,0:0:0:0:
448,192,188970,1,0,0:0:0:0:
192,192,189070,1,0,0:0:0:0:
64,192,189170,1,0,0:0:0:0:
192,192,189270,1,0,0:0:0:0:
448,192,189370,1,0,0:0:0:0:
320,192,189470,1,0,0:0:0:0:
64,192,189570,1,0,0:0:0:0:
192,192,189670,1,0,0:0:0:0:
448,192,189770,1,0,0:0:0:0:
192,192,189870,1,0,0:0:0:0:
320,192,189970,1,0,0:0:0:0:
448,192,189970,1,0,0:0:0:0:
64,192,190070,1,0,0:0:0:0:
448,192,190170,1,0,0:0:0:0:
192,192,190270,1,0,0:0:0:0:
64,192,190370,1,0,0:0:0:0:
448,192,190370,1,0,0:0:0:0:
320,192,190370,1,0,0:0:0:0:
192,192,190570,1,0,0:0:0:0:
320,192,190670,1,0,0:0:0:0:
64,192,190770,1,0,0:0:0:0:
192,192,190770,1,0,0:0:0:0:
448,192,190870,1,0,0:0:0:0:
64,192,190970,1,0,0:0:0:0:
192,192,191070,1,0,0:0:0:0:
448,192,191170,1,0,0:0:0:0:
320,192,191170,1,0,0:0:0:0:
64,192,191170,1,0,0:0:0:0:
192,192,191270,1,0,0:0:0:0:
448,192,191370,1,0,0:0:0:0:
320,192,191470,1,0,0:0:0:0:
192,192,191570,1,0,0:0:0:0:
448,192,191670,1,0,0:0:0:0:
192,192,191770,1,0,0:0:0:0:
320,192,191770,1,0,0:0:0:0:
64,192,191870,1,0,0:0:0:0:
448,192,191970,1,0,0:0:0:0:
192,192,191970,1,0,0:0:0:0:
320,192,191970,1,0,0:0:0:0:
64,192,192070,1,0,0:0:0:0:
320,192,192170,1,0,0:0:0:0:
192,192,192270,1,0,0:0:0:0:
64,192,192370,1,0,0:0:0:0:
320,192,192470,1,0,0:0:0:0:
192,192,192570,1,0,0:0:0:0:
448,192,192670,1,0,0:0:0:0:
192,192,192770,1,0,0:0:0:0:
320,192,192870,1,0,0:0:0:0:
64,192,192970,1,0,0:0:0:0:
192,192,193070,1,0,0:0:0:0:
448,192,193170,1,0,0:0:0:0:
320,192,193170,1,0,0:0:0:0:
64,192,193170,1,0,0:0:0:0:
192,192,193270,1,0,0:0:0:0:
448,192,193370,1,0,0:0:0:0:
320,192,193370,1,0,0:0:0:0:
192,192,193470,1,0,0:0:0:0:
448,192,193570,1,0,0:0:0:0:
64,192,193570,1,0,0:0:0:0:
320,192,193570,1,0,0:0:0:0:
192,192,193770,1,0,0:0:0:0:
320,192,193870,1,0,0:0:0:0:
64,192,193970,1,0,0:0:0:0:
448,192,194170,1,0,0:0:0:0:
192,192,194270,1,0,0:0:0:0:
64,192,194370,1,0,0:0:0:0:
320,192,194370,1,0,0:0:0:0:
448,192,194370,1,0,0:0:0:0:
192,192,194570,1,0,0:0:0:0:
320,192,194770,1,0,0:0:0:0:
192,192,194870,1,0,0:0:0:0:
64,192,194970,1,0,0:0:0:0:
320,192,194970,1,0,0:0:0:0:
192,192,195170,1,0,0:0:0:0:
64,192,195170,1,0,0:0:0:0:
448,192,195170,1,0,0:0:0:0:
320,192,195370,1,0,0:0:0:0:
320,192,195570,1,0,0:0:0:0:
192,192,195770,1,0,0:0:0:0:
192,192,195970,1,0,0:0:0:0:
320,192,196170,1,0,0:0:0:0:
64,192,196370,1,0,0:0:0:0:
320,192,196370,1,0,0:0:0:0:
64,192,196570,1,0,0:0:0:0:
64,192,196770,1,0,0:0:0:0:
192,192,196770,1,0,0:0:0:0:
448,192,196770,1,0,0:0:0:0:
64,192,196970,1,0,0:0:0:0:
192,192,197170,1,0,0:0:0:0:
64,192,197370,1,0,0:0:0:0:
192,192,197470,1,0,0:0:0:0:
64,192,197570,1,0,0:0:0:0:
448,192,197570,1,0,0:0:0:0:
320,192,197570,1,0,0:0:0:0:
448,192,197770,1,0,0:0:0:0:
320,192,197970,1,0,0:0:0:0:
64,192,198170,1,0,0:0:0:0:
192,192,198170,1,0,0:0:0:0:
320,192,198270,1,0,0:0:0:0:
448,192,198370,1,0,0:0:0:0:
192,192,198370,1,0,0:0:0:0:
64,192,198370,1,0,0:0:0:0:
64,192,198570,1,0,0:0:0:0:
320,192,198770,1,0,0:0:0:0:
64,192,198970,1,0,0:0:0:0:
448,192,199070,1,0,0:0:0:0:
192,192,199170,1,0,0:0:0:0:
64,192,199370,1,0,0:0:0:0:
192,192,199570,1,0,0:0:0:0:
64,192,199570,1,0,0:0:0:0:
320,192,199770,1,0,0:0:0:0:
64,192,199970,1,0,0:0:0:0:
192,192,199970,1,0,0:0:0:0:
448,192,199970,1,0,0:0:0:0:
320,192,200170,1,0,0:0:0:0:
192,192,200270,1,0,0:0:0:0:
448,192,200370,1,0,0:0:0:0:
64,192,200570,1,0,0:0:0:0:
