osu file format v14

[General]
AudioFilename: audio.mp3
AudioLeadIn: 0
PreviewTime: 128643
Countdown: 0
SampleSet: Normal
StackLeniency: 0.7
Mode: 2
LetterboxInBreaks: 0
WidescreenStoryboard: 0

[Editor]
Bookmarks: 16761,30003,43244,56643,88643,96643,104643,112643,120643,128643,136643,144643,154643,163643,179643,193643,204643,230025,250418,263275,270132,276989,284872,295949,307026,317771,326007
DistanceSpacing: 0.8
BeatDivisor: 4
GridSize: 16
TimelineZoom: 2.340001

[Metadata]
Title:AmbidextrouS ~The Alchemist of The Left x The Sage of The Right~
TitleUnicode:AmbidextrouS 〜左方の錬金術師 x 右方の大賢者〜
Artist:ptar124
ArtistUnicode:ptar124
Creator:Deif
Version:Double-edgeD
Source:AxS 7th Edition
Tags:Accuracy Score Grand Finals Tiebreaker Sahou no Renkinjutsushi Uhou no Taikensha Electronic Instrumental
BeatmapID:3470717
BeatmapSetID:1698560

[Difficulty]
HPDrainRate:4
CircleSize:4.2
OverallDifficulty:9.8
ApproachRate:9.8
SliderMultiplier:1.92
SliderTickRate:2

[Events]
//Background and Video events
0,0,"BG.jpg",0,0
//Break Periods
//Storyboard Layer 0 (Background)
//Storyboard Layer 1 (Fail)
//Storyboard Layer 2 (Pass)
//Storyboard Layer 3 (Foreground)
//Storyboard Layer 4 (Overlay)
//Storyboard Sound Samples

[TimingPoints]
210,827.586206896552,4,2,0,50,1,0
210,-50,4,2,0,50,0,0
623,-50,4,2,0,25,0,0
1658,-50,4,2,0,50,0,0
2692,-50,4,2,0,25,0,0
3520,-50,4,2,0,50,0,0
5175,-50,4,2,0,25,0,0
6003,-50,4,2,0,50,0,0
7244,-50,4,2,0,25,0,0
8279,-50,4,2,0,50,0,0
9313,-50,4,2,0,25,0,0
10141,-50,4,2,0,50,0,0
13865,-50,4,2,0,25,0,0
14900,-50,4,2,0,50,0,0
15520,-50,4,2,0,25,0,0
16761,413.793103448276,4,1,0,50,1,0
17381,-100,4,1,1,50,0,0
17795,-100,4,3,0,55,0,0
18105,-100,4,1,1,50,0,0
18416,-100,4,3,0,55,0,0
18623,-100,4,1,0,50,0,0
19036,-100,4,1,1,50,0,0
19450,-100,4,3,0,55,0,0
19760,-100,4,1,1,50,0,0
20071,-100,4,1,0,50,0,0
21312,-100,4,1,1,50,0,0
21519,-100,4,3,0,55,0,0
21933,-100,4,1,1,50,0,0
22140,-100,4,3,0,55,0,0
22347,-100,4,1,0,50,0,0
22450,-100,4,3,0,55,0,0
22554,-100,4,1,1,50,0,0
22761,-100,4,3,0,55,0,0
22864,-100,4,1,1,50,0,0
23071,-100,4,3,0,55,0,0
23174,-100,4,1,1,50,0,0
23381,-100,4,1,0,50,0,0
24001,-100,4,1,1,50,0,0
24415,-100,4,3,0,55,0,0
24725,-100,4,1,1,50,0,0
25036,-100,4,3,0,55,0,0
25243,-100,4,1,0,50,0,0
25656,-100,4,1,1,50,0,0
26070,-100,4,3,0,55,0,0
26380,-100,4,1,1,50,0,0
26691,-100,4,1,0,50,0,0
27932,-100,4,1,1,50,0,0
28139,-100,4,3,0,55,0,0
28553,-100,4,1,1,50,0,0
28760,-100,4,3,0,55,0,0
28967,-100,4,1,0,50,0,0
29070,-100,4,3,0,55,0,0
29174,-100,4,1,1,50,0,0
29381,-100,4,3,0,55,0,0
29484,-100,4,1,1,50,0,0
29588,-28.5714285714286,4,2,0,50,0,0
30002,-66.6666666666667,4,3,1,60,0,0
30416,-66.6666666666667,4,3,0,60,0,0
30829,-66.6666666666667,4,3,1,60,0,0
31243,-66.6666666666667,4,3,0,60,0,0
31657,-66.6666666666667,4,3,1,60,0,0
32071,-66.6666666666667,4,3,0,60,0,0
32485,-66.6666666666667,4,3,1,60,0,0
32899,-66.6666666666667,4,3,0,60,0,0
33312,-66.6666666666667,4,3,1,60,0,0
33726,-66.6666666666667,4,3,0,60,0,0
34140,-66.6666666666667,4,3,1,60,0,0
34554,-66.6666666666667,4,3,0,60,0,0
34967,-66.6666666666667,4,3,1,60,0,0
35174,-66.6666666666667,4,2,0,50,0,0
35381,-66.6666666666667,4,3,0,60,0,0
35588,-66.6666666666667,4,2,0,45,0,0
35795,-66.6666666666667,4,3,1,60,0,0
36002,-66.6666666666667,4,2,0,40,0,0
36209,-66.6666666666667,4,3,0,60,0,0
36623,-66.6666666666667,4,3,1,60,0,0
37037,-66.6666666666667,4,3,0,60,0,0
37450,-66.6666666666667,4,3,1,60,0,0
37864,-66.6666666666667,4,3,0,60,0,0
38278,-66.6666666666667,4,3,1,60,0,0
38692,-66.6666666666667,4,3,0,60,0,0
39105,-66.6666666666667,4,3,1,60,0,0
39519,-66.6666666666667,4,3,0,60,0,0
39933,-66.6666666666667,4,3,1,60,0,0
40347,-66.6666666666667,4,3,0,60,0,0
40761,-66.6666666666667,4,3,1,60,0,0
41175,-66.6666666666667,4,3,0,60,0,0
41588,-66.6666666666667,4,3,1,60,0,0
41795,-66.6666666666667,4,2,0,50,0,0
42002,-66.6666666666667,4,3,0,60,0,0
42209,-66.6666666666667,4,2,0,45,0,0
42416,-66.6666666666667,4,3,1,60,0,0
42623,-66.6666666666667,4,2,0,40,0,0
42830,-66.6666666666667,4,3,0,60,0,0
43243,-66.6666666666667,4,3,1,60,0,0
43657,-66.6666666666667,4,3,0,60,0,0
44071,-66.6666666666667,4,3,1,60,0,0
44485,-66.6666666666667,4,3,0,60,0,0
44898,-66.6666666666667,4,3,1,60,0,0
45312,-66.6666666666667,4,3,0,60,0,0
45726,-66.6666666666667,4,3,1,60,0,0
46140,-66.6666666666667,4,3,0,60,0,0
46554,-66.6666666666667,4,3,1,60,0,0
46968,-66.6666666666667,4,3,0,60,0,0
47381,-66.6666666666667,4,3,1,60,0,0
47795,-66.6666666666667,4,3,0,60,0,0
48209,-66.6666666666667,4,3,1,60,0,0
48623,-66.6666666666667,4,3,0,60,0,0
49036,-66.6666666666667,4,3,1,60,0,0
49450,-66.6666666666667,4,3,0,60,0,0
49864,-66.6666666666667,4,3,1,60,0,0
50071,-66.6666666666667,4,3,0,60,0,0
50692,-66.6666666666667,4,3,0,55,0,0
51105,-66.6666666666667,4,3,0,50,0,0
51519,-66.6666666666667,4,3,1,60,0,0
51726,-66.6666666666667,4,3,0,60,0,0
52347,-66.6666666666667,4,3,0,55,0,0
52760,-66.6666666666667,4,3,0,50,0,0
53174,-66.6666666666667,4,3,1,60,0,0
53381,-66.6666666666667,4,3,0,60,0,0
53588,-66.6666666666667,4,3,1,60,0,0
53795,-66.6666666666667,4,3,0,60,0,0
54002,-66.6666666666667,4,3,1,60,0,0
54209,-66.6666666666667,4,3,0,60,0,0
54416,-66.6666666666667,4,3,1,60,0,0
54623,-66.6666666666667,4,3,0,60,0,0
54830,428.571428571429,4,1,1,50,1,0
54830,-50,4,1,1,50,0,0
55258,444.444444444444,4,1,1,50,1,0
55258,-50,4,1,1,50,0,0
55702,461.538461538462,4,1,1,50,1,0
55702,-50,4,1,1,50,0,0
56163,480,4,1,1,50,1,0
56163,-50,4,1,1,50,0,0
56403,-50,4,3,0,50,0,0
56643,500,8,1,1,50,1,0
56643,-50,8,1,1,50,0,0
57518,-50,8,1,1,35,0,0
57643,-50,8,1,0,50,0,0
58393,-50,8,1,11,50,0,0
58518,-50,8,1,0,35,0,0
58643,-50,8,1,1,50,0,0
59143,-50,8,1,11,50,0,0
59393,-50,8,1,1,50,0,0
59518,-50,8,1,1,35,0,0
59643,-50,8,1,0,50,0,0
60518,-50,8,1,0,35,0,0
60643,-50,8,1,1,50,0,0
61518,-50,8,1,1,35,0,0
61643,-50,8,1,0,50,0,0
62393,-50,8,1,11,50,0,0
62518,-50,8,1,0,35,0,0
62643,-28.5714285714286,8,1,1,50,0,0
63143,-28.5714285714286,8,1,11,50,0,0
63393,-28.5714285714286,8,1,1,50,0,0
63518,-28.5714285714286,8,1,1,35,0,0
63643,-28.5714285714286,8,1,0,50,0,0
64143,-28.5714285714286,8,1,11,50,0,0
64393,-28.5714285714286,8,1,0,50,0,0
64518,-28.5714285714286,8,1,0,35,0,0
64643,-50,8,1,1,50,0,0
65518,-50,8,1,1,35,0,0
65643,-50,8,1,0,50,0,0
66393,-50,8,1,11,50,0,0
66518,-50,8,1,0,35,0,0
66643,-50,8,1,1,50,0,0
67143,-50,8,1,11,50,0,0
67393,-50,8,1,1,50,0,0
67518,-50,8,1,1,35,0,0
67643,-50,8,1,0,50,0,0
68518,-50,8,1,0,35,0,0
68643,-50,8,1,1,50,0,0
69518,-50,8,1,1,35,0,0
69643,-50,8,1,0,50,0,0
70393,-50,8,1,11,50,0,0
70518,-50,8,1,0,35,0,0
70643,-28.5714285714286,8,1,1,50,0,0
71143,-28.5714285714286,8,1,12,50,0,0
71393,-28.5714285714286,8,1,1,50,0,0
71518,-28.5714285714286,8,1,1,35,0,0
71643,-28.5714285714286,8,1,0,50,0,0
71893,-28.5714285714286,8,1,12,50,0,0
72143,-28.5714285714286,8,1,11,50,0,0
72393,-28.5714285714286,8,1,0,50,0,0
72518,-28.5714285714286,8,1,0,35,0,0
72643,-50,8,1,1,50,0,0
73518,-50,8,1,1,35,0,0
73643,-50,8,1,0,50,0,0
74393,-50,8,1,11,50,0,0
74518,-50,8,1,0,35,0,0
74643,-50,8,1,1,50,0,0
75143,-50,8,1,11,50,0,0
75393,-50,8,1,1,50,0,0
75518,-50,8,1,1,35,0,0
75643,-50,8,1,0,50,0,0
76518,-50,8,1,0,35,0,0
76643,-50,8,1,1,50,0,0
77518,-50,8,1,1,35,0,0
77643,-50,8,1,0,50,0,0
78393,-50,8,1,11,50,0,0
78518,-50,8,1,0,35,0,0
78643,-28.5714285714286,8,1,1,50,0,0
79143,-28.5714285714286,8,1,11,50,0,0
79393,-28.5714285714286,8,1,1,50,0,0
79518,-28.5714285714286,8,1,1,35,0,0
79643,-28.5714285714286,8,1,0,50,0,0
80143,-28.5714285714286,8,1,11,50,0,0
80393,-28.5714285714286,8,1,0,50,0,0
80518,-28.5714285714286,8,1,0,35,0,0
80643,-50,8,1,1,50,0,0
81518,-50,8,1,1,35,0,0
81643,-50,8,1,0,50,0,0
82393,-50,8,1,11,50,0,0
82518,-50,8,1,0,35,0,0
82643,-50,8,1,1,50,0,0
83143,-50,8,1,11,50,0,0
83393,-50,8,1,1,50,0,0
83518,-50,8,1,1,35,0,0
83643,-50,8,1,0,50,0,0
84518,-50,8,1,0,35,0,0
84643,-50,8,1,1,50,0,0
85518,-50,8,1,1,35,0,0
85643,-50,8,1,0,50,0,0
86393,-50,8,1,11,50,0,0
86518,-50,8,1,0,35,0,0
86643,-25,8,1,0,50,0,0
87143,-25,8,1,12,50,0,0
87393,-25,8,1,11,50,0,0
87643,-25,8,1,12,50,0,0
87893,-25,8,1,11,50,0,0
88143,-25,8,1,12,50,0,0
88393,-25,8,1,1,50,0,0
88643,250,4,1,2,50,1,0
95893,-100,4,1,3,50,0,0
96268,-100,4,1,2,50,0,0
96393,-100,4,1,3,50,0,0
96643,-100,4,1,2,50,0,0
103643,-100,4,1,3,50,0,0
103768,-100,4,1,2,50,0,0
103893,-100,4,1,3,50,0,0
104268,-100,4,1,2,50,0,0
104393,-100,4,1,3,50,0,0
104643,-100,4,1,2,55,0,0
111643,-100,4,1,3,55,0,0
111768,-100,4,1,2,55,0,0
111893,-100,4,1,3,55,0,0
112268,-100,4,1,2,55,0,0
112393,-100,4,1,3,55,0,0
112643,-100,4,1,2,60,0,0
119643,-100,4,1,3,60,0,0
119768,-100,4,1,2,60,0,0
119893,-100,4,1,3,60,0,0
120268,-100,4,1,2,60,0,0
120393,-100,4,1,3,60,0,0
120643,-100,4,1,2,60,0,0
127643,-100,4,1,3,60,0,0
127768,-100,4,1,2,60,0,0
127893,-100,4,1,3,60,0,0
128268,-100,4,1,2,60,0,0
128393,-100,4,1,3,60,0,0
128643,-100,4,1,2,65,0,1
135643,-100,4,1,3,65,0,1
135768,-100,4,1,2,65,0,1
135893,-100,4,1,3,65,0,1
136268,-100,4,1,2,65,0,1
136393,-100,4,1,3,65,0,1
136643,-100,4,1,2,65,0,1
143643,-100,4,1,3,65,0,1
143768,-100,4,1,2,65,0,1
143893,-100,4,1,3,65,0,1
144268,-100,4,1,2,65,0,1
144393,-100,4,1,3,65,0,1
144643,-100,4,2,0,60,0,0
145643,-100,4,1,0,70,0,0
146643,-100,4,1,4,60,0,0
153643,-100,4,1,3,60,0,0
153768,-100,4,1,2,60,0,0
153893,-100,4,1,3,60,0,0
154268,-100,4,1,2,60,0,0
154393,-100,4,1,3,60,0,0
154643,-100,4,1,4,60,0,0
161643,-100,4,1,3,60,0,0
161768,-100,4,1,2,60,0,0
161893,-100,4,1,3,60,0,0
162268,-100,4,1,2,60,0,0
162393,-100,4,1,3,60,0,0
162643,-76.9230769230769,4,1,0,60,0,0
162768,-76.9230769230769,4,1,4,60,0,0
162893,-76.9230769230769,4,1,0,60,0,0
163018,-76.9230769230769,4,1,4,60,0,0
163143,-38.4615384615385,4,1,0,60,0,0
163643,500,4,3,2,60,1,0
179643,-50,4,1,2,50,0,0
179768,-50,4,3,2,65,0,0
196643,250,4,3,2,70,1,0
202643,-50,4,3,0,50,0,0
204643,-100,4,3,2,70,0,0
210643,230.769230769231,4,1,0,50,1,0
210643,-50,4,1,0,50,0,0
210758,-50,4,1,0,20,0,0
210873,-50,4,1,0,50,0,0
210989,-50,4,1,0,20,0,0
211104,-50,4,1,0,50,0,0
211219,-50,4,1,0,20,0,0
211334,-50,4,1,0,50,0,0
211450,-50,4,1,0,20,0,0
211565,-50,4,1,12,50,0,0
211681,-50,4,1,0,20,0,0
211796,-50,4,1,12,50,0,0
211912,-50,4,1,0,20,0,0
212027,-50,4,1,12,50,0,0
212143,-50,4,1,0,20,0,0
212258,-50,4,1,12,50,0,0
212373,-50,4,1,0,20,0,0
212489,-100,4,3,3,70,0,0
215258,230.769230769231,6,3,3,50,1,0
216642,230.769230769231,4,3,3,50,1,0
220565,-33.3333333333333,4,3,3,50,0,0
220795,-100,4,1,1,65,0,0
224026,230.769230769231,6,1,1,65,1,0
225410,230.769230769231,4,1,1,65,1,0
229563,-100,4,3,4,70,0,0
230948,230.769230769231,6,3,4,70,1,0
232332,230.769230769231,4,3,4,70,1,0
233255,230.769230769231,5,3,4,70,1,0
235563,230.769230769231,6,3,4,70,1,0
236948,230.769230769231,4,3,4,70,1,0
237871,230.769230769231,6,3,4,70,1,0
239024,-100,6,2,0,60,0,0
239255,230.769230769231,4,3,2,70,1,0
242024,230.769230769231,6,3,2,70,1,0
243408,230.769230769231,4,3,2,70,1,0
244331,230.769230769231,6,3,2,70,1,0
245715,230.769230769231,4,3,2,70,1,0
247561,285.714285714286,4,1,0,35,1,0
247703,-100,4,1,0,10,0,0
249846,-100,4,2,0,50,0,0
250418,285.714285714286,3,2,0,50,1,0
250560,-100,3,2,0,35,0,0
250703,-100,3,1,0,50,0,0
250846,-100,3,2,0,35,0,0
250989,-100,3,1,0,50,0,0
251132,-100,3,2,0,35,0,0
251203,-100,3,2,0,5,0,0
251275,-100,3,2,0,50,0,0
251418,-100,3,2,0,35,0,0
251561,-100,3,1,0,50,0,0
251704,-100,3,2,0,35,0,0
251847,-100,3,1,0,50,0,0
251990,-100,3,2,0,35,0,0
252060,-100,3,2,0,5,0,0
252133,-100,3,2,0,50,0,0
252275,-100,3,2,0,35,0,0
252418,-100,3,1,0,50,0,0
252561,-100,3,2,0,35,0,0
252704,-100,3,1,0,50,0,0
252847,-100,3,2,0,35,0,0
252918,-100,3,2,0,5,0,0
252990,-100,3,2,0,50,0,0
253132,-100,3,2,0,35,0,0
253203,-100,3,2,0,5,0,0
253275,-100,3,3,0,50,0,0
253418,-100,3,2,0,35,0,0
253489,-100,3,2,0,5,0,0
253561,-100,3,3,0,50,0,0
253704,-100,3,2,0,35,0,0
253775,-100,3,2,0,5,0,0
253847,-100,3,2,0,50,0,0
253989,-100,3,2,0,35,0,0
254132,-100,3,1,0,50,0,0
254275,-100,3,2,0,35,0,0
254418,-100,3,1,0,50,0,0
254561,-100,3,2,0,35,0,0
254632,-100,3,2,0,5,0,0
254704,-100,3,2,0,50,0,0
254846,-100,3,2,0,35,0,0
254989,-100,3,1,0,50,0,0
255132,-100,3,2,0,35,0,0
255275,-100,3,1,0,50,0,0
255418,-100,3,2,0,35,0,0
255489,-100,3,2,0,5,0,0
255561,-100,3,2,0,50,0,0
255703,-100,3,2,0,35,0,0
255846,-100,3,1,0,50,0,0
255989,-100,3,2,0,35,0,0
256132,-100,3,1,0,50,0,0
256275,-100,3,2,0,35,0,0
256346,-100,3,2,0,5,0,0
256418,-100,3,2,0,50,0,0
256560,-100,3,2,0,35,0,0
256703,-100,3,3,0,50,0,0
256846,-100,3,2,0,35,0,0
256989,-100,3,3,0,50,0,0
257132,-100,3,2,0,35,0,0
257275,-100,3,2,0,50,0,0
257418,-100,3,2,0,35,0,0
257561,-100,3,1,0,50,0,0
257704,-100,3,2,0,35,0,0
257847,-100,3,1,0,50,0,0
257990,-100,3,2,0,35,0,0
258060,-100,3,2,0,5,0,0
258133,-100,3,2,0,50,0,0
258275,-100,3,2,0,35,0,0
258418,-100,3,1,0,50,0,0
258561,-100,3,2,0,35,0,0
258704,-100,3,1,0,50,0,0
258847,-100,3,2,0,35,0,0
258918,-100,3,2,0,5,0,0
258990,-100,3,2,0,50,0,0
259132,-100,3,2,0,35,0,0
259275,-100,3,1,0,50,0,0
259418,-100,3,2,0,35,0,0
259561,-100,3,1,0,50,0,0
259704,-100,3,2,0,35,0,0
259775,-100,3,2,0,5,0,0
259847,-100,3,2,0,50,0,0
259989,-100,3,2,0,35,0,0
260060,-100,3,2,0,5,0,0
260132,-100,3,3,0,50,0,0
260275,-100,3,2,0,35,0,0
260346,-100,3,2,0,5,0,0
260418,-100,3,3,0,50,0,0
260561,-100,3,2,0,35,0,0
260632,-100,3,2,0,5,0,0
260704,-100,3,2,0,50,0,0
260846,-100,3,2,0,35,0,0
260989,-100,3,1,0,50,0,0
261132,-100,3,2,0,35,0,0
261275,-100,3,1,0,50,0,0
261418,-100,3,2,0,35,0,0
261489,-100,3,2,0,5,0,0
261561,-100,3,2,0,50,0,0
261703,-100,3,2,0,35,0,0
261846,-100,3,1,0,50,0,0
261989,-100,3,2,0,35,0,0
262132,-100,3,1,0,50,0,0
262275,-100,3,2,0,35,0,0
262346,-100,3,2,0,5,0,0
262418,-100,3,2,0,50,0,0
262560,-100,3,2,0,35,0,0
262703,-100,3,1,0,50,0,0
262846,-100,3,2,0,35,0,0
262989,-100,3,1,0,50,0,0
263132,-100,3,2,0,35,0,0
263203,-100,3,2,0,5,0,0
263275,-100,3,2,8,50,0,0
264418,-100,3,2,8,35,0,0
264489,-100,3,2,8,50,0,0
264703,-100,3,2,8,35,0,0
264774,-100,3,2,8,50,0,0
266132,-100,3,2,8,35,0,0
266203,-100,3,2,8,50,0,0
266418,-100,3,2,8,35,0,0
266489,-100,3,2,8,50,0,0
267846,-100,3,2,8,35,0,0
267917,-100,3,2,8,50,0,0
268132,-100,3,2,8,35,0,0
268203,-100,3,2,8,50,0,0
268418,-100,4,1,0,35,0,0
268560,-100,4,1,0,10,0,0
269275,-100,4,1,0,35,0,0
269989,-100,4,1,0,10,0,0
270132,-100,4,1,8,60,0,0
274703,-76.9230769230769,4,1,8,60,0,0
274989,-100,4,1,8,60,0,0
276132,-100,4,1,0,35,0,0
276846,-100,4,1,0,10,0,0
276989,-100,4,1,8,65,0,0
280418,272.727272727273,3,1,8,65,1,0
281236,260.869565217391,3,1,8,65,1,0
282018,250,3,1,8,65,1,0
282768,240,3,1,8,65,1,0
283488,230.769230769231,3,1,0,35,1,0
283603,-100,3,1,0,10,0,0
284295,-100,3,1,0,35,0,0
284526,-100,3,1,0,40,0,0
284757,-100,3,1,0,45,0,0
284872,-100,3,1,2,60,0,0
284988,-100,3,1,8,60,0,0
295949,-100,3,1,4,60,0,0
296064,-100,3,1,8,60,0,0
307026,218.181818181818,3,1,2,70,1,1
307135,-100,3,1,8,70,0,1
309644,206.896551724138,3,1,8,70,1,1
309644,-105.263157894737,3,1,8,70,0,1
312126,196.72131147541,3,1,8,70,1,1
312126,-111.111111111111,3,1,8,70,0,1
314486,187.5,3,1,8,70,1,1
314486,-116.279069767442,3,1,8,70,0,1
316548,166.666666666667,3,1,8,70,1,1
316548,-131.578947368421,3,1,8,70,0,1
316713,176.470588235294,3,3,0,50,1,0
316713,-123.456790123457,3,3,0,50,0,0
317771,-100,3,1,4,70,0,1
317860,-100,3,1,8,70,0,1
322007,166.666666666667,3,1,8,70,1,1
322007,-131.578947368421,3,1,8,70,0,1
326007,-100,3,3,0,50,0,0
328007,-100,3,2,0,25,0,0

[Colours]
Combo1 : 255,255,0
Combo2 : 243,89,34
Combo3 : 112,196,193
Combo4 : 105,210,0

[HitObjects]
96,384,210,6,0,B|192:192|96:16|96:16|0:192|64:324,1,704,2|0,0:0|0:0,0:0:0:0:
128,384,1796,1,2,0:0:0:0:
192,384,1865,2,0,B|384:384|384:384|288:192|384:16|384:16|192:16,1,768
320,192,3934,5,2,0:0:0:0:
128,192,4347,1,0,0:0:0:0:
432,192,4761,1,2,0:0:0:0:
384,192,4813,2,0,L|128:128,1,264,0|2,0:0|0:0,0:0:0:0:
384,192,6003,1,2,0:0:0:0:
128,192,6416,1,0,0:0:0:0:
416,384,6830,6,0,B|320:192|416:16|416:16|512:192|384:344,1,736,2|2,0:0|0:0,0:0:0:0:
320,384,8485,2,0,B|128:384|128:384|224:192|128:16|128:16|320:16,1,768,0|0,0:0|0:0,0:0:0:0:
192,192,10554,5,2,0:0:0:0:
384,192,10968,1,0,0:0:0:0:
80,192,11382,1,2,0:0:0:0:
256,64,11589,2,0,P|288:136|256:240,1,192,0|2,0:0|0:0,0:0:0:0:
80,192,12210,2,0,L|272:192,1,192,0|2,0:0|0:0,0:0:0:0:
16,192,13037,1,2,0:0:0:0:
304,384,13451,6,0,B|208:192|304:16|304:16|400:192|272:344,1,736,2|2,0:0|0:0,0:0:0:0:
208,384,15106,2,0,B|112:192|208:16|208:16|304:16,1,480
368,192,16210,2,0,B|256:176|256:176|368:160,1,224,2|0,0:0|0:0,0:0:0:0:
224,336,16761,6,0,L|208:240,1,96,0|0,0:0|0:0,0:0:0:0:
400,192,17174,1,8,0:0:0:0:
208,192,17381,2,0,L|256:192,2,48,0|8|0,0:0|0:0|0:0,0:0:0:0:
288,128,17692,1,8,0:0:0:0:
208,128,17795,1,8,0:0:0:0:
400,64,18002,1,8,0:0:0:0:
320,64,18105,2,0,L|320:112,1,48,8|0,0:0|0:0,0:0:0:0:
240,112,18312,1,8,0:0:0:0:
400,336,18416,6,0,L|416:240,1,96,6|0,0:0|0:0,0:0:0:0:
224,192,18829,1,8,0:0:0:0:
416,192,19036,2,0,L|368:192,2,48,0|8|0,0:0|0:0|0:0,0:0:0:0:
336,128,19347,1,8,0:0:0:0:
416,128,19450,1,8,0:0:0:0:
224,64,19657,1,8,0:0:0:0:
304,64,19761,2,0,L|304:112,1,48,8|0,0:0|0:0,0:0:0:0:
224,112,19967,1,8,0:0:0:0:
304,304,20071,6,0,L|320:208,1,96,0|0,0:0|0:0,0:0:0:0:
128,192,20485,1,8,0:0:0:0:
320,192,20692,2,0,L|336:96,1,96,0|0,0:0|0:0,0:0:0:0:
144,80,21105,1,8,0:0:0:0:
336,80,21312,2,0,L|288:80,1,48,0|8,0:0|0:0,0:0:0:0:
368,80,21519,1,8,0:0:0:0:
96,192,21726,6,0,L|144:192,1,48,6|0,0:0|0:0,0:0:0:0:
64,128,21933,1,0,0:0:0:0:
144,128,22036,1,8,0:0:0:0:
64,128,22140,1,8,0:0:0:0:
336,192,22347,2,0,L|288:192,1,48,8|8,0:0|0:0,0:0:0:0:
448,128,22554,1,0,0:0:0:0:
368,128,22657,1,8,0:0:0:0:
448,128,22761,1,8,0:0:0:0:
288,64,22864,1,0,0:0:0:0:
208,64,22967,1,8,0:0:0:0:
288,64,23071,1,8,0:0:0:0:
448,128,23174,2,0,L|448:176,1,48,0|8,0:0|0:0,0:0:0:0:
288,192,23381,5,0,0:0:0:0:
368,192,23485,1,0,0:0:0:0:
288,192,23588,1,0,0:0:0:0:
112,192,23795,1,8,0:0:0:0:
304,192,24002,2,0,L|256:192,2,48,0|8|0,0:0|0:0|0:0,0:0:0:0:
224,128,24312,1,8,0:0:0:0:
304,128,24416,1,8,0:0:0:0:
112,64,24623,1,8,0:0:0:0:
192,64,24726,2,0,L|192:112,1,48,8|0,0:0|0:0,0:0:0:0:
272,112,24933,1,8,0:0:0:0:
112,336,25036,6,0,L|96:240,1,96,6|0,0:0|0:0,0:0:0:0:
288,192,25450,1,8,0:0:0:0:
96,192,25657,2,0,L|144:192,2,48,0|8|0,0:0|0:0|0:0,0:0:0:0:
176,128,25967,1,8,0:0:0:0:
96,128,26071,1,8,0:0:0:0:
288,64,26278,1,8,0:0:0:0:
208,64,26381,1,8,0:0:0:0:
288,64,26485,2,0,L|288:112,1,48,0|8,0:0|0:0,0:0:0:0:
208,64,26692,6,0,L|208:112,1,48,0|0,0:0|0:0,0:0:0:0:
128,64,26898,1,0,0:0:0:0:
400,192,27105,1,8,0:0:0:0:
240,256,27209,2,0,L|240:208,1,48,0|0,0:0|0:0,0:0:0:0:
320,192,27416,1,0,0:0:0:0:
240,160,27519,2,0,L|288:160,1,48,0|0,0:0|0:0,0:0:0:0:
208,160,27726,1,8,0:0:0:0:
480,192,27933,1,0,0:0:0:0:
320,256,28036,2,0,L|320:208,1,48,8|8,0:0|0:0,0:0:0:0:
400,192,28243,1,0,0:0:0:0:
320,192,28347,5,6,0:0:0:0:
400,192,28450,1,0,0:0:0:0:
320,192,28554,1,0,0:0:0:0:
128,192,28761,1,8,0:0:0:0:
208,192,28864,1,0,0:0:0:0:
128,192,28967,2,0,L|112:144,1,48,8|8,0:0|0:0,0:0:0:0:
192,80,29174,1,0,0:0:0:0:
112,80,29278,1,8,0:0:0:0:
192,80,29381,2,0,L|208:32,1,48,8|0,0:0|0:0,0:0:0:0:
32,32,29588,2,0,B|368:32|368:32|400:64|400:160|368:192,1,504.000004806519,10|0,0:0|0:0,0:0:0:0:
176,192,30002,6,0,L|128:192,2,48.0000018310548,14|0|0,0:0|0:0|0:0,0:0:0:0:
240,192,30209,2,0,L|288:192,2,48.0000018310548,2|0|0,2:0|0:0|0:0,0:0:0:0:
96,192,30416,2,0,L|96:144,1,48.0000018310548,10|0,0:0|0:0,0:0:0:0:
144,96,30554,1,0,0:0:0:0:
208,96,30623,2,0,L|256:96,2,48.0000018310548,2|0|0,0:0|0:0|0:0,0:0:0:0:
352,192,30829,6,0,L|400:192,2,48.0000018310548,10|0|0,0:0|0:0|0:0,0:0:0:0:
288,192,31036,2,0,L|240:192,2,48.0000018310548,2|0|0,2:0|0:0|0:0,0:0:0:0:
432,192,31243,2,0,L|432:144,1,48.0000018310548,10|0,0:0|0:0,0:0:0:0:
384,96,31381,1,0,0:0:0:0:
240,96,31450,2,0,L|192:96,2,48.0000018310548,2|0|0,0:0|0:0|0:0,0:0:0:0:
96,192,31657,6,0,L|96:240,1,48.0000018310548,10|0,0:0|0:0,0:0:0:0:
168,272,31795,1,0,0:0:0:0:
312,272,31864,1,2,2:0:0:0:
384,240,31933,2,0,L|384:192,1,48.0000018310548
240,192,32071,1,10,0:0:0:0:
192,144,32140,2,0,L|192:96,1,48.0000018310548,0|0,0:0|0:0,0:0:0:0:
256,48,32278,2,0,L|304:48,2,48.0000018310548,2|0|0,0:0|0:0|0:0,0:0:0:0:
112,48,32485,6,0,L|112:96,1,48.0000018310548,10|0,0:0|0:0,0:0:0:0:
160,144,32623,1,0,0:0:0:0:
224,192,32692,2,0,L|272:192,2,48.0000018310548,2|0|0,2:0|0:0|0:0,0:0:0:0:
80,288,32898,2,0,L|128:288,1,48.0000018310548,10|0,0:0|0:0,0:0:0:0:
272,288,33036,2,0,L|320:288,1,48.0000018310548,0|2,0:0|0:0,0:0:0:0:
176,224,33174,2,0,L|224:224,1,48.0000018310548,0|0,0:0|0:0,0:0:0:0:
368,224,33312,6,0,L|416:224,1,48.0000018310548,10|0,0:0|0:0,0:0:0:0:
416,160,33450,1,0,0:0:0:0:
272,160,33519,2,0,L|224:160,1,48.0000018310548,2|0,2:0|0:0,0:0:0:0:
224,96,33657,1,0,0:0:0:0:
368,96,33726,1,10,0:0:0:0:
328,96,33795,1,0,0:0:0:0:
280,96,33864,1,0,0:0:0:0:
424,192,33933,1,2,2:0:0:0:
384,192,34002,1,0,0:0:0:0:
336,192,34071,1,0,0:0:0:0:
480,192,34140,6,0,L|496:112,1,72.0000027465821,10|0,0:0|0:0,0:0:0:0:
384,128,34347,2,0,L|448:96,1,72.0000027465821,2|0,0:0|0:0,0:0:0:0:
272,256,34554,2,0,L|336:288,1,72.0000027465821,10|2,0:0|2:0,0:0:0:0:
224,128,34761,2,0,L|288:96,1,72.0000027465821,2|2,0:0|2:0,0:0:0:0:
112,192,34967,5,10,0:0:0:0:
320,128,35174,2,0,L|256:96,1,72.0000027465821,2|2,0:0|0:0,0:0:0:0:
448,192,35381,1,10,0:0:0:0:
240,128,35588,1,2,0:0:0:0:
304,128,35657,2,0,L|304:80,1,48.0000018310548,2|2,0:0|0:0,0:0:0:0:
160,192,35795,5,10,0:0:0:0:
368,192,36002,2,0,L|384:112,1,72.0000027465821,2|2,0:0|0:0,0:0:0:0:
208,192,36209,1,10,0:0:0:0:
416,192,36416,1,8,0:0:0:0:
80,192,36623,6,0,L|32:192,2,48.0000018310548,10|0|0,0:0|0:0|0:0,0:0:0:0:
144,192,36829,2,0,L|144:144,1,48.0000018310548,2|0,0:0|0:0,0:0:0:0:
80,128,36967,1,0,0:0:0:0:
224,128,37036,2,0,L|160:96,1,72.0000027465821,10|2,0:0|2:0,0:0:0:0:
336,112,37243,2,0,L|272:80,1,72.0000027465821,0|2,0:0|2:0,0:0:0:0:
448,192,37450,6,0,L|496:192,2,48.0000018310548,10|0|0,0:0|0:0|0:0,0:0:0:0:
384,192,37657,2,0,L|384:144,1,48.0000018310548,2|0,0:0|0:0,0:0:0:0:
448,128,37795,1,0,0:0:0:0:
304,128,37864,2,0,L|368:96,1,72.0000027465821,10|2,0:0|2:0,0:0:0:0:
192,112,38071,2,0,L|256:80,1,72.0000027465821,0|2,0:0|2:0,0:0:0:0:
80,192,38278,6,0,L|144:160,1,72.0000027465821,10|2,0:0|2:0,0:0:0:0:
320,192,38485,2,0,L|256:160,1,72.0000027465821,2|0,0:0|0:0,0:0:0:0:
432,192,38692,2,0,L|368:160,1,72.0000027465821,10|2,0:0|2:0,0:0:0:0:
192,192,38898,2,0,L|256:160,1,72.0000027465821,2|0,0:0|0:0,0:0:0:0:
80,192,39105,5,10,0:0:0:0:
432,192,39312,2,0,L|432:144,1,36.0000013732911,2|0,2:0|0:0,0:0:0:0:
368,192,39416,2,0,L|368:144,1,36.0000013732911,2|0,2:0|0:0,0:0:0:0:
440,112,39519,1,10,0:0:0:0:
360,112,39623,1,2,2:0:0:0:
448,64,39726,1,2,0:0:0:0:
352,64,39829,1,2,2:0:0:0:
160,64,39933,6,0,P|112:112|160:144,1,144.000005493164,10|0,0:0|0:0,0:0:0:0:
256,144,40243,1,2,2:0:0:0:
80,192,40347,1,10,0:0:0:0:
176,192,40450,1,2,2:0:0:0:
64,112,40554,1,2,0:0:0:0:
160,112,40657,1,2,2:0:0:0:
336,192,40761,6,0,L|336:144,1,48.0000018310548,10|0,0:0|0:0,0:0:0:0:
272,112,40898,1,0,0:0:0:0:
416,112,40967,2,0,L|464:112,2,48.0000018310548,2|0|0,2:0|0:0|0:0,0:0:0:0:
272,112,41174,1,10,0:0:0:0:
184,112,41257,1,2,2:0:0:0:
272,112,41340,1,0,0:0:0:0:
336,112,41423,1,2,2:0:0:0:
272,112,41505,1,0,0:0:0:0:
96,112,41588,5,10,0:0:0:0:
304,192,41795,1,2,0:0:0:0:
208,192,41898,1,2,0:0:0:0:
416,112,42002,1,10,0:0:0:0:
216,192,42209,1,2,0:0:0:0:
296,192,42312,1,2,0:0:0:0:
96,112,42416,5,10,0:0:0:0:
288,192,42623,1,2,0:0:0:0:
224,192,42726,1,2,0:0:0:0:
416,112,42829,1,10,0:0:0:0:
96,112,43036,2,0,L|88:184,1,72.0000027465821,2|0,2:0|0:0,0:0:0:0:
400,192,43243,5,14,0:0:0:0:
480,192,43326,1,0,0:0:0:0:
400,192,43409,1,0,0:0:0:0:
336,192,43492,1,0,0:0:0:0:
400,192,43574,1,0,0:0:0:0:
224,192,43657,2,0,L|176:192,2,48.0000018310548,10|0|0,0:0|0:0|0:0,0:0:0:0:
368,192,43864,2,0,L|368:144,1,48.0000018310548,2|0,2:0|0:0,0:0:0:0:
304,112,44002,1,0,0:0:0:0:
160,192,44071,5,10,0:0:0:0:
80,192,44154,1,0,0:0:0:0:
160,192,44236,1,0,0:0:0:0:
224,192,44319,1,0,0:0:0:0:
160,192,44402,1,0,0:0:0:0:
336,192,44485,2,0,L|384:192,2,48.0000018310548,10|0|0,0:0|0:0|0:0,0:0:0:0:
192,192,44692,2,0,L|192:144,1,48.0000018310548,2|0,2:0|0:0,0:0:0:0:
256,112,44829,1,0,0:0:0:0:
400,112,44898,6,0,L|336:80,1,72.0000027465821,10|0,0:0|0:0,0:0:0:0:
448,80,45105,2,0,L|384:48,1,72.0000027465821,2|0,0:0|0:0,0:0:0:0:
208,48,45312,2,0,L|160:48,2,48.0000018310548,10|0|0,0:0|0:0|0:0,0:0:0:0:
352,48,45519,2,0,L|352:96,1,48.0000018310548,2|0,2:0|0:0,0:0:0:0:
288,48,45657,1,0,0:0:0:0:
144,192,45726,6,0,L|208:160,1,72.0000027465821,10|0,0:0|0:0,0:0:0:0:
208,128,45881,1,0,0:0:0:0:
144,128,45933,1,2,0:0:0:0:
320,192,46036,2,0,L|320:160,1,18.0000006866455,0|0,0:0|0:0,0:0:0:0:
144,192,46140,2,0,L|192:160,1,54.0000020599366,10|0,0:0|0:0,0:0:0:0:
188,162,46243,1,0,0:0:0:0:
144,192,46295,1,0,0:0:0:0:
256,80,46347,2,0,L|304:80,2,48.0000018310548,2|0|0,2:0|0:0|0:0,0:0:0:0:
112,192,46554,5,10,0:0:0:0:
32,192,46636,1,0,0:0:0:0:
112,192,46719,1,0,0:0:0:0:
176,192,46802,1,0,0:0:0:0:
112,192,46885,1,0,0:0:0:0:
288,192,46967,1,10,0:0:0:0:
352,192,47027,2,0,L|400:192,2,41.1428587123327,0|0|0,0:0|0:0|0:0,0:0:0:0:
208,112,47204,2,0,L|160:112,2,41.1428587123327,0|0|0,0:0|0:0|0:0,0:0:0:0:
352,192,47381,5,10,0:0:0:0:
432,192,47464,1,0,0:0:0:0:
320,112,47519,1,2,2:0:0:0:
288,112,47547,1,0,0:0:0:0:
464,112,47629,1,2,2:0:0:0:
432,112,47657,1,0,0:0:0:0:
288,112,47726,1,0,0:0:0:0:
144,192,47795,2,0,L|128:144,1,41.1428587123327,10|0,0:0|0:0,0:0:0:0:
272,192,47913,2,0,L|288:144,1,41.1428587123327,2|0,2:0|0:0,0:0:0:0:
160,192,48031,2,0,L|144:144,1,41.1428587123327,2|0,2:0|0:0,0:0:0:0:
272,192,48150,1,2,2:0:0:0:
144,64,48209,6,0,L|64:64,1,72.0000027465821,10|0,0:0|0:0,0:0:0:0:
72,64,48347,1,2,2:0:0:0:
240,192,48416,2,0,L|256:144,1,48.0000018310548
160,192,48519,2,0,L|144:144,1,48.0000018310548,2|0,2:0|0:0,0:0:0:0:
256,96,48623,2,0,L|288:64,1,41.1428587123327,10|0,0:0|0:0,0:0:0:0:
256,32,48741,1,2,0:0:0:0:
192,192,48800,1,0,0:0:0:0:
256,352,48859,1,2,0:0:0:0:
285,317,48918,2,0,L|256:288,1,41.1428587123327
128,192,49036,6,0,L|48:192,1,72.0000027465821,10|0,0:0|0:0,0:0:0:0:
56,192,49174,1,2,2:0:0:0:
208,192,49243,2,0,L|208:144,1,36.0000013732911,0|0,0:0|0:0,0:0:0:0:
160,128,49347,1,2,2:0:0:0:
336,192,49450,2,0,L|384:192,1,41.1428587123327,10|0,0:0|0:0,0:0:0:0:
336,192,49568,1,2,0:0:0:0:
272,192,49627,1,2,2:0:0:0:
336,192,49687,1,2,0:0:0:0:
464,192,49746,2,0,L|464:144,1,41.1428587123327,0|0,0:0|0:0,0:0:0:0:
336,112,49864,6,0,L|272:80,1,72.0000027465821,10|0,0:0|0:0,0:0:0:0:
384,64,50071,2,0,L|320:32,1,72.0000027465821,2|8,0:0|0:0,0:0:0:0:
144,112,50278,2,0,L|208:80,1,72.0000027465821,2|0,0:0|0:0,0:0:0:0:
96,64,50485,2,0,L|160:32,1,72.0000027465821,2|8,0:0|0:0,0:0:0:0:
336,192,50692,6,0,L|400:160,2,72.0000027465821,10|0|2,0:0|0:0|0:0,0:0:0:0:
240,192,51002,1,8,0:0:0:0:
416,192,51105,2,0,L|432:112,1,72.0000027465821,10|0,0:0|0:0,0:0:0:0:
336,192,51312,2,0,L|352:112,1,72.0000027465821,10|8,0:0|0:0,0:0:0:0:
160,112,51519,6,0,L|224:80,1,72.0000027465821,10|0,0:0|0:0,0:0:0:0:
112,64,51726,2,0,L|176:32,1,72.0000027465821,2|8,0:0|0:0,0:0:0:0:
368,112,51933,2,0,L|304:80,1,72.0000027465821,2|0,0:0|0:0,0:0:0:0:
416,64,52140,2,0,L|352:32,1,72.0000027465821,2|8,0:0|0:0,0:0:0:0:
160,192,52347,6,0,L|96:160,2,72.0000027465821,10|0|2,0:0|0:0|0:0,0:0:0:0:
256,192,52657,1,8,0:0:0:0:
64,192,52761,2,0,L|48:112,1,72.0000027465821,10|0,0:0|0:0,0:0:0:0:
144,192,52967,2,0,L|128:112,1,72.0000027465821,10|8,0:0|0:0,0:0:0:0:
336,192,53174,5,10,0:0:0:0:
128,80,53278,1,2,0:0:0:0:
336,80,53381,1,10,0:0:0:0:
256,80,53485,1,2,0:0:0:0:
464,192,53588,1,10,0:0:0:0:
256,304,53692,1,2,0:0:0:0:
464,304,53795,1,10,0:0:0:0:
384,304,53898,1,2,0:0:0:0:
176,192,54002,6,0,L|144:176,1,36.0000013732911,10|0,0:0|0:0,0:0:0:0:
336,192,54105,2,0,L|368:176,1,36.0000013732911,2|0,0:0|0:0,0:0:0:0:
184,128,54209,2,0,L|152:112,1,36.0000013732911,10|0,0:0|0:0,0:0:0:0:
328,128,54312,2,0,L|360:112,1,36.0000013732911,2|0,0:0|0:0,0:0:0:0:
192,64,54416,2,0,L|160:48,1,36.0000013732911,10|0,0:0|0:0,0:0:0:0:
320,64,54519,2,0,L|352:48,1,36.0000013732911,2|0,0:0|0:0,0:0:0:0:
192,64,54623,1,10,0:0:0:0:
16,192,54726,1,2,0:0:0:0:
192,320,54830,6,0,L|208:224,1,96,10|0,0:0|0:0,0:0:0:0:
80,320,54972,2,0,L|64:224,1,96,2|2,0:0|0:0,0:0:0:0:
192,320,55115,2,0,L|256:320,1,64,0|2,0:0|0:0,0:0:0:0:
80,320,55258,2,0,L|64:240,1,76.8,10|0,0:0|0:0,0:0:0:0:
160,320,55435,2,0,L|176:240,1,76.8,10|0,0:0|0:0,0:0:0:0:
80,320,55613,1,10,0:0:0:0:
272,192,55702,6,0,L|16:192,1,256,10|0,0:0|0:0,0:0:0:0:
272,192,56163,2,0,L|80:192,1,192,10|8,0:0|0:0,0:0:0:0:
224,192,56463,1,8,0:0:0:0:
368,192,56523,1,8,0:0:0:0:
212,192,56583,1,8,0:0:0:0:
64,304,56643,6,0,B|64:112|64:112|256:112|256:112|64:112|64:112|64:256,1,720,12|0,0:0|0:0,0:0:0:0:
256,304,57643,2,0,B|256:112|256:112|64:112|64:112|256:112|256:112|256:256,1,720,8|0,0:0|0:0,0:0:0:0:
64,304,58643,6,0,B|64:112|64:112|256:112|256:112|64:112|64:112|208:112,1,720,8|0,0:0|0:0,0:0:0:0:
400,192,59643,2,0,B|208:192|208:192|400:192|400:192|208:192|208:192|208:336,1,720,8|0,0:0|0:0,0:0:0:0:
400,304,60643,6,0,B|400:112|400:112|208:112|208:112|400:112|400:112|400:256,1,720,8|0,0:0|0:0,0:0:0:0:
208,304,61643,2,0,B|208:112|208:112|400:112|400:112|208:112|208:112|208:256,1,720,8|0,0:0|0:0,0:0:0:0:
416,368,62643,6,0,B|416:32|416:32|80:32|80:32|416:32|416:32|416:288,1,1260.0000120163,8|0,0:0|0:0,0:0:0:0:
160,32,63643,2,0,B|496:32|496:32|160:32|160:32|496:32|496:32|496:288,1,1260.0000120163,8|0,0:0|0:0,0:0:0:0:
304,304,64643,6,0,B|112:304|112:304|304:304|304:304|112:304|112:304|256:304,1,720,8|0,0:0|0:0,0:0:0:0:
448,304,65643,2,0,B|448:112|448:112|256:112|256:112|448:112|448:112|304:112,1,720,8|0,0:0|0:0,0:0:0:0:
112,304,66643,6,0,B|112:112|112:112|304:112|304:112|112:112|112:112|256:112,1,720,8|0,0:0|0:0,0:0:0:0:
448,304,67643,2,0,B|256:304|256:304|448:304|448:304|256:304|256:304|400:304,1,720,8|0,0:0|0:0,0:0:0:0:
208,304,68643,6,0,B|16:304|16:304|208:304|208:304|16:304|16:304|160:304,1,720,8|0,0:0|0:0,0:0:0:0:
352,304,69643,2,0,B|352:112|352:112|160:112|160:112|352:112|352:112|208:112,1,720,8|0,0:0|0:0,0:0:0:0:
16,368,70643,6,0,B|16:32|16:32|352:32|352:32|16:32|16:32|192:224,1,1260.0000120163,8|0,0:0|0:0,0:0:0:0:
448,304,71643,2,0,B|112:304|112:304|448:304|448:304|112:304|112:304|256:96,1,1260.0000120163,8|0,0:0|0:0,0:0:0:0:
448,304,72643,6,0,B|448:112|448:112|256:112|256:112|448:112|448:112|448:256,1,720,8|0,0:0|0:0,0:0:0:0:
256,304,73643,2,0,B|256:112|256:112|448:112|448:112|256:112|256:112|256:256,1,720,8|0,0:0|0:0,0:0:0:0:
448,304,74643,6,0,B|448:112|448:112|256:112|256:112|448:112|448:112|304:112,1,720,8|0,0:0|0:0,0:0:0:0:
112,192,75643,2,0,B|304:192|304:192|112:192|112:192|304:192|304:192|304:336,1,720,8|0,0:0|0:0,0:0:0:0:
112,304,76643,6,0,B|112:112|112:112|304:112|304:112|112:112|112:112|112:256,1,720,8|0,0:0|0:0,0:0:0:0:
304,304,77643,2,0,B|304:112|304:112|112:112|112:112|304:112|304:112|304:256,1,720,8|0,0:0|0:0,0:0:0:0:
96,368,78643,6,0,B|96:32|96:32|432:32|432:32|96:32|96:32|96:288,1,1260.0000120163,8|0,0:0|0:0,0:0:0:0:
352,32,79643,2,0,B|16:32|16:32|352:32|352:32|16:32|16:32|16:288,1,1260.0000120163,8|0,0:0|0:0,0:0:0:0:
208,304,80643,6,0,B|400:304|400:304|208:304|208:304|400:304|400:304|256:304,1,720,8|0,0:0|0:0,0:0:0:0:
64,304,81643,2,0,B|64:112|64:112|256:112|256:112|64:112|64:112|208:112,1,720,8|0,0:0|0:0,0:0:0:0:
400,304,82643,6,0,B|400:112|400:112|208:112|208:112|400:112|400:112|256:112,1,720,8|0,0:0|0:0,0:0:0:0:
64,304,83643,2,0,B|256:304|256:304|64:304|64:304|256:304|256:304|112:304,1,720,8|0,0:0|0:0,0:0:0:0:
304,304,84643,6,0,B|496:304|496:304|304:304|304:304|496:304|496:304|352:304,1,720,8|0,0:0|0:0,0:0:0:0:
160,304,85643,2,0,B|160:112|160:112|352:112|352:112|160:112|160:112|304:112,1,720,8|0,0:0|0:0,0:0:0:0:
496,384,86643,6,0,B|496:0|496:0|112:0|112:0|448:192|448:192|64:192|64:192|400:384|400:384|16:384|16:384|400:384,1,2688,0|8,0:0|0:0,0:0:0:0:
16,192,88643,6,0,L|32:96,1,96,12|0,0:0|0:0,0:0:0:0:
176,192,88893,2,0,L|192:96,1,96,8|0,0:0|0:0,0:0:0:0:
48,192,89143,2,0,L|64:96,1,96,8|0,0:0|0:0,0:0:0:0:
208,192,89393,2,0,L|224:96,1,96,8|0,0:0|0:0,0:0:0:0:
368,192,89643,6,0,L|352:288,1,96,8|0,0:0|0:0,0:0:0:0:
208,192,89893,2,0,L|192:288,1,96,8|0,0:0|0:0,0:0:0:0:
336,192,90143,2,0,L|320:288,1,96,8|0,0:0|0:0,0:0:0:0:
176,192,90393,2,0,L|160:288,1,96,8|0,0:0|0:0,0:0:0:0:
304,192,90643,6,0,L|320:96,1,96,8|0,0:0|0:0,0:0:0:0:
464,192,90893,2,0,L|480:96,1,96,8|0,0:0|0:0,0:0:0:0:
336,192,91143,2,0,L|320:96,1,96,8|0,0:0|0:0,0:0:0:0:
464,192,91393,2,0,L|448:96,1,96,8|0,0:0|0:0,0:0:0:0:
304,192,91643,6,0,L|320:288,1,96,8|0,0:0|0:0,0:0:0:0:
176,192,91893,2,0,L|192:288,1,96,8|0,0:0|0:0,0:0:0:0:
336,192,92143,2,0,L|352:288,1,96,8|0,0:0|0:0,0:0:0:0:
208,192,92393,1,8,0:0:0:0:
352,192,92518,1,8,0:0:0:0:
496,192,92643,6,0,L|480:96,1,96,8|0,0:0|0:0,0:0:0:0:
336,192,92893,2,0,L|320:96,1,96,8|0,0:0|0:0,0:0:0:0:
464,192,93143,2,0,L|448:96,1,96,8|0,0:0|0:0,0:0:0:0:
304,192,93393,2,0,L|288:96,1,96,8|0,0:0|0:0,0:0:0:0:
144,192,93643,6,0,L|160:288,1,96,8|0,0:0|0:0,0:0:0:0:
304,192,93893,2,0,L|320:288,1,96,8|0,0:0|0:0,0:0:0:0:
176,192,94143,2,0,L|192:288,1,96,8|0,0:0|0:0,0:0:0:0:
336,192,94393,2,0,L|352:288,1,96,8|0,0:0|0:0,0:0:0:0:
208,192,94643,6,0,L|192:96,1,96,8|0,0:0|0:0,0:0:0:0:
48,192,94893,2,0,L|32:96,1,96,8|0,0:0|0:0,0:0:0:0:
176,192,95143,2,0,L|192:96,1,96,8|0,0:0|0:0,0:0:0:0:
48,192,95393,2,0,L|64:96,1,96,8|0,0:0|0:0,0:0:0:0:
208,192,95643,6,0,L|192:288,1,96,8|8,0:0|0:0,0:0:0:0:
432,192,95893,2,0,P|464:220|432:304,1,144,8|0,0:0|0:0,0:0:0:0:
288,304,96143,2,0,L|384:304,1,96,8|8,0:0|0:0,0:0:0:0:
144,192,96393,1,8,0:0:0:0:
288,192,96455,1,8,0:0:0:0:
432,192,96518,1,8,0:0:0:0:
288,192,96580,1,8,0:0:0:0:
144,192,96643,6,0,L|128:96,1,96,12|0,0:0|0:0,0:0:0:0:
272,96,96893,2,0,L|272:48,1,48,8|0,0:0|0:0,0:0:0:0:
200,96,97018,2,0,L|200:48,1,48,0|0,0:0|0:0,0:0:0:0:
272,96,97143,1,8,0:0:0:0:
416,192,97268,1,0,0:0:0:0:
344,192,97330,1,0,0:0:0:0:
272,192,97393,2,0,L|256:96,1,96,8|0,0:0|0:0,0:0:0:0:
400,192,97643,6,0,L|416:96,1,96,8|0,0:0|0:0,0:0:0:0:
272,96,97893,2,0,L|272:48,1,48,8|0,0:0|0:0,0:0:0:0:
344,96,98018,2,0,L|344:48,1,48,0|0,0:0|0:0,0:0:0:0:
272,96,98143,2,0,L|256:192,1,96,8|0,0:0|0:0,0:0:0:0:
400,96,98393,2,0,L|384:192,1,96,8|0,0:0|0:0,0:0:0:0:
240,96,98643,6,0,L|256:192,1,96,8|0,0:0|0:0,0:0:0:0:
112,96,98893,1,8,0:0:0:0:
184,96,98955,1,0,0:0:0:0:
256,96,99018,1,0,0:0:0:0:
184,96,99080,1,0,0:0:0:0:
112,96,99143,2,0,L|96:192,1,96,8|0,0:0|0:0,0:0:0:0:
240,192,99393,1,8,0:0:0:0:
96,192,99518,1,0,0:0:0:0:
240,288,99643,6,0,L|256:192,1,96,8|0,0:0|0:0,0:0:0:0:
112,192,99893,1,8,0:0:0:0:
256,192,100018,1,0,0:0:0:0:
400,192,100143,1,8,0:0:0:0:
256,192,100268,1,0,0:0:0:0:
400,96,100393,1,8,0:0:0:0:
256,96,100518,1,8,0:0:0:0:
112,96,100643,6,0,L|96:192,1,96,8|0,0:0|0:0,0:0:0:0:
240,96,100893,2,0,L|240:144,1,48,8|0,0:0|0:0,0:0:0:0:
168,96,101018,2,0,L|168:144,1,48,0|0,0:0|0:0,0:0:0:0:
240,96,101143,1,8,0:0:0:0:
312,96,101205,1,0,0:0:0:0:
384,96,101268,1,0,0:0:0:0:
312,96,101330,1,0,0:0:0:0:
240,96,101393,2,0,L|224:192,1,96,8|0,0:0|0:0,0:0:0:0:
368,96,101643,6,0,L|384:192,1,96,8|0,0:0|0:0,0:0:0:0:
240,96,101893,1,8,0:0:0:0:
312,96,101955,1,0,0:0:0:0:
384,96,102018,1,0,0:0:0:0:
312,96,102080,1,0,0:0:0:0:
240,96,102143,2,0,L|224:192,1,96,8|0,0:0|0:0,0:0:0:0:
368,192,102393,1,8,0:0:0:0:
224,192,102518,1,0,0:0:0:0:
368,288,102643,6,0,L|384:192,1,96,8|0,0:0|0:0,0:0:0:0:
240,288,102893,2,0,L|240:240,1,48,8|0,0:0|0:0,0:0:0:0:
312,288,103018,2,0,L|312:240,1,48,0|0,0:0|0:0,0:0:0:0:
240,288,103143,1,8,0:0:0:0:
168,288,103205,1,0,0:0:0:0:
96,288,103268,1,0,0:0:0:0:
168,288,103330,1,0,0:0:0:0:
240,192,103393,1,8,0:0:0:0:
96,192,103518,1,0,0:0:0:0:
336,192,103643,6,0,L|240:192,1,96,8|8,0:0|0:0,0:0:0:0:
96,304,103830,1,0,0:0:0:0:
240,304,103893,2,0,L|336:304,1,96,8|0,0:0|0:0,0:0:0:0:
96,192,104143,1,8,0:0:0:0:
240,192,104205,1,0,0:0:0:0:
384,192,104268,1,8,0:0:0:0:
144,80,104393,1,8,0:0:0:0:
288,80,104455,1,8,0:0:0:0:
432,80,104518,1,8,0:0:0:0:
288,80,104580,1,8,0:0:0:0:
144,80,104643,6,0,L|128:176,1,96,14|0,0:0|0:0,0:0:0:0:
200,80,104830,2,0,L|248:80,2,48,2|8|0,0:0|0:0|0:0,0:0:0:0:
128,80,105018,1,2,0:0:0:0:
368,192,105143,2,0,L|368:144,1,48,10|2,0:0|0:0,0:0:0:0:
320,112,105268,1,0,0:0:0:0:
248,192,105330,2,0,L|200:192,2,48,2|8|0,0:0|0:0|0:0,0:0:0:0:
320,192,105518,1,2,0:0:0:0:
80,304,105643,6,0,L|64:208,1,96,10|0,0:0|0:0,0:0:0:0:
136,304,105830,2,0,L|184:304,2,48,2|8|0,0:0|0:0|0:0,0:0:0:0:
64,304,106018,1,2,0:0:0:0:
136,304,106080,1,0,0:0:0:0:
272,304,106143,2,0,L|288:208,1,96,10|0,0:0|0:0,0:0:0:0:
240,192,106330,1,2,0:0:0:0:
168,192,106393,1,8,0:0:0:0:
96,192,106455,1,2,0:0:0:0:
168,192,106518,1,0,0:0:0:0:
240,192,106580,1,2,0:0:0:0:
384,80,106643,6,0,L|400:176,1,96,10|0,0:0|0:0,0:0:0:0:
328,80,106830,2,0,L|280:80,2,48,2|8|0,0:0|0:0|0:0,0:0:0:0:
400,80,107018,1,2,0:0:0:0:
160,192,107143,2,0,L|160:144,1,48,10|0,0:0|0:0,0:0:0:0:
208,112,107268,1,0,0:0:0:0:
280,192,107330,2,0,L|328:192,2,48,2|8|0,0:0|0:0|0:0,0:0:0:0:
208,192,107518,1,2,0:0:0:0:
280,192,107580,1,0,0:0:0:0:
416,192,107643,6,0,L|464:192,1,48,10|0,0:0|0:0,0:0:0:0:
464,128,107768,2,0,L|416:128,1,48,0|0,0:0|0:0,0:0:0:0:
272,144,107893,2,0,L|224:144,1,48,10|0,0:0|0:0,0:0:0:0:
272,80,108018,2,0,L|224:80,1,48,0|0,0:0|0:0,0:0:0:0:
80,64,108143,2,0,L|32:64,1,48,10|0,0:0|0:0,0:0:0:0:
176,64,108268,2,0,L|224:64,1,48,2|0,0:0|0:0,0:0:0:0:
80,64,108393,2,0,L|64:109,1,48,10|0,0:0|0:0,0:0:0:0:
80,64,108518,2,0,L|128:64,1,48,10|0,0:0|0:0,0:0:0:0:
272,80,108643,6,0,L|288:176,1,96,10|0,0:0|0:0,0:0:0:0:
216,80,108830,2,0,L|168:80,2,48,2|8|0,0:0|0:0|0:0,0:0:0:0:
288,80,109018,1,2,0:0:0:0:
48,192,109143,2,0,L|48:144,1,48,10|0,0:0|0:0,0:0:0:0:
96,112,109268,1,0,0:0:0:0:
168,192,109330,2,0,L|216:192,2,48,2|8|0,0:0|0:0|0:0,0:0:0:0:
96,192,109518,1,2,0:0:0:0:
168,192,109580,1,0,0:0:0:0:
304,304,109643,6,0,L|320:208,1,96,10|0,0:0|0:0,0:0:0:0:
248,304,109830,2,0,L|200:304,2,48,2|8|0,0:0|0:0|0:0,0:0:0:0:
320,304,110018,1,2,0:0:0:0:
248,304,110080,1,0,0:0:0:0:
112,304,110143,2,0,L|96:208,1,96,10|0,0:0|0:0,0:0:0:0:
144,192,110330,1,2,0:0:0:0:
216,192,110393,1,8,0:0:0:0:
288,192,110455,1,2,0:0:0:0:
216,192,110518,1,0,0:0:0:0:
288,192,110580,1,2,0:0:0:0:
432,80,110643,6,0,L|448:176,1,96,10|0,0:0|0:0,0:0:0:0:
376,80,110830,2,0,L|328:80,2,48,2|8|0,0:0|0:0|0:0,0:0:0:0:
448,80,111018,1,2,0:0:0:0:
208,192,111143,2,0,L|208:144,1,48,10|0,0:0|0:0,0:0:0:0:
256,112,111268,1,0,0:0:0:0:
328,192,111330,2,0,L|376:192,2,48,2|8|0,0:0|0:0|0:0,0:0:0:0:
256,192,111518,1,2,0:0:0:0:
328,192,111580,1,0,0:0:0:0:
176,192,111643,6,0,L|128:192,2,48,10|0|8,0:0|0:0|0:0,0:0:0:0:
320,160,111830,1,2,0:0:0:0:
176,128,111893,2,0,L|128:128,1,48,8|0,0:0|0:0,0:0:0:0:
272,128,112018,2,0,L|272:176,1,48,2|0,0:0|0:0,0:0:0:0:
128,192,112143,2,0,L|128:240,1,48,10|0,0:0|0:0,0:0:0:0:
272,272,112268,2,0,L|320:272,1,48,8|2,0:0|0:0,0:0:0:0:
176,192,112393,1,8,0:0:0:0:
320,192,112455,1,10,0:0:0:0:
464,192,112518,1,8,0:0:0:0:
320,192,112580,1,10,0:0:0:0:
176,192,112643,6,0,L|160:96,1,96,14|0,0:0|0:0,0:0:0:0:
304,96,112830,2,0,L|352:96,2,48,2|8|0,0:0|0:0|0:0,0:0:0:0:
160,96,113018,1,2,0:0:0:0:
400,192,113143,2,0,L|448:192,2,48,10|2|0,0:0|0:0|0:0,0:0:0:0:
328,192,113330,1,2,0:0:0:0:
184,192,113393,2,0,L|184:240,1,48,8|0,0:0|0:0,0:0:0:0:
328,192,113518,1,2,0:0:0:0:
400,192,113580,1,0,0:0:0:0:
256,192,113643,6,0,L|240:288,1,96,10|0,0:0|0:0,0:0:0:0:
384,288,113830,2,0,L|432:288,2,48,2|8|0,0:0|0:0|0:0,0:0:0:0:
240,288,114018,2,0,L|192:288,1,48,2|0,0:0|0:0,0:0:0:0:
336,288,114143,2,0,L|352:192,1,96,10|0,0:0|0:0,0:0:0:0:
304,144,114330,1,2,0:0:0:0:
160,144,114393,1,8,0:0:0:0:
88,144,114455,1,2,0:0:0:0:
232,144,114518,1,0,0:0:0:0:
304,144,114580,1,2,0:0:0:0:
160,192,114643,6,0,L|144:96,1,96,10|0,0:0|0:0,0:0:0:0:
288,96,114830,2,0,L|336:96,2,48,2|8|0,0:0|0:0|0:0,0:0:0:0:
144,96,115018,1,2,0:0:0:0:
384,192,115143,2,0,L|432:192,2,48,10|0|0,0:0|0:0|0:0,0:0:0:0:
312,192,115330,1,2,0:0:0:0:
168,192,115393,2,0,L|168:240,1,48,8|0,0:0|0:0,0:0:0:0:
312,192,115518,1,2,0:0:0:0:
384,192,115580,1,0,0:0:0:0:
240,96,115643,5,10,0:0:0:0:
168,96,115705,1,0,0:0:0:0:
312,96,115768,1,0,0:0:0:0:
384,96,115830,1,0,0:0:0:0:
240,160,115893,2,0,L|192:160,1,48,10|0,0:0|0:0,0:0:0:0:
192,224,116018,2,0,L|240:224,1,48,0|0,0:0|0:0,0:0:0:0:
384,224,116143,2,0,L|400:176,1,48,10|0,0:0|0:0,0:0:0:0:
264,224,116268,2,0,L|264:176,1,48,2|0,0:0|0:0,0:0:0:0:
128,224,116393,2,0,L|112:128,1,96,10|10,0:0|0:0,0:0:0:0:
160,112,116580,1,0,0:0:0:0:
304,192,116643,6,0,L|320:96,1,96,10|0,0:0|0:0,0:0:0:0:
176,96,116830,2,0,L|128:96,2,48,2|8|0,0:0|0:0|0:0,0:0:0:0:
320,96,117018,1,2,0:0:0:0:
80,192,117143,2,0,L|32:192,2,48,10|0|0,0:0|0:0|0:0,0:0:0:0:
152,192,117330,1,2,0:0:0:0:
296,192,117393,2,0,L|296:240,1,48,8|0,0:0|0:0,0:0:0:0:
152,192,117518,1,2,0:0:0:0:
80,192,117580,1,0,0:0:0:0:
224,192,117643,6,0,L|240:288,1,96,10|0,0:0|0:0,0:0:0:0:
96,288,117830,2,0,L|48:288,2,48,2|8|0,0:0|0:0|0:0,0:0:0:0:
240,288,118018,2,0,L|288:288,1,48,2|0,0:0|0:0,0:0:0:0:
144,288,118143,2,0,L|128:192,1,96,10|0,0:0|0:0,0:0:0:0:
176,144,118330,1,2,0:0:0:0:
320,144,118393,1,8,0:0:0:0:
392,144,118455,1,2,0:0:0:0:
248,144,118518,1,0,0:0:0:0:
176,144,118580,1,2,0:0:0:0:
320,192,118643,6,0,L|336:96,1,96,10|0,0:0|0:0,0:0:0:0:
192,96,118830,2,0,L|144:96,2,48,2|8|0,0:0|0:0|0:0,0:0:0:0:
336,96,119018,1,2,0:0:0:0:
96,192,119143,2,0,L|48:192,2,48,10|0|0,0:0|0:0|0:0,0:0:0:0:
168,192,119330,1,2,0:0:0:0:
312,192,119393,2,0,L|312:240,1,48,8|0,0:0|0:0,0:0:0:0:
168,192,119518,1,2,0:0:0:0:
96,192,119580,1,0,0:0:0:0:
240,96,119643,5,10,0:0:0:0:
312,96,119705,1,0,0:0:0:0:
240,96,119768,1,8,0:0:0:0:
96,96,119830,1,2,0:0:0:0:
240,160,119893,2,0,L|256:208,1,48,8|0,0:0|0:0,0:0:0:0:
112,160,120018,2,0,L|96:208,1,48,2|0,0:0|0:0,0:0:0:0:
240,160,120143,2,0,L|288:160,1,48,10|0,0:0|0:0,0:0:0:0:
144,160,120268,2,0,L|96:160,1,48,8|2,0:0|0:0,0:0:0:0:
240,224,120393,1,8,0:0:0:0:
384,224,120455,1,10,0:0:0:0:
240,224,120518,1,8,0:0:0:0:
96,224,120580,1,10,0:0:0:0:
240,160,120643,6,0,L|288:160,1,48,14|0,0:0|0:0,0:0:0:0:
144,80,120768,2,0,L|192:80,1,48,0|0,0:0|0:0,0:0:0:0:
336,160,120893,2,0,L|384:160,1,48,10|0,0:0|0:0,0:0:0:0:
240,80,121018,2,0,L|288:80,1,48,0|0,0:0|0:0,0:0:0:0:
432,160,121143,2,0,L|480:160,1,48,10|0,0:0|0:0,0:0:0:0:
480,80,121268,2,0,L|432:80,1,48,0|0,0:0|0:0,0:0:0:0:
288,160,121393,2,0,L|272:112,1,48,10|0,0:0|0:0,0:0:0:0:
352,160,121518,2,0,L|368:112,1,48,0|0,0:0|0:0,0:0:0:0:
224,192,121643,6,0,L|208:144,1,48,10|0,0:0|0:0,0:0:0:0:
224,192,121768,2,0,L|272:192,1,48,0|0,0:0|0:0,0:0:0:0:
416,192,121893,2,0,L|431:146,1,48,10|0,0:0|0:0,0:0:0:0:
416,192,122018,2,0,L|368:192,1,48,0|0,0:0|0:0,0:0:0:0:
224,112,122143,2,0,L|176:112,1,48,10|0,0:0|0:0,0:0:0:0:
320,64,122268,2,0,L|272:64,1,48,0|0,0:0|0:0,0:0:0:0:
128,192,122393,1,10,0:0:0:0:
56,192,122455,1,0,0:0:0:0:
200,192,122518,1,2,0:0:0:0:
272,192,122580,1,0,0:0:0:0:
128,64,122643,6,0,L|80:64,1,48,10|0,0:0|0:0,0:0:0:0:
80,128,122768,2,0,L|128:128,1,48,2|0,0:0|0:0,0:0:0:0:
272,128,122893,2,0,L|320:128,1,48,10|0,0:0|0:0,0:0:0:0:
272,192,123018,2,0,L|320:192,1,48,0|0,0:0|0:0,0:0:0:0:
464,64,123143,2,0,L|416:64,1,48,10|0,0:0|0:0,0:0:0:0:
272,64,123268,2,0,L|320:64,1,48,2|0,0:0|0:0,0:0:0:0:
464,192,123393,1,10,0:0:0:0:
392,192,123455,1,0,0:0:0:0:
248,192,123518,1,2,0:0:0:0:
176,192,123580,1,0,0:0:0:0:
320,272,123643,5,10,0:0:0:0:
392,272,123705,1,0,0:0:0:0:
248,272,123768,1,2,0:0:0:0:
176,272,123830,1,0,0:0:0:0:
320,192,123893,2,0,L|368:192,1,48,10|0,0:0|0:0,0:0:0:0:
368,112,124018,2,0,L|320:112,1,48,0|0,0:0|0:0,0:0:0:0:
176,272,124143,1,10,0:0:0:0:
104,272,124205,1,0,0:0:0:0:
248,272,124268,1,2,0:0:0:0:
320,272,124330,1,0,0:0:0:0:
176,192,124393,2,0,L|224:192,1,48,10|0,0:0|0:0,0:0:0:0:
368,112,124518,2,0,L|416:112,1,48,0|0,0:0|0:0,0:0:0:0:
272,160,124643,6,0,L|224:160,1,48,10|0,0:0|0:0,0:0:0:0:
368,80,124768,2,0,L|320:80,1,48,0|0,0:0|0:0,0:0:0:0:
176,160,124893,2,0,L|128:160,1,48,10|0,0:0|0:0,0:0:0:0:
272,80,125018,2,0,L|224:80,1,48,0|0,0:0|0:0,0:0:0:0:
80,160,125143,2,0,L|32:160,1,48,10|0,0:0|0:0,0:0:0:0:
32,80,125268,2,0,L|80:80,1,48,0|0,0:0|0:0,0:0:0:0:
224,160,125393,2,0,L|240:112,1,48,10|0,0:0|0:0,0:0:0:0:
160,160,125518,2,0,L|144:112,1,48,0|0,0:0|0:0,0:0:0:0:
288,192,125643,6,0,L|304:144,1,48,10|0,0:0|0:0,0:0:0:0:
288,192,125768,2,0,L|240:192,1,48,0|0,0:0|0:0,0:0:0:0:
96,192,125893,2,0,L|81:146,1,48,10|0,0:0|0:0,0:0:0:0:
96,192,126018,2,0,L|144:192,1,48,0|0,0:0|0:0,0:0:0:0:
288,112,126143,2,0,L|336:112,1,48,10|0,0:0|0:0,0:0:0:0:
192,64,126268,2,0,L|240:64,1,48,0|0,0:0|0:0,0:0:0:0:
384,192,126393,1,10,0:0:0:0:
456,192,126455,1,0,0:0:0:0:
312,192,126518,1,2,0:0:0:0:
240,192,126580,1,0,0:0:0:0:
384,64,126643,6,0,L|432:64,1,48,10|0,0:0|0:0,0:0:0:0:
432,128,126768,2,0,L|384:128,1,48,0|0,0:0|0:0,0:0:0:0:
240,128,126893,2,0,L|192:128,1,48,10|0,0:0|0:0,0:0:0:0:
240,192,127018,2,0,L|192:192,1,48,2|0,0:0|0:0,0:0:0:0:
48,64,127143,2,0,L|96:64,1,48,10|0,0:0|0:0,0:0:0:0:
240,64,127268,2,0,L|192:64,1,48,2|0,0:0|0:0,0:0:0:0:
48,192,127393,1,10,0:0:0:0:
120,192,127455,1,0,0:0:0:0:
264,192,127518,1,2,0:0:0:0:
336,192,127580,1,0,0:0:0:0:
192,272,127643,5,10,0:0:0:0:
120,272,127705,1,0,0:0:0:0:
192,272,127768,1,8,0:0:0:0:
336,272,127830,1,2,0:0:0:0:
192,192,127893,2,0,L|144:192,1,48,8|0,0:0|0:0,0:0:0:0:
288,160,128018,2,0,L|336:160,1,48,2|0,0:0|0:0,0:0:0:0:
192,112,128143,1,10,0:0:0:0:
120,112,128205,1,0,0:0:0:0:
264,112,128268,1,8,0:0:0:0:
336,112,128330,1,2,0:0:0:0:
192,192,128393,1,8,0:0:0:0:
48,192,128455,1,10,0:0:0:0:
192,192,128518,1,8,0:0:0:0:
336,192,128580,1,10,0:0:0:0:
192,112,128643,6,0,L|96:112,1,96,14|0,0:0|0:0,0:0:0:0:
240,64,128830,2,0,L|288:64,2,48,2|8|0,0:0|0:0|0:0,0:0:0:0:
96,64,129018,2,0,L|96:112,1,48,2|0,0:0|0:0,0:0:0:0:
240,64,129143,2,0,L|240:112,1,48,10|2,0:0|0:0,0:0:0:0:
192,64,129268,2,0,L|240:64,1,48,0|2,0:0|0:0,0:0:0:0:
384,64,129393,2,0,L|432:64,1,48,8|0,0:0|0:0,0:0:0:0:
288,192,129518,1,2,0:0:0:0:
144,192,129580,1,0,0:0:0:0:
288,192,129643,6,0,L|304:96,1,96,10|0,0:0|0:0,0:0:0:0:
160,64,129830,2,0,L|112:64,2,48,2|8|0,0:0|0:0|0:0,0:0:0:0:
304,64,130018,2,0,L|256:64,1,48,2|0,0:0|0:0,0:0:0:0:
112,192,130143,2,0,L|96:96,1,96,10|0,0:0|0:0,0:0:0:0:
240,64,130330,1,2,0:0:0:0:
384,64,130393,2,0,L|336:64,1,48,8|2,0:0|0:0,0:0:0:0:
192,192,130518,2,0,L|240:192,1,48,0|2,0:0|0:0,0:0:0:0:
384,112,130643,6,0,L|480:112,1,96,10|0,0:0|0:0,0:0:0:0:
336,64,130830,2,0,L|288:64,2,48,2|8|0,0:0|0:0|0:0,0:0:0:0:
480,64,131018,2,0,L|480:112,1,48,2|0,0:0|0:0,0:0:0:0:
336,64,131143,2,0,L|336:112,1,48,10|0,0:0|0:0,0:0:0:0:
384,64,131268,2,0,L|336:64,1,48,0|2,0:0|0:0,0:0:0:0:
192,64,131393,2,0,L|144:64,1,48,8|0,0:0|0:0,0:0:0:0:
288,192,131518,1,2,0:0:0:0:
432,192,131580,1,0,0:0:0:0:
288,192,131643,6,0,L|240:192,1,48,10|0,0:0|0:0,0:0:0:0:
384,272,131768,2,0,L|336:272,1,48,0|0,0:0|0:0,0:0:0:0:
192,272,131893,2,0,L|144:272,1,48,10|0,0:0|0:0,0:0:0:0:
192,192,132018,2,0,L|144:192,1,48,0|0,0:0|0:0,0:0:0:0:
288,192,132143,2,0,L|304:144,1,48,10|0,0:0|0:0,0:0:0:0:
240,192,132268,2,0,L|224:144,1,48,2|0,0:0|0:0,0:0:0:0:
368,112,132393,2,0,L|368:160,1,48,10|0,0:0|0:0,0:0:0:0:
224,112,132518,2,0,L|176:112,1,48,10|0,0:0|0:0,0:0:0:0:
320,112,132643,6,0,L|416:112,1,96,10|0,0:0|0:0,0:0:0:0:
272,64,132830,2,0,L|224:64,2,48,2|8|0,0:0|0:0|0:0,0:0:0:0:
416,64,133018,2,0,L|416:112,1,48,2|0,0:0|0:0,0:0:0:0:
272,64,133143,2,0,L|272:112,1,48,10|0,0:0|0:0,0:0:0:0:
320,64,133268,2,0,L|272:64,1,48,0|2,0:0|0:0,0:0:0:0:
128,64,133393,2,0,L|80:64,1,48,8|0,0:0|0:0,0:0:0:0:
224,192,133518,1,2,0:0:0:0:
368,192,133580,1,0,0:0:0:0:
224,192,133643,6,0,L|208:96,1,96,10|0,0:0|0:0,0:0:0:0:
352,64,133830,2,0,L|400:64,2,48,2|8|0,0:0|0:0|0:0,0:0:0:0:
208,64,134018,2,0,L|256:64,1,48,2|0,0:0|0:0,0:0:0:0:
400,192,134143,2,0,L|416:96,1,96,10|0,0:0|0:0,0:0:0:0:
272,64,134330,1,2,0:0:0:0:
128,64,134393,2,0,L|176:64,1,48,8|2,0:0|0:0,0:0:0:0:
320,192,134518,2,0,L|272:192,1,48,0|2,0:0|0:0,0:0:0:0:
128,112,134643,5,10,0:0:0:0:
64,112,134705,1,0,0:0:0:0:
32,64,134768,1,0,0:0:0:0:
176,64,134830,2,0,L|224:64,2,48,2|8|0,0:0|0:0|0:0,0:0:0:0:
32,64,135018,2,0,L|32:112,1,48,2|0,0:0|0:0,0:0:0:0:
176,64,135143,2,0,L|176:112,1,48,10|0,0:0|0:0,0:0:0:0:
128,64,135268,2,0,L|176:64,1,48,0|2,0:0|0:0,0:0:0:0:
320,64,135393,2,0,L|272:64,1,48,8|0,0:0|0:0,0:0:0:0:
128,192,135518,2,0,L|80:192,1,48,2|0,0:0|0:0,0:0:0:0:
224,192,135643,5,10,0:0:0:0:
296,192,135705,1,0,0:0:0:0:
224,192,135768,1,8,0:0:0:0:
80,192,135830,1,2,0:0:0:0:
224,272,135893,2,0,L|272:272,1,48,8|0,0:0|0:0,0:0:0:0:
128,192,136018,2,0,L|176:192,1,48,2|0,0:0|0:0,0:0:0:0:
320,112,136143,2,0,L|368:112,1,48,10|0,0:0|0:0,0:0:0:0:
224,192,136268,2,0,L|272:192,1,48,8|2,0:0|0:0,0:0:0:0:
416,192,136393,1,8,0:0:0:0:
272,192,136455,1,10,0:0:0:0:
128,192,136518,1,8,0:0:0:0:
272,192,136580,1,10,0:0:0:0:
416,112,136643,5,14,0:0:0:0:
488,112,136705,1,0,0:0:0:0:
344,112,136768,1,0,0:0:0:0:
272,112,136830,1,0,0:0:0:0:
416,192,136893,2,0,L|368:192,1,48,10|0,0:0|0:0,0:0:0:0:
224,192,137018,2,0,L|272:192,1,48,0|0,0:0|0:0,0:0:0:0:
416,272,137143,2,0,L|368:272,1,48,10|0,0:0|0:0,0:0:0:0:
224,272,137268,2,0,L|176:272,1,48,0|0,0:0|0:0,0:0:0:0:
320,272,137393,2,0,L|336:224,1,48,10|0,0:0|0:0,0:0:0:0:
272,272,137518,2,0,L|256:224,1,48,0|0,0:0|0:0,0:0:0:0:
400,192,137643,6,0,L|416:144,1,48,10|0,0:0|0:0,0:0:0:0:
376,96,137768,1,0,0:0:0:0:
304,96,137830,1,0,0:0:0:0:
160,192,137893,2,0,L|144:144,1,48,10|0,0:0|0:0,0:0:0:0:
184,96,138018,1,0,0:0:0:0:
256,96,138080,1,0,0:0:0:0:
400,192,138143,2,0,L|448:192,1,48,10|0,0:0|0:0,0:0:0:0:
304,192,138268,2,0,L|256:192,1,48,0|0,0:0|0:0,0:0:0:0:
400,96,138393,1,10,0:0:0:0:
328,96,138455,1,0,0:0:0:0:
184,96,138518,1,2,0:0:0:0:
256,96,138580,1,0,0:0:0:0:
400,192,138643,6,0,L|448:192,1,48,10|0,0:0|0:0,0:0:0:0:
304,192,138768,2,0,L|352:192,1,48,2|0,0:0|0:0,0:0:0:0:
496,192,138893,2,0,L|496:144,1,48,10|0,0:0|0:0,0:0:0:0:
352,96,139018,1,0,0:0:0:0:
208,96,139080,1,0,0:0:0:0:
352,192,139143,2,0,L|352:240,1,48,10|0,0:0|0:0,0:0:0:0:
208,192,139268,1,2,0:0:0:0:
64,192,139330,1,0,0:0:0:0:
208,288,139393,1,10,0:0:0:0:
280,288,139455,1,0,0:0:0:0:
136,288,139518,1,2,0:0:0:0:
64,288,139580,1,0,0:0:0:0:
208,192,139643,5,10,0:0:0:0:
352,192,139705,1,0,0:0:0:0:
208,192,139768,2,0,L|160:192,1,48,2|0,0:0|0:0,0:0:0:0:
304,144,139893,2,0,L|352:144,1,48,10|0,0:0|0:0,0:0:0:0:
352,80,140018,2,0,L|304:80,1,48,0|0,0:0|0:0,0:0:0:0:
160,80,140143,1,10,0:0:0:0:
16,80,140205,1,0,0:0:0:0:
160,80,140268,2,0,L|208:80,1,48,2|0,0:0|0:0,0:0:0:0:
64,192,140393,2,0,L|112:192,1,48,10|0,0:0|0:0,0:0:0:0:
256,192,140518,2,0,L|256:144,1,48,0|0,0:0|0:0,0:0:0:0:
112,112,140643,5,10,0:0:0:0:
40,112,140705,1,0,0:0:0:0:
184,112,140768,1,0,0:0:0:0:
256,112,140830,1,0,0:0:0:0:
112,192,140893,2,0,L|160:192,1,48,10|0,0:0|0:0,0:0:0:0:
304,192,141018,2,0,L|256:192,1,48,0|0,0:0|0:0,0:0:0:0:
112,272,141143,2,0,L|160:272,1,48,10|0,0:0|0:0,0:0:0:0:
304,272,141268,2,0,L|352:272,1,48,0|0,0:0|0:0,0:0:0:0:
208,272,141393,2,0,L|192:224,1,48,10|0,0:0|0:0,0:0:0:0:
256,272,141518,2,0,L|272:224,1,48,0|0,0:0|0:0,0:0:0:0:
128,192,141643,6,0,L|112:144,1,48,10|0,0:0|0:0,0:0:0:0:
152,96,141768,1,0,0:0:0:0:
224,96,141830,1,0,0:0:0:0:
368,192,141893,2,0,L|384:144,1,48,10|0,0:0|0:0,0:0:0:0:
344,96,142018,1,0,0:0:0:0:
272,96,142080,1,0,0:0:0:0:
128,192,142143,2,0,L|80:192,1,48,10|0,0:0|0:0,0:0:0:0:
224,192,142268,2,0,L|272:192,1,48,0|0,0:0|0:0,0:0:0:0:
128,96,142393,1,10,0:0:0:0:
200,96,142455,1,0,0:0:0:0:
344,96,142518,1,2,0:0:0:0:
272,96,142580,1,0,0:0:0:0:
128,192,142643,6,0,L|80:192,1,48,10|0,0:0|0:0,0:0:0:0:
224,192,142768,2,0,L|176:192,1,48,0|0,0:0|0:0,0:0:0:0:
32,192,142893,2,0,L|32:144,1,48,10|0,0:0|0:0,0:0:0:0:
176,96,143018,1,2,0:0:0:0:
320,96,143080,1,0,0:0:0:0:
176,192,143143,2,0,L|176:240,1,48,10|0,0:0|0:0,0:0:0:0:
320,192,143268,1,2,0:0:0:0:
464,192,143330,1,0,0:0:0:0:
320,288,143393,1,10,0:0:0:0:
248,288,143455,1,0,0:0:0:0:
392,288,143518,1,2,0:0:0:0:
464,288,143580,1,0,0:0:0:0:
320,192,143643,6,0,L|272:192,2,48,10|0|8,0:0|0:0|0:0,0:0:0:0:
464,144,143830,1,2,0:0:0:0:
320,96,143893,2,0,L|272:96,1,48,8|0,0:0|0:0,0:0:0:0:
416,144,144018,2,0,L|432:96,1,48,2|0,0:0|0:0,0:0:0:0:
288,144,144143,2,0,L|240:144,1,48,10|0,0:0|0:0,0:0:0:0:
384,192,144268,2,0,L|336:192,1,48,8|2,0:0|0:0,0:0:0:0:
192,192,144393,1,8,0:0:0:0:
48,192,144455,1,10,0:0:0:0:
192,192,144518,1,8,0:0:0:0:
336,192,144580,1,10,0:0:0:0:
192,192,144643,5,2,0:0:0:0:
128,192,144705,1,0,0:0:0:0:
192,192,144768,1,2,0:0:0:0:
240,192,144830,1,0,0:0:0:0:
192,192,144893,2,0,L|192:144,1,48,2|0,0:0|0:0,0:0:0:0:
224,96,145018,1,0,0:0:0:0:
288,96,145080,1,0,0:0:0:0:
352,192,145143,1,2,0:0:0:0:
416,192,145205,1,0,0:0:0:0:
352,192,145268,1,2,0:0:0:0:
304,192,145330,1,0,0:0:0:0:
352,192,145393,2,0,L|352:240,1,48,2|0,0:0|0:0,0:0:0:0:
320,288,145518,1,0,0:0:0:0:
256,288,145580,1,0,0:0:0:0:
112,192,145643,5,0,0:0:0:0:
256,192,145705,1,0,0:0:0:0:
400,192,145768,1,0,0:0:0:0:
256,192,145830,1,0,0:0:0:0:
112,192,145893,1,0,0:0:0:0:
256,192,145955,1,0,0:0:0:0:
400,192,146018,1,0,0:0:0:0:
256,192,146080,1,0,0:0:0:0:
112,192,146143,1,0,0:0:0:0:
256,192,146205,1,0,0:0:0:0:
400,192,146268,1,0,0:0:0:0:
256,192,146330,1,0,0:0:0:0:
112,192,146393,1,0,0:0:0:0:
256,192,146455,1,0,0:0:0:0:
400,192,146518,1,0,0:0:0:0:
256,192,146580,1,0,0:0:0:0:
112,128,146643,6,0,L|64:128,1,48,14|0,0:0|0:0,0:0:0:0:
64,192,146768,2,0,L|112:192,1,48,2|0,0:0|0:0,0:0:0:0:
256,128,146893,2,0,L|272:80,1,48,10|0,0:0|0:0,0:0:0:0:
208,128,147018,2,0,L|192:80,1,48,0|0,0:0|0:0,0:0:0:0:
336,128,147143,2,0,L|384:128,1,48,10|0,0:0|0:0,0:0:0:0:
384,192,147268,2,0,L|336:192,1,48,2|0,0:0|0:0,0:0:0:0:
192,256,147393,2,0,L|176:304,1,48,10|0,0:0|0:0,0:0:0:0:
240,256,147518,2,0,L|256:304,1,48,0|0,0:0|0:0,0:0:0:0:
112,128,147643,6,0,L|64:128,1,48,10|0,0:0|0:0,0:0:0:0:
64,192,147768,2,0,L|112:192,1,48,2|0,0:0|0:0,0:0:0:0:
256,128,147893,2,0,L|208:128,1,48,10|0,0:0|0:0,0:0:0:0:
64,80,148018,2,0,L|112:80,1,48,0|0,0:0|0:0,0:0:0:0:
256,192,148143,2,0,L|304:192,1,48,10|0,0:0|0:0,0:0:0:0:
160,272,148268,1,2,0:0:0:0:
304,272,148330,1,0,0:0:0:0:
448,272,148393,2,0,L|448:224,1,48,10|0,0:0|0:0,0:0:0:0:
304,272,148518,2,0,L|256:272,1,48,0|0,0:0|0:0,0:0:0:0:
400,128,148643,6,0,L|448:128,1,48,10|0,0:0|0:0,0:0:0:0:
448,192,148768,2,0,L|400:192,1,48,2|0,0:0|0:0,0:0:0:0:
256,128,148893,2,0,L|240:80,1,48,10|0,0:0|0:0,0:0:0:0:
304,128,149018,2,0,L|320:80,1,48,0|0,0:0|0:0,0:0:0:0:
176,128,149143,2,0,L|128:128,1,48,10|0,0:0|0:0,0:0:0:0:
128,192,149268,2,0,L|176:192,1,48,2|0,0:0|0:0,0:0:0:0:
320,256,149393,2,0,L|336:304,1,48,10|0,0:0|0:0,0:0:0:0:
272,256,149518,2,0,L|256:304,1,48,0|0,0:0|0:0,0:0:0:0:
400,128,149643,6,0,L|448:128,1,48,10|0,0:0|0:0,0:0:0:0:
448,192,149768,2,0,L|400:192,1,48,2|0,0:0|0:0,0:0:0:0:
256,128,149893,2,0,L|224:128,1,24,10|0,0:0|0:0,0:0:0:0:
232,64,149955,2,0,L|256:64,1,24,0|0,0:0|0:0,0:0:0:0:
352,128,150018,2,0,L|384:128,1,24,0|0,0:0|0:0,0:0:0:0:
376,64,150080,2,0,L|352:64,1,24,0|0,0:0|0:0,0:0:0:0:
256,192,150143,2,0,L|208:192,1,48,10|0,0:0|0:0,0:0:0:0:
352,192,150268,2,0,L|352:240,1,48,2|0,0:0|0:0,0:0:0:0:
208,272,150393,2,0,L|160:272,1,48,10|0,0:0|0:0,0:0:0:0:
304,272,150518,2,0,L|256:272,1,48,0|0,0:0|0:0,0:0:0:0:
112,128,150643,6,0,L|64:128,1,48,10|0,0:0|0:0,0:0:0:0:
64,192,150768,2,0,L|112:192,1,48,2|0,0:0|0:0,0:0:0:0:
256,128,150893,2,0,L|272:80,1,48,10|0,0:0|0:0,0:0:0:0:
208,128,151018,2,0,L|192:80,1,48,0|0,0:0|0:0,0:0:0:0:
336,128,151143,2,0,L|384:128,1,48,10|0,0:0|0:0,0:0:0:0:
384,192,151268,2,0,L|336:192,1,48,2|0,0:0|0:0,0:0:0:0:
192,256,151393,2,0,L|176:304,1,48,10|0,0:0|0:0,0:0:0:0:
240,256,151518,2,0,L|256:304,1,48,0|0,0:0|0:0,0:0:0:0:
112,192,151643,6,0,L|96:144,1,48,10|0,0:0|0:0,0:0:0:0:
240,96,151768,2,0,L|288:96,1,48,2|0,0:0|0:0,0:0:0:0:
144,192,151893,2,0,L|128:144,1,48,10|0,0:0|0:0,0:0:0:0:
272,96,152018,2,0,L|320:96,1,48,0|0,0:0|0:0,0:0:0:0:
464,192,152143,2,0,L|480:144,1,48,10|0,0:0|0:0,0:0:0:0:
336,96,152268,2,0,L|288:96,1,48,2|0,0:0|0:0,0:0:0:0:
432,192,152393,2,0,L|448:144,1,48,10|0,0:0|0:0,0:0:0:0:
304,96,152518,1,0,0:0:0:0:
160,96,152580,1,0,0:0:0:0:
304,128,152643,6,0,L|352:128,2,48,10|0|2,0:0|0:0|0:0,0:0:0:0:
160,192,152830,1,0,0:0:0:0:
304,192,152893,2,0,L|320:144,1,48,10|0,0:0|0:0,0:0:0:0:
256,192,153018,2,0,L|240:144,1,48,0|0,0:0|0:0,0:0:0:0:
384,144,153143,1,10,0:0:0:0:
240,144,153205,1,0,0:0:0:0:
96,192,153268,2,0,L|80:144,1,48,2|0,0:0|0:0,0:0:0:0:
224,192,153393,2,0,L|240:144,1,48,10|0,0:0|0:0,0:0:0:0:
96,144,153518,1,0,0:0:0:0:
240,144,153580,1,0,0:0:0:0:
384,192,153643,6,0,L|432:192,2,48,10|0|8,0:0|0:0|0:0,0:0:0:0:
240,192,153830,1,2,0:0:0:0:
384,192,153893,2,0,L|400:144,1,48,8|0,0:0|0:0,0:0:0:0:
256,192,154018,2,0,L|240:144,1,48,2|0,0:0|0:0,0:0:0:0:
384,256,154143,2,0,L|432:256,1,48,10|0,0:0|0:0,0:0:0:0:
288,256,154268,2,0,L|240:256,1,48,8|2,0:0|0:0,0:0:0:0:
384,192,154393,1,8,0:0:0:0:
240,192,154455,1,10,0:0:0:0:
96,192,154518,1,8,0:0:0:0:
240,192,154580,1,10,0:0:0:0:
384,128,154643,6,0,L|432:128,1,48,14|0,0:0|0:0,0:0:0:0:
432,192,154768,2,0,L|384:192,1,48,2|0,0:0|0:0,0:0:0:0:
240,128,154893,2,0,L|224:80,1,48,10|0,0:0|0:0,0:0:0:0:
368,128,155018,2,0,L|384:80,1,48,0|0,0:0|0:0,0:0:0:0:
240,128,155143,2,0,L|192:128,1,48,10|0,0:0|0:0,0:0:0:0:
192,192,155268,2,0,L|240:192,1,48,2|0,0:0|0:0,0:0:0:0:
384,256,155393,2,0,L|400:304,1,48,10|0,0:0|0:0,0:0:0:0:
256,256,155518,2,0,L|240:304,1,48,0|0,0:0|0:0,0:0:0:0:
384,256,155643,6,0,L|432:256,1,48,10|0,0:0|0:0,0:0:0:0:
432,192,155768,2,0,L|384:192,1,48,2|0,0:0|0:0,0:0:0:0:
240,192,155893,1,10,0:0:0:0:
96,192,155955,1,0,0:0:0:0:
240,192,156018,1,0,0:0:0:0:
384,192,156080,1,0,0:0:0:0:
240,112,156143,2,0,L|192:112,1,48,10|0,0:0|0:0,0:0:0:0:
336,112,156268,1,2,0:0:0:0:
480,112,156330,1,0,0:0:0:0:
336,112,156393,2,0,L|288:112,1,48,10|0,0:0|0:0,0:0:0:0:
432,112,156518,2,0,L|448:160,1,48,0|0,0:0|0:0,0:0:0:0:
304,128,156643,6,0,L|256:128,1,48,10|0,0:0|0:0,0:0:0:0:
256,192,156768,2,0,L|304:192,1,48,2|0,0:0|0:0,0:0:0:0:
448,128,156893,2,0,L|464:80,1,48,10|0,0:0|0:0,0:0:0:0:
320,128,157018,2,0,L|304:80,1,48,0|0,0:0|0:0,0:0:0:0:
448,128,157143,2,0,L|496:128,1,48,10|0,0:0|0:0,0:0:0:0:
496,192,157268,2,0,L|448:192,1,48,2|0,0:0|0:0,0:0:0:0:
304,256,157393,2,0,L|288:304,1,48,10|0,0:0|0:0,0:0:0:0:
432,256,157518,2,0,L|448:304,1,48,0|0,0:0|0:0,0:0:0:0:
304,256,157643,6,0,L|256:256,1,48,10|0,0:0|0:0,0:0:0:0:
256,192,157768,2,0,L|304:192,1,48,2|0,0:0|0:0,0:0:0:0:
448,192,157893,1,10,0:0:0:0:
304,192,157955,1,0,0:0:0:0:
160,192,158018,1,0,0:0:0:0:
16,192,158080,1,0,0:0:0:0:
160,192,158143,2,0,L|176:144,1,48,10|0,0:0|0:0,0:0:0:0:
32,112,158268,1,2,0:0:0:0:
176,112,158330,1,0,0:0:0:0:
320,112,158393,1,10,0:0:0:0:
176,112,158455,1,0,0:0:0:0:
32,112,158518,1,0,0:0:0:0:
176,112,158580,1,0,0:0:0:0:
320,112,158643,6,0,L|368:112,1,48,10|0,0:0|0:0,0:0:0:0:
224,192,158768,2,0,L|176:192,1,48,2|0,0:0|0:0,0:0:0:0:
320,192,158893,2,0,L|336:144,1,48,10|0,0:0|0:0,0:0:0:0:
192,192,159018,2,0,L|208:144,1,48,0|0,0:0|0:0,0:0:0:0:
352,272,159143,2,0,L|400:272,1,48,10|0,0:0|0:0,0:0:0:0:
256,192,159268,2,0,L|208:192,1,48,2|0,0:0|0:0,0:0:0:0:
352,192,159393,2,0,L|368:240,1,48,10|0,0:0|0:0,0:0:0:0:
224,192,159518,1,0,0:0:0:0:
80,192,159580,1,0,0:0:0:0:
224,112,159643,6,0,L|272:112,1,48,10|0,0:0|0:0,0:0:0:0:
128,192,159768,2,0,L|80:192,1,48,2|0,0:0|0:0,0:0:0:0:
224,192,159893,2,0,L|240:144,1,48,10|0,0:0|0:0,0:0:0:0:
96,192,160018,2,0,L|112:144,1,48,0|0,0:0|0:0,0:0:0:0:
256,272,160143,2,0,L|304:272,1,48,10|0,0:0|0:0,0:0:0:0:
160,192,160268,2,0,L|112:192,1,48,2|0,0:0|0:0,0:0:0:0:
256,192,160393,2,0,L|272:240,1,48,10|0,0:0|0:0,0:0:0:0:
128,192,160518,1,0,0:0:0:0:
272,192,160580,1,0,0:0:0:0:
416,192,160643,6,0,L|416:144,1,48,10|0,0:0|0:0,0:0:0:0:
256,192,160768,2,0,L|256:144,1,48,2|0,0:0|0:0,0:0:0:0:
96,192,160893,2,0,L|96:144,1,48,10|0,0:0|0:0,0:0:0:0:
256,192,161018,2,0,L|256:144,1,48,0|0,0:0|0:0,0:0:0:0:
432,192,161143,2,0,L|432:144,1,48,10|0,0:0|0:0,0:0:0:0:
256,192,161268,2,0,L|256:144,1,48,2|0,0:0|0:0,0:0:0:0:
80,192,161393,2,0,L|80:144,1,48,10|0,0:0|0:0,0:0:0:0:
256,192,161518,2,0,L|256:144,1,48,0|0,0:0|0:0,0:0:0:0:
448,192,161643,6,0,P|464:208|448:272,1,96,10|8,0:0|0:0,0:0:0:0:
304,272,161830,2,0,L|256:272,1,48,2|8,0:0|0:0,0:0:0:0:
448,192,162018,1,2,0:0:0:0:
256,192,162143,2,0,P|228:132|256:64,1,144,10|0,0:0|0:0,0:0:0:0:
400,192,162393,2,0,P|428:132|400:64,1,144,8|0,0:0|0:0,0:0:0:0:
272,64,162643,6,0,L|400:64,1,124.79999428711,2|10,0:0|0:0,0:0:0:0:
208,192,162893,2,0,L|332:192,1,124.79999428711,2|10,0:0|0:0,0:0:0:0:
144,64,163143,2,0,B|394:64|394:64|144:64,1,499.199977148439,2|8,0:0|0:0,0:0:0:0:
464,192,163643,6,0,P|480:160|464:104,1,96,12|0,0:0|0:0,0:0:0:0:
256,192,164143,2,0,P|240:160|256:104,1,96,2|0,0:0|0:0,0:0:0:0:
464,192,164643,1,8,0:0:0:0:
360,192,164768,1,2,0:0:0:0:
464,192,164893,1,2,0:0:0:0:
256,192,165143,1,2,0:0:0:0:
464,192,165393,1,2,0:0:0:0:
152,192,165643,5,12,0:0:0:0:
360,192,166143,1,2,0:0:0:0:
48,192,166643,1,8,0:0:0:0:
360,192,166893,1,2,0:0:0:0:
152,192,167143,1,2,0:0:0:0:
204,192,167205,1,0,0:0:0:0:
256,192,167268,1,2,0:0:0:0:
204,192,167330,1,0,0:0:0:0:
152,192,167393,1,2,0:0:0:0:
204,192,167455,1,0,0:0:0:0:
256,192,167518,1,2,0:0:0:0:
204,192,167580,1,0,0:0:0:0:
152,192,167643,5,12,0:0:0:0:
48,192,167768,1,2,0:0:0:0:
152,192,167893,1,2,0:0:0:0:
48,192,168018,1,2,0:0:0:0:
152,192,168143,1,2,0:0:0:0:
360,192,168393,1,2,0:0:0:0:
48,192,168643,1,8,0:0:0:0:
256,192,168893,2,0,L|256:144,1,48,2|0,0:0|0:0,0:0:0:0:
152,192,169143,1,2,0:0:0:0:
256,192,169268,1,0,0:0:0:0:
48,192,169518,1,0,0:0:0:0:
360,192,169643,5,12,0:0:0:0:
152,192,169893,1,0,0:0:0:0:
464,192,170143,1,2,0:0:0:0:
152,192,170393,1,2,0:0:0:0:
360,192,170643,1,8,0:0:0:0:
48,192,170893,1,2,0:0:0:0:
256,192,171018,1,8,0:0:0:0:
152,192,171143,1,2,0:0:0:0:
256,192,171268,1,2,0:0:0:0:
152,192,171393,1,2,0:0:0:0:
256,192,171518,1,2,0:0:0:0:
464,192,171643,5,6,0:0:0:0:
464,144,171705,1,0,0:0:0:0:
412,96,171768,1,0,0:0:0:0:
308,192,171893,1,2,0:0:0:0:
308,144,171955,1,0,0:0:0:0:
360,96,172018,1,0,0:0:0:0:
464,192,172143,1,8,0:0:0:0:
360,192,172268,1,2,0:0:0:0:
464,192,172393,1,2,0:0:0:0:
256,192,172643,1,2,0:0:0:0:
464,192,172893,1,0,0:0:0:0:
152,192,173143,1,8,0:0:0:0:
464,192,173643,5,6,0:0:0:0:
48,192,174143,1,8,0:0:0:0:
360,192,174393,1,2,0:0:0:0:
152,192,174643,1,2,0:0:0:0:
204,192,174705,1,0,0:0:0:0:
256,192,174768,1,2,0:0:0:0:
204,192,174830,1,0,0:0:0:0:
152,192,174893,1,2,0:0:0:0:
204,192,174955,1,0,0:0:0:0:
256,192,175018,1,2,0:0:0:0:
204,192,175080,1,0,0:0:0:0:
152,192,175143,1,8,0:0:0:0:
48,192,175268,1,2,0:0:0:0:
152,192,175393,1,2,0:0:0:0:
256,192,175518,1,2,0:0:0:0:
152,192,175643,5,6,0:0:0:0:
360,192,175893,1,2,0:0:0:0:
48,192,176143,1,8,0:0:0:0:
256,192,176393,2,0,L|256:144,1,48,2|0,0:0|0:0,0:0:0:0:
152,192,176643,1,2,0:0:0:0:
256,192,176768,1,0,0:0:0:0:
48,192,177018,1,0,0:0:0:0:
360,192,177143,1,8,0:0:0:0:
152,192,177393,1,0,0:0:0:0:
464,192,177643,5,6,0:0:0:0:
152,192,177893,1,2,0:0:0:0:
360,192,178143,1,8,0:0:0:0:
48,192,178393,1,2,0:0:0:0:
256,192,178518,1,0,0:0:0:0:
152,192,178643,1,2,0:0:0:0:
256,192,178768,1,0,0:0:0:0:
152,192,178893,5,2,0:0:0:0:
204,192,178955,1,0,0:0:0:0:
256,192,179018,1,2,0:0:0:0:
204,192,179080,1,0,0:0:0:0:
152,192,179143,1,10,0:0:0:0:
204,192,179205,1,0,0:0:0:0:
256,192,179268,1,2,0:0:0:0:
204,192,179330,1,0,0:0:0:0:
152,192,179393,1,10,0:0:0:0:
128,192,179424,1,0,0:0:0:0:
144,144,179455,1,0,0:0:0:0:
120,144,179486,1,0,0:0:0:0:
152,96,179518,1,2,0:0:0:0:
128,96,179549,1,0,0:0:0:0:
168,48,179580,1,0,0:0:0:0:
352,48,179643,6,0,L|256:48,1,96,4|0,0:0|0:0,0:0:0:0:
384,192,179893,2,0,L|288:192,1,96,2|0,0:0|0:0,0:0:0:0:
416,48,180143,2,0,L|416:96,1,48,2|0,0:0|0:0,0:0:0:0:
256,48,180268,2,0,L|208:64,1,48,2|0,0:0|0:0,0:0:0:0:
272,48,180393,2,0,L|320:64,1,48,2|0,0:0|0:0,0:0:0:0:
256,48,180518,2,0,L|256:96,1,48,2|0,0:0|0:0,0:0:0:0:
416,192,180643,5,8,0:0:0:0:
224,192,180768,1,8,0:0:0:0:
416,192,180893,1,8,0:0:0:0:
96,192,181080,1,8,0:0:0:0:
240,192,181226,1,8,0:0:0:0:
192,192,181299,1,8,0:0:0:0:
96,192,181393,1,2,0:0:0:0:
416,192,181643,5,12,0:0:0:0:
96,192,181893,1,8,0:0:0:0:
256,96,182080,1,8,0:0:0:0:
48,96,182205,2,0,L|48:192,1,96,8|8,0:0|0:0,0:0:0:0:
256,192,182455,1,2,0:0:0:0:
48,192,182643,5,8,0:0:0:0:
192,192,182830,1,0,0:0:0:0:
256,192,182893,1,0,0:0:0:0:
256,128,182955,1,0,0:0:0:0:
192,128,183018,1,0,0:0:0:0:
320,64,183143,1,0,0:0:0:0:
256,64,183205,1,0,0:0:0:0:
192,64,183268,1,2,0:0:0:0:
256,64,183330,1,0,0:0:0:0:
320,64,183393,1,0,0:0:0:0:
256,64,183455,1,2,0:0:0:0:
192,64,183518,1,0,0:0:0:0:
256,64,183580,1,0,0:0:0:0:
400,64,183643,6,0,L|304:64,1,96,6|0,0:0|0:0,0:0:0:0:
432,208,183893,2,0,L|336:208,1,96,2|0,0:0|0:0,0:0:0:0:
464,64,184143,1,2,0:0:0:0:
208,64,184393,2,0,L|304:64,1,96,2|0,0:0|0:0,0:0:0:0:
64,192,184643,6,0,L|48:96,1,96,8|0,0:0|0:0,0:0:0:0:
256,192,184830,2,0,L|272:96,1,96,8|0,0:0|0:0,0:0:0:0:
64,192,185018,2,0,L|48:96,1,96,8|2,0:0|0:0,0:0:0:0:
256,192,185205,1,2,0:0:0:0:
192,192,185268,1,2,0:0:0:0:
384,192,185518,1,0,0:0:0:0:
256,192,185643,5,6,0:0:0:0:
384,96,185768,2,0,L|288:96,1,96,2|0,0:0|0:0,0:0:0:0:
416,192,186018,2,0,L|320:192,1,96,2|0,0:0|0:0,0:0:0:0:
64,192,186268,1,2,0:0:0:0:
320,192,186393,1,2,0:0:0:0:
96,192,186643,5,8,0:0:0:0:
320,192,186893,1,8,0:0:0:0:
96,96,187143,1,0,0:0:0:0:
160,96,187205,1,0,0:0:0:0:
224,96,187268,2,0,L|224:144,1,48,2|0,0:0|0:0,0:0:0:0:
288,96,187393,1,0,0:0:0:0:
352,96,187455,1,0,0:0:0:0:
416,96,187518,2,0,L|416:144,1,48,2|0,0:0|0:0,0:0:0:0:
288,192,187643,5,6,0:0:0:0:
352,192,187705,1,2,0:0:0:0:
416,192,187768,2,0,L|288:192,2,120,2|2|2,0:0|0:0|0:0,0:0:0:0:
96,192,188205,1,8,0:0:0:0:
256,192,188393,1,2,0:0:0:0:
112,192,188518,2,0,L|96:144,1,48,8|0,0:0|0:0,0:0:0:0:
256,144,188643,5,2,0:0:0:0:
48,144,188893,1,2,0:0:0:0:
384,192,189143,1,8,0:0:0:0:
176,192,189236,1,2,0:0:0:0:
320,96,189393,2,0,L|224:96,1,96,2|2,0:0|0:0,0:0:0:0:
480,192,189643,5,12,0:0:0:0:
320,192,189830,1,8,0:0:0:0:
480,192,190018,1,8,0:0:0:0:
240,64,190143,2,0,L|192:64,1,48,2|0,0:0|0:0,0:0:0:0:
272,64,190268,2,0,L|320:64,1,48,2|0,0:0|0:0,0:0:0:0:
240,64,190393,2,0,L|192:64,1,48,2|0,0:0|0:0,0:0:0:0:
272,64,190518,2,0,L|320:64,1,48,2|0,0:0|0:0,0:0:0:0:
240,64,190643,6,0,L|192:64,1,48,8|0,0:0|0:0,0:0:0:0:
272,64,190768,2,0,L|320:64,1,48,8|0,0:0|0:0,0:0:0:0:
240,64,190893,2,0,L|240:144,1,72,8|0,0:0|0:0,0:0:0:0:
336,128,191080,1,2,0:0:0:0:
48,192,191205,1,2,0:0:0:0:
208,192,191393,1,8,0:0:0:0:
48,192,191580,1,8,0:0:0:0:
176,96,191643,6,0,L|80:96,1,96,6|2,0:0|0:0,0:0:0:0:
336,192,191893,1,2,0:0:0:0:
224,192,192018,1,8,0:0:0:0:
448,304,192268,1,8,0:0:0:0:
96,304,192643,5,2,0:0:0:0:
320,64,192893,1,0,0:0:0:0:
256,64,192955,1,0,0:0:0:0:
192,64,193018,1,0,0:0:0:0:
256,64,193080,1,0,0:0:0:0:
320,64,193143,2,0,L|320:112,1,48,2|0,0:0|0:0,0:0:0:0:
256,64,193268,2,0,L|256:112,1,48,2|0,0:0|0:0,0:0:0:0:
192,64,193393,1,2,0:0:0:0:
156,76,193424,1,0,0:0:0:0:
129,104,193455,1,0,0:0:0:0:
120,140,193486,1,0,0:0:0:0:
130,177,193518,1,0,0:0:0:0:
156,205,193549,1,0,0:0:0:0:
192,217,193580,1,0,0:0:0:0:
352,224,193643,5,6,0:0:0:0:
224,304,193768,2,0,L|192:304,3,32,8|0|0|0,0:0|0:0|0:0|0:0,0:0:0:0:
320,192,194018,2,0,L|288:192,3,32,8|0|0|0,0:0|0:0|0:0|0:0,0:0:0:0:
160,80,194268,2,0,L|128:80,3,32,8|0|0|0,0:0|0:0|0:0|0:0,0:0:0:0:
256,192,194518,6,0,L|224:192,3,32,8|0|0|0,0:0|0:0|0:0|0:0,0:0:0:0:
96,304,194768,2,0,L|64:304,3,32,8|0|0|0,0:0|0:0|0:0|0:0,0:0:0:0:
192,192,195018,2,0,L|160:192,3,32,8|0|0|0,0:0|0:0|0:0|0:0,0:0:0:0:
288,304,195268,2,0,L|320:304,3,32,8|0|0|0,0:0|0:0|0:0|0:0,0:0:0:0:
192,192,195518,6,0,L|224:192,3,32,8|0|0|0,0:0|0:0|0:0|0:0,0:0:0:0:
352,80,195768,2,0,L|384:80,3,32,8|0|0|0,0:0|0:0|0:0|0:0,0:0:0:0:
256,192,196018,2,0,L|288:192,3,32,8|0|0|0,0:0|0:0|0:0|0:0,0:0:0:0:
416,304,196268,2,0,L|448:304,3,32,8|0|0|0,0:0|0:0|0:0|0:0,0:0:0:0:
320,192,196518,2,0,L|352:192,2,32,8|0|0,0:0|0:0|0:0,0:0:0:0:
448,192,196643,6,0,L|496:192,1,48,2|0,0:0|0:0,0:0:0:0:
448,192,196768,2,0,L|400:192,1,48,2|0,0:0|0:0,0:0:0:0:
240,80,196893,1,8,0:0:0:0:
208,80,196924,1,0,0:0:0:0:
208,128,196955,1,0,0:0:0:0:
240,128,196986,1,0,0:0:0:0:
272,80,197018,1,0,0:0:0:0:
304,80,197049,1,0,0:0:0:0:
304,128,197080,1,0,0:0:0:0:
272,128,197111,1,0,0:0:0:0:
160,192,197143,6,0,L|112:192,1,48,2|0,0:0|0:0,0:0:0:0:
64,192,197268,2,0,L|112:192,1,48,2|0,0:0|0:0,0:0:0:0:
272,80,197393,1,8,0:0:0:0:
304,80,197424,1,0,0:0:0:0:
304,128,197455,1,0,0:0:0:0:
272,128,197486,1,0,0:0:0:0:
240,80,197518,1,0,0:0:0:0:
208,80,197549,1,0,0:0:0:0:
208,128,197580,1,0,0:0:0:0:
240,128,197611,1,0,0:0:0:0:
352,192,197643,5,8,0:0:0:0:
380,192,197658,1,0,0:0:0:0:
352,192,197674,1,0,0:0:0:0:
380,192,197689,1,0,0:0:0:0:
352,192,197705,1,0,0:0:0:0:
380,192,197721,1,0,0:0:0:0:
352,192,197736,1,0,0:0:0:0:
380,192,197752,1,0,0:0:0:0:
352,192,197768,1,0,0:0:0:0:
380,192,197783,1,0,0:0:0:0:
352,192,197799,1,0,0:0:0:0:
380,192,197814,1,0,0:0:0:0:
352,192,197830,1,0,0:0:0:0:
380,192,197846,1,0,0:0:0:0:
352,192,197861,1,0,0:0:0:0:
240,192,197893,6,0,L|192:192,1,48,2|0,0:0|0:0,0:0:0:0:
320,192,198018,2,0,L|328:240,1,48,2|0,0:0|0:0,0:0:0:0:
200,320,198143,6,0,L|208:272,1,48,2|0,0:0|0:0,0:0:0:0:
336,320,198268,2,0,L|288:320,1,48,2|0,0:0|0:0,0:0:0:0:
160,272,198393,5,8,0:0:0:0:
128,272,198424,1,0,0:0:0:0:
128,320,198455,1,0,0:0:0:0:
160,320,198486,1,0,0:0:0:0:
272,272,198518,1,0,0:0:0:0:
304,272,198549,1,0,0:0:0:0:
304,320,198580,1,0,0:0:0:0:
272,320,198611,1,0,0:0:0:0:
160,192,198643,6,0,L|112:192,1,48,2|0,0:0|0:0,0:0:0:0:
64,192,198768,2,0,L|112:192,1,48,2|0,0:0|0:0,0:0:0:0:
272,80,198893,1,8,0:0:0:0:
304,80,198924,1,0,0:0:0:0:
304,128,198955,1,0,0:0:0:0:
272,128,198986,1,0,0:0:0:0:
240,80,199018,1,0,0:0:0:0:
208,80,199049,1,0,0:0:0:0:
208,128,199080,1,0,0:0:0:0:
240,128,199111,1,0,0:0:0:0:
352,192,199143,6,0,L|400:192,1,48,2|0,0:0|0:0,0:0:0:0:
448,192,199268,2,0,L|400:192,1,48,2|0,0:0|0:0,0:0:0:0:
240,80,199393,1,8,0:0:0:0:
208,80,199424,1,0,0:0:0:0:
208,128,199455,1,0,0:0:0:0:
240,128,199486,1,0,0:0:0:0:
272,80,199518,1,0,0:0:0:0:
304,80,199549,1,0,0:0:0:0:
304,128,199580,1,0,0:0:0:0:
272,128,199611,1,0,0:0:0:0:
160,192,199643,6,0,L|112:192,1,48,2|0,0:0|0:0,0:0:0:0:
272,192,199768,1,8,0:0:0:0:
304,192,199799,1,0,0:0:0:0:
304,240,199830,1,0,0:0:0:0:
272,240,199861,1,0,0:0:0:0:
160,192,199893,2,0,L|160:240,1,48,2|0,0:0|0:0,0:0:0:0:
320,192,200018,1,8,0:0:0:0:
352,192,200049,1,0,0:0:0:0:
352,240,200080,1,0,0:0:0:0:
320,240,200111,1,0,0:0:0:0:
208,192,200143,6,0,L|208:240,1,48,2|0,0:0|0:0,0:0:0:0:
368,192,200268,1,8,0:0:0:0:
400,192,200299,1,0,0:0:0:0:
400,240,200330,1,0,0:0:0:0:
368,240,200361,1,0,0:0:0:0:
256,192,200393,2,0,L|208:192,1,48,2|0,0:0|0:0,0:0:0:0:
368,192,200518,1,8,0:0:0:0:
368,144,200533,1,0,0:0:0:0:
356,80,200549,1,0,0:0:0:0:
344,80,200564,1,0,0:0:0:0:
328,80,200580,1,0,0:0:0:0:
304,80,200596,1,0,0:0:0:0:
272,80,200611,1,0,0:0:0:0:
160,192,200643,6,0,L|112:192,1,48,2|0,0:0|0:0,0:0:0:0:
64,192,200768,2,0,L|112:192,1,48,2|0,0:0|0:0,0:0:0:0:
272,80,200893,1,8,0:0:0:0:
304,80,200924,1,0,0:0:0:0:
304,128,200955,1,0,0:0:0:0:
272,128,200986,1,0,0:0:0:0:
240,80,201018,1,0,0:0:0:0:
208,80,201049,1,0,0:0:0:0:
208,128,201080,1,0,0:0:0:0:
240,128,201111,1,0,0:0:0:0:
352,192,201143,6,0,L|400:192,1,48,2|0,0:0|0:0,0:0:0:0:
448,192,201268,2,0,L|400:192,1,48,2|0,0:0|0:0,0:0:0:0:
240,80,201393,1,8,0:0:0:0:
208,80,201424,1,0,0:0:0:0:
208,128,201455,1,0,0:0:0:0:
240,128,201486,1,0,0:0:0:0:
272,80,201518,1,0,0:0:0:0:
304,80,201549,1,0,0:0:0:0:
304,128,201580,1,0,0:0:0:0:
272,128,201611,1,0,0:0:0:0:
160,192,201643,5,8,0:0:0:0:
132,192,201658,1,0,0:0:0:0:
160,192,201674,1,0,0:0:0:0:
132,192,201689,1,0,0:0:0:0:
160,192,201705,1,0,0:0:0:0:
132,192,201721,1,0,0:0:0:0:
160,192,201736,1,0,0:0:0:0:
132,192,201752,1,0,0:0:0:0:
160,192,201768,1,0,0:0:0:0:
132,192,201783,1,0,0:0:0:0:
160,192,201799,1,0,0:0:0:0:
132,192,201814,1,0,0:0:0:0:
160,192,201830,1,0,0:0:0:0:
132,192,201846,1,0,0:0:0:0:
160,192,201861,1,0,0:0:0:0:
272,192,201893,6,0,L|320:192,1,48,2|0,0:0|0:0,0:0:0:0:
192,192,202018,2,0,L|184:240,1,48,2|0,0:0|0:0,0:0:0:0:
312,320,202143,6,0,L|304:272,1,48,2|0,0:0|0:0,0:0:0:0:
176,320,202268,2,0,L|224:320,1,48,2|0,0:0|0:0,0:0:0:0:
352,272,202393,5,8,0:0:0:0:
384,272,202424,1,0,0:0:0:0:
384,320,202455,1,0,0:0:0:0:
352,320,202486,1,0,0:0:0:0:
240,272,202518,1,0,0:0:0:0:
208,272,202549,1,0,0:0:0:0:
208,320,202580,1,0,0:0:0:0:
240,320,202611,1,0,0:0:0:0:
352,336,202643,6,0,B|480:336|480:48|352:48|352:48|160:48|160:48|88:120,1,672,10|0,0:0|0:0,0:0:0:0:
288,48,203143,2,0,B|416:48|416:336|288:336|288:336|96:336|96:336|168:264,1,672,10|0,0:0|0:0,0:0:0:0:
368,336,203643,6,0,B|496:336|496:48|368:48|368:48|352:48,1,384,10|2,0:0|0:0,0:0:0:0:
304,48,203955,1,2,0:0:0:0:
368,48,204018,1,2,0:0:0:0:
304,48,204080,1,2,0:0:0:0:
112,192,204143,2,0,B|240:48|240:48|112:192|112:192|240:48,1,576,10|0,0:0|0:0,0:0:0:0:
448,192,204643,6,0,L|400:192,1,48,2|0,0:0|0:0,0:0:0:0:
256,192,204768,2,0,L|208:192,1,48,2|0,0:0|0:0,0:0:0:0:
352,128,204893,2,0,L|384:128,2,24,8|0|0,0:0|0:0|0:0,0:0:0:0:
208,128,205018,2,0,L|176:128,2,24,2|0|0,0:0|0:0|0:0,0:0:0:0:
352,192,205143,6,0,L|304:192,1,48,2|0,0:0|0:0,0:0:0:0:
160,192,205268,2,0,L|208:192,1,48,2|0,0:0|0:0,0:0:0:0:
352,256,205393,2,0,L|384:256,2,24,8|0|0,0:0|0:0|0:0,0:0:0:0:
208,256,205518,2,0,L|176:256,2,24,8|0|0,0:0|0:0|0:0,0:0:0:0:
352,128,205643,6,0,L|384:128,1,24,8|0,0:0|0:0,0:0:0:0:
288,128,205705,2,0,L|256:128,1,24,0|0,0:0|0:0,0:0:0:0:
176,128,205768,2,0,L|144:128,1,24
240,128,205830,2,0,L|272:128,1,24,0|0,0:0|0:0,0:0:0:0:
352,128,205893,2,0,L|352:176,1,48,2|0,0:0|0:0,0:0:0:0:
208,192,206018,2,0,L|208:240,1,48,2|0,0:0|0:0,0:0:0:0:
352,192,206143,6,0,L|304:192,1,48,2|0,0:0|0:0,0:0:0:0:
160,192,206268,2,0,L|112:192,1,48,2|0,0:0|0:0,0:0:0:0:
256,128,206393,2,0,L|288:128,2,24,8|0|0,0:0|0:0|0:0,0:0:0:0:
112,128,206518,2,0,L|80:128,2,24,8|0|0,0:0|0:0|0:0,0:0:0:0:
256,128,206643,5,2,0:0:0:0:
400,128,206705,1,0,0:0:0:0:
256,128,206768,2,0,L|256:80,1,48,8|0,0:0|0:0,0:0:0:0:
400,80,206893,2,0,L|368:80,1,24,2|0,0:0|0:0,0:0:0:0:
288,192,206955,1,0,0:0:0:0:
144,80,207018,2,0,L|176:80,1,24,8|0,0:0|0:0,0:0:0:0:
256,192,207080,1,0,0:0:0:0:
400,192,207143,6,0,L|352:192,1,48,2|0,0:0|0:0,0:0:0:0:
208,192,207268,2,0,L|256:192,1,48,8|0,0:0|0:0,0:0:0:0:
400,80,207393,2,0,L|432:80,2,24,2|0|0,0:0|0:0|0:0,0:0:0:0:
256,80,207518,2,0,L|224:80,2,24,8|0|0,0:0|0:0|0:0,0:0:0:0:
400,192,207643,6,0,L|352:192,1,48,2|0,0:0|0:0,0:0:0:0:
208,192,207768,2,0,L|176:192,2,24,2|0|0,0:0|0:0|0:0,0:0:0:0:
352,128,207893,2,0,L|304:128,1,48,8|0,0:0|0:0,0:0:0:0:
160,128,208018,2,0,L|128:128,2,24,8|0|0,0:0|0:0|0:0,0:0:0:0:
304,128,208143,5,2,0:0:0:0:
448,128,208205,1,0,0:0:0:0:
304,128,208268,2,0,L|272:128,2,24,2|0|0,0:0|0:0|0:0,0:0:0:0:
448,192,208393,1,8,0:0:0:0:
304,192,208455,1,0,0:0:0:0:
160,192,208518,2,0,L|144:192,4,12,8|0|0|0|0,0:0|0:0|0:0|0:0|0:0,0:0:0:0:
304,256,208643,6,0,L|352:256,1,48,2|0,0:0|0:0,0:0:0:0:
208,256,208768,2,0,L|160:256,1,48,2|0,0:0|0:0,0:0:0:0:
312,192,208893,1,8,0:0:0:0:
344,192,208924,1,0,0:0:0:0:
360,144,208955,1,0,0:0:0:0:
200,192,209018,1,8,0:0:0:0:
168,192,209049,1,0,0:0:0:0:
152,144,209080,1,0,0:0:0:0:
320,128,209143,6,0,L|368:128,1,48,2|0,0:0|0:0,0:0:0:0:
192,128,209268,2,0,L|144:128,1,48,2|0,0:0|0:0,0:0:0:0:
328,64,209393,1,8,0:0:0:0:
360,64,209424,1,0,0:0:0:0:
376,16,209455,1,0,0:0:0:0:
184,64,209518,1,8,0:0:0:0:
152,64,209549,1,0,0:0:0:0:
136,16,209580,1,0,0:0:0:0:
336,192,209643,5,2,0:0:0:0:
352,192,209658,1,0,0:0:0:0:
368,192,209674,1,0,0:0:0:0:
456,192,209705,1,8,0:0:0:0:
472,192,209721,1,0,0:0:0:0:
488,192,209736,1,0,0:0:0:0:
400,256,209768,1,2,0:0:0:0:
384,256,209783,1,0,0:0:0:0:
368,256,209799,1,0,0:0:0:0:
280,256,209830,1,8,0:0:0:0:
264,256,209846,1,0,0:0:0:0:
248,256,209861,1,0,0:0:0:0:
336,320,209893,6,8,L|384:320,1,48,2|0,0:0|0:0,0:0:0:0:
232,320,210018,2,0,L|184:320,1,48,2|8,0:0|0:0,0:0:0:0:
352,192,210143,2,0,L|304:192,1,48,2|8,0:0|0:0,0:0:0:0:
128,192,210268,2,0,L|80:192,1,48,2|8,0:0|0:0,0:0:0:0:
256,96,210393,1,2,0:0:0:0:
432,96,210455,1,8,0:0:0:0:
256,96,210518,1,2,0:0:0:0:
80,96,210580,1,8,0:0:0:0:
256,48,210643,6,0,B|320:48|320:48|368:176|320:296|320:296|256:320|192:296|192:296|144:176|192:48|192:48|256:48|320:48|320:48|368:176|320:296|320:296|256:320|192:296|192:296|144:176|192:48|192:48|452:48|452:48|68:48|68:48|452:48|452:48|68:48|68:48|48:96|68:144,1,2976
256,336,212489,6,0,P|288:292|256:216,1,144,12|0,0:0|0:0,0:0:0:0:
112,192,212719,2,0,L|208:192,1,96,10|0,0:0|0:0,0:0:0:0:
112,336,212950,2,0,P|80:292|112:216,1,144,8|0,0:0|0:0,0:0:0:0:
256,192,213181,2,0,L|160:192,1,96,10|0,0:0|0:0,0:0:0:0:
256,192,213412,5,8,0:0:0:0:
48,96,213527,2,0,L|96:96,1,48,2|0,0:0|0:0,0:0:0:0:
240,192,213643,1,8,0:0:0:0:
32,288,213758,2,0,L|80:288,1,48,2|0,0:0|0:0,0:0:0:0:
224,336,213873,2,0,P|256:292|224:216,1,144,8|0,0:0|0:0,0:0:0:0:
80,192,214104,2,0,L|176:192,1,96,10|0,0:0|0:0,0:0:0:0:
320,192,214277,1,0,0:0:0:0:
464,336,214335,6,0,P|496:292|464:216,1,144,8|0,0:0|0:0,0:0:0:0:
320,192,214566,2,0,L|416:192,1,96,8|0,0:0|0:0,0:0:0:0:
288,80,214796,2,0,L|384:80,1,96,8|0,0:0|0:0,0:0:0:0:
176,192,215027,1,8,0:0:0:0:
384,192,215143,1,0,0:0:0:0:
176,192,215258,6,0,P|144:148|176:24,1,192,10|8,0:0|0:0,0:0:0:0:
240,192,215546,1,0,0:0:0:0:
176,192,215604,1,0,0:0:0:0:
384,192,215719,2,0,L|400:288,1,96,8|0,0:0|0:0,0:0:0:0:
256,304,215892,1,0,0:0:0:0:
112,192,215950,6,0,L|160:192,1,48,8|0,0:0|0:0,0:0:0:0:
304,192,216065,2,0,L|256:192,1,48,0|0,0:0|0:0,0:0:0:0:
112,112,216181,2,0,L|208:112,1,96,8|0,0:0|0:0,0:0:0:0:
416,112,216411,1,8,0:0:0:0:
208,112,216527,1,0,0:0:0:0:
416,336,216642,6,0,P|448:292|416:216,1,144,10|0,0:0|0:0,0:0:0:0:
272,192,216872,2,0,L|368:192,1,96,10|0,0:0|0:0,0:0:0:0:
272,336,217103,2,0,P|240:292|272:216,1,144,8|0,0:0|0:0,0:0:0:0:
416,192,217334,2,0,L|320:192,1,96,10|0,0:0|0:0,0:0:0:0:
416,192,217565,5,8,0:0:0:0:
208,96,217680,2,0,L|256:96,1,48,2|0,0:0|0:0,0:0:0:0:
400,192,217795,1,8,0:0:0:0:
192,288,217911,2,0,L|240:288,1,48,2|0,0:0|0:0,0:0:0:0:
384,336,218026,2,0,P|416:292|384:216,1,144,8|0,0:0|0:0,0:0:0:0:
240,192,218257,2,0,L|336:192,1,96,10|0,0:0|0:0,0:0:0:0:
192,192,218430,1,0,0:0:0:0:
48,336,218488,6,0,P|16:292|48:216,1,144,8|0,0:0|0:0,0:0:0:0:
192,192,218718,2,0,L|96:192,1,96,8|0,0:0|0:0,0:0:0:0:
224,80,218949,2,0,L|128:80,1,96,8|0,0:0|0:0,0:0:0:0:
336,192,219180,1,8,0:0:0:0:
128,192,219295,1,0,0:0:0:0:
336,192,219411,6,0,L|384:192,1,48,10|0,0:0|0:0,0:0:0:0:
384,128,219526,2,0,L|336:128,1,48,8|0,0:0|0:0,0:0:0:0:
192,128,219642,1,8,0:0:0:0:
48,128,219699,1,0,0:0:0:0:
192,128,219757,1,8,0:0:0:0:
336,128,219815,1,0,0:0:0:0:
192,192,219872,2,0,L|176:288,1,96,10|8,0:0|0:0,0:0:0:0:
320,304,220045,1,0,0:0:0:0:
464,192,220103,2,0,L|416:192,1,48,8|0,0:0|0:0,0:0:0:0:
272,192,220218,2,0,L|320:192,1,48,8|0,0:0|0:0,0:0:0:0:
464,112,220334,6,0,L|480:160,1,48,8|0,0:0|0:0,0:0:0:0:
336,112,220449,2,0,L|320:160,1,48,0|0,0:0|0:0,0:0:0:0:
464,32,220565,2,0,B|464:320|464:320|176:320,1,576.000021972657,12|8,0:0|0:0,0:0:0:0:
176,192,221142,1,8,0:0:0:0:
464,32,221257,6,0,L|368:32,1,96,12|0,0:0|0:0,0:0:0:0:
160,32,221488,2,0,L|256:32,1,96,8|0,0:0|0:0,0:0:0:0:
48,112,221718,2,0,L|144:112,1,96,8|0,0:0|0:0,0:0:0:0:
352,112,221949,2,0,L|256:112,1,96,8|0,0:0|0:0,0:0:0:0:
464,192,222180,6,0,L|368:192,1,96,8|0,0:0|0:0,0:0:0:0:
160,192,222411,2,0,L|256:192,1,96,8|0,0:0|0:0,0:0:0:0:
48,272,222642,1,8,0:0:0:0:
256,272,222757,1,0,0:0:0:0:
48,272,222872,1,8,0:0:0:0:
256,272,222988,2,0,L|208:272,1,48,0|0,0:0|0:0,0:0:0:0:
48,32,223103,6,0,L|144:32,1,96,8|0,0:0|0:0,0:0:0:0:
352,32,223334,2,0,L|256:32,1,96,8|0,0:0|0:0,0:0:0:0:
464,112,223565,2,0,L|368:112,1,96,8|0,0:0|0:0,0:0:0:0:
160,112,223795,2,0,L|160:128,1,12,8|0,0:0|0:0,0:0:0:0:
352,112,223911,2,0,L|352:128,1,12,8|0,0:0|0:0,0:0:0:0:
160,192,224026,6,0,L|256:192,1,96,8|0,0:0|0:0,0:0:0:0:
464,192,224256,2,0,L|464:208,1,12,8|0,0:0|0:0,0:0:0:0:
272,192,224372,2,0,L|272:208,1,12,8|0,0:0|0:0,0:0:0:0:
464,352,224487,2,0,L|368:352,1,96,8|0,0:0|0:0,0:0:0:0:
160,192,224718,6,0,L|208:192,1,48,8|0,0:0|0:0,0:0:0:0:
352,192,224833,2,0,L|304:192,1,48,8|0,0:0|0:0,0:0:0:0:
160,192,224949,2,0,B|80:176|80:80|160:64|160:64|256:80,1,288,8|8,0:0|0:0,0:0:0:0:
48,352,225410,6,0,L|144:352,1,96,8|0,0:0|0:0,0:0:0:0:
352,352,225640,2,0,L|256:352,1,96,8|0,0:0|0:0,0:0:0:0:
464,272,225871,2,0,L|368:272,1,96,8|0,0:0|0:0,0:0:0:0:
160,272,226102,2,0,L|256:272,1,96,8|0,0:0|0:0,0:0:0:0:
48,192,226333,6,0,L|144:192,1,96,8|0,0:0|0:0,0:0:0:0:
352,192,226563,2,0,L|256:192,1,96,8|0,0:0|0:0,0:0:0:0:
464,112,226794,1,8,0:0:0:0:
256,112,226910,1,0,0:0:0:0:
464,112,227025,1,8,0:0:0:0:
256,112,227140,2,0,L|304:112,1,48,0|0,0:0|0:0,0:0:0:0:
464,352,227256,6,0,L|368:352,1,96,8|0,0:0|0:0,0:0:0:0:
160,352,227486,2,0,L|256:352,1,96,8|0,0:0|0:0,0:0:0:0:
48,272,227717,2,0,L|144:272,1,96,8|0,0:0|0:0,0:0:0:0:
352,272,227948,2,0,L|352:256,1,12,8|0,0:0|0:0,0:0:0:0:
160,272,228063,2,0,L|160:256,1,12,8|0,0:0|0:0,0:0:0:0:
352,192,228179,6,0,L|400:192,1,48,8|0,0:0|0:0,0:0:0:0:
400,128,228294,2,0,L|352:128,1,48
208,192,228410,2,0,L|256:192,1,48,8|0,0:0|0:0,0:0:0:0:
400,256,228525,2,0,L|352:256,1,48,8|0,0:0|0:0,0:0:0:0:
208,192,228640,2,0,L|160:192,1,48,8|0,0:0|0:0,0:0:0:0:
160,128,228756,2,0,L|208:128,1,48,0|0,0:0|0:0,0:0:0:0:
352,128,228871,1,8,0:0:0:0:
496,128,228929,1,8,0:0:0:0:
352,128,228986,1,8,0:0:0:0:
208,128,229044,1,8,0:0:0:0:
352,192,229102,6,0,L|400:192,1,48,8|0,0:0|0:0,0:0:0:0:
400,128,229217,2,0,L|352:128,1,48,0|0,0:0|0:0,0:0:0:0:
208,128,229333,1,8,0:0:0:0:
416,192,229448,1,8,0:0:0:0:
208,256,229563,2,0,L|160:256,1,48,8|0,0:0|0:0,0:0:0:0:
304,256,229679,2,0,L|352:256,1,48,8|0,0:0|0:0,0:0:0:0:
208,256,229794,2,0,P|168:200|208:128,1,160,8|2,0:0|0:0,0:0:0:0:
336,128,230025,6,0,L|352:288,1,160,12|2,0:0|0:0,0:0:0:0:
448,128,230256,2,0,L|464:288,1,160,8|2,0:0|0:0,0:0:0:0:
368,128,230486,2,0,L|352:288,1,160,8|2,0:0|0:0,0:0:0:0:
256,128,230717,2,0,L|240:288,1,160,8|2,0:0|0:0,0:0:0:0:
144,128,230948,6,0,L|160:288,1,160,8|2,0:0|0:0,0:0:0:0:
256,128,231178,2,0,L|272:288,1,160,8|2,0:0|0:0,0:0:0:0:
176,128,231409,2,0,L|160:288,1,160,8|2,0:0|0:0,0:0:0:0:
64,128,231640,6,0,L|48:288,1,160,8|2,0:0|0:0,0:0:0:0:
144,128,231871,2,0,L|160:288,1,160,8|2,0:0|0:0,0:0:0:0:
256,128,232101,2,0,L|304:128,1,48,8|2,0:0|0:0,0:0:0:0:
352,192,232217,2,0,L|304:192,1,48,8|2,0:0|0:0,0:0:0:0:
160,128,232332,6,0,L|144:288,1,160,8|2,0:0|0:0,0:0:0:0:
48,128,232562,2,0,L|32:288,1,160,8|2,0:0|0:0,0:0:0:0:
128,128,232793,2,0,L|144:288,1,160,8|2,0:0|0:0,0:0:0:0:
240,128,233024,2,0,L|256:288,1,160,8|2,0:0|0:0,0:0:0:0:
352,128,233255,6,0,L|336:288,1,160,8|2,0:0|0:0,0:0:0:0:
240,128,233485,2,0,L|224:288,1,160,8|2,0:0|0:0,0:0:0:0:
320,128,233716,2,0,L|336:288,1,160,8|2,0:0|0:0,0:0:0:0:
240,128,233947,2,0,L|240:192,1,64,8|2,0:0|0:0,0:0:0:0:
208,128,234062,2,0,L|208:192,1,64,8|2,0:0|0:0,0:0:0:0:
256,128,234178,2,0,L|320:128,1,64,8|2,0:0|0:0,0:0:0:0:
368,192,234293,2,0,L|320:192,1,48,8|2,0:0|0:0,0:0:0:0:
160,128,234408,6,0,L|144:288,1,160,8|2,0:0|0:0,0:0:0:0:
48,128,234639,2,0,L|32:288,1,160,8|2,0:0|0:0,0:0:0:0:
128,128,234870,2,0,L|144:288,1,160,8|2,0:0|0:0,0:0:0:0:
240,128,235101,2,0,L|256:288,1,160,8|2,0:0|0:0,0:0:0:0:
352,128,235331,6,0,L|336:288,1,160,8|2,0:0|0:0,0:0:0:0:
240,128,235563,2,0,L|224:288,1,160,8|2,0:0|0:0,0:0:0:0:
320,128,235793,2,0,L|336:288,1,160,8|2,0:0|0:0,0:0:0:0:
432,128,236024,6,0,L|448:288,1,160,8|2,0:0|0:0,0:0:0:0:
352,128,236255,2,0,L|336:288,1,160,8|2,0:0|0:0,0:0:0:0:
240,128,236486,2,0,L|224:288,1,160,8|2,0:0|0:0,0:0:0:0:
320,128,236716,2,0,L|368:128,1,48,8|2,0:0|0:0,0:0:0:0:
416,192,236832,2,0,L|368:192,1,48,8|2,0:0|0:0,0:0:0:0:
224,128,236948,6,0,L|208:288,1,160,8|2,0:0|0:0,0:0:0:0:
304,128,237178,2,0,B|400:144|400:144|336:144,1,160,8|2,0:0|0:0,0:0:0:0:
240,256,237409,2,0,L|224:96,1,160,8|2,0:0|0:0,0:0:0:0:
320,256,237640,2,0,B|416:240|416:240|352:240,1,160,8|2,0:0|0:0,0:0:0:0:
256,192,237871,6,0,L|192:192,1,64,8|2,0:0|0:0,0:0:0:0:
192,128,237986,2,0,L|256:128,1,64,8|2,0:0|0:0,0:0:0:0:
352,192,238101,2,0,L|416:192,1,64,8|2,0:0|0:0,0:0:0:0:
416,128,238217,2,0,L|352:128,1,64,8|2,0:0|0:0,0:0:0:0:
256,192,238332,2,0,L|192:192,1,64,8|2,0:0|0:0,0:0:0:0:
192,128,238447,2,0,L|256:128,1,64,8|2,0:0|0:0,0:0:0:0:
352,192,238563,6,0,L|368:240,1,48,8|2,0:0|0:0,0:0:0:0:
224,192,238678,2,0,L|208:240,1,48,8|2,0:0|0:0,0:0:0:0:
352,192,238794,2,0,L|400:192,1,48,8|2,0:0|0:0,0:0:0:0:
256,192,238909,2,0,L|208:192,1,48,8|2,0:0|0:0,0:0:0:0:
352,192,239024,1,10,0:0:0:0:
256,80,239255,6,0,L|352:80,1,96,8|0,0:0|0:0,0:0:0:0:
304,80,239428,1,0,0:0:0:0:
160,80,239485,2,0,L|256:80,1,96,10|2,0:0|0:0,0:0:0:0:
448,192,239716,2,0,L|256:192,1,192,10|8,0:0|0:0,0:0:0:0:
448,304,240062,1,8,0:0:0:0:
256,80,240178,6,0,B|160:80|160:80|208:80,1,144,10|0,0:0|0:0,0:0:0:0:
352,80,240408,2,0,L|256:80,1,96,10|2,0:0|0:0,0:0:0:0:
128,80,240581,1,0,0:0:0:0:
256,192,240639,2,0,B|352:192|352:192|256:192,1,192,10|8,0:0|0:0,0:0:0:0:
64,304,240985,1,8,0:0:0:0:
256,80,241101,6,0,B|352:80|352:80|304:80,1,144,8|0,0:0|0:0,0:0:0:0:
160,80,241331,2,0,L|256:80,1,96,10|2,0:0|0:0,0:0:0:0:
448,192,241562,2,0,B|352:192|352:192|448:192,1,192,10|8,0:0|0:0,0:0:0:0:
256,304,241908,1,8,0:0:0:0:
64,192,242024,6,0,L|32:192,4,24,8|0|0|0|2,0:0|0:0|0:0|0:0|0:0,0:0:0:0:
208,144,242197,1,0,0:0:0:0:
240,144,242225,1,0,0:0:0:0:
256,192,242254,1,10,0:0:0:0:
240,240,242283,1,0,0:0:0:0:
208,240,242312,1,0,0:0:0:0:
64,192,242370,2,0,L|112:192,1,48,2|0,0:0|0:0,0:0:0:0:
256,192,242485,2,0,L|160:192,1,96,8|8,0:0|0:0,0:0:0:0:
352,192,242716,6,0,L|352:144,1,48,8|0,0:0|0:0,0:0:0:0:
208,192,242831,2,0,L|208:144,1,48,10|0,0:0|0:0,0:0:0:0:
352,192,242947,2,0,L|256:192,1,96,8|2,0:0|0:0,0:0:0:0:
304,192,243120,1,0,0:0:0:0:
448,192,243177,2,0,L|496:192,1,48,8|0,0:0|0:0,0:0:0:0:
352,192,243293,1,2,0:0:0:0:
160,80,243408,6,0,B|64:80|64:80|112:80,1,144,8|0,0:0|0:0,0:0:0:0:
256,80,243638,2,0,L|160:80,1,96,10|2,0:0|0:0,0:0:0:0:
352,192,243869,2,0,B|256:192|256:192|352:192,1,192,10|8,0:0|0:0,0:0:0:0:
160,304,244215,1,8,0:0:0:0:
352,80,244331,6,0,L|448:80,1,96,8|0,0:0|0:0,0:0:0:0:
400,80,244504,1,0,0:0:0:0:
256,80,244561,2,0,L|352:80,1,96,10|2,0:0|0:0,0:0:0:0:
160,192,244792,2,0,L|256:192,1,96,10|0,0:0|0:0,0:0:0:0:
64,80,245023,6,0,L|160:80,1,96,10|0,0:0|0:0,0:0:0:0:
368,192,245254,2,0,L|272:192,1,96,10|0,0:0|0:0,0:0:0:0:
48,288,245484,2,0,L|144:288,1,96,10|0,0:0|0:0,0:0:0:0:
400,304,245715,6,0,L|400:256,1,48,8|0,0:0|0:0,0:0:0:0:
272,304,245830,2,0,L|272:256,1,48,2|0,0:0|0:0,0:0:0:0:
400,192,245945,2,0,L|352:192,1,48,8|0,0:0|0:0,0:0:0:0:
224,192,246061,2,0,L|176:192,1,48,2|0,0:0|0:0,0:0:0:0:
304,112,246176,2,0,L|256:112,1,48,8|0,0:0|0:0,0:0:0:0:
128,112,246291,2,0,L|80:112,1,48,2|0,0:0|0:0,0:0:0:0:
208,192,246407,1,8,0:0:0:0:
336,192,246465,1,2,0:0:0:0:
208,192,246522,1,8,0:0:0:0:
80,192,246580,1,2,0:0:0:0:
208,256,246638,6,0,L|256:256,1,48,8|2,0:0|0:0,0:0:0:0:
384,256,246753,2,0,L|432:256,1,48,8|2,0:0|0:0,0:0:0:0:
304,192,246868,2,0,L|256:192,1,48,8|2,0:0|0:0,0:0:0:0:
384,128,246984,2,0,L|432:128,1,48,8|2,0:0|0:0,0:0:0:0:
304,128,247099,1,10,0:0:0:0:
176,128,247157,1,2,0:0:0:0:
48,128,247215,1,10,0:0:0:0:
176,128,247272,1,2,0:0:0:0:
304,128,247330,2,0,P|320:192|304:272,1,144,10|2,0:0|0:0,0:0:0:0:
94,65,247561,6,0,B|60:96|60:96|96:128|96:128|60:160|60:160|96:192|96:192|60:224|60:224|96:256|96:256|60:288|60:288|96:320|96:320|60:288|60:288|96:256|96:256|60:224|60:224|96:192|96:192|60:160|60:160|96:128|96:128|60:96|60:96|96:64|96:64|60:96|60:96|96:128|96:128|60:160|60:160|96:192|96:192|60:224|60:224|96:256|96:256|60:288|60:288|96:320|96:320|60:288|60:288|96:256|96:256|60:224|60:224|96:192|96:192|60:160|60:160|96:128|96:128|60:96|60:96|96:64,1,1536,2|2,0:0|0:0,0:0:0:0:
95,64,249864,1,0,0:0:0:0:
224,64,249989,2,0,L|224:80,1,12,2|0,0:0|0:0,0:0:0:0:
288,64,250275,2,0,L|288:80,1,12,2|0,0:0|0:0,0:0:0:0:
416,64,250418,6,0,B|417:346|417:346|416:64,1,564,2|0,0:0|0:0,0:0:0:0:
416,64,251275,2,0,B|256:176|256:176|256:263|256:263|256:176|256:176|96:64,1,564,2|0,0:0|0:0,0:0:0:0:
96,64,252132,6,0,B|95:346|95:346|96:64,1,564,2|0,0:0|0:0,0:0:0:0:
96,64,252989,2,0,L|276:64,1,180,2|0,0:0|0:0,0:0:0:0:
276,64,253275,2,0,L|276:244,1,180
276,244,253560,2,0,L|96:244,1,180
96,64,253846,6,0,B|95:346|95:346|96:64,1,564,2|0,0:0|0:0,0:0:0:0:
96,64,254703,2,0,B|256:176|256:176|256:263|256:263|256:176|256:176|416:64,1,564,2|0,0:0|0:0,0:0:0:0:
416,64,255560,6,0,B|417:346|417:346|416:64,1,564,2|0,0:0|0:0,0:0:0:0:
416,64,256418,6,0,L|412:76,6,12,2|0|0|0|0|0|0,0:0|0:0|0:0|0:0|0:0|0:0|0:0,0:0:0:0:
256,64,256703,2,0,L|252:76,6,12,2|0|0|0|0|0|0,0:0|0:0|0:0|0:0|0:0|0:0|0:0,0:0:0:0:
96,64,256989,6,0,L|92:76,4,12,2|0|0|0|0,0:0|0:0|0:0|0:0|0:0,0:0:0:0:
176,64,257132,2,0,L|180:76,4,12,2|0|0|0|0,0:0|0:0|0:0|0:0|0:0,0:0:0:0:
96,64,257275,6,0,B|95:346|95:346|96:64,1,564,2|0,0:0|0:0,0:0:0:0:
96,64,258132,2,0,B|256:176|256:176|256:263|256:263|256:176|256:176|416:64,1,564,2|0,0:0|0:0,0:0:0:0:
416,64,258989,6,0,B|417:346|417:346|416:64,1,564,2|0,0:0|0:0,0:0:0:0:
416,64,259846,2,0,L|236:64,1,180,2|0,0:0|0:0,0:0:0:0:
236,64,260132,2,0,L|236:244,1,180
236,244,260418,2,0,L|416:244,1,180,0|0,0:0|0:0,0:0:0:0:
416,64,260703,6,0,B|417:346|417:346|416:64,1,564,2|0,0:0|0:0,0:0:0:0:
416,64,261560,2,0,B|256:176|256:176|256:263|256:263|256:176|256:176|96:64,1,564,2|0,0:0|0:0,0:0:0:0:
96,64,262418,6,0,B|95:346|95:346|96:64,1,564,2|0,0:0|0:0,0:0:0:0:
96,64,263275,6,0,L|192:64,1,96,8|0,0:0|0:0,0:0:0:0:
336,64,263560,2,0,L|240:64,1,96,8|0,0:0|0:0,0:0:0:0:
112,64,263846,2,0,L|192:144,1,96,8|0,0:0|0:0,0:0:0:0:
304,64,264132,2,0,L|224:144,1,96,8|0,0:0|0:0,0:0:0:0:
128,64,264418,2,0,L|128:160,1,96,8|0,0:0|0:0,0:0:0:0:
256,64,264703,2,0,L|256:160,1,96,8|0,0:0|0:0,0:0:0:0:
416,64,264989,6,0,L|320:64,1,96,8|0,0:0|0:0,0:0:0:0:
176,64,265275,2,0,L|272:64,1,96,8|0,0:0|0:0,0:0:0:0:
400,64,265560,2,0,L|320:144,1,96,8|0,0:0|0:0,0:0:0:0:
208,64,265846,2,0,L|288:144,1,96,8|0,0:0|0:0,0:0:0:0:
384,64,266132,2,0,L|384:160,1,96,8|0,0:0|0:0,0:0:0:0:
256,64,266418,2,0,L|256:160,1,96,8|0,0:0|0:0,0:0:0:0:
128,64,266703,5,2,0:0:0:0:
32,64,266846,1,0,0:0:0:0:
32,160,266989,1,2,0:0:0:0:
128,160,267132,1,0,0:0:0:0:
224,64,267275,1,2,0:0:0:0:
304,64,267418,1,0,0:0:0:0:
304,144,267560,1,2,0:0:0:0:
224,144,267703,1,0,0:0:0:0:
160,192,267846,1,2,0:0:0:0:
224,192,267989,1,0,0:0:0:0:
160,192,268132,1,2,0:0:0:0:
224,192,268275,1,0,0:0:0:0:
432,96,268418,6,0,B|468:128|468:128|432:160|432:160|468:192|468:192|432:224|432:224|468:256|468:256|432:288|432:288|468:256|468:256|432:224|432:224|468:192|468:192|432:160|432:160|468:128|468:128|432:96,1,576,2|2,0:0|0:0,0:0:0:0:
368,288,269346,1,2,2:0:0:0:
304,288,269418,1,2,0:0:0:0:
368,288,269489,1,2,2:0:0:0:
432,288,269560,1,2,0:0:0:0:
368,288,269632,1,2,2:0:0:0:
304,288,269703,1,2,0:0:0:0:
368,288,269775,1,2,2:0:0:0:
432,288,269846,2,0,B|464:256|464:256|464:208|464:208|432:168,1,144,2|0,0:0|0:0,0:0:0:0:
256,192,270132,6,0,L|352:192,1,96,14|0,0:0|0:0,0:0:0:0:
496,128,270418,2,0,L|400:128,1,96,10|0,0:0|0:0,0:0:0:0:
400,64,270632,1,0,0:0:0:0:
496,64,270703,2,0,L|400:64,1,96,8|0,0:0|0:0,0:0:0:0:
160,64,270989,2,0,L|256:64,1,96,8|0,0:0|0:0,0:0:0:0:
112,64,271275,2,0,L|16:64,1,96,8|0,0:0|0:0,0:0:0:0:
160,192,271560,1,8,0:0:0:0:
16,192,271703,1,8,0:0:0:0:
256,192,271846,6,0,L|160:192,1,96,10|0,0:0|0:0,0:0:0:0:
16,128,272132,2,0,L|112:128,1,96,10|0,0:0|0:0,0:0:0:0:
256,64,272418,2,0,L|256:112,1,48,8|0,0:0|0:0,0:0:0:0:
160,64,272560,2,0,L|160:112,1,48,8|0,0:0|0:0,0:0:0:0:
256,192,272703,2,0,L|160:192,1,96,8|0,0:0|0:0,0:0:0:0:
400,192,272989,2,0,L|304:192,1,96,8|0,0:0|0:0,0:0:0:0:
64,192,273275,2,0,L|48:96,1,96,8|0,0:0|0:0,0:0:0:0:
288,192,273560,6,0,L|192:192,1,96,10|0,0:0|0:0,0:0:0:0:
48,256,273846,1,10,0:0:0:0:
192,256,273989,1,0,0:0:0:0:
232,240,274025,1,0,0:0:0:0:
252,192,274060,1,0,0:0:0:0:
232,144,274096,1,0,0:0:0:0:
192,128,274132,1,8,0:0:0:0:
48,128,274275,1,0,0:0:0:0:
288,64,274418,2,0,L|192:64,1,96,8|0,0:0|0:0,0:0:0:0:
336,192,274703,2,0,L|240:192,2,83.1999961914064,8|0|0,0:0|0:0|0:0,0:0:0:0:
176,192,274989,2,0,L|160:96,1,96,8|0,0:0|0:0,0:0:0:0:
400,192,275275,6,0,L|304:192,1,96,10|0,0:0|0:0,0:0:0:0:
160,128,275560,2,0,L|256:128,1,96,10|0,0:0|0:0,0:0:0:0:
400,64,275846,2,0,L|400:112,1,48,8|0,0:0|0:0,0:0:0:0:
304,64,275989,2,0,L|304:112,1,48,8|0,0:0|0:0,0:0:0:0:
400,192,276132,5,2,0:0:0:0:
336,288,276203,1,2,2:0:0:0:
272,288,276275,1,2,0:0:0:0:
336,288,276346,1,2,2:0:0:0:
400,288,276418,1,2,0:0:0:0:
336,288,276489,1,2,2:0:0:0:
272,288,276560,1,2,0:0:0:0:
336,288,276632,1,2,2:0:0:0:
400,288,276703,2,0,B|432:256|432:256|432:208|432:208|400:168,1,144,2|0,0:0|0:0,0:0:0:0:
224,80,276989,6,0,L|320:80,1,96,14|0,0:0|0:0,0:0:0:0:
464,80,277275,2,0,L|368:80,1,96,10|0,0:0|0:0,0:0:0:0:
224,192,277560,1,8,0:0:0:0:
464,192,277703,1,0,0:0:0:0:
224,304,277846,2,0,L|320:304,1,96,12|0,0:0|0:0,0:0:0:0:
160,304,278132,2,0,L|64:304,1,96,8|0,0:0|0:0,0:0:0:0:
304,192,278418,1,8,0:0:0:0:
64,192,278560,1,0,0:0:0:0:
304,80,278703,6,0,L|208:80,1,96,14|0,0:0|0:0,0:0:0:0:
64,80,278989,2,0,L|160:80,1,96,10|0,0:0|0:0,0:0:0:0:
304,192,279275,1,8,0:0:0:0:
64,192,279418,1,0,0:0:0:0:
304,304,279560,2,0,L|208:304,1,96,12|0,0:0|0:0,0:0:0:0:
352,304,279846,2,0,L|448:304,1,96,8|0,0:0|0:0,0:0:0:0:
208,192,280132,1,8,0:0:0:0:
448,192,280275,1,0,0:0:0:0:
208,192,280418,6,0,L|304:192,1,96,14|0,0:0|0:0,0:0:0:0:
64,96,280690,2,0,L|160:96,1,96,10|0,0:0|0:0,0:0:0:0:
400,96,280963,1,8,0:0:0:0:
160,96,281099,1,0,0:0:0:0:
400,192,281236,2,0,L|304:192,1,96,12|0,0:0|0:0,0:0:0:0:
64,192,281496,2,0,L|160:192,1,96,8|0,0:0|0:0,0:0:0:0:
400,96,281757,1,8,0:0:0:0:
160,96,281888,1,8,0:0:0:0:
400,192,282018,6,0,L|448:192,1,48,14|0,0:0|0:0,0:0:0:0:
304,192,282143,2,0,L|304:240,1,48,8|0,0:0|0:0,0:0:0:0:
448,240,282268,2,0,L|448:288,1,48,10|0,0:0|0:0,0:0:0:0:
304,288,282393,2,0,L|256:288,1,48,8|0,0:0|0:0,0:0:0:0:
112,288,282518,2,0,L|112:240,1,48,8|0,0:0|0:0,0:0:0:0:
256,288,282643,2,0,L|256:240,1,48,8|0,0:0|0:0,0:0:0:0:
112,192,282768,6,0,L|64:192,1,48,12|0,0:0|0:0,0:0:0:0:
208,192,282888,2,0,L|208:240,1,48,8|0,0:0|0:0,0:0:0:0:
64,240,283008,2,0,L|64:288,1,48,8|0,0:0|0:0,0:0:0:0:
208,288,283128,2,0,L|256:288,1,48,8|0,0:0|0:0,0:0:0:0:
400,288,283248,2,0,L|432:288,2,24,8|0|0,0:0|0:0|0:0,0:0:0:0:
256,288,283368,2,0,L|224:288,2,24,8|0|0,0:0|0:0|0:0,0:0:0:0:
432,96,283488,6,0,B|468:128|468:128|432:160|432:160|468:192|468:192|448:208|448:208|468:224|468:224|432:256|432:256|468:288|468:288|432:316|432:316|468:288|468:288|432:256|432:256|468:224|468:224|448:208|448:208|468:192|468:192|432:160|432:160|468:128|468:128|432:96,1,672,2|2,0:0|0:0,0:0:0:0:
336,352,284411,1,2,3:0:0:0:
432,352,284526,1,2,0:0:0:0:
304,288,284641,1,2,3:0:0:0:
432,288,284757,1,2,0:0:0:0:
64,192,284872,6,0,L|256:192,2,192,12|0|0,0:0|0:0|0:0,0:0:0:0:
448,192,285564,2,0,L|256:192,2,192,8|0|0,0:0|0:0|0:0,0:0:0:0:
64,192,286257,6,0,L|256:192,5,192,10|0|0|0|0|0,0:0|0:0|0:0|0:0|0:0|0:0,0:0:0:0:
160,128,287526,1,0,0:0:0:0:
304,128,287584,1,0,0:0:0:0:
448,192,287641,6,0,L|256:192,2,192,10|0|0,0:0|0:0|0:0,0:0:0:0:
64,192,288334,2,0,L|64:96,1,96,8|0,0:0|0:0,0:0:0:0:
256,96,288564,2,0,L|64:96,1,192,8|0,0:0|0:0,0:0:0:0:
448,192,289026,6,0,L|448:144,1,48,10|0,0:0|0:0,0:0:0:0:
304,144,289141,2,0,L|256:144,1,48,0|0,0:0|0:0,0:0:0:0:
400,192,289257,1,8,0:0:0:0:
304,192,289372,2,0,L|272:192,2,24,0|0|0,0:0|0:0|0:0,0:0:0:0:
448,240,289488,2,0,L|448:144,1,96,8|0,0:0|0:0,0:0:0:0:
400,112,289661,1,0,0:0:0:0:
256,112,289718,6,0,L|208:112,1,48,8|0,0:0|0:0,0:0:0:0:
352,112,289834,1,0,0:0:0:0:
256,192,289949,1,8,0:0:0:0:
224,192,289978,1,0,0:0:0:0:
208,192,290007,1,0,0:0:0:0:
352,240,290064,2,0,L|352:192,1,48
208,240,290180,1,8,0:0:0:0:
64,240,290238,1,0,0:0:0:0:
208,240,290295,2,0,L|224:192,1,48,0|0,0:0|0:0,0:0:0:0:
64,192,290411,6,0,L|256:192,2,192,10|0|0,0:0|0:0|0:0,0:0:0:0:
448,192,291103,2,0,L|256:192,2,192,8|0|0,0:0|0:0|0:0,0:0:0:0:
64,192,291795,6,0,B|160:192|160:192|64:192,1,192,10|0,0:0|0:0,0:0:0:0:
448,192,292257,2,0,B|352:192|352:192|448:192,1,192,8|0,0:0|0:0,0:0:0:0:
64,192,292718,2,0,B|160:192|160:192|64:192,1,192,8|0,0:0|0:0,0:0:0:0:
160,144,293064,1,0,0:0:0:0:
304,144,293122,1,0,0:0:0:0:
448,192,293180,6,0,L|256:192,5,192,10|0|0|0|0|0,0:0|0:0|0:0|0:0|0:0|0:0,0:0:0:0:
64,192,294564,5,10,0:0:0:0:
208,144,294680,2,0,L|256:144,1,48,0|0,0:0|0:0,0:0:0:0:
112,192,294795,1,8,0:0:0:0:
208,192,294911,2,0,L|240:192,2,24,0|0|0,0:0|0:0|0:0,0:0:0:0:
64,240,295026,2,0,L|64:144,1,96,8|0,0:0|0:0,0:0:0:0:
112,112,295199,1,0,0:0:0:0:
256,112,295257,6,0,L|304:112,2,48,8|0|0,0:0|0:0|0:0,0:0:0:0:
160,192,295488,2,0,L|128:192,2,24,8|0|0,0:0|0:0|0:0,0:0:0:0:
208,192,295603,2,0,L|208:144,1,48,0|0,0:0|0:0,0:0:0:0:
64,128,295718,1,8,0:0:0:0:
208,128,295776,1,0,0:0:0:0:
352,128,295834,1,0,0:0:0:0:
208,128,295891,1,0,0:0:0:0:
64,192,295949,6,0,L|256:192,1,192,14|8,0:0|0:0,0:0:0:0:
64,192,296295,1,0,0:0:0:0:
256,192,296411,2,0,L|256:96,1,96,8|0,0:0|0:0,0:0:0:0:
448,192,296641,2,0,L|256:192,1,192,10|8,0:0|0:0,0:0:0:0:
448,192,296988,1,0,0:0:0:0:
256,192,297103,2,0,L|256:96,1,96,8|0,0:0|0:0,0:0:0:0:
64,192,297334,6,0,L|256:192,1,192,10|8,0:0|0:0,0:0:0:0:
64,192,297680,1,0,0:0:0:0:
256,192,297795,2,0,L|256:96,1,96,8|0,0:0|0:0,0:0:0:0:
448,192,298026,2,0,L|352:192,1,96,10|0,0:0|0:0,0:0:0:0:
304,192,298199,1,0,0:0:0:0:
160,64,298257,2,0,L|256:64,1,96,8|0,0:0|0:0,0:0:0:0:
448,64,298488,1,8,0:0:0:0:
256,64,298603,2,0,L|208:64,1,48,0|0,0:0|0:0,0:0:0:0:
64,192,298718,6,0,L|160:192,1,96,10|0,0:0|0:0,0:0:0:0:
352,64,298949,2,0,L|256:64,1,96,8|0,0:0|0:0,0:0:0:0:
64,64,299180,2,0,L|160:64,1,96,8|0,0:0|0:0,0:0:0:0:
352,192,299411,2,0,L|368:96,1,96,10|0,0:0|0:0,0:0:0:0:
80,192,299641,2,0,L|64:96,1,96,8|0,0:0|0:0,0:0:0:0:
352,192,299872,2,0,L|368:240,1,48,8|0,0:0|0:0,0:0:0:0:
320,192,299988,2,0,L|304:240,1,48,0|0,0:0|0:0,0:0:0:0:
448,192,300103,6,0,L|448:144,1,48,10|0,0:0|0:0,0:0:0:0:
304,144,300218,2,0,L|256:144,1,48,0|0,0:0|0:0,0:0:0:0:
400,192,300334,2,0,L|400:144,1,48,8|0,0:0|0:0,0:0:0:0:
256,192,300449,2,0,L|224:192,2,24,0|0|0,0:0|0:0|0:0,0:0:0:0:
400,240,300564,2,0,L|400:144,1,96,8|0,0:0|0:0,0:0:0:0:
352,112,300738,1,0,0:0:0:0:
208,112,300795,6,0,L|160:112,1,48,10|0,0:0|0:0,0:0:0:0:
304,112,300911,2,0,L|352:112,1,48,0|0,0:0|0:0,0:0:0:0:
208,64,301026,1,8,0:0:0:0:
176,64,301055,1,0,0:0:0:0:
160,64,301084,1,0,0:0:0:0:
304,64,301141,2,0,L|352:64,1,48,0|0,0:0|0:0,0:0:0:0:
208,112,301257,2,0,L|160:112,1,48,10|0,0:0|0:0,0:0:0:0:
304,112,301372,2,0,L|352:112,1,48,0|0,0:0|0:0,0:0:0:0:
208,192,301488,5,14,0:0:0:0:
160,192,301545,2,0,L|144:240,2,48,0|0|0,0:0|0:0|0:0,0:0:0:0:
304,192,301718,1,8,0:0:0:0:
352,192,301776,2,0,L|368:240,2,48,0|0|0,0:0|0:0|0:0,0:0:0:0:
208,272,301949,2,0,L|176:312,3,48,8|0|0|0,0:0|0:0|0:0|0:0,0:0:0:0:
320,272,302180,6,0,L|352:312,3,48,10|0|0|0,0:0|0:0|0:0|0:0,0:0:0:0:
208,192,302411,2,0,L|192:144,3,48,8|0|0|0,0:0|0:0|0:0|0:0,0:0:0:0:
48,192,302641,2,0,L|32:144,3,48,8|0|0|0,0:0|0:0|0:0|0:0,0:0:0:0:
176,256,302872,5,14,0:0:0:0:
224,256,302930,2,0,L|240:304,2,48,0|0|0,0:0|0:0|0:0,0:0:0:0:
368,256,303103,1,8,0:0:0:0:
416,256,303161,2,0,L|432:304,2,48,0|0|0,0:0|0:0|0:0,0:0:0:0:
272,128,303334,1,8,0:0:0:0:
240,96,303391,1,0,0:0:0:0:
240,48,303449,1,0,0:0:0:0:
272,16,303507,1,0,0:0:0:0:
416,128,303564,5,10,0:0:0:0:
448,96,303622,1,0,0:0:0:0:
448,48,303680,1,0,0:0:0:0:
416,16,303738,1,0,0:0:0:0:
272,128,303795,2,0,L|272:176,1,48,8|0,0:0|0:0,0:0:0:0:
336,128,303911,2,0,L|336:176,1,48
192,128,304026,2,0,L|240:128,1,48,8|0,0:0|0:0,0:0:0:0:
384,192,304141,2,0,L|336:192,1,48
192,64,304257,6,0,L|176:112,1,48,14|0,0:0|0:0,0:0:0:0:
240,64,304372,2,0,L|256:112,1,48
112,192,304488,2,0,L|96:240,1,48,8|0,0:0|0:0,0:0:0:0:
112,192,304603,2,0,L|160:192,1,48
304,192,304718,2,0,L|320:240,1,48,8|0,0:0|0:0,0:0:0:0:
304,192,304834,2,0,L|256:192,1,48
400,320,304949,6,0,L|416:272,1,48,14|0,0:0|0:0,0:0:0:0:
352,320,305064,2,0,L|336:272,1,48
480,192,305180,2,0,L|496:144,1,48,8|0,0:0|0:0,0:0:0:0:
480,192,305295,2,0,L|432:192,1,48
288,192,305411,2,0,L|272:144,1,48,8|0,0:0|0:0,0:0:0:0:
288,192,305526,2,0,L|336:192,1,48
480,128,305641,6,0,L|480:80,1,48,10|0,0:0|0:0,0:0:0:0:
336,128,305757,2,0,L|336:80,1,48,0|0,0:0|0:0,0:0:0:0:
480,192,305872,2,0,L|432:240,1,48,8|0,0:0|0:0,0:0:0:0:
305,190,305988,2,0,L|272:224,1,48,0|0,0:0|0:0,0:0:0:0:
416,128,306103,2,0,L|368:128,1,48,8|0,0:0|0:0,0:0:0:0:
224,128,306218,2,0,L|176:128,1,48,0|0,0:0|0:0,0:0:0:0:
320,320,306334,6,0,L|368:320,1,48,10|0,0:0|0:0,0:0:0:0:
200,320,306449,2,0,L|152:320,1,48,8|0,0:0|0:0,0:0:0:0:
328,256,306564,2,0,L|376:256,1,48,8|0,0:0|0:0,0:0:0:0:
192,256,306680,2,0,L|144:256,1,48,8|0,0:0|0:0,0:0:0:0:
336,192,306795,1,8,0:0:0:0:
480,192,306853,1,0,0:0:0:0:
288,192,306911,1,8,0:0:0:0:
144,192,306968,1,0,0:0:0:0:
336,64,307026,6,0,L|432:64,1,96,14|0,0:0|0:0,0:0:0:0:
240,192,307244,2,0,L|336:192,1,96,10|0,0:0|0:0,0:0:0:0:
144,64,307462,2,0,L|128:160,1,96,8|0,0:0|0:0,0:0:0:0:
320,192,307680,2,0,L|224:192,1,96,8|0,0:0|0:0,0:0:0:0:
32,192,307898,2,0,L|128:192,1,96,8|0,0:0|0:0,0:0:0:0:
320,192,308116,2,0,L|336:96,1,96,8|0,0:0|0:0,0:0:0:0:
144,320,308335,6,0,L|48:320,1,96,10|0,0:0|0:0,0:0:0:0:
240,192,308553,2,0,L|144:192,1,96,10|0,0:0|0:0,0:0:0:0:
336,320,308771,2,0,L|352:224,1,96,8|0,0:0|0:0,0:0:0:0:
160,192,308989,2,0,L|256:192,1,96,8|0,0:0|0:0,0:0:0:0:
448,192,309207,2,0,L|352:192,1,96,8|0,0:0|0:0,0:0:0:0:
160,192,309426,2,0,L|144:288,1,96,8|0,0:0|0:0,0:0:0:0:
192,320,309589,1,0,0:0:0:0:
336,64,309644,6,0,L|432:64,1,91.1999975646973,14|0,0:0|0:0,0:0:0:0:
240,192,309850,2,0,L|336:192,1,91.1999975646973,10|0,0:0|0:0,0:0:0:0:
144,64,310057,2,0,L|128:160,1,91.1999975646973,8|0,0:0|0:0,0:0:0:0:
320,192,310264,2,0,L|224:192,1,91.1999975646973,8|0,0:0|0:0,0:0:0:0:
40,192,310471,2,0,L|136:192,1,91.1999975646973,8|0,0:0|0:0,0:0:0:0:
320,192,310678,2,0,L|336:96,1,91.1999975646973,8|0,0:0|0:0,0:0:0:0:
144,320,310885,6,0,L|56:280,1,91.1999975646973,10|0,0:0|0:0,0:0:0:0:
60,282,311040,1,0,0:0:0:0:
176,272,311092,2,0,L|88:232,1,91.1999975646973,10|0,0:0|0:0,0:0:0:0:
92,234,311247,1,0,0:0:0:0:
208,224,311299,2,0,L|120:184,1,91.1999975646973,8|0,0:0|0:0,0:0:0:0:
124,186,311454,1,0,0:0:0:0:
240,176,311506,2,0,L|240:128,1,45.5999987823487,8|0,0:0|0:0,0:0:0:0:
120,176,311609,1,0,0:0:0:0:
304,176,311712,2,0,L|336:136,1,45.5999987823487,8|0,0:0|0:0,0:0:0:0:
208,128,311816,2,0,L|160:128,1,45.5999987823487
288,272,311919,2,0,L|384:272,1,91.1999975646973,8|0,0:0|0:0,0:0:0:0:
176,320,312126,6,0,L|80:320,1,86.3999973632813,14|0,0:0|0:0,0:0:0:0:
272,192,312322,2,0,L|176:192,1,86.3999973632813,10|0,0:0|0:0,0:0:0:0:
368,320,312519,2,0,L|384:224,1,86.3999973632813,8|0,0:0|0:0,0:0:0:0:
200,192,312716,2,0,L|288:192,1,86.3999973632813,8|0,0:0|0:0,0:0:0:0:
472,192,312912,2,0,L|384:192,1,86.3999973632813,8|0,0:0|0:0,0:0:0:0:
192,192,313109,2,0,L|176:280,1,86.3999973632813,8|0,0:0|0:0,0:0:0:0:
368,64,313306,6,0,L|448:104,1,86.3999973632813,10|0,0:0|0:0,0:0:0:0:
448,112,313453,1,0,0:0:0:0:
336,112,313503,2,0,L|416:152,1,86.3999973632813,10|0,0:0|0:0,0:0:0:0:
416,160,313650,1,0,0:0:0:0:
304,160,313699,2,0,L|384:200,1,86.3999973632813,8|0,0:0|0:0,0:0:0:0:
384,208,313847,1,0,0:0:0:0:
272,208,313896,2,0,L|272:256,1,43.1999986816407,8|0,0:0|0:0,0:0:0:0:
392,208,313994,1,0,0:0:0:0:
208,208,314093,2,0,L|176:240,1,43.1999986816407,8|0,0:0|0:0,0:0:0:0:
304,256,314191,2,0,L|352:256,1,43.1999986816407
224,112,314289,2,0,L|136:112,1,86.3999973632813,8|0,0:0|0:0,0:0:0:0:
336,64,314486,6,0,L|424:64,1,82.5600012597657,14|0,0:0|0:0,0:0:0:0:
240,192,314673,2,0,L|328:192,1,82.5600012597657,10|0,0:0|0:0,0:0:0:0:
144,64,314861,2,0,L|128:152,1,82.5600012597657,8|0,0:0|0:0,0:0:0:0:
312,192,315048,2,0,L|224:192,1,82.5600012597657,8|0,0:0|0:0,0:0:0:0:
32,192,315236,2,0,L|128:192,1,82.5600012597657,8|0,0:0|0:0,0:0:0:0:
320,192,315423,2,0,L|336:96,1,82.5600012597657,8|0,0:0|0:0,0:0:0:0:
144,304,315611,5,14,0:0:0:0:
320,304,315704,2,0,L|320:256,1,41.2800006298828
208,256,315798,1,10,0:0:0:0:
384,256,315892,2,0,L|384:208,1,41.2800006298828
272,208,315986,1,8,0:0:0:0:
448,208,316079,2,0,L|448:160,1,41.2800006298828
336,160,316173,2,0,L|296:136,1,41.2800006298828,8|0,0:0|0:0,0:0:0:0:
416,160,316267,1,0,0:0:0:0:
224,160,316361,2,0,L|224:112,1,41.2800006298828,8|0,0:0|0:0,0:0:0:0:
352,112,316454,2,0,L|400:112,1,41.2800006298828
264,112,316548,2,0,L|184:112,1,72.959999109375,8|0,0:0|0:0,0:0:0:0:
384,192,316713,5,2,2:0:0:0:
448,192,316801,1,0,0:0:0:0:
448,128,316889,1,2,2:0:0:0:
384,128,316977,1,0,0:0:0:0:
320,192,317065,1,2,2:0:0:0:
256,192,317154,1,0,0:0:0:0:
256,256,317242,1,2,2:0:0:0:
320,256,317330,1,0,0:0:0:0:
384,256,317418,2,0,L|424:256,1,38.8800009492188,10|2,0:0|0:0,0:0:0:0:
376,192,317507,2,0,L|416:192,1,38.8800009492188,10|2,0:0|0:0,0:0:0:0:
384,256,317595,2,0,L|424:256,1,38.8800009492188,10|2,0:0|0:0,0:0:0:0:
376,192,317683,2,0,L|416:192,1,38.8800009492188,10|2,0:0|0:0,0:0:0:0:
304,64,317771,6,0,L|216:24,1,96,14|0,0:0|0:0,0:0:0:0:
384,128,317948,2,0,L|296:88,1,96,10|0,0:0|0:0,0:0:0:0:
128,192,318124,2,0,L|216:152,1,96,8|0,0:0|0:0,0:0:0:0:
48,128,318301,2,0,L|136:88,1,96,8|0,0:0|0:0,0:0:0:0:
304,256,318477,2,0,L|216:216,1,96,8|0,0:0|0:0,0:0:0:0:
384,256,318654,2,0,L|400:208,1,48,8|0,0:0|0:0,0:0:0:0:
288,192,318742,2,0,L|272:144,1,48
384,96,318830,6,0,L|472:56,1,96,14|0,0:0|0:0,0:0:0:0:
464,144,318963,1,0,0:0:0:0:
352,192,319007,2,0,L|264:152,1,96,10|0,0:0|0:0,0:0:0:0:
432,256,319183,2,0,L|344:216,1,96,8|0,0:0|0:0,0:0:0:0:
176,320,319360,2,0,L|264:280,1,96,8|0,0:0|0:0,0:0:0:0:
96,256,319536,2,0,L|184:216,1,96,8|0,0:0|0:0,0:0:0:0:
352,256,319713,2,0,L|368:160,1,96,8|0,0:0|0:0,0:0:0:0:
200,64,319889,6,0,L|288:24,1,96,14|0,0:0|0:0,0:0:0:0:
120,128,320065,2,0,L|72:128,1,48,10|0,0:0|0:0,0:0:0:0:
184,128,320154,2,0,L|232:128,1,48
120,128,320242,2,0,P|104:176|120:216,1,96,8|0,0:0|0:0,0:0:0:0:
168,224,320374,1,0,0:0:0:0:
280,224,320418,2,0,L|296:176,1,48,8|0,0:0|0:0,0:0:0:0:
184,224,320507,2,0,L|168:176,1,48
280,224,320595,2,0,L|368:184,1,96,8|0,0:0|0:0,0:0:0:0:
200,224,320771,2,0,L|184:320,1,96,8|0,0:0|0:0,0:0:0:0:
352,64,320948,6,0,L|264:24,1,96,14|0,0:0|0:0,0:0:0:0:
432,128,321124,2,0,L|344:88,1,96,10|0,0:0|0:0,0:0:0:0:
176,192,321301,2,0,L|264:152,1,96,8|0,0:0|0:0,0:0:0:0:
96,128,321477,2,0,L|184:88,1,96,8|0,0:0|0:0,0:0:0:0:
352,256,321654,2,0,L|264:216,1,96,8|0,0:0|0:0,0:0:0:0:
96,256,321830,2,0,L|80:160,1,96,8|0,0:0|0:0,0:0:0:0:
96,112,321963,1,0,0:0:0:0:
208,64,322007,6,0,L|288:24,1,72.959999109375,14|0,0:0|0:0,0:0:0:0:
128,128,322173,2,0,L|208:88,1,72.959999109375,10|0,0:0|0:0,0:0:0:0:
344,192,322340,2,0,L|264:152,1,72.959999109375,8|0,0:0|0:0,0:0:0:0:
424,128,322507,2,0,L|344:88,1,72.959999109375,8|0,0:0|0:0,0:0:0:0:
208,256,322673,2,0,L|288:216,1,72.959999109375,8|0,0:0|0:0,0:0:0:0:
128,256,322840,2,0,L|112:216,1,36.4799995546875,8|0,0:0|0:0,0:0:0:0:
216,192,322923,2,0,L|232:152,1,36.4799995546875
128,96,323007,6,0,L|48:56,1,72.959999109375,14|0,0:0|0:0,0:0:0:0:
62,63,323132,1,0,0:0:0:0:
160,192,323173,2,0,L|240:152,1,72.959999109375,10|0,0:0|0:0,0:0:0:0:
80,256,323340,2,0,L|160:216,1,72.959999109375,8|0,0:0|0:0,0:0:0:0:
296,320,323507,2,0,L|216:280,1,72.959999109375,8|0,0:0|0:0,0:0:0:0:
376,256,323673,2,0,L|296:216,1,72.959999109375,8|0,0:0|0:0,0:0:0:0:
160,256,323840,2,0,L|160:184,1,72.959999109375,8|0,0:0|0:0,0:0:0:0:
312,64,324007,6,0,L|232:24,1,72.959999109375,14|0,0:0|0:0,0:0:0:0:
392,128,324173,2,0,L|432:128,1,36.4799995546875,10|0,0:0|0:0,0:0:0:0:
328,128,324257,2,0,L|288:128,1,36.4799995546875
392,128,324340,2,0,P|408:160|392:192,1,72.959999109375,8|0,0:0|0:0,0:0:0:0:
344,224,324465,1,0,0:0:0:0:
240,224,324507,2,0,L|224:184,1,36.4799995546875,8|0,0:0|0:0,0:0:0:0:
328,224,324590,2,0,L|344:184,1,36.4799995546875
240,224,324673,2,0,L|160:184,1,72.959999109375,8|0,0:0|0:0,0:0:0:0:
320,224,324840,2,0,L|320:296,1,72.959999109375,8|0,0:0|0:0,0:0:0:0:
168,64,325007,6,0,L|248:24,1,72.959999109375,14|0,0:0|0:0,0:0:0:0:
88,128,325173,2,0,L|168:88,1,72.959999109375,10|0,0:0|0:0,0:0:0:0:
304,192,325340,2,0,L|224:152,1,72.959999109375,8|0,0:0|0:0,0:0:0:0:
384,128,325507,2,0,L|304:88,1,72.959999109375,8|0,0:0|0:0,0:0:0:0:
168,256,325673,2,0,L|248:216,1,72.959999109375,8|0,0:0|0:0,0:0:0:0:
384,256,325840,2,0,L|400:168,1,72.959999109375,8|0,0:0|0:0,0:0:0:0:
352,112,325965,1,0,0:0:0:0:
240,192,326007,5,2,2:0:0:0:
176,192,326090,1,0,0:0:0:0:
176,128,326173,1,2,2:0:0:0:
240,128,326257,1,0,0:0:0:0:
304,192,326340,1,2,2:0:0:0:
368,192,326423,1,0,0:0:0:0:
368,256,326507,1,2,2:0:0:0:
304,256,326590,1,0,0:0:0:0:
256,192,328007,12,0,329923,0:0:0:0:
256,192,330048,5,0,3:0:0:0:
256,192,330173,12,2,333423,0:0:0:0:
