osu file format v14

[General]
AudioFilename: audio.mp3
AudioLeadIn: 0
PreviewTime: 28499
Countdown: 0
SampleSet: Normal
StackLeniency: 0.7
Mode: 3
LetterboxInBreaks: 0
SpecialStyle: 0
WidescreenStoryboard: 1

[Editor]
DistanceSpacing: 0.8
BeatDivisor: 4
GridSize: 32
TimelineZoom: 1

[Metadata]
Title:Blood Right
TitleUnicode:Blood Right
Artist:psithurist
ArtistUnicode:psithurist
Creator:Quedsedash
Version:Insane
Source:deconreconstruction.com
Tags:vastError homestuck ellsee
BeatmapID:4566000
BeatmapSetID:2164666

[Difficulty]
HPDrainRate:7
CircleSize:4
OverallDifficulty:7
ApproachRate:5
SliderMultiplier:1.4
SliderTickRate:1

[Events]
//Background and Video events
0,0,"bloodRight.png",0,0
//Break Periods
//Storyboard Layer 0 (Background)
//Storyboard Layer 1 (Fail)
//Storyboard Layer 2 (Pass)
//Storyboard Layer 3 (Foreground)
//Storyboard Layer 4 (Overlay)
//Storyboard Sound Samples

[TimingPoints]
-0.263355939442285,250,4,1,0,10,1,0
0,-80,4,1,0,10,0,0

[HitObjects]
192,192,0,5,0,0:0:0:0:
320,192,499,1,0,0:0:0:0:
64,192,499,1,0,0:0:0:0:
192,192,999,1,0,0:0:0:0:
320,192,1499,1,0,0:0:0:0:
64,192,1499,1,0,0:0:0:0:
448,192,1499,128,0,3999:0:0:0:0:
192,192,1999,1,0,0:0:0:0:
320,192,2499,1,0,0:0:0:0:
64,192,2499,1,0,0:0:0:0:
192,192,2999,1,0,0:0:0:0:
320,192,3499,1,0,0:0:0:0:
64,192,3499,1,0,0:0:0:0:
192,192,3999,1,0,0:0:0:0:
448,192,4499,1,0,0:0:0:0:
192,192,4499,1,0,0:0:0:0:
192,192,4749,1,0,0:0:0:0:
64,192,4843,1,0,0:0:0:0:
192,192,4937,1,0,0:0:0:0:
320,192,4999,1,0,0:0:0:0:
448,192,5030,1,0,0:0:0:0:
64,192,5093,1,0,0:0:0:0:
192,192,5155,128,0,5312:0:0:0:0:
320,192,5312,128,0,5437:0:0:0:0:
64,192,5437,128,0,7999:0:0:0:0:
448,192,5499,1,0,0:0:0:0:
192,192,5499,1,0,0:0:0:0:
320,192,5999,1,0,0:0:0:0:
448,192,6499,1,0,0:0:0:0:
192,192,6499,1,0,0:0:0:0:
320,192,6999,1,0,0:0:0:0:
448,192,7499,1,0,0:0:0:0:
192,192,7499,1,0,0:0:0:0:
448,192,7999,1,0,0:0:0:0:
192,192,8124,1,0,0:0:0:0:
448,192,8249,1,0,0:0:0:0:
192,192,8374,1,0,0:0:0:0:
448,192,8499,1,0,0:0:0:0:
192,192,8624,1,0,0:0:0:0:
448,192,8749,1,0,0:0:0:0:
192,192,8874,1,0,0:0:0:0:
448,192,8999,1,0,0:0:0:0:
192,192,9124,1,0,0:0:0:0:
448,192,9249,1,0,0:0:0:0:
192,192,9374,1,0,0:0:0:0:
448,192,9499,1,0,0:0:0:0:
192,192,9624,1,0,0:0:0:0:
448,192,9749,1,0,0:0:0:0:
192,192,9874,1,0,0:0:0:0:
448,192,9999,1,0,0:0:0:0:
192,192,10124,1,0,0:0:0:0:
448,192,10249,1,0,0:0:0:0:
192,192,10374,1,0,0:0:0:0:
448,192,10499,1,0,0:0:0:0:
192,192,10624,1,0,0:0:0:0:
448,192,10749,1,0,0:0:0:0:
192,192,10874,1,0,0:0:0:0:
64,192,10999,1,0,0:0:0:0:
320,192,11124,1,0,0:0:0:0:
64,192,11249,1,0,0:0:0:0:
320,192,11374,1,0,0:0:0:0:
64,192,11499,1,0,0:0:0:0:
320,192,11624,1,0,0:0:0:0:
64,192,11749,1,0,0:0:0:0:
320,192,11874,1,0,0:0:0:0:
448,192,11999,1,0,0:0:0:0:
320,192,12124,1,0,0:0:0:0:
64,192,12249,1,0,0:0:0:0:
192,192,12374,1,0,0:0:0:0:
448,192,12499,1,0,0:0:0:0:
320,192,12624,1,0,0:0:0:0:
64,192,12749,1,0,0:0:0:0:
192,192,12874,1,0,0:0:0:0:
448,192,12999,1,0,0:0:0:0:
320,192,13124,1,0,0:0:0:0:
64,192,13249,1,0,0:0:0:0:
192,192,13374,1,0,0:0:0:0:
448,192,13499,1,0,0:0:0:0:
320,192,13624,1,0,0:0:0:0:
64,192,13749,1,0,0:0:0:0:
192,192,13874,1,0,0:0:0:0:
448,192,13999,1,0,0:0:0:0:
320,192,14124,1,0,0:0:0:0:
64,192,14249,1,0,0:0:0:0:
192,192,14374,1,0,0:0:0:0:
448,192,14499,1,0,0:0:0:0:
320,192,14624,1,0,0:0:0:0:
64,192,14749,1,0,0:0:0:0:
192,192,14874,1,0,0:0:0:0:
448,192,14999,1,0,0:0:0:0:
320,192,15124,1,0,0:0:0:0:
192,192,15249,1,0,0:0:0:0:
64,192,15374,1,0,0:0:0:0:
448,192,15499,1,0,0:0:0:0:
320,192,15624,1,0,0:0:0:0:
192,192,15749,1,0,0:0:0:0:
64,192,15874,1,0,0:0:0:0:
320,192,15999,1,0,0:0:0:0:
448,192,16124,1,0,0:0:0:0:
192,192,16249,1,0,0:0:0:0:
64,192,16374,1,0,0:0:0:0:
320,192,16499,1,0,0:0:0:0:
448,192,16624,1,0,0:0:0:0:
192,192,16749,1,0,0:0:0:0:
64,192,16874,1,0,0:0:0:0:
320,192,16999,1,0,0:0:0:0:
448,192,17124,1,0,0:0:0:0:
192,192,17249,1,0,0:0:0:0:
64,192,17374,1,0,0:0:0:0:
320,192,17499,1,0,0:0:0:0:
448,192,17624,1,0,0:0:0:0:
192,192,17749,1,0,0:0:0:0:
64,192,17874,1,0,0:0:0:0:
320,192,17999,1,0,0:0:0:0:
64,192,18124,1,0,0:0:0:0:
448,192,18249,1,0,0:0:0:0:
192,192,18374,1,0,0:0:0:0:
320,192,18499,1,0,0:0:0:0:
64,192,18624,1,0,0:0:0:0:
448,192,18749,1,0,0:0:0:0:
192,192,18874,1,0,0:0:0:0:
320,192,18999,1,0,0:0:0:0:
64,192,19124,1,0,0:0:0:0:
448,192,19249,1,0,0:0:0:0:
192,192,19374,1,0,0:0:0:0:
320,192,19499,1,0,0:0:0:0:
64,192,19624,1,0,0:0:0:0:
448,192,19749,1,0,0:0:0:0:
192,192,19874,1,0,0:0:0:0:
320,192,19999,128,0,21749:0:0:0:0:
64,192,19999,1,0,0:0:0:0:
192,192,20124,1,0,0:0:0:0:
64,192,20249,1,0,0:0:0:0:
192,192,20374,1,0,0:0:0:0:
448,192,20499,128,0,21749:0:0:0:0:
64,192,21749,1,0,0:0:0:0:
192,192,21874,1,0,0:0:0:0:
320,192,21999,128,0,23999:0:0:0:0:
64,192,21999,1,0,0:0:0:0:
192,192,22124,1,0,0:0:0:0:
64,192,22249,1,0,0:0:0:0:
192,192,22374,1,0,0:0:0:0:
448,192,22499,128,0,23999:0:0:0:0:
64,192,23999,128,0,24562:0:0:0:0:
320,192,24562,1,0,0:0:0:0:
192,192,24624,1,0,0:0:0:0:
448,192,24687,1,0,0:0:0:0:
320,192,24780,1,0,0:0:0:0:
192,192,24937,1,0,0:0:0:0:
320,192,24999,1,0,0:0:0:0:
448,192,25124,1,0,0:0:0:0:
320,192,25249,1,0,0:0:0:0:
192,192,25499,128,0,25749:0:0:0:0:
320,192,25749,128,0,25999:0:0:0:0:
192,192,26249,128,0,26499:0:0:0:0:
320,192,26499,128,0,26749:0:0:0:0:
320,192,26999,1,0,0:0:0:0:
448,192,27124,1,0,0:0:0:0:
320,192,27249,1,0,0:0:0:0:
448,192,27374,1,0,0:0:0:0:
320,192,27499,1,0,0:0:0:0:
320,192,27749,1,0,0:0:0:0:
192,192,27999,1,0,0:0:0:0:
64,192,28062,1,0,0:0:0:0:
448,192,28124,1,0,0:0:0:0:
192,192,28187,1,0,0:0:0:0:
320,192,28249,1,0,0:0:0:0:
64,192,28437,1,0,0:0:0:0:
320,192,28499,128,0,28749:0:0:0:0:
192,192,28749,128,0,28999:0:0:0:0:
64,192,28999,128,0,29249:0:0:0:0:
320,192,29249,128,0,29499:0:0:0:0:
448,192,29499,1,0,0:0:0:0:
192,192,29624,1,0,0:0:0:0:
448,192,29749,1,0,0:0:0:0:
192,192,29874,1,0,0:0:0:0:
320,192,29999,1,0,0:0:0:0:
448,192,30124,1,0,0:0:0:0:
320,192,30249,1,0,0:0:0:0:
448,192,30374,1,0,0:0:0:0:
192,192,30499,1,0,0:0:0:0:
64,192,30624,1,0,0:0:0:0:
192,192,30749,1,0,0:0:0:0:
64,192,30874,1,0,0:0:0:0:
192,192,30999,128,0,31249:0:0:0:0:
64,192,31249,1,0,0:0:0:0:
320,192,31312,1,0,0:0:0:0:
448,192,31374,1,0,0:0:0:0:
64,192,31437,1,0,0:0:0:0:
192,192,31499,1,0,0:0:0:0:
320,192,31562,1,0,0:0:0:0:
448,192,31687,1,0,0:0:0:0:
192,192,31749,1,0,0:0:0:0:
64,192,31812,1,0,0:0:0:0:
320,192,31874,1,0,0:0:0:0:
192,192,31937,1,0,0:0:0:0:
448,192,31999,128,0,32499:0:0:0:0:
192,192,32499,128,0,32999:0:0:0:0:
320,192,32999,128,0,33249:0:0:0:0:
192,192,33249,128,0,33499:0:0:0:0:
64,192,33249,1,0,0:0:0:0:
64,192,33499,128,0,33999:0:0:0:0:
448,192,33499,1,0,0:0:0:0:
320,192,33999,128,0,34249:0:0:0:0:
192,192,33999,1,0,0:0:0:0:
192,192,34249,128,0,34749:0:0:0:0:
448,192,34249,1,0,0:0:0:0:
448,192,34749,128,0,34999:0:0:0:0:
64,192,34749,1,0,0:0:0:0:
192,192,34999,1,0,0:0:0:0:
320,192,34999,128,0,35499:0:0:0:0:
192,192,35499,128,0,35749:0:0:0:0:
64,192,35499,1,0,0:0:0:0:
64,192,35749,128,0,35999:0:0:0:0:
448,192,35749,1,0,0:0:0:0:
320,192,35999,1,0,0:0:0:0:
448,192,35999,128,0,37749:0:0:0:0:
192,192,36124,1,0,0:0:0:0:
320,192,36249,1,0,0:0:0:0:
192,192,36374,1,0,0:0:0:0:
64,192,36499,128,0,36749:0:0:0:0:
320,192,36499,128,0,37749:0:0:0:0:
192,192,36749,128,0,36999:0:0:0:0:
64,192,36999,128,0,37249:0:0:0:0:
192,192,37249,128,0,37499:0:0:0:0:
64,192,37499,128,0,37749:0:0:0:0:
192,192,37749,1,0,0:0:0:0:
192,192,37874,1,0,0:0:0:0:
448,192,37999,1,0,0:0:0:0:
64,192,37999,128,0,39999:0:0:0:0:
320,192,38124,1,0,0:0:0:0:
448,192,38249,1,0,0:0:0:0:
320,192,38374,1,0,0:0:0:0:
448,192,38499,128,0,38749:0:0:0:0:
192,192,38499,128,0,39999:0:0:0:0:
320,192,38749,128,0,38999:0:0:0:0:
448,192,38999,128,0,39499:0:0:0:0:
448,192,39749,1,0,0:0:0:0:
320,192,39874,1,0,0:0:0:0:
448,192,39999,128,0,40562:0:0:0:0:
320,192,39999,128,0,40499:0:0:0:0:
64,192,40499,128,0,40999:0:0:0:0:
192,192,40562,1,0,0:0:0:0:
320,192,40624,1,0,0:0:0:0:
192,192,40687,1,0,0:0:0:0:
320,192,40780,1,0,0:0:0:0:
192,192,40937,1,0,0:0:0:0:
448,192,40999,128,0,41499:0:0:0:0:
320,192,40999,1,0,0:0:0:0:
192,192,41124,1,0,0:0:0:0:
320,192,41249,1,0,0:0:0:0:
192,192,41499,128,0,41749:0:0:0:0:
64,192,41499,128,0,41999:0:0:0:0:
320,192,41749,128,0,41999:0:0:0:0:
448,192,41999,128,0,42499:0:0:0:0:
192,192,42249,128,0,42499:0:0:0:0:
320,192,42499,128,0,42749:0:0:0:0:
64,192,42499,128,0,42999:0:0:0:0:
320,192,42999,1,0,0:0:0:0:
192,192,42999,128,0,43499:0:0:0:0:
448,192,43124,1,0,0:0:0:0:
320,192,43249,1,0,0:0:0:0:
448,192,43374,1,0,0:0:0:0:
320,192,43499,1,0,0:0:0:0:
448,192,43499,128,0,43999:0:0:0:0:
320,192,43749,1,0,0:0:0:0:
192,192,43999,128,0,44499:0:0:0:0:
320,192,43999,1,0,0:0:0:0:
64,192,44062,1,0,0:0:0:0:
320,192,44124,1,0,0:0:0:0:
448,192,44187,1,0,0:0:0:0:
64,192,44249,1,0,0:0:0:0:
448,192,44437,1,0,0:0:0:0:
320,192,44499,128,0,44749:0:0:0:0:
64,192,44499,128,0,44999:0:0:0:0:
192,192,44749,128,0,44999:0:0:0:0:
448,192,44999,128,0,45249:0:0:0:0:
320,192,44999,128,0,45499:0:0:0:0:
192,192,45249,128,0,45499:0:0:0:0:
448,192,45499,1,0,0:0:0:0:
64,192,45499,128,0,45999:0:0:0:0:
320,192,45624,1,0,0:0:0:0:
448,192,45749,1,0,0:0:0:0:
320,192,45874,1,0,0:0:0:0:
448,192,45999,1,0,0:0:0:0:
192,192,45999,128,0,46499:0:0:0:0:
64,192,46124,1,0,0:0:0:0:
448,192,46249,1,0,0:0:0:0:
64,192,46374,1,0,0:0:0:0:
320,192,46499,1,0,0:0:0:0:
448,192,46499,128,0,46999:0:0:0:0:
64,192,46624,1,0,0:0:0:0:
320,192,46749,1,0,0:0:0:0:
64,192,46874,1,0,0:0:0:0:
320,192,46999,128,0,47249:0:0:0:0:
192,192,46999,128,0,47499:0:0:0:0:
448,192,47249,1,0,0:0:0:0:
64,192,47312,1,0,0:0:0:0:
448,192,47374,1,0,0:0:0:0:
320,192,47437,1,0,0:0:0:0:
448,192,47499,1,0,0:0:0:0:
64,192,47499,128,0,47999:0:0:0:0:
320,192,47562,1,0,0:0:0:0:
448,192,47687,1,0,0:0:0:0:
320,192,47749,1,0,0:0:0:0:
192,192,47812,1,0,0:0:0:0:
320,192,47874,1,0,0:0:0:0:
192,192,47937,1,0,0:0:0:0:
448,192,47999,128,0,48499:0:0:0:0:
320,192,47999,128,0,48499:0:0:0:0:
192,192,48499,128,0,48999:0:0:0:0:
64,192,48499,128,0,48999:0:0:0:0:
320,192,48999,128,0,49249:0:0:0:0:
448,192,48999,128,0,49499:0:0:0:0:
192,192,49249,128,0,49499:0:0:0:0:
64,192,49249,1,0,0:0:0:0:
64,192,49499,128,0,49999:0:0:0:0:
320,192,49499,128,0,49999:0:0:0:0:
448,192,49999,128,0,50249:0:0:0:0:
192,192,49999,128,0,50499:0:0:0:0:
320,192,50249,128,0,50749:0:0:0:0:
64,192,50249,1,0,0:0:0:0:
64,192,50499,128,0,50999:0:0:0:0:
448,192,50749,128,0,50999:0:0:0:0:
192,192,50749,1,0,0:0:0:0:
320,192,50999,128,0,51499:0:0:0:0:
192,192,50999,128,0,51499:0:0:0:0:
448,192,51499,128,0,51749:0:0:0:0:
64,192,51499,128,0,51999:0:0:0:0:
320,192,51749,128,0,51999:0:0:0:0:
192,192,51749,1,0,0:0:0:0:
192,192,51999,1,0,0:0:0:0:
448,192,51999,128,0,52499:0:0:0:0:
320,192,52124,1,0,0:0:0:0:
64,192,52249,1,0,0:0:0:0:
192,192,52374,1,0,0:0:0:0:
64,192,52499,128,0,52749:0:0:0:0:
320,192,52499,128,0,52999:0:0:0:0:
192,192,52749,128,0,52999:0:0:0:0:
64,192,52999,128,0,53249:0:0:0:0:
448,192,52999,128,0,53499:0:0:0:0:
192,192,53249,128,0,53499:0:0:0:0:
64,192,53499,128,0,53749:0:0:0:0:
320,192,53499,128,0,53999:0:0:0:0:
192,192,53749,1,0,0:0:0:0:
448,192,53999,1,0,0:0:0:0:
64,192,53999,128,0,54499:0:0:0:0:
192,192,54124,1,0,0:0:0:0:
448,192,54249,1,0,0:0:0:0:
320,192,54374,1,0,0:0:0:0:
448,192,54499,128,0,54749:0:0:0:0:
192,192,54499,128,0,54999:0:0:0:0:
320,192,54749,128,0,54999:0:0:0:0:
448,192,54999,128,0,55499:0:0:0:0:
64,192,54999,128,0,55499:0:0:0:0:
192,192,55499,128,0,55999:0:0:0:0:
320,192,55749,1,0,0:0:0:0:
64,192,55874,1,0,0:0:0:0:
448,192,55999,128,0,56562:0:0:0:0:
320,192,55999,128,0,56499:0:0:0:0:
64,192,56499,128,0,56999:0:0:0:0:
192,192,56562,1,0,0:0:0:0:
320,192,56624,1,0,0:0:0:0:
192,192,56687,1,0,0:0:0:0:
320,192,56780,1,0,0:0:0:0:
192,192,56937,1,0,0:0:0:0:
320,192,56999,1,0,0:0:0:0:
448,192,56999,128,0,57499:0:0:0:0:
192,192,57124,1,0,0:0:0:0:
320,192,57249,1,0,0:0:0:0:
192,192,57499,128,0,57749:0:0:0:0:
64,192,57499,128,0,57999:0:0:0:0:
320,192,57749,128,0,57999:0:0:0:0:
448,192,57999,128,0,58499:0:0:0:0:
192,192,58249,128,0,58499:0:0:0:0:
320,192,58499,128,0,58749:0:0:0:0:
64,192,58499,128,0,58999:0:0:0:0:
192,192,58999,1,0,0:0:0:0:
448,192,58999,128,0,59999:0:0:0:0:
320,192,59124,1,0,0:0:0:0:
192,192,59249,1,0,0:0:0:0:
320,192,59374,1,0,0:0:0:0:
192,192,59499,1,0,0:0:0:0:
320,192,59749,1,0,0:0:0:0:
192,192,59999,128,0,60499:0:0:0:0:
320,192,59999,1,0,0:0:0:0:
64,192,60062,1,0,0:0:0:0:
320,192,60124,1,0,0:0:0:0:
448,192,60187,1,0,0:0:0:0:
64,192,60249,1,0,0:0:0:0:
448,192,60437,1,0,0:0:0:0:
320,192,60499,128,0,60749:0:0:0:0:
64,192,60499,128,0,60999:0:0:0:0:
192,192,60749,128,0,60999:0:0:0:0:
448,192,60999,128,0,61249:0:0:0:0:
320,192,60999,128,0,61624:0:0:0:0:
64,192,61249,128,0,61499:0:0:0:0:
448,192,61499,1,0,0:0:0:0:
64,192,61624,1,0,0:0:0:0:
192,192,61624,128,0,61999:0:0:0:0:
448,192,61749,1,0,0:0:0:0:
320,192,61874,1,0,0:0:0:0:
64,192,61999,128,0,62374:0:0:0:0:
448,192,61999,1,0,0:0:0:0:
320,192,62124,1,0,0:0:0:0:
448,192,62249,1,0,0:0:0:0:
320,192,62374,1,0,0:0:0:0:
192,192,62374,128,0,62749:0:0:0:0:
448,192,62499,1,0,0:0:0:0:
64,192,62624,1,0,0:0:0:0:
448,192,62749,128,0,62999:0:0:0:0:
320,192,62749,1,0,0:0:0:0:
64,192,62874,1,0,0:0:0:0:
320,192,62999,128,0,63249:0:0:0:0:
192,192,62999,128,0,63499:0:0:0:0:
448,192,63249,1,0,0:0:0:0:
64,192,63312,1,0,0:0:0:0:
448,192,63374,1,0,0:0:0:0:
320,192,63437,1,0,0:0:0:0:
448,192,63499,1,0,0:0:0:0:
64,192,63499,128,0,63999:0:0:0:0:
320,192,63562,1,0,0:0:0:0:
448,192,63687,1,0,0:0:0:0:
320,192,63749,1,0,0:0:0:0:
192,192,63812,1,0,0:0:0:0:
320,192,63874,1,0,0:0:0:0:
192,192,63937,1,0,0:0:0:0:
448,192,63999,128,0,64499:0:0:0:0:
320,192,63999,128,0,64499:0:0:0:0:
192,192,64499,128,0,64999:0:0:0:0:
64,192,64499,128,0,64999:0:0:0:0:
320,192,64999,128,0,65249:0:0:0:0:
448,192,64999,128,0,65499:0:0:0:0:
192,192,65249,128,0,65499:0:0:0:0:
64,192,65249,1,0,0:0:0:0:
64,192,65499,128,0,65999:0:0:0:0:
320,192,65499,128,0,65999:0:0:0:0:
448,192,65999,128,0,66249:0:0:0:0:
192,192,65999,128,0,66499:0:0:0:0:
320,192,66249,128,0,66749:0:0:0:0:
64,192,66249,1,0,0:0:0:0:
64,192,66499,128,0,66999:0:0:0:0:
448,192,66749,128,0,66999:0:0:0:0:
192,192,66749,1,0,0:0:0:0:
320,192,66999,128,0,67499:0:0:0:0:
192,192,66999,128,0,67499:0:0:0:0:
448,192,67499,128,0,67749:0:0:0:0:
64,192,67499,128,0,67999:0:0:0:0:
320,192,67749,128,0,67999:0:0:0:0:
192,192,67749,1,0,0:0:0:0:
192,192,67999,1,0,0:0:0:0:
448,192,67999,128,0,68499:0:0:0:0:
320,192,68124,1,0,0:0:0:0:
192,192,68249,1,0,0:0:0:0:
320,192,68374,1,0,0:0:0:0:
64,192,68499,128,0,68749:0:0:0:0:
320,192,68499,128,0,68999:0:0:0:0:
192,192,68749,128,0,68999:0:0:0:0:
64,192,68999,128,0,69249:0:0:0:0:
448,192,68999,128,0,69499:0:0:0:0:
192,192,69249,128,0,69499:0:0:0:0:
64,192,69499,128,0,69749:0:0:0:0:
320,192,69499,128,0,69999:0:0:0:0:
192,192,69749,1,0,0:0:0:0:
448,192,69999,1,0,0:0:0:0:
64,192,69999,128,0,70499:0:0:0:0:
192,192,70124,1,0,0:0:0:0:
448,192,70249,1,0,0:0:0:0:
320,192,70374,1,0,0:0:0:0:
448,192,70499,128,0,70749:0:0:0:0:
192,192,70499,128,0,70999:0:0:0:0:
320,192,70749,128,0,70999:0:0:0:0:
448,192,70999,128,0,71499:0:0:0:0:
64,192,70999,128,0,71499:0:0:0:0:
192,192,71499,128,0,71999:0:0:0:0:
320,192,71749,1,0,0:0:0:0:
448,192,71874,1,0,0:0:0:0:
64,192,71999,128,0,72562:0:0:0:0:
320,192,71999,1,0,0:0:0:0:
192,192,72249,1,0,0:0:0:0:
448,192,72499,1,0,0:0:0:0:
320,192,72562,1,0,0:0:0:0:
192,192,72624,1,0,0:0:0:0:
448,192,72687,1,0,0:0:0:0:
64,192,72749,1,0,0:0:0:0:
320,192,72780,1,0,0:0:0:0:
192,192,72937,1,0,0:0:0:0:
320,192,72999,1,0,0:0:0:0:
64,192,72999,1,0,0:0:0:0:
320,192,73249,1,0,0:0:0:0:
448,192,73249,1,0,0:0:0:0:
64,192,73374,1,0,0:0:0:0:
320,192,73499,1,0,0:0:0:0:
192,192,73499,1,0,0:0:0:0:
320,192,73749,1,0,0:0:0:0:
448,192,73749,1,0,0:0:0:0:
320,192,73999,128,0,74249:0:0:0:0:
64,192,73999,1,0,0:0:0:0:
192,192,74249,1,0,0:0:0:0:
320,192,74499,128,0,74749:0:0:0:0:
448,192,74499,1,0,0:0:0:0:
64,192,74749,1,0,0:0:0:0:
320,192,74999,128,0,75249:0:0:0:0:
192,192,74999,1,0,0:0:0:0:
64,192,75249,1,0,0:0:0:0:
320,192,75499,128,0,75749:0:0:0:0:
448,192,75499,1,0,0:0:0:0:
64,192,75624,1,0,0:0:0:0:
192,192,75749,1,0,0:0:0:0:
320,192,75874,1,0,0:0:0:0:
192,192,75999,1,0,0:0:0:0:
448,192,75999,1,0,0:0:0:0:
64,192,76062,1,0,0:0:0:0:
320,192,76124,1,0,0:0:0:0:
192,192,76187,1,0,0:0:0:0:
64,192,76249,1,0,0:0:0:0:
448,192,76249,1,0,0:0:0:0:
320,192,76437,1,0,0:0:0:0:
64,192,76499,1,0,0:0:0:0:
448,192,76530,1,0,0:0:0:0:
320,192,76624,1,0,0:0:0:0:
192,192,76687,1,0,0:0:0:0:
64,192,76749,1,0,0:0:0:0:
448,192,76780,1,0,0:0:0:0:
320,192,76937,1,0,0:0:0:0:
448,192,76999,128,0,77249:0:0:0:0:
192,192,76999,1,0,0:0:0:0:
320,192,77249,128,0,77499:0:0:0:0:
64,192,77249,1,0,0:0:0:0:
64,192,77374,1,0,0:0:0:0:
192,192,77499,128,0,77749:0:0:0:0:
448,192,77499,1,0,0:0:0:0:
64,192,77749,128,0,77999:0:0:0:0:
448,192,77749,1,0,0:0:0:0:
192,192,77999,128,0,78249:0:0:0:0:
320,192,77999,1,0,0:0:0:0:
320,192,78249,1,0,0:0:0:0:
192,192,78499,128,0,78749:0:0:0:0:
448,192,78499,1,0,0:0:0:0:
64,192,78749,1,0,0:0:0:0:
192,192,78999,128,0,79249:0:0:0:0:
64,192,78999,1,0,0:0:0:0:
448,192,79249,1,0,0:0:0:0:
192,192,79499,128,0,79749:0:0:0:0:
320,192,79499,1,0,0:0:0:0:
448,192,79749,1,0,0:0:0:0:
320,192,79999,1,0,0:0:0:0:
64,192,79999,1,0,0:0:0:0:
192,192,80124,1,0,0:0:0:0:
320,192,80249,1,0,0:0:0:0:
448,192,80249,1,0,0:0:0:0:
192,192,80374,1,0,0:0:0:0:
64,192,80499,1,0,0:0:0:0:
448,192,80499,1,0,0:0:0:0:
320,192,80624,1,0,0:0:0:0:
192,192,80749,128,0,80999:0:0:0:0:
64,192,80749,1,0,0:0:0:0:
448,192,80999,128,0,81249:0:0:0:0:
64,192,80999,1,0,0:0:0:0:
320,192,81249,128,0,81499:0:0:0:0:
192,192,81249,1,0,0:0:0:0:
64,192,81249,1,0,0:0:0:0:
192,192,81374,1,0,0:0:0:0:
64,192,81499,128,0,81999:0:0:0:0:
192,192,81499,1,0,0:0:0:0:
448,192,81499,1,0,0:0:0:0:
448,192,81749,1,0,0:0:0:0:
320,192,81999,1,0,0:0:0:0:
192,192,81999,1,0,0:0:0:0:
320,192,82249,1,0,0:0:0:0:
448,192,82249,1,0,0:0:0:0:
320,192,82499,1,0,0:0:0:0:
64,192,82499,1,0,0:0:0:0:
192,192,82749,128,0,82999:0:0:0:0:
448,192,82749,1,0,0:0:0:0:
320,192,82749,1,0,0:0:0:0:
64,192,82999,128,0,83499:0:0:0:0:
320,192,82999,1,0,0:0:0:0:
448,192,82999,1,0,0:0:0:0:
192,192,83249,1,0,0:0:0:0:
320,192,83499,128,0,83749:0:0:0:0:
448,192,83499,1,0,0:0:0:0:
192,192,83499,1,0,0:0:0:0:
192,192,83749,128,0,83999:0:0:0:0:
64,192,83749,1,0,0:0:0:0:
448,192,83749,1,0,0:0:0:0:
64,192,83999,128,0,84499:0:0:0:0:
320,192,83999,128,0,84249:0:0:0:0:
320,192,84499,128,0,84999:0:0:0:0:
192,192,84499,128,0,84749:0:0:0:0:
192,192,84999,128,0,85499:0:0:0:0:
64,192,84999,128,0,85249:0:0:0:0:
320,192,85499,128,0,85999:0:0:0:0:
448,192,85499,128,0,85749:0:0:0:0:
64,192,85999,128,0,87999:0:0:0:0:
448,192,85999,128,0,86499:0:0:0:0:
192,192,85999,128,0,86249:0:0:0:0:
192,192,86499,128,0,86999:0:0:0:0:
320,192,86499,128,0,86749:0:0:0:0:
448,192,86999,128,0,87499:0:0:0:0:
320,192,86999,128,0,87249:0:0:0:0:
320,192,87499,128,0,87999:0:0:0:0:
192,192,87499,128,0,87749:0:0:0:0:
448,192,87999,1,0,0:0:0:0:
192,192,87999,1,0,0:0:0:0:
192,192,88124,1,0,0:0:0:0:
448,192,88249,1,0,0:0:0:0:
192,192,88374,1,0,0:0:0:0:
448,192,88499,1,0,0:0:0:0:
320,192,88499,1,0,0:0:0:0:
192,192,88624,1,0,0:0:0:0:
448,192,88749,1,0,0:0:0:0:
192,192,88874,1,0,0:0:0:0:
448,192,88999,1,0,0:0:0:0:
64,192,88999,1,0,0:0:0:0:
192,192,89124,1,0,0:0:0:0:
448,192,89249,1,0,0:0:0:0:
192,192,89374,1,0,0:0:0:0:
448,192,89499,1,0,0:0:0:0:
320,192,89499,1,0,0:0:0:0:
192,192,89624,1,0,0:0:0:0:
448,192,89749,1,0,0:0:0:0:
192,192,89874,1,0,0:0:0:0:
448,192,89999,1,0,0:0:0:0:
64,192,89999,1,0,0:0:0:0:
192,192,90124,1,0,0:0:0:0:
448,192,90249,1,0,0:0:0:0:
192,192,90374,1,0,0:0:0:0:
448,192,90499,1,0,0:0:0:0:
320,192,90499,1,0,0:0:0:0:
192,192,90624,1,0,0:0:0:0:
448,192,90749,1,0,0:0:0:0:
192,192,90874,1,0,0:0:0:0:
64,192,90999,1,0,0:0:0:0:
448,192,90999,1,0,0:0:0:0:
320,192,91124,1,0,0:0:0:0:
64,192,91249,1,0,0:0:0:0:
320,192,91374,1,0,0:0:0:0:
64,192,91499,1,0,0:0:0:0:
192,192,91499,1,0,0:0:0:0:
320,192,91624,1,0,0:0:0:0:
64,192,91749,1,0,0:0:0:0:
320,192,91874,1,0,0:0:0:0:
448,192,91999,1,0,0:0:0:0:
192,192,91999,1,0,0:0:0:0:
320,192,92124,1,0,0:0:0:0:
64,192,92249,1,0,0:0:0:0:
192,192,92374,1,0,0:0:0:0:
448,192,92499,1,0,0:0:0:0:
64,192,92499,1,0,0:0:0:0:
320,192,92624,1,0,0:0:0:0:
64,192,92749,1,0,0:0:0:0:
192,192,92874,1,0,0:0:0:0:
448,192,92999,1,0,0:0:0:0:
64,192,92999,1,0,0:0:0:0:
320,192,93124,1,0,0:0:0:0:
64,192,93249,1,0,0:0:0:0:
192,192,93374,1,0,0:0:0:0:
448,192,93499,1,0,0:0:0:0:
64,192,93499,1,0,0:0:0:0:
320,192,93624,1,0,0:0:0:0:
64,192,93749,1,0,0:0:0:0:
192,192,93874,1,0,0:0:0:0:
448,192,93999,1,0,0:0:0:0:
64,192,93999,1,0,0:0:0:0:
320,192,94124,1,0,0:0:0:0:
64,192,94249,1,0,0:0:0:0:
192,192,94374,1,0,0:0:0:0:
448,192,94499,1,0,0:0:0:0:
64,192,94499,1,0,0:0:0:0:
320,192,94624,1,0,0:0:0:0:
64,192,94749,1,0,0:0:0:0:
192,192,94874,1,0,0:0:0:0:
448,192,94999,1,0,0:0:0:0:
64,192,94999,1,0,0:0:0:0:
320,192,95124,1,0,0:0:0:0:
192,192,95249,1,0,0:0:0:0:
64,192,95374,1,0,0:0:0:0:
448,192,95499,1,0,0:0:0:0:
192,192,95499,1,0,0:0:0:0:
320,192,95624,1,0,0:0:0:0:
192,192,95749,1,0,0:0:0:0:
64,192,95874,1,0,0:0:0:0:
320,192,95999,1,0,0:0:0:0:
192,192,95999,1,0,0:0:0:0:
448,192,96124,1,0,0:0:0:0:
192,192,96249,1,0,0:0:0:0:
64,192,96374,1,0,0:0:0:0:
320,192,96499,1,0,0:0:0:0:
192,192,96499,1,0,0:0:0:0:
448,192,96624,1,0,0:0:0:0:
192,192,96749,1,0,0:0:0:0:
64,192,96874,1,0,0:0:0:0:
320,192,96999,1,0,0:0:0:0:
192,192,96999,1,0,0:0:0:0:
448,192,97124,1,0,0:0:0:0:
192,192,97249,1,0,0:0:0:0:
64,192,97374,1,0,0:0:0:0:
320,192,97499,1,0,0:0:0:0:
192,192,97499,1,0,0:0:0:0:
448,192,97624,1,0,0:0:0:0:
192,192,97749,1,0,0:0:0:0:
64,192,97874,1,0,0:0:0:0:
320,192,97999,1,0,0:0:0:0:
448,192,97999,1,0,0:0:0:0:
64,192,98124,1,0,0:0:0:0:
448,192,98249,1,0,0:0:0:0:
192,192,98374,1,0,0:0:0:0:
320,192,98499,1,0,0:0:0:0:
448,192,98499,1,0,0:0:0:0:
64,192,98624,1,0,0:0:0:0:
448,192,98749,1,0,0:0:0:0:
192,192,98874,1,0,0:0:0:0:
320,192,98999,1,0,0:0:0:0:
448,192,98999,1,0,0:0:0:0:
64,192,99124,1,0,0:0:0:0:
448,192,99249,1,0,0:0:0:0:
192,192,99374,1,0,0:0:0:0:
320,192,99499,1,0,0:0:0:0:
448,192,99499,1,0,0:0:0:0:
64,192,99624,1,0,0:0:0:0:
448,192,99749,1,0,0:0:0:0:
192,192,99874,1,0,0:0:0:0:
320,192,99999,128,0,101749:0:0:0:0:
64,192,99999,1,0,0:0:0:0:
448,192,99999,1,0,0:0:0:0:
192,192,100124,1,0,0:0:0:0:
64,192,100249,1,0,0:0:0:0:
448,192,100249,1,0,0:0:0:0:
192,192,100374,1,0,0:0:0:0:
448,192,100499,128,0,101749:0:0:0:0:
64,192,100499,1,0,0:0:0:0:
192,192,100749,1,0,0:0:0:0:
192,192,100999,1,0,0:0:0:0:
64,192,101249,1,0,0:0:0:0:
192,192,101374,1,0,0:0:0:0:
64,192,101499,1,0,0:0:0:0:
64,192,101749,1,0,0:0:0:0:
192,192,101749,1,0,0:0:0:0:
192,192,101874,1,0,0:0:0:0:
320,192,101999,128,0,103999:0:0:0:0:
64,192,101999,1,0,0:0:0:0:
448,192,101999,1,0,0:0:0:0:
192,192,102124,1,0,0:0:0:0:
64,192,102249,1,0,0:0:0:0:
448,192,102249,1,0,0:0:0:0:
192,192,102374,1,0,0:0:0:0:
448,192,102499,128,0,103999:0:0:0:0:
64,192,102499,1,0,0:0:0:0:
192,192,102749,1,0,0:0:0:0:
192,192,102999,1,0,0:0:0:0:
64,192,103249,1,0,0:0:0:0:
192,192,103374,1,0,0:0:0:0:
64,192,103499,1,0,0:0:0:0:
192,192,103624,1,0,0:0:0:0:
64,192,103749,1,0,0:0:0:0:
64,192,103999,128,0,107249:0:0:0:0:
192,192,103999,1,0,0:0:0:0:
448,192,104124,1,0,0:0:0:0:
320,192,104249,1,0,0:0:0:0:
192,192,104374,1,0,0:0:0:0:
320,192,104499,1,0,0:0:0:0:
448,192,104624,1,0,0:0:0:0:
320,192,104749,1,0,0:0:0:0:
192,192,104874,1,0,0:0:0:0:
320,192,104999,1,0,0:0:0:0:
448,192,105124,1,0,0:0:0:0:
320,192,105249,1,0,0:0:0:0:
192,192,105374,1,0,0:0:0:0:
320,192,105499,1,0,0:0:0:0:
448,192,105624,1,0,0:0:0:0:
320,192,105749,1,0,0:0:0:0:
192,192,105874,1,0,0:0:0:0:
320,192,105999,1,0,0:0:0:0:
448,192,106124,1,0,0:0:0:0:
320,192,106249,1,0,0:0:0:0:
192,192,106374,1,0,0:0:0:0:
320,192,106499,1,0,0:0:0:0:
448,192,106624,1,0,0:0:0:0:
320,192,106749,1,0,0:0:0:0:
192,192,106874,1,0,0:0:0:0:
448,192,106999,1,0,0:0:0:0:
320,192,107124,1,0,0:0:0:0:
192,192,107249,1,0,0:0:0:0:
448,192,107249,1,0,0:0:0:0:
320,192,107374,1,0,0:0:0:0:
192,192,107374,1,0,0:0:0:0:
64,192,107499,1,0,0:0:0:0:
320,192,107499,1,0,0:0:0:0:
448,192,107624,1,0,0:0:0:0:
64,192,107624,1,0,0:0:0:0:
320,192,107749,1,0,0:0:0:0:
192,192,107749,1,0,0:0:0:0:
64,192,107874,1,0,0:0:0:0:
448,192,107874,1,0,0:0:0:0:
320,192,107999,128,0,109249:0:0:0:0:
192,192,107999,1,0,0:0:0:0:
64,192,108124,1,0,0:0:0:0:
448,192,108249,1,0,0:0:0:0:
64,192,108374,1,0,0:0:0:0:
192,192,108499,1,0,0:0:0:0:
64,192,108624,1,0,0:0:0:0:
448,192,108749,1,0,0:0:0:0:
64,192,108874,1,0,0:0:0:0:
192,192,108999,1,0,0:0:0:0:
64,192,109124,1,0,0:0:0:0:
192,192,109249,128,0,109499:0:0:0:0:
448,192,109249,1,0,0:0:0:0:
64,192,109374,1,0,0:0:0:0:
448,192,109499,128,0,109999:0:0:0:0:
320,192,109499,1,0,0:0:0:0:
64,192,109624,1,0,0:0:0:0:
320,192,109749,1,0,0:0:0:0:
64,192,109874,1,0,0:0:0:0:
320,192,109999,128,0,110499:0:0:0:0:
192,192,109999,1,0,0:0:0:0:
64,192,110124,1,0,0:0:0:0:
448,192,110249,1,0,0:0:0:0:
192,192,110374,1,0,0:0:0:0:
64,192,110499,128,0,110999:0:0:0:0:
448,192,110499,1,0,0:0:0:0:
192,192,110624,1,0,0:0:0:0:
320,192,110749,1,0,0:0:0:0:
192,192,110874,1,0,0:0:0:0:
448,192,110999,128,0,111499:0:0:0:0:
320,192,110999,1,0,0:0:0:0:
192,192,111124,1,0,0:0:0:0:
64,192,111249,1,0,0:0:0:0:
320,192,111374,1,0,0:0:0:0:
192,192,111499,128,0,111999:0:0:0:0:
64,192,111499,1,0,0:0:0:0:
320,192,111624,1,0,0:0:0:0:
448,192,111749,1,0,0:0:0:0:
320,192,111874,1,0,0:0:0:0:
64,192,111999,128,0,112249:0:0:0:0:
448,192,111999,1,0,0:0:0:0:
320,192,112124,1,0,0:0:0:0:
192,192,112249,1,0,0:0:0:0:
448,192,112249,1,0,0:0:0:0:
320,192,112374,1,0,0:0:0:0:
192,192,112374,1,0,0:0:0:0:
320,192,112499,128,0,113749:0:0:0:0:
64,192,112499,1,0,0:0:0:0:
448,192,112624,1,0,0:0:0:0:
64,192,112749,1,0,0:0:0:0:
448,192,112874,1,0,0:0:0:0:
192,192,112999,1,0,0:0:0:0:
64,192,113124,1,0,0:0:0:0:
448,192,113249,1,0,0:0:0:0:
64,192,113374,1,0,0:0:0:0:
192,192,113499,1,0,0:0:0:0:
64,192,113624,1,0,0:0:0:0:
448,192,113749,128,0,113999:0:0:0:0:
192,192,113749,1,0,0:0:0:0:
64,192,113874,1,0,0:0:0:0:
192,192,113999,128,0,114499:0:0:0:0:
320,192,113999,1,0,0:0:0:0:
64,192,114124,1,0,0:0:0:0:
320,192,114249,1,0,0:0:0:0:
448,192,114374,1,0,0:0:0:0:
64,192,114499,128,0,114999:0:0:0:0:
320,192,114499,1,0,0:0:0:0:
448,192,114624,1,0,0:0:0:0:
320,192,114749,1,0,0:0:0:0:
192,192,114874,1,0,0:0:0:0:
320,192,114999,128,0,115499:0:0:0:0:
448,192,114999,1,0,0:0:0:0:
192,192,115124,1,0,0:0:0:0:
64,192,115249,1,0,0:0:0:0:
448,192,115374,1,0,0:0:0:0:
192,192,115499,128,0,115999:0:0:0:0:
64,192,115499,1,0,0:0:0:0:
448,192,115624,1,0,0:0:0:0:
320,192,115749,1,0,0:0:0:0:
448,192,115874,1,0,0:0:0:0:
64,192,115999,1,0,0:0:0:0:
320,192,115999,1,0,0:0:0:0:
448,192,116124,1,0,0:0:0:0:
64,192,116249,1,0,0:0:0:0:
192,192,116249,1,0,0:0:0:0:
448,192,116374,1,0,0:0:0:0:
64,192,116499,128,0,117749:0:0:0:0:
320,192,116499,128,0,117749:0:0:0:0:
192,192,116499,1,0,0:0:0:0:
448,192,116749,1,0,0:0:0:0:
448,192,116999,128,0,117749:0:0:0:0:
192,192,116999,1,0,0:0:0:0:
192,192,117249,1,0,0:0:0:0:
192,192,117374,1,0,0:0:0:0:
192,192,117499,1,0,0:0:0:0:
192,192,117749,1,0,0:0:0:0:
64,192,117874,1,0,0:0:0:0:
192,192,117999,1,0,0:0:0:0:
320,192,117999,128,0,119999:0:0:0:0:
448,192,117999,1,0,0:0:0:0:
64,192,118124,1,0,0:0:0:0:
192,192,118249,1,0,0:0:0:0:
448,192,118249,1,0,0:0:0:0:
64,192,118374,1,0,0:0:0:0:
448,192,118499,128,0,119999:0:0:0:0:
192,192,118499,1,0,0:0:0:0:
64,192,118749,1,0,0:0:0:0:
192,192,118999,1,0,0:0:0:0:
64,192,119249,1,0,0:0:0:0:
192,192,119374,1,0,0:0:0:0:
64,192,119499,1,0,0:0:0:0:
192,192,119624,1,0,0:0:0:0:
64,192,119749,1,0,0:0:0:0:
64,192,119999,128,0,120562:0:0:0:0:
192,192,119999,1,0,0:0:0:0:
320,192,120124,128,0,120374:0:0:0:0:
320,192,120562,1,0,0:0:0:0:
192,192,120624,1,0,0:0:0:0:
448,192,120624,128,0,120874:0:0:0:0:
64,192,120687,1,0,0:0:0:0:
192,192,120749,1,0,0:0:0:0:
320,192,120780,1,0,0:0:0:0:
192,192,120937,1,0,0:0:0:0:
320,192,120999,1,0,0:0:0:0:
448,192,121124,1,0,0:0:0:0:
64,192,121124,128,0,121374:0:0:0:0:
320,192,121249,1,0,0:0:0:0:
192,192,121499,128,0,121749:0:0:0:0:
448,192,121624,128,0,121874:0:0:0:0:
320,192,121749,128,0,121999:0:0:0:0:
64,192,122124,128,0,122374:0:0:0:0:
192,192,122249,128,0,122499:0:0:0:0:
320,192,122499,128,0,122749:0:0:0:0:
448,192,122624,128,0,122874:0:0:0:0:
320,192,122999,1,0,0:0:0:0:
64,192,123124,1,0,0:0:0:0:
192,192,123124,128,0,123374:0:0:0:0:
320,192,123249,1,0,0:0:0:0:
448,192,123374,1,0,0:0:0:0:
320,192,123499,1,0,0:0:0:0:
64,192,123624,128,0,123874:0:0:0:0:
320,192,123749,1,0,0:0:0:0:
192,192,123999,1,0,0:0:0:0:
64,192,124062,1,0,0:0:0:0:
320,192,124124,1,0,0:0:0:0:
448,192,124124,128,0,124374:0:0:0:0:
192,192,124187,1,0,0:0:0:0:
320,192,124249,1,0,0:0:0:0:
64,192,124437,1,0,0:0:0:0:
320,192,124499,128,0,124749:0:0:0:0:
448,192,124624,128,0,124874:0:0:0:0:
192,192,124749,128,0,124999:0:0:0:0:
64,192,124999,128,0,125249:0:0:0:0:
448,192,125124,128,0,125374:0:0:0:0:
320,192,125249,128,0,125499:0:0:0:0:
192,192,125499,1,0,0:0:0:0:
64,192,125624,1,0,0:0:0:0:
192,192,125624,128,0,125874:0:0:0:0:
320,192,125749,1,0,0:0:0:0:
448,192,125874,1,0,0:0:0:0:
320,192,125999,1,0,0:0:0:0:
64,192,126124,1,0,0:0:0:0:
448,192,126124,128,0,126374:0:0:0:0:
320,192,126249,1,0,0:0:0:0:
64,192,126374,1,0,0:0:0:0:
192,192,126499,1,0,0:0:0:0:
64,192,126624,1,0,0:0:0:0:
320,192,126624,128,0,126874:0:0:0:0:
192,192,126749,1,0,0:0:0:0:
64,192,126874,1,0,0:0:0:0:
192,192,126999,128,0,127249:0:0:0:0:
448,192,127124,128,0,127374:0:0:0:0:
64,192,127249,1,0,0:0:0:0:
320,192,127312,1,0,0:0:0:0:
192,192,127374,1,0,0:0:0:0:
64,192,127437,1,0,0:0:0:0:
192,192,127499,1,0,0:0:0:0:
320,192,127562,1,0,0:0:0:0:
64,192,127624,128,0,127874:0:0:0:0:
448,192,127687,1,0,0:0:0:0:
192,192,127749,1,0,0:0:0:0:
320,192,127812,1,0,0:0:0:0:
448,192,127874,1,0,0:0:0:0:
192,192,127937,1,0,0:0:0:0:
448,192,127999,128,0,128499:0:0:0:0:
64,192,128124,1,0,0:0:0:0:
320,192,128249,128,0,128499:0:0:0:0:
192,192,128499,128,0,128999:0:0:0:0:
64,192,128499,1,0,0:0:0:0:
64,192,128624,128,0,128874:0:0:0:0:
448,192,128874,1,0,0:0:0:0:
320,192,128999,128,0,129249:0:0:0:0:
448,192,128999,128,0,129249:0:0:0:0:
192,192,129249,128,0,129499:0:0:0:0:
64,192,129249,1,0,0:0:0:0:
320,192,129374,128,0,129624:0:0:0:0:
64,192,129499,128,0,129999:0:0:0:0:
448,192,129499,1,0,0:0:0:0:
448,192,129624,1,0,0:0:0:0:
448,192,129749,128,0,129999:0:0:0:0:
320,192,129999,128,0,130249:0:0:0:0:
192,192,129999,1,0,0:0:0:0:
64,192,130124,128,0,130374:0:0:0:0:
192,192,130249,128,0,130749:0:0:0:0:
448,192,130249,1,0,0:0:0:0:
448,192,130374,1,0,0:0:0:0:
320,192,130499,128,0,130749:0:0:0:0:
448,192,130749,128,0,130999:0:0:0:0:
64,192,130749,1,0,0:0:0:0:
64,192,130874,128,0,131124:0:0:0:0:
192,192,130999,1,0,0:0:0:0:
320,192,130999,128,0,131499:0:0:0:0:
192,192,131124,1,0,0:0:0:0:
448,192,131249,128,0,131499:0:0:0:0:
192,192,131499,128,0,131749:0:0:0:0:
64,192,131499,1,0,0:0:0:0:
320,192,131624,128,0,131874:0:0:0:0:
64,192,131749,128,0,131999:0:0:0:0:
448,192,131749,1,0,0:0:0:0:
448,192,131874,1,0,0:0:0:0:
448,192,131999,1,0,0:0:0:0:
320,192,131999,128,0,132249:0:0:0:0:
64,192,132124,1,0,0:0:0:0:
192,192,132249,1,0,0:0:0:0:
448,192,132249,1,0,0:0:0:0:
192,192,132374,1,0,0:0:0:0:
448,192,132374,128,0,132624:0:0:0:0:
64,192,132499,128,0,132749:0:0:0:0:
320,192,132624,1,0,0:0:0:0:
192,192,132749,128,0,132999:0:0:0:0:
320,192,132749,128,0,132999:0:0:0:0:
64,192,132999,128,0,133249:0:0:0:0:
448,192,132999,1,0,0:0:0:0:
320,192,133124,128,0,133374:0:0:0:0:
192,192,133249,128,0,133499:0:0:0:0:
448,192,133374,1,0,0:0:0:0:
64,192,133499,128,0,133749:0:0:0:0:
448,192,133499,128,0,133749:0:0:0:0:
320,192,133749,1,0,0:0:0:0:
192,192,133749,1,0,0:0:0:0:
192,192,133874,1,0,0:0:0:0:
64,192,133874,128,0,134124:0:0:0:0:
448,192,133999,1,0,0:0:0:0:
320,192,134124,1,0,0:0:0:0:
192,192,134124,1,0,0:0:0:0:
448,192,134249,1,0,0:0:0:0:
192,192,134249,128,0,134499:0:0:0:0:
320,192,134374,1,0,0:0:0:0:
448,192,134499,128,0,134749:0:0:0:0:
64,192,134499,1,0,0:0:0:0:
64,192,134624,128,0,134874:0:0:0:0:
320,192,134749,128,0,134999:0:0:0:0:
192,192,134874,1,0,0:0:0:0:
448,192,134999,128,0,135499:0:0:0:0:
192,192,134999,128,0,135249:0:0:0:0:
320,192,135249,1,0,0:0:0:0:
64,192,135374,128,0,135624:0:0:0:0:
192,192,135624,1,0,0:0:0:0:
320,192,135749,1,0,0:0:0:0:
192,192,135749,128,0,135999:0:0:0:0:
448,192,135874,1,0,0:0:0:0:
64,192,135999,128,0,136562:0:0:0:0:
320,192,135999,1,0,0:0:0:0:
448,192,136124,1,0,0:0:0:0:
192,192,136249,1,0,0:0:0:0:
448,192,136374,1,0,0:0:0:0:
320,192,136562,1,0,0:0:0:0:
192,192,136624,1,0,0:0:0:0:
448,192,136687,1,0,0:0:0:0:
192,192,136749,1,0,0:0:0:0:
320,192,136780,1,0,0:0:0:0:
448,192,136874,1,0,0:0:0:0:
192,192,136937,1,0,0:0:0:0:
320,192,136999,1,0,0:0:0:0:
192,192,137124,1,0,0:0:0:0:
64,192,137124,1,0,0:0:0:0:
320,192,137249,1,0,0:0:0:0:
448,192,137249,1,0,0:0:0:0:
64,192,137374,1,0,0:0:0:0:
192,192,137499,128,0,137749:0:0:0:0:
320,192,137624,1,0,0:0:0:0:
320,192,137749,128,0,137999:0:0:0:0:
448,192,137749,1,0,0:0:0:0:
64,192,137874,1,0,0:0:0:0:
64,192,138124,1,0,0:0:0:0:
192,192,138249,128,0,138499:0:0:0:0:
320,192,138249,1,0,0:0:0:0:
64,192,138374,1,0,0:0:0:0:
320,192,138499,128,0,138749:0:0:0:0:
448,192,138624,1,0,0:0:0:0:
192,192,138749,1,0,0:0:0:0:
448,192,138874,1,0,0:0:0:0:
320,192,138999,1,0,0:0:0:0:
192,192,139124,1,0,0:0:0:0:
64,192,139124,1,0,0:0:0:0:
320,192,139249,1,0,0:0:0:0:
192,192,139249,1,0,0:0:0:0:
192,192,139374,1,0,0:0:0:0:
448,192,139374,1,0,0:0:0:0:
320,192,139499,1,0,0:0:0:0:
64,192,139624,1,0,0:0:0:0:
320,192,139749,1,0,0:0:0:0:
448,192,139749,1,0,0:0:0:0:
192,192,139874,1,0,0:0:0:0:
64,192,140062,1,0,0:0:0:0:
448,192,140124,1,0,0:0:0:0:
320,192,140124,1,0,0:0:0:0:
64,192,140187,1,0,0:0:0:0:
192,192,140249,1,0,0:0:0:0:
320,192,140249,1,0,0:0:0:0:
448,192,140374,1,0,0:0:0:0:
64,192,140437,1,0,0:0:0:0:
320,192,140499,128,0,140749:0:0:0:0:
64,192,140624,1,0,0:0:0:0:
192,192,140749,128,0,140999:0:0:0:0:
64,192,140749,1,0,0:0:0:0:
448,192,140874,1,0,0:0:0:0:
64,192,140999,128,0,141249:0:0:0:0:
320,192,141124,1,0,0:0:0:0:
320,192,141249,128,0,141499:0:0:0:0:
192,192,141249,1,0,0:0:0:0:
64,192,141374,1,0,0:0:0:0:
448,192,141499,1,0,0:0:0:0:
192,192,141624,1,0,0:0:0:0:
320,192,141624,1,0,0:0:0:0:
448,192,141749,1,0,0:0:0:0:
320,192,141749,1,0,0:0:0:0:
192,192,141874,1,0,0:0:0:0:
64,192,141874,1,0,0:0:0:0:
320,192,141999,1,0,0:0:0:0:
448,192,142124,1,0,0:0:0:0:
192,192,142124,1,0,0:0:0:0:
320,192,142249,1,0,0:0:0:0:
192,192,142249,1,0,0:0:0:0:
448,192,142374,1,0,0:0:0:0:
320,192,142374,1,0,0:0:0:0:
192,192,142499,1,0,0:0:0:0:
64,192,142624,1,0,0:0:0:0:
448,192,142624,1,0,0:0:0:0:
192,192,142749,1,0,0:0:0:0:
320,192,142749,1,0,0:0:0:0:
64,192,142874,1,0,0:0:0:0:
448,192,142874,1,0,0:0:0:0:
192,192,142999,128,0,143249:0:0:0:0:
320,192,143124,1,0,0:0:0:0:
64,192,143249,1,0,0:0:0:0:
448,192,143312,1,0,0:0:0:0:
192,192,143374,1,0,0:0:0:0:
320,192,143374,1,0,0:0:0:0:
64,192,143437,1,0,0:0:0:0:
320,192,143499,1,0,0:0:0:0:
448,192,143562,1,0,0:0:0:0:
192,192,143624,1,0,0:0:0:0:
64,192,143687,1,0,0:0:0:0:
448,192,143749,1,0,0:0:0:0:
320,192,143749,1,0,0:0:0:0:
64,192,143812,1,0,0:0:0:0:
320,192,143874,1,0,0:0:0:0:
192,192,143874,1,0,0:0:0:0:
64,192,143937,1,0,0:0:0:0:
448,192,143999,128,0,144499:0:0:0:0:
320,192,143999,1,0,0:0:0:0:
64,192,144124,1,0,0:0:0:0:
64,192,144249,128,0,144499:0:0:0:0:
192,192,144499,128,0,144999:0:0:0:0:
320,192,144499,1,0,0:0:0:0:
448,192,144624,128,0,144874:0:0:0:0:
64,192,144874,1,0,0:0:0:0:
320,192,144999,128,0,145249:0:0:0:0:
448,192,144999,128,0,145249:0:0:0:0:
192,192,145249,128,0,145499:0:0:0:0:
64,192,145249,1,0,0:0:0:0:
320,192,145374,128,0,145624:0:0:0:0:
64,192,145499,128,0,145999:0:0:0:0:
448,192,145499,1,0,0:0:0:0:
192,192,145624,1,0,0:0:0:0:
448,192,145749,128,0,145999:0:0:0:0:
320,192,145999,128,0,146249:0:0:0:0:
192,192,145999,1,0,0:0:0:0:
64,192,146124,128,0,146374:0:0:0:0:
192,192,146249,128,0,146749:0:0:0:0:
448,192,146249,1,0,0:0:0:0:
448,192,146374,1,0,0:0:0:0:
320,192,146499,128,0,146749:0:0:0:0:
448,192,146749,128,0,146999:0:0:0:0:
64,192,146749,1,0,0:0:0:0:
64,192,146874,1,0,0:0:0:0:
192,192,146999,1,0,0:0:0:0:
320,192,146999,128,0,147499:0:0:0:0:
64,192,146999,128,0,147249:0:0:0:0:
448,192,147249,1,0,0:0:0:0:
448,192,147374,128,0,147624:0:0:0:0:
192,192,147499,128,0,147749:0:0:0:0:
64,192,147499,1,0,0:0:0:0:
320,192,147624,1,0,0:0:0:0:
64,192,147749,128,0,147999:0:0:0:0:
448,192,147749,1,0,0:0:0:0:
320,192,147749,128,0,147999:0:0:0:0:
192,192,147999,1,0,0:0:0:0:
448,192,147999,128,0,148249:0:0:0:0:
192,192,148124,1,0,0:0:0:0:
64,192,148249,1,0,0:0:0:0:
320,192,148249,128,0,148499:0:0:0:0:
192,192,148374,1,0,0:0:0:0:
64,192,148499,128,0,148749:0:0:0:0:
448,192,148499,128,0,148749:0:0:0:0:
192,192,148749,128,0,148999:0:0:0:0:
320,192,148749,128,0,148999:0:0:0:0:
64,192,148999,128,0,149249:0:0:0:0:
448,192,148999,128,0,149249:0:0:0:0:
192,192,149249,128,0,149499:0:0:0:0:
320,192,149249,128,0,149499:0:0:0:0:
64,192,149499,128,0,149749:0:0:0:0:
448,192,149499,128,0,149749:0:0:0:0:
320,192,149749,1,0,0:0:0:0:
192,192,149749,128,0,149999:0:0:0:0:
320,192,149874,1,0,0:0:0:0:
448,192,149999,1,0,0:0:0:0:
64,192,149999,128,0,150249:0:0:0:0:
320,192,150124,1,0,0:0:0:0:
448,192,150249,1,0,0:0:0:0:
192,192,150249,128,0,150499:0:0:0:0:
320,192,150374,1,0,0:0:0:0:
448,192,150499,128,0,150749:0:0:0:0:
64,192,150499,128,0,150749:0:0:0:0:
320,192,150749,128,0,150999:0:0:0:0:
192,192,150749,128,0,150999:0:0:0:0:
448,192,150999,128,0,151499:0:0:0:0:
64,192,150999,128,0,151249:0:0:0:0:
320,192,151249,128,0,151499:0:0:0:0:
192,192,151499,128,0,151749:0:0:0:0:
320,192,151749,1,0,0:0:0:0:
64,192,151749,128,0,151999:0:0:0:0:
448,192,151874,1,0,0:0:0:0:
192,192,151999,128,0,152124:0:0:0:0:
320,192,151999,1,0,0:0:0:0:
448,192,152124,1,0,0:0:0:0:
64,192,152249,1,0,0:0:0:0:
320,192,152374,128,0,152624:0:0:0:0:
192,192,152499,1,0,0:0:0:0:
448,192,152499,1,0,0:0:0:0:
64,192,152624,1,0,0:0:0:0:
192,192,152749,1,0,0:0:0:0:
64,192,152874,128,0,153124:0:0:0:0:
320,192,152999,1,0,0:0:0:0:
448,192,152999,1,0,0:0:0:0:
192,192,153124,1,0,0:0:0:0:
320,192,153249,1,0,0:0:0:0:
448,192,153374,128,0,153624:0:0:0:0:
192,192,153499,1,0,0:0:0:0:
320,192,153499,1,0,0:0:0:0:
64,192,153624,1,0,0:0:0:0:
192,192,153749,1,0,0:0:0:0:
320,192,153874,128,0,154124:0:0:0:0:
192,192,153999,1,0,0:0:0:0:
448,192,153999,1,0,0:0:0:0:
64,192,154124,1,0,0:0:0:0:
192,192,154249,1,0,0:0:0:0:
64,192,154374,128,0,154624:0:0:0:0:
320,192,154499,1,0,0:0:0:0:
448,192,154499,1,0,0:0:0:0:
192,192,154624,1,0,0:0:0:0:
320,192,154749,1,0,0:0:0:0:
192,192,154874,128,0,155124:0:0:0:0:
64,192,154999,1,0,0:0:0:0:
448,192,154999,1,0,0:0:0:0:
320,192,155124,1,0,0:0:0:0:
64,192,155249,1,0,0:0:0:0:
448,192,155374,128,0,155624:0:0:0:0:
320,192,155499,1,0,0:0:0:0:
64,192,155499,1,0,0:0:0:0:
192,192,155624,1,0,0:0:0:0:
64,192,155749,1,0,0:0:0:0:
192,192,155874,128,0,156124:0:0:0:0:
320,192,155999,1,0,0:0:0:0:
448,192,155999,1,0,0:0:0:0:
64,192,156124,1,0,0:0:0:0:
320,192,156249,1,0,0:0:0:0:
64,192,156374,128,0,156624:0:0:0:0:
320,192,156499,1,0,0:0:0:0:
448,192,156499,1,0,0:0:0:0:
192,192,156624,1,0,0:0:0:0:
448,192,156749,1,0,0:0:0:0:
320,192,156874,128,0,157124:0:0:0:0:
64,192,156999,1,0,0:0:0:0:
192,192,156999,1,0,0:0:0:0:
448,192,157124,1,0,0:0:0:0:
64,192,157249,1,0,0:0:0:0:
192,192,157374,128,0,157624:0:0:0:0:
320,192,157499,1,0,0:0:0:0:
448,192,157499,1,0,0:0:0:0:
64,192,157624,1,0,0:0:0:0:
320,192,157749,1,0,0:0:0:0:
64,192,157874,128,0,158124:0:0:0:0:
320,192,157999,1,0,0:0:0:0:
448,192,157999,1,0,0:0:0:0:
192,192,158124,1,0,0:0:0:0:
320,192,158249,1,0,0:0:0:0:
448,192,158374,128,0,158624:0:0:0:0:
64,192,158499,1,0,0:0:0:0:
320,192,158499,1,0,0:0:0:0:
192,192,158624,1,0,0:0:0:0:
64,192,158749,1,0,0:0:0:0:
320,192,158874,128,0,159124:0:0:0:0:
192,192,158999,1,0,0:0:0:0:
448,192,158999,1,0,0:0:0:0:
64,192,159124,1,0,0:0:0:0:
448,192,159249,1,0,0:0:0:0:
64,192,159374,128,0,159624:0:0:0:0:
192,192,159499,1,0,0:0:0:0:
448,192,159499,1,0,0:0:0:0:
320,192,159624,1,0,0:0:0:0:
448,192,159749,1,0,0:0:0:0:
192,192,159874,128,0,160124:0:0:0:0:
64,192,159999,1,0,0:0:0:0:
448,192,159999,1,0,0:0:0:0:
320,192,160124,1,0,0:0:0:0:
64,192,160249,1,0,0:0:0:0:
320,192,160374,128,0,160624:0:0:0:0:
192,192,160499,1,0,0:0:0:0:
448,192,160499,1,0,0:0:0:0:
64,192,160624,1,0,0:0:0:0:
192,192,160749,1,0,0:0:0:0:
448,192,160874,128,0,161124:0:0:0:0:
64,192,160999,1,0,0:0:0:0:
192,192,160999,1,0,0:0:0:0:
320,192,161124,1,0,0:0:0:0:
64,192,161249,1,0,0:0:0:0:
192,192,161374,128,0,161624:0:0:0:0:
320,192,161499,1,0,0:0:0:0:
448,192,161499,1,0,0:0:0:0:
64,192,161624,1,0,0:0:0:0:
448,192,161749,1,0,0:0:0:0:
320,192,161874,128,0,162124:0:0:0:0:
64,192,161999,1,0,0:0:0:0:
448,192,161999,1,0,0:0:0:0:
192,192,162124,1,0,0:0:0:0:
64,192,162249,1,0,0:0:0:0:
448,192,162374,128,0,162624:0:0:0:0:
192,192,162499,1,0,0:0:0:0:
64,192,162499,1,0,0:0:0:0:
320,192,162624,1,0,0:0:0:0:
192,192,162749,1,0,0:0:0:0:
64,192,162874,128,0,163124:0:0:0:0:
320,192,162999,1,0,0:0:0:0:
448,192,162999,1,0,0:0:0:0:
192,192,163124,1,0,0:0:0:0:
320,192,163249,1,0,0:0:0:0:
192,192,163374,128,0,163624:0:0:0:0:
320,192,163499,1,0,0:0:0:0:
448,192,163499,1,0,0:0:0:0:
64,192,163624,1,0,0:0:0:0:
320,192,163749,1,0,0:0:0:0:
448,192,163874,128,0,164124:0:0:0:0:
320,192,163999,1,0,0:0:0:0:
192,192,163999,1,0,0:0:0:0:
64,192,164124,1,0,0:0:0:0:
192,192,164249,1,0,0:0:0:0:
64,192,164374,128,0,164624:0:0:0:0:
320,192,164499,1,0,0:0:0:0:
448,192,164499,1,0,0:0:0:0:
192,192,164624,1,0,0:0:0:0:
448,192,164749,1,0,0:0:0:0:
320,192,164874,128,0,165124:0:0:0:0:
192,192,164999,1,0,0:0:0:0:
448,192,164999,1,0,0:0:0:0:
64,192,165124,1,0,0:0:0:0:
192,192,165249,1,0,0:0:0:0:
448,192,165374,128,0,165624:0:0:0:0:
64,192,165499,1,0,0:0:0:0:
192,192,165499,1,0,0:0:0:0:
320,192,165624,1,0,0:0:0:0:
192,192,165749,1,0,0:0:0:0:
64,192,165874,128,0,166124:0:0:0:0:
320,192,165999,1,0,0:0:0:0:
448,192,165999,1,0,0:0:0:0:
192,192,166124,1,0,0:0:0:0:
448,192,166249,1,0,0:0:0:0:
192,192,166374,128,0,166624:0:0:0:0:
64,192,166499,1,0,0:0:0:0:
448,192,166499,1,0,0:0:0:0:
320,192,166624,1,0,0:0:0:0:
64,192,166749,1,0,0:0:0:0:
320,192,166874,128,0,167124:0:0:0:0:
192,192,166999,1,0,0:0:0:0:
448,192,166999,1,0,0:0:0:0:
64,192,167124,1,0,0:0:0:0:
192,192,167249,1,0,0:0:0:0:
448,192,167374,128,0,167624:0:0:0:0:
320,192,167499,1,0,0:0:0:0:
192,192,167499,1,0,0:0:0:0:
64,192,167624,1,0,0:0:0:0:
192,192,167749,1,0,0:0:0:0:
320,192,167874,128,0,168124:0:0:0:0:
64,192,167999,1,0,0:0:0:0:
448,192,167999,1,0,0:0:0:0:
192,192,168124,1,0,0:0:0:0:
448,192,168249,1,0,0:0:0:0:
192,192,168374,128,0,168624:0:0:0:0:
320,192,168499,1,0,0:0:0:0:
448,192,168499,1,0,0:0:0:0:
64,192,168624,1,0,0:0:0:0:
320,192,168749,1,0,0:0:0:0:
64,192,168874,128,0,169124:0:0:0:0:
320,192,168999,1,0,0:0:0:0:
448,192,168999,1,0,0:0:0:0:
192,192,169124,1,0,0:0:0:0:
448,192,169249,1,0,0:0:0:0:
192,192,169374,128,0,169624:0:0:0:0:
64,192,169499,1,0,0:0:0:0:
448,192,169499,1,0,0:0:0:0:
320,192,169624,1,0,0:0:0:0:
64,192,169749,1,0,0:0:0:0:
448,192,169874,128,0,170124:0:0:0:0:
320,192,169999,1,0,0:0:0:0:
192,192,169999,1,0,0:0:0:0:
64,192,170124,1,0,0:0:0:0:
192,192,170249,1,0,0:0:0:0:
320,192,170374,128,0,170624:0:0:0:0:
64,192,170499,1,0,0:0:0:0:
448,192,170499,1,0,0:0:0:0:
192,192,170624,1,0,0:0:0:0:
448,192,170749,1,0,0:0:0:0:
64,192,170874,128,0,171124:0:0:0:0:
320,192,170999,1,0,0:0:0:0:
448,192,170999,1,0,0:0:0:0:
192,192,171124,1,0,0:0:0:0:
448,192,171249,1,0,0:0:0:0:
320,192,171374,128,0,171624:0:0:0:0:
192,192,171499,1,0,0:0:0:0:
448,192,171499,1,0,0:0:0:0:
64,192,171624,1,0,0:0:0:0:
192,192,171749,1,0,0:0:0:0:
64,192,171874,128,0,172124:0:0:0:0:
320,192,171999,1,0,0:0:0:0:
448,192,171999,1,0,0:0:0:0:
192,192,172124,1,0,0:0:0:0:
320,192,172249,1,0,0:0:0:0:
192,192,172374,128,0,172624:0:0:0:0:
320,192,172499,1,0,0:0:0:0:
448,192,172499,1,0,0:0:0:0:
64,192,172624,1,0,0:0:0:0:
448,192,172749,1,0,0:0:0:0:
320,192,172874,128,0,173124:0:0:0:0:
192,192,172999,1,0,0:0:0:0:
448,192,172999,1,0,0:0:0:0:
64,192,173124,1,0,0:0:0:0:
448,192,173249,1,0,0:0:0:0:
192,192,173374,128,0,173624:0:0:0:0:
320,192,173499,1,0,0:0:0:0:
448,192,173499,1,0,0:0:0:0:
64,192,173624,1,0,0:0:0:0:
320,192,173749,1,0,0:0:0:0:
448,192,173874,128,0,174124:0:0:0:0:
320,192,173999,1,0,0:0:0:0:
64,192,173999,1,0,0:0:0:0:
192,192,174124,1,0,0:0:0:0:
320,192,174249,1,0,0:0:0:0:
64,192,174374,128,0,174624:0:0:0:0:
320,192,174499,1,0,0:0:0:0:
448,192,174499,1,0,0:0:0:0:
192,192,174624,1,0,0:0:0:0:
448,192,174749,1,0,0:0:0:0:
192,192,174874,128,0,175124:0:0:0:0:
320,192,174999,1,0,0:0:0:0:
448,192,174999,1,0,0:0:0:0:
64,192,175124,5,0,0:0:0:0:
320,192,175249,1,0,0:0:0:0:
448,192,175374,128,0,175624:0:0:0:0:
320,192,175499,1,0,0:0:0:0:
64,192,175499,1,0,0:0:0:0:
192,192,175624,1,0,0:0:0:0:
64,192,175749,1,0,0:0:0:0:
320,192,175874,128,0,175999:0:0:0:0:
64,192,175999,128,0,176562:0:0:0:0:
320,192,176562,1,0,0:0:0:0:
192,192,176624,1,0,0:0:0:0:
448,192,176687,1,0,0:0:0:0:
320,192,176780,1,0,0:0:0:0:
192,192,176937,1,0,0:0:0:0:
320,192,176999,1,0,0:0:0:0:
192,192,177124,1,0,0:0:0:0:
320,192,177249,1,0,0:0:0:0:
192,192,177499,128,0,177749:0:0:0:0:
320,192,177749,128,0,177999:0:0:0:0:
192,192,178249,128,0,178499:0:0:0:0:
320,192,178499,128,0,178749:0:0:0:0:
320,192,178999,1,0,0:0:0:0:
192,192,179124,1,0,0:0:0:0:
320,192,179249,1,0,0:0:0:0:
192,192,179374,1,0,0:0:0:0:
320,192,179499,1,0,0:0:0:0:
320,192,179749,1,0,0:0:0:0:
192,192,179999,1,0,0:0:0:0:
64,192,180062,1,0,0:0:0:0:
448,192,180124,1,0,0:0:0:0:
192,192,180187,1,0,0:0:0:0:
320,192,180249,1,0,0:0:0:0:
64,192,180437,1,0,0:0:0:0:
320,192,180499,128,0,180749:0:0:0:0:
192,192,180749,128,0,180999:0:0:0:0:
64,192,180999,128,0,181249:0:0:0:0:
320,192,181249,128,0,181499:0:0:0:0:
448,192,181499,1,0,0:0:0:0:
192,192,181624,1,0,0:0:0:0:
448,192,181749,1,0,0:0:0:0:
192,192,181874,1,0,0:0:0:0:
320,192,181999,1,0,0:0:0:0:
448,192,182124,1,0,0:0:0:0:
320,192,182249,1,0,0:0:0:0:
448,192,182374,1,0,0:0:0:0:
192,192,182499,1,0,0:0:0:0:
64,192,182624,1,0,0:0:0:0:
192,192,182749,1,0,0:0:0:0:
64,192,182874,1,0,0:0:0:0:
192,192,182999,128,0,183249:0:0:0:0:
64,192,183249,1,0,0:0:0:0:
448,192,183249,1,0,0:0:0:0:
320,192,183312,1,0,0:0:0:0:
448,192,183374,1,0,0:0:0:0:
192,192,183374,1,0,0:0:0:0:
64,192,183437,1,0,0:0:0:0:
192,192,183499,1,0,0:0:0:0:
448,192,183499,1,0,0:0:0:0:
320,192,183562,1,0,0:0:0:0:
448,192,183687,1,0,0:0:0:0:
320,192,183749,1,0,0:0:0:0:
192,192,183749,1,0,0:0:0:0:
64,192,183812,1,0,0:0:0:0:
448,192,183874,1,0,0:0:0:0:
320,192,183874,1,0,0:0:0:0:
192,192,183937,1,0,0:0:0:0:
448,192,183999,128,0,184499:0:0:0:0:
64,192,183999,128,0,185249:0:0:0:0:
192,192,184499,128,0,184999:0:0:0:0:
320,192,184999,128,0,185249:0:0:0:0:
192,192,185249,128,0,185499:0:0:0:0:
448,192,185249,128,0,185499:0:0:0:0:
64,192,185499,128,0,185999:0:0:0:0:
320,192,185499,128,0,185999:0:0:0:0:
192,192,185999,128,0,186249:0:0:0:0:
448,192,185999,128,0,186499:0:0:0:0:
64,192,186249,1,0,0:0:0:0:
320,192,186249,128,0,186749:0:0:0:0:
192,192,186499,128,0,186999:0:0:0:0:
64,192,186749,1,0,0:0:0:0:
448,192,186749,128,0,186999:0:0:0:0:
320,192,186999,128,0,187499:0:0:0:0:
64,192,186999,128,0,187499:0:0:0:0:
192,192,187499,128,0,187749:0:0:0:0:
448,192,187499,128,0,187624:0:0:0:0:
320,192,187624,128,0,187749:0:0:0:0:
64,192,187749,128,0,187999:0:0:0:0:
448,192,187749,128,0,187874:0:0:0:0:
192,192,187874,128,0,187999:0:0:0:0:
320,192,187999,128,0,188249:0:0:0:0:
448,192,187999,1,0,0:0:0:0:
64,192,188124,1,0,0:0:0:0:
448,192,188249,1,0,0:0:0:0:
192,192,188249,128,0,188499:0:0:0:0:
64,192,188374,1,0,0:0:0:0:
64,192,188499,128,0,188749:0:0:0:0:
448,192,188499,128,0,188749:0:0:0:0:
192,192,188749,128,0,188999:0:0:0:0:
320,192,188749,128,0,188999:0:0:0:0:
64,192,188999,128,0,189249:0:0:0:0:
448,192,188999,128,0,189249:0:0:0:0:
192,192,189249,128,0,189499:0:0:0:0:
320,192,189249,128,0,189499:0:0:0:0:
64,192,189499,128,0,189749:0:0:0:0:
448,192,189499,128,0,189749:0:0:0:0:
192,192,189749,1,0,0:0:0:0:
320,192,189749,128,0,189999:0:0:0:0:
64,192,189874,1,0,0:0:0:0:
448,192,189999,1,0,0:0:0:0:
192,192,189999,128,0,190249:0:0:0:0:
320,192,190124,1,0,0:0:0:0:
448,192,190249,1,0,0:0:0:0:
64,192,190249,128,0,190499:0:0:0:0:
320,192,190374,1,0,0:0:0:0:
448,192,190499,128,0,190749:0:0:0:0:
192,192,190499,128,0,190749:0:0:0:0:
320,192,190749,128,0,190999:0:0:0:0:
64,192,190749,128,0,190999:0:0:0:0:
448,192,190999,128,0,191499:0:0:0:0:
192,192,190999,128,0,191249:0:0:0:0:
64,192,191249,128,0,191374:0:0:0:0:
320,192,191374,128,0,191499:0:0:0:0:
192,192,191499,128,0,191624:0:0:0:0:
64,192,191624,128,0,191749:0:0:0:0:
320,192,191749,1,0,0:0:0:0:
192,192,191749,128,0,191874:0:0:0:0:
448,192,191874,1,0,0:0:0:0:
64,192,191874,128,0,191999:0:0:0:0:
320,192,191999,128,0,192499:0:0:0:0:
448,192,191999,128,0,193249:0:0:0:0:
192,192,192499,128,0,192999:0:0:0:0:
64,192,192999,128,0,193249:0:0:0:0:
192,192,193249,128,0,193499:0:0:0:0:
320,192,193249,128,0,193499:0:0:0:0:
64,192,193499,128,0,193999:0:0:0:0:
448,192,193499,128,0,193999:0:0:0:0:
320,192,193999,128,0,194249:0:0:0:0:
192,192,193999,128,0,194499:0:0:0:0:
448,192,194249,1,0,0:0:0:0:
64,192,194249,128,0,194749:0:0:0:0:
448,192,194499,128,0,194999:0:0:0:0:
192,192,194749,128,0,194999:0:0:0:0:
320,192,194749,1,0,0:0:0:0:
320,192,194999,128,0,195499:0:0:0:0:
64,192,194999,128,0,195499:0:0:0:0:
192,192,195499,128,0,195749:0:0:0:0:
448,192,195499,128,0,195624:0:0:0:0:
320,192,195624,128,0,195749:0:0:0:0:
64,192,195749,128,0,195999:0:0:0:0:
448,192,195749,128,0,195874:0:0:0:0:
320,192,195874,128,0,195999:0:0:0:0:
192,192,195999,1,0,0:0:0:0:
448,192,195999,128,0,196249:0:0:0:0:
320,192,196124,1,0,0:0:0:0:
64,192,196249,1,0,0:0:0:0:
192,192,196249,128,0,196499:0:0:0:0:
320,192,196374,1,0,0:0:0:0:
64,192,196499,128,0,196749:0:0:0:0:
320,192,196499,128,0,196749:0:0:0:0:
192,192,196749,128,0,196999:0:0:0:0:
448,192,196749,128,0,196999:0:0:0:0:
64,192,196999,128,0,197249:0:0:0:0:
320,192,196999,128,0,197249:0:0:0:0:
192,192,197249,128,0,197499:0:0:0:0:
448,192,197249,128,0,197499:0:0:0:0:
64,192,197499,128,0,197749:0:0:0:0:
320,192,197499,128,0,197749:0:0:0:0:
448,192,197749,1,0,0:0:0:0:
192,192,197749,128,0,197999:0:0:0:0:
64,192,197874,1,0,0:0:0:0:
448,192,197999,1,0,0:0:0:0:
64,192,197999,128,0,198249:0:0:0:0:
320,192,198124,1,0,0:0:0:0:
448,192,198249,1,0,0:0:0:0:
192,192,198249,128,0,198499:0:0:0:0:
320,192,198374,1,0,0:0:0:0:
448,192,198499,128,0,198749:0:0:0:0:
64,192,198499,128,0,198749:0:0:0:0:
320,192,198749,128,0,198999:0:0:0:0:
192,192,198749,128,0,198999:0:0:0:0:
448,192,198999,128,0,199499:0:0:0:0:
64,192,198999,128,0,199249:0:0:0:0:
320,192,199249,128,0,199374:0:0:0:0:
192,192,199374,128,0,199499:0:0:0:0:
64,192,199499,128,0,199624:0:0:0:0:
192,192,199624,128,0,199749:0:0:0:0:
320,192,199749,1,0,0:0:0:0:
64,192,199749,128,0,199874:0:0:0:0:
192,192,199874,1,0,0:0:0:0:
448,192,199874,128,0,199999:0:0:0:0:
320,192,199999,128,0,201249:0:0:0:0:
192,192,199999,1,0,0:0:0:0:
64,192,200249,1,0,0:0:0:0:
448,192,200249,1,0,0:0:0:0:
192,192,200499,1,0,0:0:0:0:
448,192,200499,1,0,0:0:0:0:
192,192,200749,1,0,0:0:0:0:
64,192,200749,1,0,0:0:0:0:
192,192,200999,1,0,0:0:0:0:
448,192,200999,1,0,0:0:0:0:
64,192,201249,128,0,201499:0:0:0:0:
448,192,201249,1,0,0:0:0:0:
192,192,201374,1,0,0:0:0:0:
320,192,201499,1,0,0:0:0:0:
448,192,201499,128,0,201999:0:0:0:0:
64,192,201749,1,0,0:0:0:0:
320,192,201749,1,0,0:0:0:0:
320,192,201999,128,0,202499:0:0:0:0:
192,192,201999,1,0,0:0:0:0:
64,192,202249,1,0,0:0:0:0:
448,192,202249,1,0,0:0:0:0:
192,192,202499,128,0,202999:0:0:0:0:
448,192,202499,1,0,0:0:0:0:
64,192,202749,1,0,0:0:0:0:
320,192,202749,1,0,0:0:0:0:
64,192,202999,128,0,203499:0:0:0:0:
448,192,202999,1,0,0:0:0:0:
448,192,203249,1,0,0:0:0:0:
192,192,203249,1,0,0:0:0:0:
320,192,203374,1,0,0:0:0:0:
192,192,203499,128,0,203624:0:0:0:0:
320,192,203499,1,0,0:0:0:0:
448,192,203624,128,0,203749:0:0:0:0:
320,192,203624,1,0,0:0:0:0:
320,192,203749,128,0,203874:0:0:0:0:
192,192,203749,1,0,0:0:0:0:
64,192,203874,128,0,203999:0:0:0:0:
448,192,203999,128,0,204249:0:0:0:0:
192,192,203999,1,0,0:0:0:0:
320,192,204249,1,0,0:0:0:0:
192,192,204249,128,0,204499:0:0:0:0:
64,192,204499,1,0,0:0:0:0:
320,192,204499,128,0,204749:0:0:0:0:
448,192,204749,128,0,204999:0:0:0:0:
192,192,204749,1,0,0:0:0:0:
64,192,204999,128,0,205249:0:0:0:0:
320,192,204999,1,0,0:0:0:0:
192,192,205249,128,0,205499:0:0:0:0:
320,192,205249,1,0,0:0:0:0:
448,192,205374,1,0,0:0:0:0:
320,192,205499,128,0,205749:0:0:0:0:
64,192,205499,1,0,0:0:0:0:
64,192,205749,128,0,205999:0:0:0:0:
448,192,205749,1,0,0:0:0:0:
448,192,205999,128,0,206249:0:0:0:0:
192,192,205999,1,0,0:0:0:0:
320,192,206249,128,0,206499:0:0:0:0:
192,192,206249,1,0,0:0:0:0:
192,192,206499,128,0,206749:0:0:0:0:
448,192,206499,1,0,0:0:0:0:
64,192,206749,128,0,206999:0:0:0:0:
448,192,206749,1,0,0:0:0:0:
320,192,206999,128,0,207249:0:0:0:0:
448,192,206999,1,0,0:0:0:0:
64,192,207249,128,0,207374:0:0:0:0:
192,192,207249,1,0,0:0:0:0:
192,192,207374,128,0,207499:0:0:0:0:
448,192,207374,1,0,0:0:0:0:
320,192,207499,128,0,207624:0:0:0:0:
64,192,207499,1,0,0:0:0:0:
64,192,207624,128,0,207749:0:0:0:0:
448,192,207624,1,0,0:0:0:0:
320,192,207749,128,0,207874:0:0:0:0:
192,192,207749,1,0,0:0:0:0:
448,192,207874,128,0,207999:0:0:0:0:
320,192,207999,128,0,209249:0:0:0:0:
192,192,207999,1,0,0:0:0:0:
64,192,208249,1,0,0:0:0:0:
448,192,208249,1,0,0:0:0:0:
192,192,208499,1,0,0:0:0:0:
448,192,208499,1,0,0:0:0:0:
64,192,208749,1,0,0:0:0:0:
192,192,208749,1,0,0:0:0:0:
192,192,208999,1,0,0:0:0:0:
448,192,208999,1,0,0:0:0:0:
64,192,209249,128,0,209499:0:0:0:0:
192,192,209249,1,0,0:0:0:0:
320,192,209374,1,0,0:0:0:0:
448,192,209499,128,0,209999:0:0:0:0:
192,192,209499,1,0,0:0:0:0:
64,192,209749,1,0,0:0:0:0:
320,192,209749,1,0,0:0:0:0:
320,192,209999,128,0,210499:0:0:0:0:
192,192,209999,1,0,0:0:0:0:
64,192,210249,1,0,0:0:0:0:
448,192,210249,1,0,0:0:0:0:
192,192,210499,128,0,210999:0:0:0:0:
448,192,210499,1,0,0:0:0:0:
64,192,210749,1,0,0:0:0:0:
320,192,210749,1,0,0:0:0:0:
64,192,210999,128,0,211499:0:0:0:0:
448,192,210999,1,0,0:0:0:0:
320,192,211249,1,0,0:0:0:0:
448,192,211249,1,0,0:0:0:0:
192,192,211374,1,0,0:0:0:0:
320,192,211499,128,0,211624:0:0:0:0:
448,192,211499,1,0,0:0:0:0:
448,192,211624,128,0,211749:0:0:0:0:
192,192,211624,1,0,0:0:0:0:
192,192,211749,128,0,211874:0:0:0:0:
64,192,211749,1,0,0:0:0:0:
64,192,211874,128,0,211999:0:0:0:0:
320,192,211999,1,0,0:0:0:0:
448,192,211999,1,0,0:0:0:0:
