osu file format v14

[General]
AudioFilename: Meyrink feat. yanaginagi - Neoage Dreamers.mp3
AudioLeadIn: 0
PreviewTime: 86797
Countdown: 0
SampleSet: Soft
StackLeniency: 0.7
Mode: 0
LetterboxInBreaks: 0
EpilepsyWarning: 1
WidescreenStoryboard: 1

[Editor]
DistanceSpacing: 1
BeatDivisor: 4
GridSize: 4
TimelineZoom: 1.7

[Metadata]
Title:Neoage Dreamers feat. yanaginagi
TitleUnicode:Neoage Dreamers feat. yanaginagi
Artist:project-ALCA-
ArtistUnicode:project-ALCA-
Creator:Gaia
Version:Insane
Source:
Tags:Betastar Meyrink やなぎなぎ Gazelle regenerate
BeatmapID:722494
BeatmapSetID:325259

[Difficulty]
HPDrainRate:7
CircleSize:4.1
OverallDifficulty:7
ApproachRate:9
SliderMultiplier:1.8
SliderTickRate:2

[Events]
//Background and Video events
0,0,"dreamerbg.jpg",0,0
//Break Periods
2,25065,27117
//Storyboard Layer 0 (Background)
//Storyboard Layer 1 (Fail)
//Storyboard Layer 2 (Pass)
//Storyboard Layer 3 (Foreground)
Sprite,Foreground,Centre,"SB BG\highlight.png",320,240 C,0,0,,0,128,255 F,2,125999,126091,0,1 M,0,126091,127563,392,183 F,1,126091,127563,1,0
Sprite,Foreground,Centre,"SB BG\square.png",320,240 F,0,125999,126091,0,1 R,0,125999,126091,0,-0.7330383 V,0,126091,126275,0.5,0.5,9,0.5 M,0,126091,126459,392,183,541,49 F,0,126091,126459,1 V,0,126275,126459,9,0.5,0.5,0.5 F,0,126459,126643,1,0
Sprite,Foreground,Centre,"SB BG\square.png",320,240 F,0,125999,126091,0,1 R,0,125999,126091,0,-2.199115 V,0,126091,126275,0.5,0.5,9,0.5 M,0,126091,126459,392,183,274,21 F,0,126091,126459,1 V,0,126275,126459,9,0.5,0.5,0.5 F,0,126459,126643,1,0
Sprite,Foreground,Centre,"SB BG\square.png",320,240 F,0,125999,126091,0,1 R,0,125999,126091,0,-3.141593 V,0,126091,126275,0.5,0.5,8,0.5 M,0,126091,126459,392,183,192,183 F,0,126091,126459,1 V,0,126275,126459,8,0.5,0.5,0.5 F,0,126459,126643,1,0
Sprite,Foreground,Centre,"SB BG\square.png",320,240 F,0,125999,126091,0,1 R,0,125999,126091,0,-4.39823 V,0,126091,126275,0.5,0.5,8,0.5 M,0,126091,126459,392,183,330,373 F,0,126091,126459,1 V,0,126275,126459,8,0.5,0.5,0.5 F,0,126459,126643,1,0
Sprite,Foreground,Centre,"SB BG\square.png",320,240 F,0,125999,126091,0,1 R,0,125999,126091,0,-5.934119 V,0,126091,126275,0.5,0.5,8,0.5 M,0,126091,126459,392,183,580,251 F,0,126091,126459,1 V,0,126275,126459,8,0.5,0.5,0.5 F,0,126459,126643,1,0
Sprite,Foreground,Centre,"SB BG\dot.png",320,240 F,2,125907,126091,0,1 M,0,126091,126459,392,183 F,2,126091,126459,1 S,1,126091,126459,1,2 F,2,126459,126643,1,0
Sprite,Foreground,Centre,"SB BG\highlight.png",320,240 C,0,0,,0,128,255 F,2,126367,126459,0,1 M,0,126459,127931,316,287 F,1,126459,127931,1,0
Sprite,Foreground,Centre,"SB BG\square.png",320,240 F,0,126367,126459,0,1 R,0,126367,126459,0,-0.6457718 V,0,126459,126643,0.5,0.5,9,0.5 M,0,126459,126827,316,287,476,167 F,0,126459,126827,1 V,0,126643,126827,9,0.5,0.5,0.5 F,0,126827,127011,1,0
Sprite,Foreground,Centre,"SB BG\square.png",320,240 F,0,126367,126459,0,1 R,0,126367,126459,0,-2.111848 V,0,126459,126643,0.5,0.5,8,0.5 M,0,126459,126827,316,287,213,116 F,0,126459,126827,1 V,0,126643,126827,8,0.5,0.5,0.5 F,0,126827,127011,1,0
Sprite,Foreground,Centre,"SB BG\square.png",320,240 F,0,126367,126459,0,1 R,0,126367,126459,0,-2.96706 V,0,126459,126643,0.5,0.5,9,0.5 M,0,126459,126827,316,287,119,252 F,0,126459,126827,1 V,0,126643,126827,9,0.5,0.5,0.5 F,0,126827,127011,1,0
Sprite,Foreground,Centre,"SB BG\square.png",320,240 F,0,126367,126459,0,1 R,0,126367,126459,0,-4.014257 V,0,126459,126643,0.5,0.5,9,0.5 M,0,126459,126827,316,287,187,440 F,0,126459,126827,1 V,0,126643,126827,9,0.5,0.5,0.5 F,0,126827,127011,1,0
Sprite,Foreground,Centre,"SB BG\square.png",320,240 F,0,126367,126459,0,1 R,0,126367,126459,0,-5.340707 V,0,126459,126643,0.5,0.5,10,0.5 M,0,126459,126827,316,287,434,449 F,0,126459,126827,1 V,0,126643,126827,10,0.5,0.5,0.5 F,0,126827,127011,1,0
Sprite,Foreground,Centre,"SB BG\dot.png",320,240 F,2,126275,126459,0,1 M,0,126459,126827,316,287 F,2,126459,126827,1 S,1,126459,126827,1,2 F,2,126827,127011,1,0
Sprite,Foreground,Centre,"SB BG\highlight.png",320,240 C,0,0,,0,128,255 F,2,126735,126827,0,1 M,0,126827,128299,260,199 F,1,126827,128299,1,0
Sprite,Foreground,Centre,"SB BG\square.png",320,240 F,0,126735,126827,0,1 R,0,126735,126827,0,-0.2268928 V,0,126827,127011,0.5,0.5,8,0.5 M,0,126827,127195,260,199,455,154 F,0,126827,127195,1 V,0,127011,127195,8,0.5,0.5,0.5 F,0,127195,127379,1,0
Sprite,Foreground,Centre,"SB BG\square.png",320,240 F,0,126735,126827,0,1 R,0,126735,126827,0,-2.146755 V,0,126827,127011,0.5,0.5,10,0.5 M,0,126827,127195,260,199,151,31 F,0,126827,127195,1 V,0,127011,127195,10,0.5,0.5,0.5 F,0,127195,127379,1,0
Sprite,Foreground,Centre,"SB BG\square.png",320,240 F,0,126735,126827,0,1 R,0,126735,126827,0,-3.106686 V,0,126827,127011,0.5,0.5,9,0.5 M,0,126827,127195,260,199,60,192 F,0,126827,127195,1 V,0,127011,127195,9,0.5,0.5,0.5 F,0,127195,127379,1,0
Sprite,Foreground,Centre,"SB BG\square.png",320,240 F,0,126735,126827,0,1 R,0,126735,126827,0,-4.258604 V,0,126827,127011,0.5,0.5,10,0.5 M,0,126827,127195,260,199,172,379 F,0,126827,127195,1 V,0,127011,127195,10,0.5,0.5,0.5 F,0,127195,127379,1,0
Sprite,Foreground,Centre,"SB BG\square.png",320,240 F,0,126735,126827,0,1 R,0,126735,126827,0,-5.358161 V,0,126827,127011,0.5,0.5,10,0.5 M,0,126827,127195,260,199,380,359 F,0,126827,127195,1 V,0,127011,127195,10,0.5,0.5,0.5 F,0,127195,127379,1,0
Sprite,Foreground,Centre,"SB BG\dot.png",320,240 F,2,126643,126827,0,1 M,0,126827,127195,260,199 F,2,126827,127195,1 S,1,126827,127195,1,2 F,2,127195,127379,1,0
Sprite,Foreground,Centre,"SB BG\highlight.png",320,240 C,0,0,,0,255,128 F,2,127104,127196,0,1 M,0,127196,128668,128,207 F,1,127196,128668,1,0
Sprite,Foreground,Centre,"SB BG\square.png",320,240 F,0,127104,127196,0,1 R,0,127104,127196,0,-0.8901179 V,0,127196,127380,0.5,0.5,10,0.5 M,0,127196,127564,128,207,254,52 F,0,127196,127564,1 V,0,127380,127564,10,0.5,0.5,0.5 F,0,127564,127748,1,0
Sprite,Foreground,Centre,"SB BG\square.png",320,240 F,0,127104,127196,0,1 R,0,127104,127196,0,-2.007129 V,0,127196,127380,0.5,0.5,8,0.5 M,0,127196,127564,128,207,43,26 F,0,127196,127564,1 V,0,127380,127564,8,0.5,0.5,0.5 F,0,127564,127748,1,0
Sprite,Foreground,Centre,"SB BG\square.png",320,240 F,0,127104,127196,0,1 R,0,127104,127196,0,-2.984513 V,0,127196,127380,0.5,0.5,8,0.5 M,0,127196,127564,128,207,-70,176 F,0,127196,127564,1 V,0,127380,127564,8,0.5,0.5,0.5 F,0,127564,127748,1,0
Sprite,Foreground,Centre,"SB BG\square.png",320,240 F,0,127104,127196,0,1 R,0,127104,127196,0,-4.729842 V,0,127196,127380,0.5,0.5,8,0.5 M,0,127196,127564,128,207,131,407 F,0,127196,127564,1 V,0,127380,127564,8,0.5,0.5,0.5 F,0,127564,127748,1,0
Sprite,Foreground,Centre,"SB BG\square.png",320,240 F,0,127104,127196,0,1 R,0,127104,127196,0,-5.305801 V,0,127196,127380,0.5,0.5,9,0.5 M,0,127196,127564,128,207,240,373 F,0,127196,127564,1 V,0,127380,127564,9,0.5,0.5,0.5 F,0,127564,127748,1,0
Sprite,Foreground,Centre,"SB BG\dot.png",320,240 F,2,127012,127196,0,1 M,0,127196,127564,128,207 F,2,127196,127564,1 S,1,127196,127564,1,2 F,2,127564,127748,1,0
Sprite,Foreground,Centre,"SB BG\highlight.png",320,240 C,0,0,,0,255,128 F,2,127472,127564,0,1 M,0,127564,129036,228,291 F,1,127564,129036,1,0
Sprite,Foreground,Centre,"SB BG\square.png",320,240 F,0,127472,127564,0,1 R,0,127472,127564,0,-0.4712389 V,0,127564,127748,0.5,0.5,8,0.5 M,0,127564,127932,228,291,406,200 F,0,127564,127932,1 V,0,127748,127932,8,0.5,0.5,0.5 F,0,127932,128116,1,0
Sprite,Foreground,Centre,"SB BG\square.png",320,240 F,0,127472,127564,0,1 R,0,127472,127564,0,-2.373648 V,0,127564,127748,0.5,0.5,10,0.5 M,0,127564,127932,228,291,84,152 F,0,127564,127932,1 V,0,127748,127932,10,0.5,0.5,0.5 F,0,127932,128116,1,0
Sprite,Foreground,Centre,"SB BG\square.png",320,240 F,0,127472,127564,0,1 R,0,127472,127564,0,-2.827433 V,0,127564,127748,0.5,0.5,10,0.5 M,0,127564,127932,228,291,38,229 F,0,127564,127932,1 V,0,127748,127932,10,0.5,0.5,0.5 F,0,127932,128116,1,0
Sprite,Foreground,Centre,"SB BG\square.png",320,240 F,0,127472,127564,0,1 R,0,127472,127564,0,-3.909538 V,0,127564,127748,0.5,0.5,8,0.5 M,0,127564,127932,228,291,84,430 F,0,127564,127932,1 V,0,127748,127932,8,0.5,0.5,0.5 F,0,127932,128116,1,0
Sprite,Foreground,Centre,"SB BG\square.png",320,240 F,0,127472,127564,0,1 R,0,127472,127564,0,-5.934119 V,0,127564,127748,0.5,0.5,10,0.5 M,0,127564,127932,228,291,416,359 F,0,127564,127932,1 V,0,127748,127932,10,0.5,0.5,0.5 F,0,127932,128116,1,0
Sprite,Foreground,Centre,"SB BG\dot.png",320,240 F,2,127380,127564,0,1 M,0,127564,127932,228,291 F,2,127564,127932,1 S,1,127564,127932,1,2 F,2,127932,128116,1,0
Sprite,Foreground,Centre,"SB BG\highlight.png",320,240 C,0,0,,0,255,128 F,2,127840,127932,0,1 M,0,127932,129404,316,351 F,1,127932,129404,1,0
Sprite,Foreground,Centre,"SB BG\square.png",320,240 F,0,127840,127932,0,1 R,0,127840,127932,0,-0.7679449 V,0,127932,128116,0.5,0.5,10,0.5 M,0,127932,128300,316,351,460,212 F,0,127932,128300,1 V,0,128116,128300,10,0.5,0.5,0.5 F,0,128300,128484,1,0
Sprite,Foreground,Centre,"SB BG\square.png",320,240 F,0,127840,127932,0,1 R,0,127840,127932,0,-1.500983 V,0,127932,128116,0.5,0.5,9,0.5 M,0,127932,128300,316,351,330,151 F,0,127932,128300,1 V,0,128116,128300,9,0.5,0.5,0.5 F,0,128300,128484,1,0
Sprite,Foreground,Centre,"SB BG\square.png",320,240 F,0,127840,127932,0,1 R,0,127840,127932,0,-3.089233 V,0,127932,128116,0.5,0.5,8,0.5 M,0,127932,128300,316,351,116,341 F,0,127932,128300,1 V,0,128116,128300,8,0.5,0.5,0.5 F,0,128300,128484,1,0
Sprite,Foreground,Centre,"SB BG\square.png",320,240 F,0,127840,127932,0,1 R,0,127840,127932,0,-4.066617 V,0,127932,128116,0.5,0.5,10,0.5 M,0,127932,128300,316,351,196,511 F,0,127932,128300,1 V,0,128116,128300,10,0.5,0.5,0.5 F,0,128300,128484,1,0
Sprite,Foreground,Centre,"SB BG\square.png",320,240 F,0,127840,127932,0,1 R,0,127840,127932,0,-5.8294 V,0,127932,128116,0.5,0.5,10,0.5 M,0,127932,128300,316,351,496,439 F,0,127932,128300,1 V,0,128116,128300,10,0.5,0.5,0.5 F,0,128300,128484,1,0
Sprite,Foreground,Centre,"SB BG\dot.png",320,240 F,2,127748,127932,0,1 M,0,127932,128300,316,351 F,2,127932,128300,1 S,1,127932,128300,1,2 F,2,128300,128484,1,0
Sprite,Foreground,Centre,"SB BG\highlight.png",320,240 C,0,0,,0,255,128 F,2,128208,128300,0,1 M,0,128300,129772,432,111 F,1,128300,129772,1,0
Sprite,Foreground,Centre,"SB BG\square.png",320,240 F,0,128208,128300,0,1 R,0,128208,128300,0,-0.6806784 V,0,128300,128484,0.5,0.5,10,0.5 M,0,128300,128668,432,111,587,-15 F,0,128300,128668,1 V,0,128484,128668,10,0.5,0.5,0.5 F,0,128668,128852,1,0
Sprite,Foreground,Centre,"SB BG\square.png",320,240 F,0,128208,128300,0,1 R,0,128208,128300,0,-1.658063 V,0,128300,128484,0.5,0.5,9,0.5 M,0,128300,128668,432,111,415,-88 F,0,128300,128668,1 V,0,128484,128668,9,0.5,0.5,0.5 F,0,128668,128852,1,0
Sprite,Foreground,Centre,"SB BG\square.png",320,240 F,0,128208,128300,0,1 R,0,128208,128300,0,-2.932153 V,0,128300,128484,0.5,0.5,9,0.5 M,0,128300,128668,432,111,236,69 F,0,128300,128668,1 V,0,128484,128668,9,0.5,0.5,0.5 F,0,128668,128852,1,0
Sprite,Foreground,Centre,"SB BG\square.png",320,240 F,0,128208,128300,0,1 R,0,128208,128300,0,-4.153883 V,0,128300,128484,0.5,0.5,10,0.5 M,0,128300,128668,432,111,326,281 F,0,128300,128668,1 V,0,128484,128668,10,0.5,0.5,0.5 F,0,128668,128852,1,0
Sprite,Foreground,Centre,"SB BG\square.png",320,240 F,0,128208,128300,0,1 R,0,128208,128300,0,-5.462881 V,0,128300,128484,0.5,0.5,8,0.5 M,0,128300,128668,432,111,568,257 F,0,128300,128668,1 V,0,128484,128668,8,0.5,0.5,0.5 F,0,128668,128852,1,0
Sprite,Foreground,Centre,"SB BG\dot.png",320,240 F,2,128116,128300,0,1 M,0,128300,128668,432,111 F,2,128300,128668,1 S,1,128300,128668,1,2 F,2,128668,128852,1,0
Sprite,Foreground,Centre,"SB BG\highlight.png",320,240 C,0,0,,252,230,182 F,2,128576,128668,0,1 M,0,128668,130140,260,199 F,1,128668,130140,1,0
Sprite,Foreground,Centre,"SB BG\square.png",320,240 F,0,128576,128668,0,1 R,0,128576,128668,0,-0.5585054 V,0,128668,128852,0.5,0.5,8,0.5 M,0,128668,129036,260,199,430,93 F,0,128668,129036,1 V,0,128852,129036,8,0.5,0.5,0.5 F,0,129036,129220,1,0
Sprite,Foreground,Centre,"SB BG\square.png",320,240 F,0,128576,128668,0,1 R,0,128576,128668,0,-1.448623 V,0,128668,128852,0.5,0.5,9,0.5 M,0,128668,129036,260,199,284,0 F,0,128668,129036,1 V,0,128852,129036,9,0.5,0.5,0.5 F,0,129036,129220,1,0
Sprite,Foreground,Centre,"SB BG\square.png",320,240 F,0,128576,128668,0,1 R,0,128576,128668,0,-2.897247 V,0,128668,128852,0.5,0.5,9,0.5 M,0,128668,129036,260,199,66,151 F,0,128668,129036,1 V,0,128852,129036,9,0.5,0.5,0.5 F,0,129036,129220,1,0
Sprite,Foreground,Centre,"SB BG\square.png",320,240 F,0,128576,128668,0,1 R,0,128576,128668,0,-3.944444 V,0,128668,128852,0.5,0.5,9,0.5 M,0,128668,129036,260,199,121,343 F,0,128668,129036,1 V,0,128852,129036,9,0.5,0.5,0.5 F,0,129036,129220,1,0
Sprite,Foreground,Centre,"SB BG\square.png",320,240 F,0,128576,128668,0,1 R,0,128576,128668,0,-5.637414 V,0,128668,128852,0.5,0.5,10,0.5 M,0,128668,129036,260,199,420,319 F,0,128668,129036,1 V,0,128852,129036,10,0.5,0.5,0.5 F,0,129036,129220,1,0
Sprite,Foreground,Centre,"SB BG\dot.png",320,240 F,2,128484,128668,0,1 M,0,128668,129036,260,199 F,2,128668,129036,1 S,1,128668,129036,1,2 F,2,129036,129220,1,0
Sprite,Foreground,Centre,"SB BG\highlight.png",320,240 C,0,0,,252,230,182 F,2,128944,129036,0,1 M,0,129036,130508,408,131 F,1,129036,130508,1,0
Sprite,Foreground,Centre,"SB BG\square.png",320,240 F,0,128944,129036,0,1 R,0,128944,129036,0,-0.6806784 V,0,129036,129220,0.5,0.5,9,0.5 M,0,129036,129404,408,131,563,5 F,0,129036,129404,1 V,0,129220,129404,9,0.5,0.5,0.5 F,0,129404,129588,1,0
Sprite,Foreground,Centre,"SB BG\square.png",320,240 F,0,128944,129036,0,1 R,0,128944,129036,0,-2.268928 V,0,129036,129220,0.5,0.5,9,0.5 M,0,129036,129404,408,131,279,-22 F,0,129036,129404,1 V,0,129220,129404,9,0.5,0.5,0.5 F,0,129404,129588,1,0
Sprite,Foreground,Centre,"SB BG\square.png",320,240 F,0,128944,129036,0,1 R,0,128944,129036,0,-2.792527 V,0,129036,129220,0.5,0.5,8,0.5 M,0,129036,129404,408,131,220,63 F,0,129036,129404,1 V,0,129220,129404,8,0.5,0.5,0.5 F,0,129404,129588,1,0
Sprite,Foreground,Centre,"SB BG\square.png",320,240 F,0,128944,129036,0,1 R,0,128944,129036,0,-4.747295 V,0,129036,129220,0.5,0.5,9,0.5 M,0,129036,129404,408,131,415,331 F,0,129036,129404,1 V,0,129220,129404,9,0.5,0.5,0.5 F,0,129404,129588,1,0
Sprite,Foreground,Centre,"SB BG\square.png",320,240 F,0,128944,129036,0,1 R,0,128944,129036,0,-6.091199 V,0,129036,129220,0.5,0.5,8,0.5 M,0,129036,129404,408,131,604,169 F,0,129036,129404,1 V,0,129220,129404,8,0.5,0.5,0.5 F,0,129404,129588,1,0
Sprite,Foreground,Centre,"SB BG\dot.png",320,240 F,2,128852,129036,0,1 M,0,129036,129404,408,131 F,2,129036,129404,1 S,1,129036,129404,1,2 F,2,129404,129588,1,0
Sprite,Foreground,Centre,"SB BG\highlight.png",320,240 C,0,0,,252,230,182 F,2,129312,129404,0,1 M,0,129404,130876,396,379 F,1,129404,130876,1,0
Sprite,Foreground,Centre,"SB BG\square.png",320,240 F,0,129312,129404,0,1 R,0,129312,129404,0,-0.6632251 V,0,129404,129588,0.5,0.5,8,0.5 M,0,129404,129772,396,379,554,256 F,0,129404,129772,1 V,0,129588,129772,8,0.5,0.5,0.5 F,0,129772,129956,1,0
Sprite,Foreground,Centre,"SB BG\square.png",320,240 F,0,129312,129404,0,1 R,0,129312,129404,0,-1.396263 V,0,129404,129588,0.5,0.5,10,0.5 M,0,129404,129772,396,379,431,182 F,0,129404,129772,1 V,0,129588,129772,10,0.5,0.5,0.5 F,0,129772,129956,1,0
Sprite,Foreground,Centre,"SB BG\square.png",320,240 F,0,129312,129404,0,1 R,0,129312,129404,0,-3.420845 V,0,129404,129588,0.5,0.5,10,0.5 M,0,129404,129772,396,379,204,434 F,0,129404,129772,1 V,0,129588,129772,10,0.5,0.5,0.5 F,0,129772,129956,1,0
Sprite,Foreground,Centre,"SB BG\square.png",320,240 F,0,129312,129404,0,1 R,0,129312,129404,0,-4.642576 V,0,129404,129588,0.5,0.5,10,0.5 M,0,129404,129772,396,379,382,579 F,0,129404,129772,1 V,0,129588,129772,10,0.5,0.5,0.5 F,0,129772,129956,1,0
Sprite,Foreground,Centre,"SB BG\square.png",320,240 F,0,129312,129404,0,1 R,0,129312,129404,0,-5.201081 V,0,129404,129588,0.5,0.5,10,0.5 M,0,129404,129772,396,379,490,556 F,0,129404,129772,1 V,0,129588,129772,10,0.5,0.5,0.5 F,0,129772,129956,1,0
Sprite,Foreground,Centre,"SB BG\dot.png",320,240 F,2,129220,129404,0,1 M,0,129404,129772,396,379 F,2,129404,129772,1 S,1,129404,129772,1,2 F,2,129772,129956,1,0
Sprite,Foreground,Centre,"SB BG\highlight.png",320,240 C,0,0,,252,230,182 F,2,129680,129772,0,1 M,0,129772,131244,272,331 F,1,129772,131244,1,0
Sprite,Foreground,Centre,"SB BG\square.png",320,240 F,0,129680,129772,0,1 R,0,129680,129772,0,-0.9773844 V,0,129772,129956,0.5,0.5,10,0.5 M,0,129772,130140,272,331,384,165 F,0,129772,130140,1 V,0,129956,130140,10,0.5,0.5,0.5 F,0,130140,130324,1,0
Sprite,Foreground,Centre,"SB BG\square.png",320,240 F,0,129680,129772,0,1 R,0,129680,129772,0,-1.675516 V,0,129772,129956,0.5,0.5,10,0.5 M,0,129772,130140,272,331,251,132 F,0,129772,130140,1 V,0,129956,130140,10,0.5,0.5,0.5 F,0,130140,130324,1,0
Sprite,Foreground,Centre,"SB BG\square.png",320,240 F,0,129680,129772,0,1 R,0,129680,129772,0,-3.630285 V,0,129772,129956,0.5,0.5,8,0.5 M,0,129772,130140,272,331,95,425 F,0,129772,130140,1 V,0,129956,130140,8,0.5,0.5,0.5 F,0,130140,130324,1,0
Sprite,Foreground,Centre,"SB BG\square.png",320,240 F,0,129680,129772,0,1 R,0,129680,129772,0,-4.799655 V,0,129772,129956,0.5,0.5,10,0.5 M,0,129772,130140,272,331,289,530 F,0,129772,130140,1 V,0,129956,130140,10,0.5,0.5,0.5 F,0,130140,130324,1,0
Sprite,Foreground,Centre,"SB BG\square.png",320,240 F,0,129680,129772,0,1 R,0,129680,129772,0,-5.637414 V,0,129772,129956,0.5,0.5,8,0.5 M,0,129772,130140,272,331,432,451 F,0,129772,130140,1 V,0,129956,130140,8,0.5,0.5,0.5 F,0,130140,130324,1,0
Sprite,Foreground,Centre,"SB BG\dot.png",320,240 F,2,129588,129772,0,1 M,0,129772,130140,272,331 F,2,129772,130140,1 S,1,129772,130140,1,2 F,2,130140,130324,1,0
Sprite,Foreground,Centre,"SB BG\highlight.png",320,240 C,0,0,,251,133,62 F,2,130048,130140,0,1 M,0,130140,131612,256,187 F,1,130140,131612,1,0
Sprite,Foreground,Centre,"SB BG\square.png",320,240 F,0,130048,130140,0,1 R,0,130048,130140,0,-0.4014257 V,0,130140,130324,0.5,0.5,10,0.5 M,0,130140,130508,256,187,440,109 F,0,130140,130508,1 V,0,130324,130508,10,0.5,0.5,0.5 F,0,130508,130692,1,0
Sprite,Foreground,Centre,"SB BG\square.png",320,240 F,0,130048,130140,0,1 R,0,130048,130140,0,-2.286381 V,0,130140,130324,0.5,0.5,8,0.5 M,0,130140,130508,256,187,125,36 F,0,130140,130508,1 V,0,130324,130508,8,0.5,0.5,0.5 F,0,130508,130692,1,0
Sprite,Foreground,Centre,"SB BG\square.png",320,240 F,0,130048,130140,0,1 R,0,130048,130140,0,-3.211406 V,0,130140,130324,0.5,0.5,9,0.5 M,0,130140,130508,256,187,56,201 F,0,130140,130508,1 V,0,130324,130508,9,0.5,0.5,0.5 F,0,130508,130692,1,0
Sprite,Foreground,Centre,"SB BG\square.png",320,240 F,0,130048,130140,0,1 R,0,130048,130140,0,-4.24115 V,0,130140,130324,0.5,0.5,8,0.5 M,0,130140,130508,256,187,165,365 F,0,130140,130508,1 V,0,130324,130508,8,0.5,0.5,0.5 F,0,130508,130692,1,0
Sprite,Foreground,Centre,"SB BG\square.png",320,240 F,0,130048,130140,0,1 R,0,130048,130140,0,-6.038839 V,0,130140,130324,0.5,0.5,10,0.5 M,0,130140,130508,256,187,450,235 F,0,130140,130508,1 V,0,130324,130508,10,0.5,0.5,0.5 F,0,130508,130692,1,0
Sprite,Foreground,Centre,"SB BG\dot.png",320,240 F,2,129956,130140,0,1 M,0,130140,130508,256,187 F,2,130140,130508,1 S,1,130140,130508,1,2 F,2,130508,130692,1,0
Sprite,Foreground,Centre,"SB BG\highlight.png",320,240 C,0,0,,251,133,62 F,2,130416,130508,0,1 M,0,130508,131980,240,331 F,1,130508,131980,1,0
Sprite,Foreground,Centre,"SB BG\square.png",320,240 F,0,130416,130508,0,1 R,0,130416,130508,0,-0.6806784 V,0,130508,130692,0.5,0.5,9,0.5 M,0,130508,130876,240,331,395,205 F,0,130508,130876,1 V,0,130692,130876,9,0.5,0.5,0.5 F,0,130876,131060,1,0
Sprite,Foreground,Centre,"SB BG\square.png",320,240 F,0,130416,130508,0,1 R,0,130416,130508,0,-1.710423 V,0,130508,130692,0.5,0.5,8,0.5 M,0,130508,130876,240,331,212,133 F,0,130508,130876,1 V,0,130692,130876,8,0.5,0.5,0.5 F,0,130876,131060,1,0
Sprite,Foreground,Centre,"SB BG\square.png",320,240 F,0,130416,130508,0,1 R,0,130416,130508,0,-3.490659 V,0,130508,130692,0.5,0.5,9,0.5 M,0,130508,130876,240,331,52,399 F,0,130508,130876,1 V,0,130692,130876,9,0.5,0.5,0.5 F,0,130876,131060,1,0
Sprite,Foreground,Centre,"SB BG\square.png",320,240 F,0,130416,130508,0,1 R,0,130416,130508,0,-4.555309 V,0,130508,130692,0.5,0.5,8,0.5 M,0,130508,130876,240,331,209,529 F,0,130508,130876,1 V,0,130692,130876,8,0.5,0.5,0.5 F,0,130876,131060,1,0
Sprite,Foreground,Centre,"SB BG\square.png",320,240 F,0,130416,130508,0,1 R,0,130416,130508,0,-5.899213 V,0,130508,130692,0.5,0.5,9,0.5 M,0,130508,130876,240,331,425,406 F,0,130508,130876,1 V,0,130692,130876,9,0.5,0.5,0.5 F,0,130876,131060,1,0
Sprite,Foreground,Centre,"SB BG\dot.png",320,240 F,2,130324,130508,0,1 M,0,130508,130876,240,331 F,2,130508,130876,1 S,1,130508,130876,1,2 F,2,130876,131060,1,0
Sprite,Foreground,Centre,"SB BG\highlight.png",320,240 C,0,0,,251,133,62 F,2,130784,130876,0,1 M,0,130876,132348,336,167 F,1,130876,132348,1,0
Sprite,Foreground,Centre,"SB BG\square.png",320,240 F,0,130784,130876,0,1 R,0,130784,130876,0,-0.5235988 V,0,130876,131060,0.5,0.5,8,0.5 M,0,130876,131244,336,167,509,67 F,0,130876,131244,1 V,0,131060,131244,8,0.5,0.5,0.5 F,0,131244,131428,1,0
Sprite,Foreground,Centre,"SB BG\square.png",320,240 F,0,130784,130876,0,1 R,0,130784,130876,0,-2.024582 V,0,130876,131060,0.5,0.5,10,0.5 M,0,130876,131244,336,167,248,-13 F,0,130876,131244,1 V,0,131060,131244,10,0.5,0.5,0.5 F,0,131244,131428,1,0
Sprite,Foreground,Centre,"SB BG\square.png",320,240 F,0,130784,130876,0,1 R,0,130784,130876,0,-3.403392 V,0,130876,131060,0.5,0.5,8,0.5 M,0,130876,131244,336,167,143,219 F,0,130876,131244,1 V,0,131060,131244,8,0.5,0.5,0.5 F,0,131244,131428,1,0
Sprite,Foreground,Centre,"SB BG\square.png",320,240 F,0,130784,130876,0,1 R,0,130784,130876,0,-4.607669 V,0,130876,131060,0.5,0.5,9,0.5 M,0,130876,131244,336,167,315,366 F,0,130876,131244,1 V,0,131060,131244,9,0.5,0.5,0.5 F,0,131244,131428,1,0
Sprite,Foreground,Centre,"SB BG\square.png",320,240 F,0,130784,130876,0,1 R,0,130784,130876,0,-5.270895 V,0,130876,131060,0.5,0.5,8,0.5 M,0,130876,131244,336,167,442,337 F,0,130876,131244,1 V,0,131060,131244,8,0.5,0.5,0.5 F,0,131244,131428,1,0
Sprite,Foreground,Centre,"SB BG\dot.png",320,240 F,2,130692,130876,0,1 M,0,130876,131244,336,167 F,2,130876,131244,1 S,1,130876,131244,1,2 F,2,131244,131428,1,0
Sprite,Foreground,Centre,"SB BG\highlight.png",320,240 C,0,0,,251,133,62 F,2,131153,131245,0,1 M,0,131245,132717,272,331 F,1,131245,132717,1,0
Sprite,Foreground,Centre,"SB BG\square.png",320,240 F,0,131153,131245,0,1 R,0,131153,131245,0,-0.7330383 V,0,131245,131429,0.5,0.5,9,0.5 M,0,131245,131613,272,331,421,197 F,0,131245,131613,1 V,0,131429,131613,9,0.5,0.5,0.5 F,0,131613,131797,1,0
Sprite,Foreground,Centre,"SB BG\square.png",320,240 F,0,131153,131245,0,1 R,0,131153,131245,0,-1.48353 V,0,131245,131429,0.5,0.5,9,0.5 M,0,131245,131613,272,331,289,132 F,0,131245,131613,1 V,0,131429,131613,9,0.5,0.5,0.5 F,0,131613,131797,1,0
Sprite,Foreground,Centre,"SB BG\square.png",320,240 F,0,131153,131245,0,1 R,0,131153,131245,0,-2.897247 V,0,131245,131429,0.5,0.5,9,0.5 M,0,131245,131613,272,331,78,283 F,0,131245,131613,1 V,0,131429,131613,9,0.5,0.5,0.5 F,0,131613,131797,1,0
Sprite,Foreground,Centre,"SB BG\square.png",320,240 F,0,131153,131245,0,1 R,0,131153,131245,0,-4.45059 V,0,131245,131429,0.5,0.5,10,0.5 M,0,131245,131613,272,331,220,524 F,0,131245,131613,1 V,0,131429,131613,10,0.5,0.5,0.5 F,0,131613,131797,1,0
Sprite,Foreground,Centre,"SB BG\square.png",320,240 F,0,131153,131245,0,1 R,0,131153,131245,0,-5.183628 V,0,131245,131429,0.5,0.5,9,0.5 M,0,131245,131613,272,331,363,509 F,0,131245,131613,1 V,0,131429,131613,9,0.5,0.5,0.5 F,0,131613,131797,1,0
Sprite,Foreground,Centre,"SB BG\dot.png",320,240 F,2,131061,131245,0,1 M,0,131245,131613,272,331 F,2,131245,131613,1 S,1,131245,131613,1,2 F,2,131613,131797,1,0
Sprite,Foreground,Centre,"SB BG\highlight.png",320,240 C,0,0,,0,255,255 F,2,131521,131613,0,1 M,0,131613,133085,148,175 F,1,131613,133085,1,0
Sprite,Foreground,Centre,"SB BG\square.png",320,240 F,0,131521,131613,0,1 R,0,131521,131613,0,-1.082104 V,0,131613,131797,0.5,0.5,9,0.5 M,0,131613,131981,148,175,242,-2 F,0,131613,131981,1 V,0,131797,131981,9,0.5,0.5,0.5 F,0,131981,132165,1,0
Sprite,Foreground,Centre,"SB BG\square.png",320,240 F,0,131521,131613,0,1 R,0,131521,131613,0,-1.658063 V,0,131613,131797,0.5,0.5,9,0.5 M,0,131613,131981,148,175,131,-24 F,0,131613,131981,1 V,0,131797,131981,9,0.5,0.5,0.5 F,0,131981,132165,1,0
Sprite,Foreground,Centre,"SB BG\square.png",320,240 F,0,131521,131613,0,1 R,0,131521,131613,0,-3.263766 V,0,131613,131797,0.5,0.5,9,0.5 M,0,131613,131981,148,175,-51,199 F,0,131613,131981,1 V,0,131797,131981,9,0.5,0.5,0.5 F,0,131981,132165,1,0
Sprite,Foreground,Centre,"SB BG\square.png",320,240 F,0,131521,131613,0,1 R,0,131521,131613,0,-4.852015 V,0,131613,131797,0.5,0.5,8,0.5 M,0,131613,131981,148,175,176,373 F,0,131613,131981,1 V,0,131797,131981,8,0.5,0.5,0.5 F,0,131981,132165,1,0
Sprite,Foreground,Centre,"SB BG\square.png",320,240 F,0,131521,131613,0,1 R,0,131521,131613,0,-5.480334 V,0,131613,131797,0.5,0.5,8,0.5 M,0,131613,131981,148,175,287,319 F,0,131613,131981,1 V,0,131797,131981,8,0.5,0.5,0.5 F,0,131981,132165,1,0
Sprite,Foreground,Centre,"SB BG\dot.png",320,240 F,2,131429,131613,0,1 M,0,131613,131981,148,175 F,2,131613,131981,1 S,1,131613,131981,1,2 F,2,131981,132165,1,0
Sprite,Foreground,Centre,"SB BG\highlight.png",320,240 C,0,0,,0,255,255 F,2,131889,131981,0,1 M,0,131981,133453,336,167 F,1,131981,133453,1,0
Sprite,Foreground,Centre,"SB BG\square.png",320,240 F,0,131889,131981,0,1 R,0,131889,131981,0,-0.7504916 V,0,131981,132165,0.5,0.5,9,0.5 M,0,131981,132349,336,167,482,31 F,0,131981,132349,1 V,0,132165,132349,9,0.5,0.5,0.5 F,0,132349,132533,1,0
Sprite,Foreground,Centre,"SB BG\square.png",320,240 F,0,131889,131981,0,1 R,0,131889,131981,0,-1.832596 V,0,131981,132165,0.5,0.5,8,0.5 M,0,131981,132349,336,167,284,-26 F,0,131981,132349,1 V,0,132165,132349,8,0.5,0.5,0.5 F,0,132349,132533,1,0
Sprite,Foreground,Centre,"SB BG\square.png",320,240 F,0,131889,131981,0,1 R,0,131889,131981,0,-2.86234 V,0,131981,132165,0.5,0.5,10,0.5 M,0,131981,132349,336,167,144,112 F,0,131981,132349,1 V,0,132165,132349,10,0.5,0.5,0.5 F,0,132349,132533,1,0
Sprite,Foreground,Centre,"SB BG\square.png",320,240 F,0,131889,131981,0,1 R,0,131889,131981,0,-4.29351 V,0,131981,132165,0.5,0.5,8,0.5 M,0,131981,132349,336,167,255,350 F,0,131981,132349,1 V,0,132165,132349,8,0.5,0.5,0.5 F,0,132349,132533,1,0
Sprite,Foreground,Centre,"SB BG\square.png",320,240 F,0,131889,131981,0,1 R,0,131889,131981,0,-5.846853 V,0,131981,132165,0.5,0.5,9,0.5 M,0,131981,132349,336,167,517,252 F,0,131981,132349,1 V,0,132165,132349,9,0.5,0.5,0.5 F,0,132349,132533,1,0
Sprite,Foreground,Centre,"SB BG\dot.png",320,240 F,2,131797,131981,0,1 M,0,131981,132349,336,167 F,2,131981,132349,1 S,1,131981,132349,1,2 F,2,132349,132533,1,0
Sprite,Foreground,Centre,"SB BG\highlight.png",320,240 C,0,0,,0,255,255 F,2,132257,132349,0,1 M,0,132349,133821,220,343 F,1,132349,133821,1,0
Sprite,Foreground,Centre,"SB BG\square.png",320,240 F,0,132257,132349,0,1 R,0,132257,132349,0,-0.9250245 V,0,132349,132533,0.5,0.5,9,0.5 M,0,132349,132717,220,343,340,183 F,0,132349,132717,1 V,0,132533,132717,9,0.5,0.5,0.5 F,0,132717,132901,1,0
Sprite,Foreground,Centre,"SB BG\square.png",320,240 F,0,132257,132349,0,1 R,0,132257,132349,0,-2.251475 V,0,132349,132533,0.5,0.5,8,0.5 M,0,132349,132717,220,343,94,188 F,0,132349,132717,1 V,0,132533,132717,8,0.5,0.5,0.5 F,0,132717,132901,1,0
Sprite,Foreground,Centre,"SB BG\square.png",320,240 F,0,132257,132349,0,1 R,0,132257,132349,0,-2.70526 V,0,132349,132533,0.5,0.5,8,0.5 M,0,132349,132717,220,343,39,258 F,0,132349,132717,1 V,0,132533,132717,8,0.5,0.5,0.5 F,0,132717,132901,1,0
Sprite,Foreground,Centre,"SB BG\square.png",320,240 F,0,132257,132349,0,1 R,0,132257,132349,0,-4.18879 V,0,132349,132533,0.5,0.5,9,0.5 M,0,132349,132717,220,343,120,516 F,0,132349,132717,1 V,0,132533,132717,9,0.5,0.5,0.5 F,0,132717,132901,1,0
Sprite,Foreground,Centre,"SB BG\square.png",320,240 F,0,132257,132349,0,1 R,0,132257,132349,0,-5.288348 V,0,132349,132533,0.5,0.5,8,0.5 M,0,132349,132717,220,343,329,511 F,0,132349,132717,1 V,0,132533,132717,8,0.5,0.5,0.5 F,0,132717,132901,1,0
Sprite,Foreground,Centre,"SB BG\dot.png",320,240 F,2,132165,132349,0,1 M,0,132349,132717,220,343 F,2,132349,132717,1 S,1,132349,132717,1,2 F,2,132717,132901,1,0
Sprite,Foreground,Centre,"SB BG\highlight.png",320,240 C,0,0,,0,255,255 F,2,132625,132717,0,1 M,0,132717,134189,424,143 F,1,132717,134189,1,0
Sprite,Foreground,Centre,"SB BG\square.png",320,240 F,0,132625,132717,0,1 R,0,132625,132717,0,-1.099557 V,0,132717,132901,0.5,0.5,8,0.5 M,0,132717,133085,424,143,515,-35 F,0,132717,133085,1 V,0,132901,133085,8,0.5,0.5,0.5 F,0,133085,133269,1,0
Sprite,Foreground,Centre,"SB BG\square.png",320,240 F,0,132625,132717,0,1 R,0,132625,132717,0,-2.234021 V,0,132717,132901,0.5,0.5,8,0.5 M,0,132717,133085,424,143,301,-15 F,0,132717,133085,1 V,0,132901,133085,8,0.5,0.5,0.5 F,0,133085,133269,1,0
Sprite,Foreground,Centre,"SB BG\square.png",320,240 F,0,132625,132717,0,1 R,0,132625,132717,0,-3.298672 V,0,132717,132901,0.5,0.5,10,0.5 M,0,132717,133085,424,143,226,174 F,0,132717,133085,1 V,0,132901,133085,10,0.5,0.5,0.5 F,0,133085,133269,1,0
Sprite,Foreground,Centre,"SB BG\square.png",320,240 F,0,132625,132717,0,1 R,0,132625,132717,0,-4.537856 V,0,132717,132901,0.5,0.5,9,0.5 M,0,132717,133085,424,143,389,340 F,0,132717,133085,1 V,0,132901,133085,9,0.5,0.5,0.5 F,0,133085,133269,1,0
Sprite,Foreground,Centre,"SB BG\square.png",320,240 F,0,132625,132717,0,1 R,0,132625,132717,0,-5.585053 V,0,132717,132901,0.5,0.5,9,0.5 M,0,132717,133085,424,143,577,272 F,0,132717,133085,1 V,0,132901,133085,9,0.5,0.5,0.5 F,0,133085,133269,1,0
Sprite,Foreground,Centre,"SB BG\dot.png",320,240 F,2,132533,132717,0,1 M,0,132717,133085,424,143 F,2,132717,133085,1 S,1,132717,133085,1,2 F,2,133085,133269,1,0
Sprite,Foreground,Centre,"SB BG\highlight.png",320,240 C,0,0,,0,128,255 F,2,132993,133085,0,1 M,0,133085,134557,224,219 F,1,133085,134557,1,0
Sprite,Foreground,Centre,"SB BG\square.png",320,240 F,0,132993,133085,0,1 R,0,132993,133085,0,-0.9599311 V,0,133085,133269,0.5,0.5,8,0.5 M,0,133085,133453,224,219,339,55 F,0,133085,133453,1 V,0,133269,133453,8,0.5,0.5,0.5 F,0,133453,133637,1,0
Sprite,Foreground,Centre,"SB BG\square.png",320,240 F,0,132993,133085,0,1 R,0,132993,133085,0,-1.919862 V,0,133085,133269,0.5,0.5,10,0.5 M,0,133085,133453,224,219,156,31 F,0,133085,133453,1 V,0,133269,133453,10,0.5,0.5,0.5 F,0,133453,133637,1,0
Sprite,Foreground,Centre,"SB BG\square.png",320,240 F,0,132993,133085,0,1 R,0,132993,133085,0,-2.75762 V,0,133085,133269,0.5,0.5,10,0.5 M,0,133085,133453,224,219,39,144 F,0,133085,133453,1 V,0,133269,133453,10,0.5,0.5,0.5 F,0,133453,133637,1,0
Sprite,Foreground,Centre,"SB BG\square.png",320,240 F,0,132993,133085,0,1 R,0,132993,133085,0,-4.206244 V,0,133085,133269,0.5,0.5,10,0.5 M,0,133085,133453,224,219,127,394 F,0,133085,133453,1 V,0,133269,133453,10,0.5,0.5,0.5 F,0,133453,133637,1,0
Sprite,Foreground,Centre,"SB BG\square.png",320,240 F,0,132993,133085,0,1 R,0,132993,133085,0,-5.550147 V,0,133085,133269,0.5,0.5,9,0.5 M,0,133085,133453,224,219,373,353 F,0,133085,133453,1 V,0,133269,133453,9,0.5,0.5,0.5 F,0,133453,133637,1,0
Sprite,Foreground,Centre,"SB BG\dot.png",320,240 F,2,132901,133085,0,1 M,0,133085,133453,224,219 F,2,133085,133453,1 S,1,133085,133453,1,2 F,2,133453,133637,1,0
Sprite,Foreground,Centre,"SB BG\highlight.png",320,240 C,0,0,,0,128,255 F,2,133360,133452,0,1 M,0,133452,134924,200,335 F,1,133452,134924,1,0
Sprite,Foreground,Centre,"SB BG\square.png",320,240 F,0,133360,133452,0,1 R,0,133360,133452,0,-0.6108652 V,0,133452,133636,0.5,0.5,8,0.5 M,0,133452,133820,200,335,364,220 F,0,133452,133820,1 V,0,133636,133820,8,0.5,0.5,0.5 F,0,133820,134004,1,0
Sprite,Foreground,Centre,"SB BG\square.png",320,240 F,0,133360,133452,0,1 R,0,133360,133452,0,-1.972222 V,0,133452,133636,0.5,0.5,8,0.5 M,0,133452,133820,200,335,122,151 F,0,133452,133820,1 V,0,133636,133820,8,0.5,0.5,0.5 F,0,133820,134004,1,0
Sprite,Foreground,Centre,"SB BG\square.png",320,240 F,0,133360,133452,0,1 R,0,133360,133452,0,-2.844887 V,0,133452,133636,0.5,0.5,8,0.5 M,0,133452,133820,200,335,9,277 F,0,133452,133820,1 V,0,133636,133820,8,0.5,0.5,0.5 F,0,133820,134004,1,0
Sprite,Foreground,Centre,"SB BG\square.png",320,240 F,0,133360,133452,0,1 R,0,133360,133452,0,-4.118977 V,0,133452,133636,0.5,0.5,10,0.5 M,0,133452,133820,200,335,88,501 F,0,133452,133820,1 V,0,133636,133820,10,0.5,0.5,0.5 F,0,133820,134004,1,0
Sprite,Foreground,Centre,"SB BG\square.png",320,240 F,0,133360,133452,0,1 R,0,133360,133452,0,-5.72468 V,0,133452,133636,0.5,0.5,10,0.5 M,0,133452,133820,200,335,370,441 F,0,133452,133820,1 V,0,133636,133820,10,0.5,0.5,0.5 F,0,133820,134004,1,0
Sprite,Foreground,Centre,"SB BG\dot.png",320,240 F,2,133268,133452,0,1 M,0,133452,133820,200,335 F,2,133452,133820,1 S,1,133452,133820,1,2 F,2,133820,134004,1,0
Sprite,Foreground,Centre,"SB BG\highlight.png",320,240 C,0,0,,0,128,255 F,2,133729,133821,0,1 M,0,133821,135293,64,263 F,1,133821,135293,1,0
Sprite,Foreground,Centre,"SB BG\square.png",320,240 F,0,133729,133821,0,1 R,0,133729,133821,0,-0.5759587 V,0,133821,134005,0.5,0.5,10,0.5 M,0,133821,134189,64,263,232,154 F,0,133821,134189,1 V,0,134005,134189,10,0.5,0.5,0.5 F,0,134189,134373,1,0
Sprite,Foreground,Centre,"SB BG\square.png",320,240 F,0,133729,133821,0,1 R,0,133729,133821,0,-1.518436 V,0,133821,134005,0.5,0.5,10,0.5 M,0,133821,134189,64,263,74,63 F,0,133821,134189,1 V,0,134005,134189,10,0.5,0.5,0.5 F,0,134189,134373,1,0
Sprite,Foreground,Centre,"SB BG\square.png",320,240 F,0,133729,133821,0,1 R,0,133729,133821,0,-3.368485 V,0,133821,134005,0.5,0.5,9,0.5 M,0,133821,134189,64,263,-131,308 F,0,133821,134189,1 V,0,134005,134189,9,0.5,0.5,0.5 F,0,134189,134373,1,0
Sprite,Foreground,Centre,"SB BG\square.png",320,240 F,0,133729,133821,0,1 R,0,133729,133821,0,-3.926991 V,0,133821,134005,0.5,0.5,10,0.5 M,0,133821,134189,64,263,-77,404 F,0,133821,134189,1 V,0,134005,134189,10,0.5,0.5,0.5 F,0,134189,134373,1,0
Sprite,Foreground,Centre,"SB BG\square.png",320,240 F,0,133729,133821,0,1 R,0,133729,133821,0,-5.253441 V,0,133821,134005,0.5,0.5,9,0.5 M,0,133821,134189,64,263,167,434 F,0,133821,134189,1 V,0,134005,134189,9,0.5,0.5,0.5 F,0,134189,134373,1,0
Sprite,Foreground,Centre,"SB BG\dot.png",320,240 F,2,133637,133821,0,1 M,0,133821,134189,64,263 F,2,133821,134189,1 S,1,133821,134189,1,2 F,2,134189,134373,1,0
Sprite,Foreground,Centre,"SB BG\highlight.png",320,240 C,0,0,,0,128,255 F,2,134097,134189,0,1 M,0,134189,135661,280,243 F,1,134189,135661,1,0
Sprite,Foreground,Centre,"SB BG\square.png",320,240 F,0,134097,134189,0,1 R,0,134097,134189,0,-0.7504916 V,0,134189,134373,0.5,0.5,8,0.5 M,0,134189,134557,280,243,426,107 F,0,134189,134557,1 V,0,134373,134557,8,0.5,0.5,0.5 F,0,134557,134741,1,0
Sprite,Foreground,Centre,"SB BG\square.png",320,240 F,0,134097,134189,0,1 R,0,134097,134189,0,-1.727876 V,0,134189,134373,0.5,0.5,10,0.5 M,0,134189,134557,280,243,249,45 F,0,134189,134557,1 V,0,134373,134557,10,0.5,0.5,0.5 F,0,134557,134741,1,0
Sprite,Foreground,Centre,"SB BG\square.png",320,240 F,0,134097,134189,0,1 R,0,134097,134189,0,-3.124139 V,0,134189,134373,0.5,0.5,10,0.5 M,0,134189,134557,280,243,80,240 F,0,134189,134557,1 V,0,134373,134557,10,0.5,0.5,0.5 F,0,134557,134741,1,0
Sprite,Foreground,Centre,"SB BG\square.png",320,240 F,0,134097,134189,0,1 R,0,134097,134189,0,-4.537856 V,0,134189,134373,0.5,0.5,10,0.5 M,0,134189,134557,280,243,245,440 F,0,134189,134557,1 V,0,134373,134557,10,0.5,0.5,0.5 F,0,134557,134741,1,0
Sprite,Foreground,Centre,"SB BG\square.png",320,240 F,0,134097,134189,0,1 R,0,134097,134189,0,-5.934119 V,0,134189,134373,0.5,0.5,10,0.5 M,0,134189,134557,280,243,468,311 F,0,134189,134557,1 V,0,134373,134557,10,0.5,0.5,0.5 F,0,134557,134741,1,0
Sprite,Foreground,Centre,"SB BG\dot.png",320,240 F,2,134005,134189,0,1 M,0,134189,134557,280,243 F,2,134189,134557,1 S,1,134189,134557,1,2 F,2,134557,134741,1,0
Sprite,Foreground,Centre,"SB BG\highlight.png",320,240 C,0,0,,0,255,128 F,2,134465,134557,0,1 M,0,134557,136029,384,271 F,1,134557,136029,1,0
Sprite,Foreground,Centre,"SB BG\square.png",320,240 F,0,134465,134557,0,1 R,0,134465,134557,0,-0.6981317 V,0,134557,134741,0.5,0.5,9,0.5 M,0,134557,134925,384,271,537,142 F,0,134557,134925,1 V,0,134741,134925,9,0.5,0.5,0.5 F,0,134925,135109,1,0
Sprite,Foreground,Centre,"SB BG\square.png",320,240 F,0,134465,134557,0,1 R,0,134465,134557,0,-1.605703 V,0,134557,134741,0.5,0.5,9,0.5 M,0,134557,134925,384,271,377,71 F,0,134557,134925,1 V,0,134741,134925,9,0.5,0.5,0.5 F,0,134925,135109,1,0
Sprite,Foreground,Centre,"SB BG\square.png",320,240 F,0,134465,134557,0,1 R,0,134465,134557,0,-3.071779 V,0,134557,134741,0.5,0.5,9,0.5 M,0,134557,134925,384,271,184,257 F,0,134557,134925,1 V,0,134741,134925,9,0.5,0.5,0.5 F,0,134925,135109,1,0
Sprite,Foreground,Centre,"SB BG\square.png",320,240 F,0,134465,134557,0,1 R,0,134465,134557,0,-4.118977 V,0,134557,134741,0.5,0.5,8,0.5 M,0,134557,134925,384,271,272,437 F,0,134557,134925,1 V,0,134741,134925,8,0.5,0.5,0.5 F,0,134925,135109,1,0
Sprite,Foreground,Centre,"SB BG\square.png",320,240 F,0,134465,134557,0,1 R,0,134465,134557,0,-5.794493 V,0,134557,134741,0.5,0.5,9,0.5 M,0,134557,134925,384,271,561,365 F,0,134557,134925,1 V,0,134741,134925,9,0.5,0.5,0.5 F,0,134925,135109,1,0
Sprite,Foreground,Centre,"SB BG\dot.png",320,240 F,2,134373,134557,0,1 M,0,134557,134925,384,271 F,2,134557,134925,1 S,1,134557,134925,1,2 F,2,134925,135109,1,0
Sprite,Foreground,Centre,"SB BG\highlight.png",320,240 C,0,0,,0,255,128 F,2,134834,134926,0,1 M,0,134926,136398,472,207 F,1,134926,136398,1,0
Sprite,Foreground,Centre,"SB BG\square.png",320,240 F,0,134834,134926,0,1 R,0,134834,134926,0,-1.064651 V,0,134926,135110,0.5,0.5,10,0.5 M,0,134926,135294,472,207,569,32 F,0,134926,135294,1 V,0,135110,135294,10,0.5,0.5,0.5 F,0,135294,135478,1,0
Sprite,Foreground,Centre,"SB BG\square.png",320,240 F,0,134834,134926,0,1 R,0,134834,134926,0,-2.076942 V,0,134926,135110,0.5,0.5,10,0.5 M,0,134926,135294,472,207,375,32 F,0,134926,135294,1 V,0,135110,135294,10,0.5,0.5,0.5 F,0,135294,135478,1,0
Sprite,Foreground,Centre,"SB BG\square.png",320,240 F,0,134834,134926,0,1 R,0,134834,134926,0,-3.630285 V,0,134926,135110,0.5,0.5,8,0.5 M,0,134926,135294,472,207,295,301 F,0,134926,135294,1 V,0,135110,135294,8,0.5,0.5,0.5 F,0,135294,135478,1,0
Sprite,Foreground,Centre,"SB BG\square.png",320,240 F,0,134834,134926,0,1 R,0,134834,134926,0,-4.39823 V,0,134926,135110,0.5,0.5,8,0.5 M,0,134926,135294,472,207,410,397 F,0,134926,135294,1 V,0,135110,135294,8,0.5,0.5,0.5 F,0,135294,135478,1,0
Sprite,Foreground,Centre,"SB BG\square.png",320,240 F,0,134834,134926,0,1 R,0,134834,134926,0,-5.288348 V,0,134926,135110,0.5,0.5,9,0.5 M,0,134926,135294,472,207,581,375 F,0,134926,135294,1 V,0,135110,135294,9,0.5,0.5,0.5 F,0,135294,135478,1,0
Sprite,Foreground,Centre,"SB BG\dot.png",320,240 F,2,134742,134926,0,1 M,0,134926,135294,472,207 F,2,134926,135294,1 S,1,134926,135294,1,2 F,2,135294,135478,1,0
Sprite,Foreground,Centre,"SB BG\highlight.png",320,240 C,0,0,,0,255,128 F,2,135202,135294,0,1 M,0,135294,136766,464,331 F,1,135294,136766,1,0
Sprite,Foreground,Centre,"SB BG\square.png",320,240 F,0,135202,135294,0,1 R,0,135202,135294,0,-0.5061455 V,0,135294,135478,0.5,0.5,8,0.5 M,0,135294,135662,464,331,639,234 F,0,135294,135662,1 V,0,135478,135662,8,0.5,0.5,0.5 F,0,135662,135846,1,0
Sprite,Foreground,Centre,"SB BG\square.png",320,240 F,0,135202,135294,0,1 R,0,135202,135294,0,-1.675516 V,0,135294,135478,0.5,0.5,8,0.5 M,0,135294,135662,464,331,443,132 F,0,135294,135662,1 V,0,135478,135662,8,0.5,0.5,0.5 F,0,135662,135846,1,0
Sprite,Foreground,Centre,"SB BG\square.png",320,240 F,0,135202,135294,0,1 R,0,135202,135294,0,-3.525565 V,0,135294,135478,0.5,0.5,9,0.5 M,0,135294,135662,464,331,279,406 F,0,135294,135662,1 V,0,135478,135662,9,0.5,0.5,0.5 F,0,135662,135846,1,0
Sprite,Foreground,Centre,"SB BG\square.png",320,240 F,0,135202,135294,0,1 R,0,135202,135294,0,-4.223697 V,0,135294,135478,0.5,0.5,9,0.5 M,0,135294,135662,464,331,370,508 F,0,135294,135662,1 V,0,135478,135662,9,0.5,0.5,0.5 F,0,135662,135846,1,0
Sprite,Foreground,Centre,"SB BG\square.png",320,240 F,0,135202,135294,0,1 R,0,135202,135294,0,-5.934119 V,0,135294,135478,0.5,0.5,8,0.5 M,0,135294,135662,464,331,652,399 F,0,135294,135662,1 V,0,135478,135662,8,0.5,0.5,0.5 F,0,135662,135846,1,0
Sprite,Foreground,Centre,"SB BG\dot.png",320,240 F,2,135110,135294,0,1 M,0,135294,135662,464,331 F,2,135294,135662,1 S,1,135294,135662,1,2 F,2,135662,135846,1,0
Sprite,Foreground,Centre,"SB BG\highlight.png",320,240 C,0,0,,0,255,128 F,2,135570,135662,0,1 M,0,135662,137134,276,335 F,1,135662,137134,1,0
Sprite,Foreground,Centre,"SB BG\square.png",320,240 F,0,135570,135662,0,1 R,0,135570,135662,0,-0.4712389 V,0,135662,135846,0.5,0.5,8,0.5 M,0,135662,136030,276,335,454,244 F,0,135662,136030,1 V,0,135846,136030,8,0.5,0.5,0.5 F,0,136030,136214,1,0
Sprite,Foreground,Centre,"SB BG\square.png",320,240 F,0,135570,135662,0,1 R,0,135570,135662,0,-1.850049 V,0,135662,135846,0.5,0.5,10,0.5 M,0,135662,136030,276,335,221,143 F,0,135662,136030,1 V,0,135846,136030,10,0.5,0.5,0.5 F,0,136030,136214,1,0
Sprite,Foreground,Centre,"SB BG\square.png",320,240 F,0,135570,135662,0,1 R,0,135570,135662,0,-3.071779 V,0,135662,135846,0.5,0.5,9,0.5 M,0,135662,136030,276,335,76,321 F,0,135662,136030,1 V,0,135846,136030,9,0.5,0.5,0.5 F,0,136030,136214,1,0
Sprite,Foreground,Centre,"SB BG\square.png",320,240 F,0,135570,135662,0,1 R,0,135570,135662,0,-4.747295 V,0,135662,135846,0.5,0.5,9,0.5 M,0,135662,136030,276,335,283,535 F,0,135662,136030,1 V,0,135846,136030,9,0.5,0.5,0.5 F,0,136030,136214,1,0
Sprite,Foreground,Centre,"SB BG\square.png",320,240 F,0,135570,135662,0,1 R,0,135570,135662,0,-5.462881 V,0,135662,135846,0.5,0.5,10,0.5 M,0,135662,136030,276,335,412,481 F,0,135662,136030,1 V,0,135846,136030,10,0.5,0.5,0.5 F,0,136030,136214,1,0
Sprite,Foreground,Centre,"SB BG\dot.png",320,240 F,2,135478,135662,0,1 M,0,135662,136030,276,335 F,2,135662,136030,1 S,1,135662,136030,1,2 F,2,136030,136214,1,0
Sprite,Foreground,Centre,"SB BG\highlight.png",320,240 C,0,0,,252,230,182 F,2,135938,136030,0,1 M,0,136030,137502,100,367 F,1,136030,137502,1,0
Sprite,Foreground,Centre,"SB BG\square.png",320,240 F,0,135938,136030,0,1 R,0,135938,136030,0,-0.2443461 V,0,136030,136214,0.5,0.5,10,0.5 M,0,136030,136398,100,367,294,319 F,0,136030,136398,1 V,0,136214,136398,10,0.5,0.5,0.5 F,0,136398,136582,1,0
Sprite,Foreground,Centre,"SB BG\square.png",320,240 F,0,135938,136030,0,1 R,0,135938,136030,0,-1.745329 V,0,136030,136214,0.5,0.5,9,0.5 M,0,136030,136398,100,367,65,170 F,0,136030,136398,1 V,0,136214,136398,9,0.5,0.5,0.5 F,0,136398,136582,1,0
Sprite,Foreground,Centre,"SB BG\square.png",320,240 F,0,135938,136030,0,1 R,0,135938,136030,0,-3.159046 V,0,136030,136214,0.5,0.5,10,0.5 M,0,136030,136398,100,367,-100,370 F,0,136030,136398,1 V,0,136214,136398,10,0.5,0.5,0.5 F,0,136398,136582,1,0
Sprite,Foreground,Centre,"SB BG\square.png",320,240 F,0,135938,136030,0,1 R,0,135938,136030,0,-4.520403 V,0,136030,136214,0.5,0.5,9,0.5 M,0,136030,136398,100,367,62,563 F,0,136030,136398,1 V,0,136214,136398,9,0.5,0.5,0.5 F,0,136398,136582,1,0
Sprite,Foreground,Centre,"SB BG\square.png",320,240 F,0,135938,136030,0,1 R,0,135938,136030,0,-5.77704 V,0,136030,136214,0.5,0.5,8,0.5 M,0,136030,136398,100,367,275,464 F,0,136030,136398,1 V,0,136214,136398,8,0.5,0.5,0.5 F,0,136398,136582,1,0
Sprite,Foreground,Centre,"SB BG\dot.png",320,240 F,2,135846,136030,0,1 M,0,136030,136398,100,367 F,2,136030,136398,1 S,1,136030,136398,1,2 F,2,136398,136582,1,0
Sprite,Foreground,Centre,"SB BG\highlight.png",320,240 C,0,0,,252,230,182 F,2,136306,136398,0,1 M,0,136398,137870,320,411 F,1,136398,137870,1,0
Sprite,Foreground,Centre,"SB BG\square.png",320,240 F,0,136306,136398,0,1 R,0,136306,136398,0,-0.5934119 V,0,136398,136582,0.5,0.5,8,0.5 M,0,136398,136766,320,411,486,299 F,0,136398,136766,1 V,0,136582,136766,8,0.5,0.5,0.5 F,0,136766,136950,1,0
Sprite,Foreground,Centre,"SB BG\square.png",320,240 F,0,136306,136398,0,1 R,0,136306,136398,0,-2.059489 V,0,136398,136582,0.5,0.5,9,0.5 M,0,136398,136766,320,411,226,234 F,0,136398,136766,1 V,0,136582,136766,9,0.5,0.5,0.5 F,0,136766,136950,1,0
Sprite,Foreground,Centre,"SB BG\square.png",320,240 F,0,136306,136398,0,1 R,0,136306,136398,0,-3.159046 V,0,136398,136582,0.5,0.5,8,0.5 M,0,136398,136766,320,411,120,414 F,0,136398,136766,1 V,0,136582,136766,8,0.5,0.5,0.5 F,0,136766,136950,1,0
Sprite,Foreground,Centre,"SB BG\square.png",320,240 F,0,136306,136398,0,1 R,0,136306,136398,0,-4.171337 V,0,136398,136582,0.5,0.5,9,0.5 M,0,136398,136766,320,411,217,582 F,0,136398,136766,1 V,0,136582,136766,9,0.5,0.5,0.5 F,0,136766,136950,1,0
Sprite,Foreground,Centre,"SB BG\square.png",320,240 F,0,136306,136398,0,1 R,0,136306,136398,0,-5.759586 V,0,136398,136582,0.5,0.5,9,0.5 M,0,136398,136766,320,411,493,511 F,0,136398,136766,1 V,0,136582,136766,9,0.5,0.5,0.5 F,0,136766,136950,1,0
Sprite,Foreground,Centre,"SB BG\dot.png",320,240 F,2,136214,136398,0,1 M,0,136398,136766,320,411 F,2,136398,136766,1 S,1,136398,136766,1,2 F,2,136766,136950,1,0
Sprite,Foreground,Centre,"SB BG\square.png",320,240 F,0,136490,136582,0,1 R,0,136490,136582,0,-3.630285 V,0,136582,136766,0.5,0.5,8,0.5 M,0,136582,136950,439,339,262,433 F,0,136582,136950,1 V,0,136766,136950,8,0.5,0.5,0.5 F,0,136950,137134,1,0
Sprite,Foreground,Centre,"SB BG\highlight.png",320,240 C,0,0,,252,230,182 F,2,136674,136766,0,1 M,0,136766,138238,256,259 F,1,136766,138238,1,0
Sprite,Foreground,Centre,"SB BG\square.png",320,240 F,0,136674,136766,0,1 R,0,136674,136766,0,-0.1396263 V,0,136766,136950,0.5,0.5,8,0.5 M,0,136766,137134,256,259,454,231 F,0,136766,137134,1 V,0,136950,137134,8,0.5,0.5,0.5 F,0,137134,137318,1,0
Sprite,Foreground,Centre,"SB BG\square.png",320,240 F,0,136674,136766,0,1 R,0,136674,136766,0,-1.658063 V,0,136766,136950,0.5,0.5,10,0.5 M,0,136766,137134,256,259,239,60 F,0,136766,137134,1 V,0,136950,137134,10,0.5,0.5,0.5 F,0,137134,137318,1,0
Sprite,Foreground,Centre,"SB BG\square.png",320,240 F,0,136674,136766,0,1 R,0,136674,136766,0,-3.351032 V,0,136766,136950,0.5,0.5,8,0.5 M,0,136766,137134,256,259,60,301 F,0,136766,137134,1 V,0,136950,137134,8,0.5,0.5,0.5 F,0,137134,137318,1,0
Sprite,Foreground,Centre,"SB BG\square.png",320,240 F,0,136674,136766,0,1 R,0,136674,136766,0,-4.415683 V,0,136766,136950,0.5,0.5,10,0.5 M,0,136766,137134,256,259,198,450 F,0,136766,137134,1 V,0,136950,137134,10,0.5,0.5,0.5 F,0,137134,137318,1,0
Sprite,Foreground,Centre,"SB BG\square.png",320,240 F,0,136674,136766,0,1 R,0,136674,136766,0,-5.67232 V,0,136766,136950,0.5,0.5,10,0.5 M,0,136766,137134,256,259,420,374 F,0,136766,137134,1 V,0,136950,137134,10,0.5,0.5,0.5 F,0,137134,137318,1,0
Sprite,Foreground,Centre,"SB BG\dot.png",320,240 F,2,136582,136766,0,1 M,0,136766,137134,256,259 F,2,136766,137134,1 S,1,136766,137134,1,2 F,2,137134,137318,1,0
Sprite,Foreground,Centre,"SB BG\highlight.png",320,240 C,0,0,,252,230,182 F,2,136858,136950,0,1 M,0,136950,138422,458,420 F,1,136950,138422,1,0
Sprite,Foreground,Centre,"SB BG\square.png",320,240 F,0,136858,136950,0,1 R,0,136858,136950,0,-0.9075712 V,0,136950,137134,0.5,0.5,10,0.5 M,0,136950,137318,458,420,581,262 F,0,136950,137318,1 V,0,137134,137318,10,0.5,0.5,0.5 F,0,137318,137502,1,0
Sprite,Foreground,Centre,"SB BG\square.png",320,240 F,0,136858,136950,0,1 R,0,136858,136950,0,-1.500983 V,0,136950,137134,0.5,0.5,10,0.5 M,0,136950,137318,458,420,472,220 F,0,136950,137318,1 V,0,137134,137318,10,0.5,0.5,0.5 F,0,137318,137502,1,0
Sprite,Foreground,Centre,"SB BG\square.png",320,240 F,0,136858,136950,0,1 R,0,136858,136950,0,-2.687807 V,0,136950,137134,0.5,0.5,8,0.5 M,0,136950,137318,458,420,278,332 F,0,136950,137318,1 V,0,137134,137318,8,0.5,0.5,0.5 F,0,137318,137502,1,0
Sprite,Foreground,Centre,"SB BG\square.png",320,240 F,0,136858,136950,0,1 R,0,136858,136950,0,-4.258604 V,0,136950,137134,0.5,0.5,8,0.5 M,0,136950,137318,458,420,370,600 F,0,136950,137318,1 V,0,137134,137318,8,0.5,0.5,0.5 F,0,137318,137502,1,0
Sprite,Foreground,Centre,"SB BG\square.png",320,240 F,0,136858,136950,0,1 R,0,136858,136950,0,-6.003932 V,0,136950,137134,0.5,0.5,8,0.5 M,0,136950,137318,458,420,650,475 F,0,136950,137318,1 V,0,137134,137318,8,0.5,0.5,0.5 F,0,137318,137502,1,0
Sprite,Foreground,Centre,"SB BG\dot.png",320,240 F,2,136766,136950,0,1 M,0,136950,137318,458,420 F,2,136950,137318,1 S,1,136950,137318,1,2 F,2,137318,137502,1,0
Sprite,Foreground,Centre,"SB BG\highlight.png",320,240 C,0,0,,252,230,182 F,2,137042,137134,0,1 M,0,137134,138606,536,207 F,1,137134,138606,1,0
Sprite,Foreground,Centre,"SB BG\square.png",320,240 F,0,137042,137134,0,1 R,0,137042,137134,0,-1.012291 V,0,137134,137318,0.5,0.5,8,0.5 M,0,137134,137502,536,207,642,37 F,0,137134,137502,1 V,0,137318,137502,8,0.5,0.5,0.5 F,0,137502,137686,1,0
Sprite,Foreground,Centre,"SB BG\square.png",320,240 F,0,137042,137134,0,1 R,0,137042,137134,0,-1.972222 V,0,137134,137318,0.5,0.5,9,0.5 M,0,137134,137502,536,207,458,23 F,0,137134,137502,1 V,0,137318,137502,9,0.5,0.5,0.5 F,0,137502,137686,1,0
Sprite,Foreground,Centre,"SB BG\square.png",320,240 F,0,137042,137134,0,1 R,0,137042,137134,0,-2.740167 V,0,137134,137318,0.5,0.5,10,0.5 M,0,137134,137502,536,207,352,129 F,0,137134,137502,1 V,0,137318,137502,10,0.5,0.5,0.5 F,0,137502,137686,1,0
Sprite,Foreground,Centre,"SB BG\square.png",320,240 F,0,137042,137134,0,1 R,0,137042,137134,0,-4.764749 V,0,137134,137318,0.5,0.5,9,0.5 M,0,137134,137502,536,207,546,407 F,0,137134,137502,1 V,0,137318,137502,9,0.5,0.5,0.5 F,0,137502,137686,1,0
Sprite,Foreground,Centre,"SB BG\square.png",320,240 F,0,137042,137134,0,1 R,0,137042,137134,0,-5.585053 V,0,137134,137318,0.5,0.5,8,0.5 M,0,137134,137502,536,207,689,336 F,0,137134,137502,1 V,0,137318,137502,8,0.5,0.5,0.5 F,0,137502,137686,1,0
Sprite,Foreground,Centre,"SB BG\dot.png",320,240 F,2,136950,137134,0,1 M,0,137134,137502,536,207 F,2,137134,137502,1 S,1,137134,137502,1,2 F,2,137502,137686,1,0
Sprite,Foreground,Centre,"SB BG\highlight.png",320,240 C,0,0,,252,230,182 F,2,137226,137318,0,1 M,0,137318,138790,336,175 F,1,137318,138790,1,0
Sprite,Foreground,Centre,"SB BG\square.png",320,240 F,0,137226,137318,0,1 R,0,137226,137318,0,-0.7853982 V,0,137318,137502,0.5,0.5,8,0.5 M,0,137318,137686,336,175,477,34 F,0,137318,137686,1 V,0,137502,137686,8,0.5,0.5,0.5 F,0,137686,137870,1,0
Sprite,Foreground,Centre,"SB BG\square.png",320,240 F,0,137226,137318,0,1 R,0,137226,137318,0,-1.623156 V,0,137318,137502,0.5,0.5,10,0.5 M,0,137318,137686,336,175,326,-25 F,0,137318,137686,1 V,0,137502,137686,10,0.5,0.5,0.5 F,0,137686,137870,1,0
Sprite,Foreground,Centre,"SB BG\square.png",320,240 F,0,137226,137318,0,1 R,0,137226,137318,0,-3.438299 V,0,137318,137502,0.5,0.5,8,0.5 M,0,137318,137686,336,175,145,233 F,0,137318,137686,1 V,0,137502,137686,8,0.5,0.5,0.5 F,0,137686,137870,1,0
Sprite,Foreground,Centre,"SB BG\square.png",320,240 F,0,137226,137318,0,1 R,0,137226,137318,0,-4.502949 V,0,137318,137502,0.5,0.5,10,0.5 M,0,137318,137686,336,175,294,371 F,0,137318,137686,1 V,0,137502,137686,10,0.5,0.5,0.5 F,0,137686,137870,1,0
Sprite,Foreground,Centre,"SB BG\square.png",320,240 F,0,137226,137318,0,1 R,0,137226,137318,0,-5.235988 V,0,137318,137502,0.5,0.5,9,0.5 M,0,137318,137686,336,175,436,348 F,0,137318,137686,1 V,0,137502,137686,9,0.5,0.5,0.5 F,0,137686,137870,1,0
Sprite,Foreground,Centre,"SB BG\dot.png",320,240 F,2,137134,137318,0,1 M,0,137318,137686,336,175 F,2,137318,137686,1 S,1,137318,137686,1,2 F,2,137686,137870,1,0
Sprite,Foreground,Centre,"SB BG\highlight.png",320,240 C,0,0,,251,133,62 F,2,137410,137502,0,1 M,0,137502,138974,408,279 F,1,137502,138974,1,0
Sprite,Foreground,Centre,"SB BG\square.png",320,240 F,0,137410,137502,0,1 R,0,137410,137502,0,-0.6283185 V,0,137502,137686,0.5,0.5,8,0.5 M,0,137502,138238,408,279,570,161 F,0,137502,138238,1 V,0,137686,138238,8,0.5,0.5,0.5 F,0,138238,138422,1,0
Sprite,Foreground,Centre,"SB BG\square.png",320,240 F,0,137410,137502,0,1 R,0,137410,137502,0,-1.466077 V,0,137502,137686,0.5,0.5,8,0.5 M,0,137502,138238,408,279,429,80 F,0,137502,138238,1 V,0,137686,138238,8,0.5,0.5,0.5 F,0,138238,138422,1,0
Sprite,Foreground,Centre,"SB BG\square.png",320,240 F,0,137410,137502,0,1 R,0,137410,137502,0,-3.054326 V,0,137502,137686,0.5,0.5,9,0.5 M,0,137502,138238,408,279,209,262 F,0,137502,138238,1 V,0,137686,138238,9,0.5,0.5,0.5 F,0,138238,138422,1,0
Sprite,Foreground,Centre,"SB BG\square.png",320,240 F,0,137410,137502,0,1 R,0,137410,137502,0,-4.468043 V,0,137502,137686,0.5,0.5,10,0.5 M,0,137502,138238,408,279,360,473 F,0,137502,138238,1 V,0,137686,138238,10,0.5,0.5,0.5 F,0,138238,138422,1,0
Sprite,Foreground,Centre,"SB BG\square.png",320,240 F,0,137410,137502,0,1 R,0,137410,137502,0,-5.88176 V,0,137502,137686,0.5,0.5,8,0.5 M,0,137502,138238,408,279,592,357 F,0,137502,138238,1 V,0,137686,138238,8,0.5,0.5,0.5 F,0,138238,138422,1,0
Sprite,Foreground,Centre,"SB BG\dot.png",320,240 F,2,137318,137502,0,1 M,0,137502,138238,408,279 F,2,137502,138238,1 S,1,137502,138238,1,2 F,2,138238,138422,1,0
Sprite,Foreground,Centre,"SB BG\highlight.png",320,240 C,0,0,,252,230,182 F,2,136490,136582,0,1 M,0,136582,138054,408,279 F,1,136582,138054,1,0
Sprite,Foreground,Centre,"SB BG\square.png",320,240 F,0,136490,136582,0,1 R,0,136490,136582,0,-0.4886922 V,0,136582,136766,0.5,0.5,9,0.5 M,0,136582,136950,408,279,585,185 F,0,136582,136950,1 V,0,136766,136950,9,0.5,0.5,0.5 F,0,136950,137134,1,0
Sprite,Foreground,Centre,"SB BG\square.png",320,240 F,0,136490,136582,0,1 R,0,136490,136582,0,-2.059489 V,0,136582,136766,0.5,0.5,10,0.5 M,0,136582,136950,408,279,314,102 F,0,136582,136950,1 V,0,136766,136950,10,0.5,0.5,0.5 F,0,136950,137134,1,0
Sprite,Foreground,Centre,"SB BG\square.png",320,240 F,0,136490,136582,0,1 R,0,136490,136582,0,-3.071779 V,0,136582,136766,0.5,0.5,8,0.5 M,0,136582,136950,408,279,208,265 F,0,136582,136950,1 V,0,136766,136950,8,0.5,0.5,0.5 F,0,136950,137134,1,0
Sprite,Foreground,Centre,"SB BG\square.png",320,240 F,0,136490,136582,0,1 R,0,136490,136582,0,-4.572762 V,0,136582,136766,0.5,0.5,8,0.5 M,0,136582,136950,408,279,380,477 F,0,136582,136950,1 V,0,136766,136950,8,0.5,0.5,0.5 F,0,136950,137134,1,0
Sprite,Foreground,Centre,"SB BG\square.png",320,240 F,0,136490,136582,0,1 R,0,136490,136582,0,-5.427974 V,0,136582,136766,0.5,0.5,8,0.5 M,0,136582,136950,408,279,539,430 F,0,136582,136950,1 V,0,136766,136950,8,0.5,0.5,0.5 F,0,136950,137134,1,0
Sprite,Foreground,Centre,"SB BG\dot.png",320,240 F,2,136398,136582,0,1 M,0,136582,136950,408,279 F,2,136582,136950,1 S,1,136582,136950,1,2 F,2,136950,137134,1,0
Sprite,Foreground,Centre,"SB BG\highlight.png",320,240 C,0,0,,0,255,255 F,2,138515,138607,0,1 M,0,138607,140079,320,247 F,1,138607,140079,1,0
Sprite,Foreground,Centre,"SB BG\square.png",320,240 F,0,138515,138607,0,1 R,0,138515,138607,0,-0.6632251 V,0,138607,138791,0.5,0.5,9,0.5 M,0,138607,139343,320,247,478,124 F,0,138607,139343,1 V,0,138791,139343,9,0.5,0.5,0.5 F,0,139343,139527,1,0
Sprite,Foreground,Centre,"SB BG\square.png",320,240 F,0,138515,138607,0,1 R,0,138515,138607,0,-1.500983 V,0,138607,138791,0.5,0.5,8,0.5 M,0,138607,139343,320,247,334,47 F,0,138607,139343,1 V,0,138791,139343,8,0.5,0.5,0.5 F,0,139343,139527,1,0
Sprite,Foreground,Centre,"SB BG\square.png",320,240 F,0,138515,138607,0,1 R,0,138515,138607,0,-3.508112 V,0,138607,138791,0.5,0.5,10,0.5 M,0,138607,139343,320,247,133,319 F,0,138607,139343,1 V,0,138791,139343,10,0.5,0.5,0.5 F,0,139343,139527,1,0
Sprite,Foreground,Centre,"SB BG\square.png",320,240 F,0,138515,138607,0,1 R,0,138515,138607,0,-4.066617 V,0,138607,138791,0.5,0.5,8,0.5 M,0,138607,139343,320,247,200,407 F,0,138607,139343,1 V,0,138791,139343,8,0.5,0.5,0.5 F,0,139343,139527,1,0
Sprite,Foreground,Centre,"SB BG\square.png",320,240 F,0,138515,138607,0,1 R,0,138515,138607,0,-5.166174 V,0,138607,138791,0.5,0.5,9,0.5 M,0,138607,139343,320,247,408,427 F,0,138607,139343,1 V,0,138791,139343,9,0.5,0.5,0.5 F,0,139343,139527,1,0
Sprite,Foreground,Centre,"SB BG\dot.png",320,240 F,2,138423,138607,0,1 M,0,138607,139343,320,247 F,2,138607,139343,1 S,1,138607,139343,1,2 F,2,139343,139527,1,0
Sprite,Foreground,Centre,"SB BG\highlight.png",320,240 C,0,0,,0,128,255 F,2,139619,139711,0,1 M,0,139711,141183,232,215 F,1,139711,141183,1,0
Sprite,Foreground,Centre,"SB BG\square.png",320,240 F,0,139619,139711,0,1 R,0,139619,139711,0,-0.7504916 V,0,139711,139895,0.5,0.5,9,0.5 M,0,139711,140447,232,215,378,79 F,0,139711,140447,1 V,0,139895,140447,9,0.5,0.5,0.5 F,0,140447,140631,1,0
Sprite,Foreground,Centre,"SB BG\square.png",320,240 F,0,139619,139711,0,1 R,0,139619,139711,0,-1.396263 V,0,139711,139895,0.5,0.5,8,0.5 M,0,139711,140447,232,215,267,18 F,0,139711,140447,1 V,0,139895,140447,8,0.5,0.5,0.5 F,0,140447,140631,1,0
Sprite,Foreground,Centre,"SB BG\square.png",320,240 F,0,139619,139711,0,1 R,0,139619,139711,0,-3.246312 V,0,139711,139895,0.5,0.5,9,0.5 M,0,139711,140447,232,215,33,236 F,0,139711,140447,1 V,0,139895,140447,9,0.5,0.5,0.5 F,0,140447,140631,1,0
Sprite,Foreground,Centre,"SB BG\square.png",320,240 F,0,139619,139711,0,1 R,0,139619,139711,0,-4.45059 V,0,139711,139895,0.5,0.5,8,0.5 M,0,139711,140447,232,215,180,408 F,0,139711,140447,1 V,0,139895,140447,8,0.5,0.5,0.5 F,0,140447,140631,1,0
Sprite,Foreground,Centre,"SB BG\square.png",320,240 F,0,139619,139711,0,1 R,0,139619,139711,0,-5.358161 V,0,139711,139895,0.5,0.5,10,0.5 M,0,139711,140447,232,215,352,375 F,0,139711,140447,1 V,0,139895,140447,10,0.5,0.5,0.5 F,0,140447,140631,1,0
Sprite,Foreground,Centre,"SB BG\dot.png",320,240 F,2,139527,139711,0,1 M,0,139711,140447,232,215 F,2,139711,140447,1 S,1,139711,140447,1,2 F,2,140447,140631,1,0
Sprite,Foreground,Centre,"SB BG\ring.png",320,240 F,2,1215,1307,0,1 M,0,1307,2043,404,119 F,1,1307,2043,1,0 S,0,1307,2043,0.2,1
Sprite,Foreground,Centre,"SB BG\ring.png",320,240 F,2,7104,7196,0,1 M,0,7196,7932,340,299 F,1,7196,7932,1,0 S,0,7196,7932,0.2,1
Sprite,Foreground,Centre,"SB BG\ring.png",320,240 F,2,10049,10141,0,1 M,0,10141,10877,152,335 F,1,10141,10877,1,0 S,0,10141,10877,0.2,1
Sprite,Foreground,Centre,"SB BG\ring.png",320,240 F,2,16491,16583,0,1 M,0,16583,17319,344,255 F,1,16583,17319,1,0 S,0,16583,17319,0.2,1
Sprite,Foreground,Centre,"SB BG\ring.png",320,240 F,2,18331,18423,0,1 M,0,18423,19159,308,215 F,1,18423,19159,1,0 S,0,18423,19159,0.2,1
Sprite,Foreground,Centre,"SB BG\ring.png",320,240 F,2,24773,24865,0,1 M,0,24865,25601,320,247 F,1,24865,25601,1,0 S,0,24865,25601,0.2,1
Sprite,Foreground,Centre,"SB BG\ring.png",320,240 F,2,12994,13086,0,1 M,0,13086,13822,344,307 F,1,13086,13822,1,0 S,0,13086,13822,0.2,1
Sprite,Foreground,Centre,"SB BG\ring.png",320,240 F,2,18883,18975,0,1 M,0,18975,19711,448,155 F,1,18975,19711,1,0 S,0,18975,19711,0.2,1
Sprite,Foreground,Centre,"SB BG\ring.png",320,240 F,2,22380,22472,0,1 M,0,22472,23208,220,83 F,1,22472,23208,1,0 S,0,22472,23208,0.2,1
Sprite,Foreground,Centre,"SB BG\ring.png",320,240 F,2,24221,24313,0,1 M,0,24313,25049,208,223 F,1,24313,25049,1,0 S,0,24313,25049,0.2,1
Sprite,Foreground,Centre,"SB BG\ring.png",320,240 F,2,28454,28546,0,1 M,0,28546,29282,376,323 F,1,28546,29282,1,0 S,0,28546,29282,0.2,1
Sprite,Foreground,Centre,"SB BG\ring.png",320,240 F,2,31398,31490,0,1 M,0,31490,32226,392,395 F,1,31490,32226,1,0 S,0,31490,32226,0.2,1
Sprite,Foreground,Centre,"SB BG\ring.png",320,240 F,2,32134,32226,0,1 M,0,32226,32962,292,243 F,1,32226,32962,1,0 S,0,32226,32962,0.2,1
Sprite,Foreground,Centre,"SB BG\ring.png",320,240 F,2,32871,32963,0,1 M,0,32963,33699,128,227 F,1,32963,33699,1,0 S,0,32963,33699,0.2,1
Sprite,Foreground,Centre,"SB BG\ring.png",320,240 F,2,34343,34435,0,1 M,0,34435,35171,307,238 F,1,34435,35171,1,0 S,0,34435,35171,0.2,1
Sprite,Foreground,Centre,"SB BG\ring.png",320,240 F,2,35815,35907,0,1 M,0,35907,36643,395,243 F,1,35907,36643,1,0 S,0,35907,36643,0.2,1
Sprite,Foreground,Centre,"SB BG\ring.png",320,240 F,2,38760,38852,0,1 M,0,38852,39588,404,335 F,1,38852,39588,1,0 S,0,38852,39588,0.2,1
Sprite,Foreground,Centre,"SB BG\ring.png",320,240 F,2,40233,40325,0,1 M,0,40325,41061,336,127 F,1,40325,41061,1,0 S,0,40325,41061,0.2,1
Sprite,Foreground,Centre,"SB BG\ring.png",320,240 F,2,43177,43269,0,1 M,0,43269,44005,424,247 F,1,43269,44005,1,0 S,0,43269,44005,0.2,1
Sprite,Foreground,Centre,"SB BG\ring.png",320,240 F,2,44650,44742,0,1 M,0,44742,45478,424,247 F,1,44742,45478,1,0 S,0,44742,45478,0.2,1
Sprite,Foreground,Centre,"SB BG\ring.png",320,240 F,2,46122,46214,0,1 M,0,46214,46950,368,311 F,1,46214,46950,1,0 S,0,46214,46950,0.2,1
Sprite,Foreground,Centre,"SB BG\ring.png",320,240 F,2,49067,49159,0,1 M,0,49159,49895,232,183 F,1,49159,49895,1,0 S,0,49159,49895,0.2,1
Sprite,Foreground,Centre,"SB BG\ring.png",320,240 F,2,50539,50631,0,1 M,0,50631,51367,404,363 F,1,50631,51367,1,0 S,0,50631,51367,0.2,1
Sprite,Foreground,Centre,"SB BG\ring.png",320,240 F,2,51644,51736,0,1 M,0,51736,52472,196,231 F,1,51736,52472,1,0 S,0,51736,52472,0.2,1
Sprite,Foreground,Centre,"SB BG\ring.png",320,240 F,2,52012,52104,0,1 M,0,52104,52840,164,419 F,1,52104,52840,1,0 S,0,52104,52840,0.2,1
Sprite,Foreground,Centre,"SB BG\ring.png",320,240 F,2,55877,55969,0,1 M,0,55969,56705,272,223 F,1,55969,56705,1,0 S,0,55969,56705,0.2,1
Sprite,Foreground,Centre,"SB BG\ring.png",320,240 F,2,57901,57993,0,1 M,0,57993,58729,352,382 F,1,57993,58729,1,0 S,0,57993,58729,0.2,1
Sprite,Foreground,Centre,"SB BG\ring.png",320,240 F,2,62134,62226,0,1 M,0,62226,62962,492,259 F,1,62226,62962,1,0 S,0,62226,62962,0.2,1
Sprite,Foreground,Centre,"SB BG\ring.png",320,240 F,2,63791,63883,0,1 M,0,63883,64619,384,151 F,1,63883,64619,1,0 S,0,63883,64619,0.2,1
Sprite,Foreground,Centre,"SB BG\ring.png",320,240 F,2,65079,65171,0,1 M,0,65171,65907,296,219 F,1,65171,65907,1,0 S,0,65171,65907,0.2,1
Sprite,Foreground,Centre,"SB BG\ring.png",320,240 F,2,69680,69772,0,1 M,0,69772,70508,300,207 F,1,69772,70508,1,0 S,0,69772,70508,0.2,1
Sprite,Foreground,Centre,"SB BG\ring.png",320,240 F,2,70969,71061,0,1 M,0,71061,71797,272,235 F,1,71061,71797,1,0 S,0,71061,71797,0.2,1
Sprite,Foreground,Centre,"SB BG\ring.png",320,240 F,2,73913,74005,0,1 M,0,74005,74741,504,223 F,1,74005,74741,1,0 S,0,74005,74741,0.2,1
Sprite,Foreground,Centre,"SB BG\ring.png",320,240 F,2,75570,75662,0,1 M,0,75662,76398,248,167 F,1,75662,76398,1,0 S,0,75662,76398,0.2,1
Sprite,Foreground,Centre,"SB BG\ring.png",320,240 F,2,76858,76950,0,1 M,0,76950,77686,172,263 F,1,76950,77686,1,0 S,0,76950,77686,0.2,1
Sprite,Foreground,Centre,"SB BG\ring.png",320,240 F,2,78515,78607,0,1 M,0,78607,79343,452,419 F,1,78607,79343,1,0 S,0,78607,79343,0.2,1
Sprite,Foreground,Centre,"SB BG\ring.png",320,240 F,2,81459,81551,0,1 M,0,81551,82287,116,223 F,1,81551,82287,1,0 S,0,81551,82287,0.2,1
Sprite,Foreground,Centre,"SB BG\ring.png",320,240 F,2,82012,82104,0,1 M,0,82104,82840,324,367 F,1,82104,82840,1,0 S,0,82104,82840,0.2,1
Sprite,Foreground,Centre,"SB BG\ring.png",320,240 F,2,82748,82840,0,1 M,0,82840,83576,100,239 F,1,82840,83576,1,0 S,0,82840,83576,0.2,1
Sprite,Foreground,Centre,"SB BG\ring.png",320,240 F,2,84404,84496,0,1 M,0,84496,85232,456,167 F,1,84496,85232,1,0 S,0,84496,85232,0.2,1
Sprite,Foreground,Centre,"SB BG\ring.png",320,240 F,2,85324,85416,0,1 M,0,85416,86152,360,247 F,1,85416,86152,1,0 S,0,85416,86152,0.2,1
Sprite,Foreground,Centre,"SB BG\ring.png",320,240 F,2,85693,85785,0,1 M,0,85785,86521,200,263 F,1,85785,86521,1,0 S,0,85785,86521,0.2,1
Sprite,Foreground,Centre,"SB BG\ring.png",320,240 F,2,86061,86153,0,1 M,0,86153,86889,152,87 F,1,86153,86889,1,0 S,0,86153,86889,0.2,1
Sprite,Foreground,Centre,"SB BG\ring.png",320,240 F,2,86245,86337,0,1 M,0,86337,87073,324,211 F,1,86337,87073,1,0 S,0,86337,87073,0.2,1
Sprite,Foreground,Centre,"SB BG\ring.png",320,240 F,2,87165,87257,0,1 M,0,87257,87993,440,175 F,1,87257,87993,1,0 S,0,87257,87993,0.2,1
Sprite,Foreground,Centre,"SB BG\ring.png",320,240 F,2,91582,91674,0,1 M,0,91674,92410,376,395 F,1,91674,92410,1,0 S,0,91674,92410,0.2,1
Sprite,Foreground,Centre,"SB BG\ring.png",320,240 F,2,93239,93331,0,1 M,0,93331,94067,424,215 F,1,93331,94067,1,0 S,0,93331,94067,0.2,1
Sprite,Foreground,Centre,"SB BG\ring.png",320,240 F,2,96183,96275,0,1 M,0,96275,97011,220,239 F,1,96275,97011,1,0 S,0,96275,97011,0.2,1
Sprite,Foreground,Centre,"SB BG\ring.png",320,240 F,2,97472,97564,0,1 M,0,97564,98300,308,167 F,1,97564,98300,1,0 S,0,97564,98300,0.2,1
Sprite,Foreground,Centre,"SB BG\ring.png",320,240 F,2,98208,98300,0,1 M,0,98300,99036,416,239 F,1,98300,99036,1,0 S,0,98300,99036,0.2,1
Sprite,Foreground,Centre,"SB BG\ring.png",320,240 F,2,98944,99036,0,1 M,0,99036,99772,232,251 F,1,99036,99772,1,0 S,0,99036,99772,0.2,1
Sprite,Foreground,Centre,"SB BG\ring.png",320,240 F,2,103361,103453,0,1 M,0,103453,104189,384,231 F,1,103453,104189,1,0 S,0,103453,104189,0.2,1
Sprite,Foreground,Centre,"SB BG\ring.png",320,240 F,2,105018,105110,0,1 M,0,105110,105846,204,131 F,1,105110,105846,1,0 S,0,105110,105846,0.2,1
Sprite,Foreground,Centre,"SB BG\ring.png",320,240 F,2,109251,109343,0,1 M,0,109343,110079,252,323 F,1,109343,110079,1,0 S,0,109343,110079,0.2,1
Sprite,Foreground,Centre,"SB BG\ring.png",320,240 F,2,109803,109895,0,1 M,0,109895,110631,544,211 F,1,109895,110631,1,0 S,0,109895,110631,0.2,1
Sprite,Foreground,Centre,"SB BG\ring.png",320,240 F,2,110907,110999,0,1 M,0,110999,111735,376,379 F,1,110999,111735,1,0 S,0,110999,111735,0.2,1
Sprite,Foreground,Centre,"SB BG\ring.png",320,240 F,2,112196,112288,0,1 M,0,112288,113024,336,171 F,1,112288,113024,1,0 S,0,112288,113024,0.2,1
Sprite,Foreground,Centre,"SB BG\ring.png",320,240 F,2,112564,112656,0,1 M,0,112656,113392,177,137 F,1,112656,113392,1,0 S,0,112656,113392,0.2,1
Sprite,Foreground,Centre,"SB BG\ring.png",320,240 F,2,112748,112840,0,1 M,0,112840,113576,416,287 F,1,112840,113576,1,0 S,0,112840,113576,0.2,1
Sprite,Foreground,Centre,"SB BG\ring.png",320,240 F,2,116797,116889,0,1 M,0,116889,117625,228,331 F,1,116889,117625,1,0 S,0,116889,117625,0.2,1
Sprite,Foreground,Centre,"SB BG\ring.png",320,240 F,2,117533,117625,0,1 M,0,117625,118361,404,307 F,1,117625,118361,1,0 S,0,117625,118361,0.2,1
Sprite,Foreground,Centre,"SB BG\ring.png",320,240 F,2,118269,118361,0,1 M,0,118361,119097,212,343 F,1,118361,119097,1,0 S,0,118361,119097,0.2,1
Sprite,Foreground,Centre,"SB BG\ring.png",320,240 F,2,119742,119834,0,1 M,0,119834,120570,460,271 F,1,119834,120570,1,0 S,0,119834,120570,0.2,1
Sprite,Foreground,Centre,"SB BG\ring.png",320,240 F,2,121214,121306,0,1 M,0,121306,122042,103,235 F,1,121306,122042,1,0 S,0,121306,122042,0.2,1
Sprite,Foreground,Centre,"SB BG\ring.png",320,240 F,2,124159,124251,0,1 M,0,124251,124987,164,215 F,1,124251,124987,1,0 S,0,124251,124987,0.2,1
Sprite,Foreground,Centre,"SB BG\ring.png",320,240 F,2,125631,125723,0,1 M,0,125723,126459,116,355 F,1,125723,126459,1,0 S,0,125723,126459,0.2,1
Sprite,Foreground,Centre,"SB BG\highlight.png",320,240 C,0,0,,0,255,128 F,2,113484,113576,0,0.6 M,0,113576,115048,124,223 F,1,113576,115048,0.6,0
Sprite,Foreground,Centre,"SB BG\highlight.png",320,240 C,0,0,,252,230,182 F,2,113852,113944,0,0.8 M,0,113944,115416,220,299 F,1,113944,115416,0.8,0
Sprite,Foreground,Centre,"SB BG\highlight.png",320,240 C,0,0,,252,230,182 F,2,114220,114312,0,0.8 M,0,114312,115784,432,163 F,1,114312,115784,0.8,0
Sprite,Foreground,Centre,"SB BG\highlight.png",320,240 C,0,0,,252,230,182 F,2,114404,114496,0,0.8 M,0,114496,115968,448,327 F,1,114496,115968,0.8,0
Sprite,Foreground,Centre,"SB BG\highlight.png",320,240 C,0,0,,252,230,182 F,2,114496,114588,0,0.8 M,0,114588,116060,448,327 F,1,114588,116060,0.8,0
Sprite,Foreground,Centre,"SB BG\highlight.png",320,240 C,0,0,,252,230,182 F,2,114588,114680,0,0.8 M,0,114680,116152,448,327 F,1,114680,116152,0.8,0
Sprite,Foreground,Centre,"SB BG\highlight.png",320,240 C,0,0,,252,230,182 F,2,114772,114864,0,0.8 M,0,114864,116336,540,215 F,1,114864,116336,0.8,0
Sprite,Foreground,Centre,"SB BG\highlight.png",320,240 C,0,0,,252,230,182 F,2,114956,115048,0,0.8 M,0,115048,116520,336,259 F,1,115048,116520,0.8,0
Sprite,Foreground,Centre,"SB BG\highlight.png",320,240 C,0,0,,251,133,62 F,2,115324,115416,0,0.5 M,0,115416,116888,204,259 F,1,115416,116888,0.5,0
Sprite,Foreground,Centre,"SB BG\highlight.png",320,240 C,0,0,,251,133,62 F,2,115693,115785,0,0.5 M,0,115785,117257,360,83 F,1,115785,117257,0.5,0
Sprite,Foreground,Centre,"SB BG\highlight.png",320,240 C,0,0,,251,133,62 F,2,115877,115969,0,0.5 M,0,115969,117441,304,235 F,1,115969,117441,0.5,0
Sprite,Foreground,Centre,"SB BG\highlight.png",320,240 C,0,0,,251,133,62 F,2,115969,116061,0,0.5 M,0,116061,117533,304,235 F,1,116061,117533,0.5,0
Sprite,Foreground,Centre,"SB BG\highlight.png",320,240 C,0,0,,251,133,62 F,2,116061,116153,0,0.5 M,0,116153,117625,304,235 F,1,116153,117625,0.5,0
Sprite,Foreground,Centre,"SB BG\highlight.png",320,240 C,0,0,,251,133,62 F,2,116245,116337,0,0.5 M,0,116337,117809,204,135 F,1,116337,117809,0.5,0
Sprite,Foreground,Centre,"SB BG\highlight.png",320,240 C,0,0,,251,133,62 F,2,116429,116521,0,0.5 M,0,116521,117993,412,163 F,1,116521,117993,0.5,0
Sprite,Foreground,Centre,"SB BG\highlight.png",320,240 C,0,0,,0,255,255 F,2,116797,116889,0,0.7 M,0,116889,118361,228,331 F,1,116889,118361,0.7,0
Sprite,Foreground,Centre,"SB BG\highlight.png",320,240 C,0,0,,0,255,255 F,2,117165,117257,0,0.7 M,0,117257,118729,320,139 F,1,117257,118729,0.7,0
Sprite,Foreground,Centre,"SB BG\highlight.png",320,240 C,0,0,,0,255,255 F,2,117349,117441,0,0.7 M,0,117441,118913,404,307 F,1,117441,118913,0.7,0
Sprite,Foreground,Centre,"SB BG\highlight.png",320,240 C,0,0,,0,255,255 F,2,117441,117533,0,0.7 M,0,117533,119005,404,307 F,1,117533,119005,0.7,0
Sprite,Foreground,Centre,"SB BG\highlight.png",320,240 C,0,0,,0,255,255 F,2,117533,117625,0,0.7 M,0,117625,119097,404,307 F,1,117625,119097,0.7,0
Sprite,Foreground,Centre,"SB BG\highlight.png",320,240 C,0,0,,0,255,255 F,2,117901,117993,0,0.7 M,0,117993,119465,304,235 F,1,117993,119465,0.7,0
Sprite,Foreground,Centre,"SB BG\highlight.png",320,240 C,0,0,,0,255,255 F,2,118085,118177,0,0.7 M,0,118177,119649,212,343 F,1,118177,119649,0.7,0
Sprite,Foreground,Centre,"SB BG\highlight.png",320,240 C,0,0,,0,255,255 F,2,118177,118269,0,0.7 M,0,118269,119741,212,343 F,1,118269,119741,0.7,0
Sprite,Foreground,Centre,"SB BG\highlight.png",320,240 C,0,0,,0,128,255 F,2,118269,118361,0,0.5 M,0,118361,119833,212,343 F,1,118361,119833,0.5,0
Sprite,Foreground,Centre,"SB BG\highlight.png",320,240 C,0,0,,0,128,255 F,2,118453,118545,0,0.5 M,0,118545,120017,136,191 F,1,118545,120017,0.5,0
Sprite,Foreground,Centre,"SB BG\highlight.png",320,240 C,0,0,,0,128,255 F,2,118637,118729,0,0.5 M,0,118729,120201,112,307 F,1,118729,120201,0.5,0
Sprite,Foreground,Centre,"SB BG\highlight.png",320,240 C,0,0,,0,128,255 F,2,118821,118913,0,0.5 M,0,118913,120385,240,151 F,1,118913,120385,0.5,0
Sprite,Foreground,Centre,"SB BG\highlight.png",320,240 C,0,0,,0,128,255 F,2,118913,119005,0,0.5 M,0,119005,120477,252,159 F,1,119005,120477,0.5,0
Sprite,Foreground,Centre,"SB BG\highlight.png",320,240 C,0,0,,0,128,255 F,2,119005,119097,0,0.5 M,0,119097,120569,264,167 F,1,119097,120569,0.5,0
Sprite,Foreground,Centre,"SB BG\highlight.png",320,240 C,0,0,,0,128,255 F,2,119373,119465,0,0.5 M,0,119465,120937,400,215 F,1,119465,120937,0.5,0
Sprite,Foreground,Centre,"SB BG\highlight.png",320,240 C,0,0,,0,255,128 F,2,119742,119834,0,0.6 M,0,119834,121306,460,271 F,1,119834,121306,0.6,0
Sprite,Foreground,Centre,"SB BG\highlight.png",320,240 C,0,0,,0,255,128 F,2,120110,120202,0,0.6 M,0,120202,121674,460,399 F,1,120202,121674,0.6,0
Sprite,Foreground,Centre,"SB BG\highlight.png",320,240 C,0,0,,0,255,128 F,2,120294,120386,0,0.6 M,0,120386,121858,340,271 F,1,120386,121858,0.6,0
Sprite,Foreground,Centre,"SB BG\highlight.png",320,240 C,0,0,,0,255,128 F,2,120386,120478,0,0.6 M,0,120478,121950,340,271 F,1,120478,121950,0.6,0
Sprite,Foreground,Centre,"SB BG\highlight.png",320,240 C,0,0,,0,255,128 F,2,120478,120570,0,0.6 M,0,120570,122042,340,271 F,1,120570,122042,0.6,0
Sprite,Foreground,Centre,"SB BG\highlight.png",320,240 C,0,0,,0,255,128 F,2,120662,120754,0,0.6 M,0,120754,122226,220,375 F,1,120754,122226,0.6,0
Sprite,Foreground,Centre,"SB BG\highlight.png",320,240 C,0,0,,0,255,128 F,2,120754,120846,0,0.6 M,0,120846,122318,178,393 F,1,120846,122318,0.6,0
Sprite,Foreground,Centre,"SB BG\highlight.png",320,240 C,0,0,,0,255,128 F,2,120846,120938,0,0.6 M,0,120938,122410,134,383 F,1,120938,122410,0.6,0
Sprite,Foreground,Centre,"SB BG\highlight.png",320,240 C,0,0,,0,255,128 F,2,120938,121030,0,0.6 M,0,121030,122502,94,361 F,1,121030,122502,0.6,0
Sprite,Foreground,Centre,"SB BG\highlight.png",320,240 C,0,0,,0,255,128 F,2,121030,121122,0,0.6 M,0,121122,122594,71,321 F,1,121122,122594,0.6,0
Sprite,Foreground,Centre,"SB BG\highlight.png",320,240 C,0,0,,0,255,128 F,2,121122,121214,0,0.6 M,0,121214,122686,71,276 F,1,121214,122686,0.6,0
Sprite,Foreground,Centre,"SB BG\highlight.png",320,240 C,0,0,,252,230,182 F,2,121214,121306,0,0.8 M,0,121306,122778,103,235 F,1,121306,122778,0.8,0
Sprite,Foreground,Centre,"SB BG\highlight.png",320,240 C,0,0,,252,230,182 F,2,121398,121490,0,0.8 M,0,121490,122962,200,119 F,1,121490,122962,0.8,0
Sprite,Foreground,Centre,"SB BG\highlight.png",320,240 C,0,0,,252,230,182 F,2,121582,121674,0,0.8 M,0,121674,123146,64,103 F,1,121674,123146,0.8,0
Sprite,Foreground,Centre,"SB BG\highlight.png",320,240 C,0,0,,252,230,182 F,2,121858,121950,0,0.8 M,0,121950,123422,172,223 F,1,121950,123422,0.8,0
Sprite,Foreground,Centre,"SB BG\highlight.png",320,240 C,0,0,,252,230,182 F,2,121950,122042,0,0.8 M,0,122042,123514,172,223 F,1,122042,123514,0.8,0
Sprite,Foreground,Centre,"SB BG\highlight.png",320,240 C,0,0,,252,230,182 F,2,122318,122410,0,0.8 M,0,122410,123882,468,271 F,1,122410,123882,0.8,0
Sprite,Foreground,Centre,"SB BG\highlight.png",320,240 C,0,0,,252,230,182 F,2,122594,122686,0,0.8 M,0,122686,124158,300,311 F,1,122686,124158,0.8,0
Sprite,Foreground,Centre,"SB BG\highlight.png",320,240 C,0,0,,251,133,62 F,2,122686,122778,0,0.5 M,0,122778,124250,300,311 F,1,122778,124250,0.5,0
Sprite,Foreground,Centre,"SB BG\highlight.png",320,240 C,0,0,,251,133,62 F,2,123054,123146,0,0.5 M,0,123146,124618,376,199 F,1,123146,124618,0.5,0
Sprite,Foreground,Centre,"SB BG\highlight.png",320,240 C,0,0,,251,133,62 F,2,123238,123330,0,0.5 M,0,123330,124802,196,239 F,1,123330,124802,0.5,0
Sprite,Foreground,Centre,"SB BG\highlight.png",320,240 C,0,0,,251,133,62 F,2,123331,123423,0,0.5 M,0,123423,124895,196,239 F,1,123423,124895,0.5,0
Sprite,Foreground,Centre,"SB BG\highlight.png",320,240 C,0,0,,251,133,62 F,2,123423,123515,0,0.5 M,0,123515,124987,196,239 F,1,123515,124987,0.5,0
Sprite,Foreground,Centre,"SB BG\highlight.png",320,240 C,0,0,,251,133,62 F,2,123607,123699,0,0.5 M,0,123699,125171,296,139 F,1,123699,125171,0.5,0
Sprite,Foreground,Centre,"SB BG\highlight.png",320,240 C,0,0,,251,133,62 F,2,123791,123883,0,0.5 M,0,123883,125355,300,311 F,1,123883,125355,0.5,0
Sprite,Foreground,Centre,"SB BG\highlight.png",320,240 C,0,0,,251,133,62 F,2,123975,124067,0,0.5 M,0,124067,125539,164,215 F,1,124067,125539,0.5,0
Sprite,Foreground,Centre,"SB BG\highlight.png",320,240 C,0,0,,251,133,62 F,2,124067,124159,0,0.5 M,0,124159,125631,164,215 F,1,124159,125631,0.5,0
Sprite,Foreground,Centre,"SB BG\highlight.png",320,240 C,0,0,,0,255,255 F,2,124159,124251,0,0.7 M,0,124251,125723,164,215 F,1,124251,125723,0.7,0
Sprite,Foreground,Centre,"SB BG\highlight.png",320,240 C,0,0,,0,255,255 F,2,124527,124619,0,0.7 M,0,124619,126091,160,371 F,1,124619,126091,0.7,0
Sprite,Foreground,Centre,"SB BG\highlight.png",320,240 C,0,0,,0,255,255 F,2,124803,124895,0,0.7 M,0,124895,126367,300,311 F,1,124895,126367,0.7,0
Sprite,Foreground,Centre,"SB BG\highlight.png",320,240 C,0,0,,0,255,255 F,2,124895,124987,0,0.7 M,0,124987,126459,300,311 F,1,124987,126459,0.7,0
Sprite,Foreground,Centre,"SB BG\highlight.png",320,240 C,0,0,,0,255,255 F,2,125079,125171,0,0.7 M,0,125171,126643,176,171 F,1,125171,126643,0.7,0
Sprite,Foreground,Centre,"SB BG\highlight.png",320,240 C,0,0,,0,255,255 F,2,125171,125263,0,0.7 M,0,125263,126735,176,171 F,1,125263,126735,0.7,0
Sprite,Foreground,Centre,"SB BG\highlight.png",320,240 C,0,0,,0,255,255 F,2,125263,125355,0,0.7 M,0,125355,126827,176,171 F,1,125355,126827,0.7,0
Sprite,Foreground,Centre,"SB BG\highlight.png",320,240 C,0,0,,0,255,255 F,2,125447,125539,0,0.7 M,0,125539,127011,116,355 F,1,125539,127011,0.7,0
Sprite,Foreground,Centre,"SB BG\highlight.png",320,240 C,0,0,,0,255,255 F,2,125539,125631,0,0.7 M,0,125631,127103,116,355 F,1,125631,127103,0.7,0
Sprite,Foreground,Centre,"SB BG\highlight.png",320,240 C,0,0,,0,128,255 F,2,125631,125723,0,0.5 M,0,125723,127195,116,355 F,1,125723,127195,0.5,0
Sprite,Foreground,Centre,"SB BG\rip.png",320,240 C,0,0,,100,204,227 F,0,113484,113576,0,1 F,0,113576,114128,1,0.8 M,0,113576,114312,124,223,50,254 S,0,113576,114312,2.5 F,0,114128,114312,0.8,0
Sprite,Foreground,Centre,"SB BG\rip.png",320,240 C,0,0,,119,210,230 F,0,113484,113576,0,1 F,0,113576,114128,1,0.8 M,0,113576,114312,124,223,66,184 S,0,113576,114312,2.5 F,0,114128,114312,0.8,0
Sprite,Foreground,Centre,"SB BG\rip.png",320,240 C,0,0,,99,225,254 F,0,113484,113576,0,1 F,0,113576,114128,1,0.8 M,0,113576,114312,124,223,52,252 S,0,113576,114312,2.5 F,0,114128,114312,0.8,0
Sprite,Foreground,Centre,"SB BG\rip.png",320,240 C,0,0,,100,204,227 F,0,113484,113576,0,1 F,0,113576,114128,1,0.8 M,0,113576,114312,124,223,44,223 S,0,113576,114312,2.5 F,0,114128,114312,0.8,0
Sprite,Foreground,Centre,"SB BG\rip.png",320,240 C,0,0,,98,176,193 F,0,113484,113576,0,1 F,0,113576,114128,1,0.8 M,0,113576,114312,124,223,163,283 S,0,113576,114312,2.5 F,0,114128,114312,0.8,0
Sprite,Foreground,Centre,"SB BG\rip.png",320,240 C,0,0,,100,204,227 F,0,113484,113576,0,1 F,0,113576,114128,1,0.8 M,0,113576,114312,124,223,141,150 S,0,113576,114312,2.5 F,0,114128,114312,0.8,0
Sprite,Foreground,Centre,"SB BG\rip.png",320,240 C,0,0,,98,176,193 F,0,113484,113576,0,1 F,0,113576,114128,1,0.8 M,0,113576,114312,124,223,202,224 S,0,113576,114312,2.5 F,0,114128,114312,0.8,0
Sprite,Foreground,Centre,"SB BG\rip.png",320,240 C,0,0,,99,225,254 F,0,113484,113576,0,1 F,0,113576,114128,1,0.8 M,0,113576,114312,124,223,128,294 S,0,113576,114312,2.5 F,0,114128,114312,0.8,0
Sprite,Foreground,Centre,"SB BG\ring.png",320,240 F,2,83300,83392,0,1 M,0,83392,84128,216,267 F,1,83392,84128,1,0 S,0,83392,84128,0.2,1
//Storyboard Sound Samples

[TimingPoints]
1307,368.09705882353,4,2,2,55,1,0
1307,-133.333333333333,4,2,2,55,0,0
7196,-133.333333333333,4,2,1,55,0,0
7288,-133.333333333333,4,2,2,55,0,0
10141,-133.333333333333,4,2,1,55,0,0
10233,-133.333333333333,4,2,2,55,0,0
13086,-111.111111111111,4,2,2,55,0,0
15846,-111.111111111111,4,2,1,55,0,0
16030,-111.111111111111,4,2,2,55,0,0
16583,-111.111111111111,4,2,2,45,0,0
16675,-111.111111111111,4,2,2,55,0,0
21552,-111.111111111111,4,2,1,70,0,0
21644,-111.111111111111,4,2,2,55,0,0
22472,-111.111111111111,4,2,2,45,0,0
22564,-111.111111111111,4,2,2,55,0,0
24313,-111.111111111111,4,2,1,70,0,0
24497,-111.111111111111,4,2,2,55,0,0
27717,-100,4,2,1,60,0,0
28546,368.09705882353,4,2,1,70,1,0
30018,-100,4,2,2,80,0,0
30110,-100,4,2,1,70,0,0
40325,-100,4,2,1,65,0,0
52472,-100,4,2,3,65,0,0
55969,-100,4,2,1,65,0,0
56061,-100,4,2,3,65,0,0
57993,-100,4,2,1,65,0,0
58085,-100,4,2,3,65,0,0
62226,-100,4,2,1,65,0,0
62318,-100,4,2,3,65,0,0
63883,-100,4,2,1,75,0,0
84864,-100,4,2,2,75,0,0
84956,-100,4,2,1,75,0,0
85416,-100,4,2,2,75,0,0
85509,-100,4,2,1,75,0,0
86521,-100,4,2,1,5,0,0
87257,-100,4,2,1,100,0,0
87349,-100,4,2,3,90,0,0
91674,-100,4,2,1,100,0,0
91766,-100,4,2,3,90,0,0
93331,-100,4,2,1,100,0,0
93423,-100,4,2,3,90,0,0
96275,-100,4,2,1,90,0,0
96367,-100,4,2,3,90,0,0
97564,-100,4,2,1,100,0,0
97656,-100,4,2,3,90,0,0
98300,-100,4,2,1,90,0,0
98392,-100,4,2,3,90,0,0
99036,-100,4,2,1,100,0,0
99128,-100,4,2,3,90,0,0
103453,-100,4,2,1,100,0,0
103545,-100,4,2,3,90,0,0
105110,-111.111111111111,4,2,1,90,0,0
105202,-111.111111111111,4,2,3,80,0,0
109343,-111.111111111111,4,2,1,80,0,0
109435,-111.111111111111,4,2,3,80,0,0
109895,-111.111111111111,4,2,1,80,0,0
109987,-111.111111111111,4,2,3,80,0,0
110999,-100,4,2,1,80,0,0
111091,-100,4,2,3,80,0,0
112288,-100,4,2,1,100,0,0
114036,-100,4,2,3,90,0,0
116889,-100,4,2,1,100,0,0
116981,-100,4,2,3,90,0,0
117625,-100,4,2,1,100,0,0
117717,-100,4,2,3,90,0,0
118361,-100,4,2,1,100,0,0
118453,-100,4,2,3,90,0,0
119834,-100,4,2,1,100,0,0
119926,-100,4,2,3,90,0,0
121306,-100,4,2,1,100,0,0
121398,-100,4,2,3,90,0,0
124251,-100,4,2,1,100,0,0
124343,-100,4,2,3,90,0,0
125723,-100,4,2,1,100,0,0
126091,-100,4,2,1,90,0,0
139803,-100,4,2,1,60,0,0
141183,-100,4,2,1,50,0,0
142840,-100,4,2,1,40,0,0

[Colours]
Combo1 : 0,255,255
Combo2 : 0,128,255
Combo3 : 0,255,128
Combo4 : 252,230,182
Combo5 : 251,133,62

[HitObjects]
340,64,1307,5,4,0:0:0:0:
112,192,2779,5,0,0:0:0:0:
356,240,4251,5,0,0:0:0:0:
140,120,5540,1,8,0:0:0:0:
140,120,5632,1,8,0:0:0:0:
140,120,5724,6,0,P|96:216|160:280,2,202.500007724762,8|8|8,0:0|0:0|0:0,0:0:0:0:
276,244,7196,6,0,P|344:237|420:232,1,135.000005149842,6|0,0:0|0:0,0:0:0:0:
360,144,7748,2,0,B|308:116|308:56|308:56|332:28,2,135.000005149842,8|8|8,0:0|0:0|0:0,0:0:0:0:
456,160,8668,6,0,P|449:235|444:316,1,135.000005149842,8|0,0:0|0:0,0:0:0:0:
352,224,9221,1,8,0:0:0:0:
352,224,9589,1,8,0:0:0:0:
212,268,9773,2,0,P|166:261|100:260,1,101.250003862381,8|0,0:0|0:0,0:0:0:0:
88,280,10141,5,6,0:0:0:0:
328,144,10693,1,8,0:0:0:0:
160,160,11061,2,0,P|165:194|172:244,1,67.5000025749208,8|8,0:0|0:0,0:0:0:0:
168,256,11613,6,0,B|224:252|264:224|264:224|296:252|380:256,1,202.500007724762,8|8,0:0|0:0,0:0:0:0:
372,272,12533,1,0,0:0:0:0:
292,152,12718,1,2,0:0:0:0:
428,164,12902,1,2,0:0:0:0:
280,252,13086,6,0,L|292:352,1,80.9999975280763,14|0,0:0|0:0,0:0:0:0:
192,204,13454,2,0,L|201:123,1,80.9999975280763,8|0,0:0|0:0,0:0:0:0:
40,264,13822,2,0,P|82:263|144:252,1,80.9999975280763,8|0,0:0|0:0,0:0:0:0:
96,112,14190,1,8,0:0:0:0:
224,196,14374,1,0,0:0:0:0:
360,92,14558,6,0,P|351:177|344:260,1,161.999995056153,8|8,0:0|0:0,0:0:0:0:
448,160,15110,1,0,0:0:0:0:
256,184,15294,2,0,P|211:190|152:192,1,80.9999975280763,8|0,0:0|0:0,0:0:0:0:
224,48,15662,1,8,0:0:0:0:
280,200,15846,1,2,0:0:0:0:
100,152,16030,6,0,P|152:240|148:316,1,161.999995056153,8|8,3:2|0:0,0:0:0:0:
280,200,16583,2,0,P|326:194|368:184,1,80.9999975280763,4|8,0:0|0:0,0:0:0:0:
432,64,16951,1,0,0:0:0:0:
512,184,17135,2,0,L|500:296,1,80.9999975280763,8|0,0:0|0:0,0:0:0:0:
448,320,17411,1,0,0:0:0:0:
448,320,17503,6,0,P|373:309|264:304,1,161.999995056153,8|8,0:0|0:0,0:0:0:0:
120,208,18055,1,0,0:0:0:0:
196,340,18239,1,8,0:0:0:0:
244,160,18423,1,4,0:0:0:0:
116,228,18607,2,0,L|204:224,1,80.9999975280763,8|0,0:0|0:0,0:0:0:0:
384,100,18975,6,0,P|341:98|303:103,1,80.9999975280763,4|0,3:2|0:0,0:0:0:0:
412,260,19343,2,0,P|434:223|449:188,1,80.9999975280763,8|0,3:2|0:0,0:0:0:0:
240,200,19711,2,0,P|259:237|283:268,1,80.9999975280763,8|0,3:2|0:0,0:0:0:0:
188,112,20079,2,0,P|145:110|107:115,1,80.9999975280763,8|0,3:2|0:0,0:0:0:0:
292,104,20448,6,0,P|314:67|329:32,1,80.9999975280763,8|0,3:2|0:0,0:0:0:0:
160,192,20816,2,0,L|184:300,1,80.9999975280763,8|0,3:2|0:0,0:0:0:0:
352,156,21184,2,0,P|296:148|248:148,1,80.9999975280763,8|0,3:2|0:0,0:0:0:0:
300,336,21552,2,0,P|308:280|308:232,1,80.9999975280763,10|0,0:2|0:0,0:0:0:0:
72,224,21920,6,0,L|92:304,1,80.9999975280763,8|0,3:2|0:0,0:0:0:0:
152,112,22288,2,0,L|156:24,1,80.9999975280763,8|4,3:2|0:0,0:0:0:0:
240,192,22656,2,0,L|224:284,1,80.9999975280763,8|0,3:2|0:0,0:0:0:0:
336,160,23024,1,10,3:2:0:0:
148,140,23208,1,0,0:0:0:0:
360,164,23392,6,0,L|444:152,1,80.9999975280763,8|0,3:2|0:0,0:0:0:0:
252,32,23760,2,0,P|248:82|252:124,1,80.9999975280763,8|0,3:2|0:0,0:0:0:0:
320,276,24129,1,8,3:2:0:0:
144,168,24313,1,14,0:0:0:0:
360,164,24497,2,0,L|444:152,1,80.9999975280763,8|0,3:2|0:0,0:0:0:0:
256,192,24865,5,6,3:2:0:0:
120,128,27717,5,2,0:0:0:0:
120,128,27809,1,8,0:3:0:0:
120,128,27902,1,2,0:0:0:0:
272,80,28086,1,2,0:0:0:0:
272,80,28178,1,8,0:0:0:0:
236,216,28362,2,0,P|214:210|188:204,1,45,8|8,0:0|0:0,0:0:0:0:
312,268,28546,6,0,L|296:376,1,90,6|0,0:0|0:0,0:0:0:0:
428,272,28914,1,8,0:0:0:0:
236,216,29098,1,0,0:0:0:0:
236,216,29190,1,0,0:0:0:0:
236,216,29282,1,2,0:0:0:0:
56,272,29466,1,2,0:0:0:0:
140,112,29650,2,0,L|136:8,1,90,8|0,0:0|0:0,0:0:0:0:
264,112,30018,6,0,L|260:201,1,90,8|0,0:0|0:0,0:0:0:0:
352,84,30386,1,8,0:0:0:0:
160,136,30570,1,0,0:0:0:0:
160,136,30662,1,8,0:0:0:0:
160,136,30754,1,2,0:0:0:0:
372,100,30938,1,2,0:0:0:0:
248,224,31122,2,0,L|256:324,1,90,8|0,0:0|0:0,0:0:0:0:
328,340,31398,1,0,0:0:0:0:
328,340,31490,6,0,P|408:352|448:244,1,180,4|8,0:0|0:0,0:0:0:0:
228,188,32042,1,2,0:0:0:0:
228,188,32134,1,8,0:0:0:0:
228,188,32226,2,0,B|238:263|240:312|240:312|224:333|200:352,1,180,6|8,0:0|0:0,0:0:0:0:
64,172,32779,1,2,0:0:0:0:
64,172,32871,1,8,0:0:0:0:
64,172,32963,6,0,B|55:114|56:80|56:80|100:52|160:44,1,180,6|8,0:0|0:0,0:0:0:0:
256,160,33515,1,0,0:0:0:0:
256,160,33607,1,0,0:0:0:0:
256,160,33699,1,2,0:0:0:0:
388,60,33883,1,2,0:0:0:0:
460,180,34067,2,0,L|448:292,1,90,8|0,0:0|0:0,0:0:0:0:
243,183,34435,6,0,L|63:171,1,180,6|8,0:0|0:0,0:0:0:0:
172,288,34987,1,0,0:0:0:0:
186,90,35171,1,8,0:3:0:0:
211,52,35263,1,8,0:3:0:0:
252,33,35355,1,8,0:3:0:0:
296,31,35447,1,8,0:3:0:0:
337,48,35539,1,8,0:3:0:0:
367,80,35631,1,8,0:3:0:0:
378,123,35723,1,8,0:3:0:0:
371,167,35815,1,8,0:3:0:0:
331,188,35907,6,0,B|205:163|205:163|137:188,1,180,6|8,0:0|0:0,0:0:0:0:
240,328,36460,1,0,0:0:0:0:
240,328,36552,1,0,0:0:0:0:
240,328,36644,1,2,0:0:0:0:
128,204,36828,1,2,0:0:0:0:
316,264,37012,1,8,0:0:0:0:
144,296,37196,1,0,0:0:0:0:
340,280,37380,6,0,L|440:276,1,90,2|0,0:0|0:0,0:0:0:0:
268,140,37748,2,0,L|178:143,1,90,8|0,0:0|0:0,0:0:0:0:
128,204,38024,1,8,0:0:0:0:
128,204,38116,1,2,0:0:0:0:
248,44,38300,1,2,0:0:0:0:
404,144,38484,2,0,L|400:236,1,90,8|0,0:0|0:0,0:0:0:0:
340,280,38760,1,0,0:0:0:0:
340,280,38852,5,6,0:0:0:0:
240,168,39036,1,0,0:0:0:0:
204,332,39220,1,8,0:0:0:0:
128,204,39404,1,8,0:0:0:0:
128,204,39496,1,8,0:0:0:0:
128,204,39588,1,8,0:3:0:0:
320,260,39772,1,8,0:0:0:0:
320,260,39864,1,8,0:0:0:0:
320,260,39957,1,0,0:0:0:0:
272,72,40141,1,0,0:0:0:0:
272,72,40233,1,0,0:0:0:0:
272,72,40325,5,4,0:0:0:0:
192,256,40693,1,2,0:0:0:0:
344,220,40877,1,8,0:3:0:0:
224,92,41061,1,0,0:0:0:0:
231,273,41245,2,0,L|335:257,1,90,2|2,0:0|0:0,0:0:0:0:
180,112,41613,1,2,0:0:0:0:
360,192,41797,5,2,0:0:0:0:
164,216,41981,2,0,B|101:203|28:204|28:204|60:248,1,180,8|8,0:3|0:3,0:0:0:0:
256,196,42533,2,0,P|262:148|260:104,1,90,2|2,0:0|0:0,0:0:0:0:
360,192,42901,1,2,0:0:0:0:
160,144,43085,1,8,0:0:0:0:
360,192,43269,5,6,0:0:0:0:
360,192,43637,1,2,0:0:0:0:
200,140,43822,2,0,L|224:328,1,180,8|8,0:3|0:3,0:0:0:0:
328,200,44374,1,2,0:0:0:0:
120,232,44558,1,2,0:0:0:0:
360,192,44742,5,6,0:0:0:0:
176,116,44926,2,0,P|88:104|16:160,1,180,8|8,0:0|0:0,0:0:0:0:
28,236,45386,1,8,0:0:0:0:
28,236,45478,1,2,0:0:0:0:
216,212,45662,1,2,0:0:0:0:
104,344,45846,2,0,L|240:316,1,135,8|0,0:0|0:0,0:0:0:0:
304,256,46214,6,0,L|500:276,1,180,6|2,0:0|0:0,0:0:0:0:
484,92,46766,2,0,P|408:48|320:88,1,180,8|8,0:3|0:3,0:0:0:0:
304,256,47318,1,2,0:0:0:0:
400,148,47502,1,2,0:0:0:0:
248,64,47687,5,2,0:0:0:0:
208,208,47871,2,0,P|267:285|320:368,1,180,8|8,0:3|0:3,0:0:0:0:
156,312,48423,1,2,0:0:0:0:
340,224,48607,2,0,L|440:212,1,90,0|2,0:0|0:0,0:0:0:0:
344,80,48975,1,8,0:0:0:0:
168,128,49159,6,0,B|167:216|167:216|167:307,1,180,6|2,0:0|0:0,0:0:0:0:
340,224,49711,2,0,P|268:196|176:240,1,180,8|8,0:3|0:3,0:0:0:0:
340,308,50263,1,2,0:0:0:0:
356,128,50447,1,2,0:0:0:0:
340,308,50631,5,6,0:0:0:0:
178,236,50815,2,0,P|256:196|340:224,1,180,8|8,0:0|0:0,0:0:0:0:
340,308,51275,1,8,0:0:0:0:
340,308,51368,1,2,0:0:0:0:
328,112,51552,1,2,0:0:0:0:
132,176,51736,2,0,L|156:320,1,135,12|0,0:0|0:0,0:0:0:0:
100,364,52104,5,6,0:0:0:0:
100,364,52472,1,12,0:0:0:0:
260,272,52656,2,0,L|252:228,1,45,2|0,0:0|0:0,0:0:0:0:
340,308,52840,1,12,0:0:0:0:
160,164,53024,1,6,0:0:0:0:
160,164,53392,1,8,0:0:0:0:
350,218,53576,6,0,L|338:322,1,90,4|2,0:0|0:0,0:0:0:0:
252,140,53944,1,12,0:0:0:0:
160,268,54128,2,0,P|88:280|44:260,1,90,0|6,0:0|0:0,0:0:0:0:
128,132,54496,1,2,0:0:0:0:
184,264,54680,1,8,0:0:0:0:
280,120,54864,1,4,0:0:0:0:
116,112,55048,5,2,0:0:0:0:
116,112,55417,2,0,L|108:224,1,90,8|0,0:0|0:0,0:0:0:0:
56,260,55693,1,8,0:0:0:0:
56,260,55785,1,6,0:0:0:0:
208,168,55969,1,4,0:0:0:0:
208,168,56337,6,0,L|324:156,1,90,8|4,0:0|0:0,0:0:0:0:
288,328,56705,2,0,P|176:300|176:216,1,180,8|2,0:0|0:0,0:0:0:0:
325,249,57257,1,4,0:0:0:0:
196,152,57441,2,0,L|196:104,1,45,4|2,0:0|0:0,0:0:0:0:
112,184,57625,1,8,0:0:0:0:
296,132,57809,1,0,0:0:0:0:
288,327,57993,6,0,P|202:327|164:250,1,180,6|8,0:0|0:0,0:0:0:0:
328,160,58545,1,0,0:0:0:0:
328,160,58637,1,4,0:0:0:0:
328,160,58729,2,0,L|324:280,1,90,6|6,0:0|0:0,0:0:0:0:
340,264,59282,1,8,0:0:0:0:
440,140,59466,6,0,L|432:32,1,90,4|2,0:0|0:0,0:0:0:0:
328,160,59834,1,8,0:0:0:0:
188,64,60018,2,0,P|140:60|88:60,1,90,0|2,0:0|0:0,0:0:0:0:
224,184,60386,2,0,L|320:176,1,90,2|8,0:0|0:0,0:0:0:0:
196,96,60754,1,4,0:0:0:0:
264,268,60938,6,0,L|260:360,1,90,2|0,0:0|0:0,0:0:0:0:
64,240,61306,2,8,P|56:200|64:148,1,90,8|0,0:0|0:0,0:0:0:0:
120,104,61582,1,0,0:0:0:0:
120,104,61674,1,2,0:0:0:0:
224,184,61858,2,0,L|380:172,1,135,6|0,0:0|0:0,0:0:0:0:
428,204,62226,6,0,P|480:272|472:364,1,180,12|2,0:0|0:0,0:0:0:0:
264,268,62779,1,8,0:0:0:0:
304,112,62963,1,6,0:0:0:0:
128,160,63147,1,8,0:0:0:0:
276,284,63331,1,4,0:0:0:0:
320,276,63423,1,8,0:0:0:0:
364,268,63515,1,8,0:0:0:0:
408,260,63607,1,8,0:0:0:0:
452,248,63699,1,8,0:0:0:0:
320,96,63883,5,6,0:0:0:0:
220,204,64067,1,2,0:0:0:0:
112,88,64251,2,0,L|140:300,1,180,8|0,0:0|0:0,0:0:0:0:
232,164,64803,1,0,0:0:0:0:
32,184,64987,1,8,0:0:0:0:
232,164,65171,6,0,P|324:156|420:144,1,180,6|0,0:0|0:0,0:0:0:0:
296,56,65723,1,8,0:0:0:0:
152,220,65907,2,0,P|180:292|288:284,1,180,0|2,0:0|0:0,0:0:0:0:
144,128,66459,2,0,L|99:133|54:138,1,90,8|0,0:0|0:0,0:0:0:0:
152,220,66828,5,2,0:0:0:0:
180,44,67012,1,2,0:0:0:0:
152,220,67196,2,0,B|164:240|188:252|188:252|256:252|320:208,1,180,8|0,0:0|0:0,0:0:0:0:
200,64,67748,1,0,0:0:0:0:
48,164,67932,1,8,0:0:0:0:
236,152,68116,6,0,L|216:332,1,180,2|2,0:0|0:0,0:0:0:0:
96,156,68668,1,8,0:0:0:0:
320,80,68852,2,0,P|388:96|448:204,1,180,0|2,0:0|0:0,0:0:0:0:
324,280,69404,2,0,P|264:252|244:204,1,90,8|2,0:0|0:0,0:0:0:0:
236,152,69680,1,2,0:0:0:0:
236,152,69772,5,6,0:0:0:0:
80,104,69956,1,2,0:0:0:0:
160,276,70140,2,0,P|255:256|340:244,1,180,8|0,0:0|0:0,0:0:0:0:
208,180,70693,1,0,0:0:0:0:
272,360,70877,1,8,0:0:0:0:
208,180,71061,6,0,P|196:72|220:0,1,180,6|2,0:0|0:0,0:0:0:0:
356,120,71613,1,8,0:0:0:0:
152,116,71797,2,0,B|52:96|20:96|20:96|44:140,1,180,0|2,0:0|0:0,0:0:0:0:
144,272,72349,2,0,L|248:252,1,90,8|0,0:0|0:0,0:0:0:0:
372,144,72717,5,2,0:0:0:0:
424,296,72901,1,2,0:0:0:0:
256,236,73085,1,8,0:0:0:0:
404,176,73269,2,0,L|220:156,1,180
225,156,73821,1,8,0:0:0:0:
440,168,74005,6,0,P|400:248|404:356,1,180,6|2,0:0|0:0,0:0:0:0:
440,168,74558,1,8,0:0:0:0:
308,248,74742,2,0,L|212:240,1,90
64,140,75110,1,8,0:0:0:0:
64,140,75202,1,8,0:0:0:0:
64,140,75294,1,8,0:0:0:0:
108,288,75478,1,0,0:0:0:0:
184,112,75662,5,6,0:0:0:0:
24,236,75846,1,2,0:0:0:0:
200,192,76030,2,0,B|216:204|232:228|232:228|223:298|192:364,1,180,8|0,0:0|0:0,0:0:0:0:
108,208,76582,1,0,0:0:0:0:
304,200,76766,1,8,0:0:0:0:
108,208,76950,6,0,P|104:104|152:20,1,180,6|0,0:0|0:0,0:0:0:0:
276,128,77502,1,8,0:0:0:0:
176,268,77686,2,0,P|52:232|-8:220,1,180,0|2,0:0|0:0,0:0:0:0:
180,356,78239,2,0,P|253:348|344:340,1,135,8|0,0:0|0:0,0:0:0:0:
388,364,78607,5,6,0:0:0:0:
500,216,78791,1,2,0:0:0:0:
328,144,78975,2,0,P|320:229|308:328,1,180,8|0,0:0|0:0,0:0:0:0:
176,204,79527,1,0,0:0:0:0:
288,344,79711,1,8,0:0:0:0:
92,308,79895,6,0,P|52:252|72:136,1,180,2|2,0:0|0:0,0:0:0:0:
200,72,80447,1,8,0:0:0:0:
184,220,80631,2,0,L|364:184,1,180,0|2,0:0|0:0,0:0:0:0:
220,312,81183,2,0,P|172:328|116:332,1,90,8|2,0:0|0:0,0:0:0:0:
52,168,81551,6,0,P|128:121|240:140,1,180,14|2,0:0|0:0,0:0:0:0:
260,312,82104,2,0,P|183:358|72:340,1,180,14|2,0:0|0:0,0:0:0:0:
216,156,82656,1,2,0:0:0:0:
36,184,82840,6,0,P|53:269|72:368,1,180,14|2,0:0|0:0,0:0:0:0:
152,212,83392,1,4,0:0:0:0:
276,316,83576,1,8,0:3:0:0:
276,316,83668,1,8,0:3:0:0:
276,316,83760,1,8,0:3:0:0:
316,144,83944,1,8,0:3:0:0:
448,264,84128,1,8,0:0:0:0:
472,88,84312,2,0,L|476:40,1,45,8|0,0:0|0:0,0:0:0:0:
392,112,84496,6,0,B|336:128|336:128|255:112|204:100,1,180,6|0,0:0|0:0,0:0:0:0:
360,24,85048,1,8,0:0:0:0:
360,24,85140,1,8,0:0:0:0:
360,24,85232,1,8,0:0:0:0:
296,192,85416,2,0,L|308:296,1,90,4|0,0:0|0:0,0:0:0:0:
136,208,85785,6,0,L|151:73,1,135,4|0,0:0|0:0,0:0:0:0:
88,32,86153,1,4,0:0:0:0:
260,156,86337,2,0,L|364:140,1,90,4|0,0:0|0:0,0:0:0:0:
376,120,87257,6,0,P|361:210|368:308,1,180,6|6,0:0|0:0,0:0:0:0:
480,160,87809,1,8,0:0:0:0:
268,232,87993,2,0,L|179:215,1,90,4|2,0:0|0:0,0:0:0:0:
3,132,88361,1,6,0:0:0:0:
152,232,88545,1,8,0:0:0:0:
132,56,88729,6,0,P|48:56|4:136,1,180,6|6,0:0|0:0,0:0:0:0:
216,132,89282,2,0,L|224:24,1,90,8|4,0:0|0:0,0:0:0:0:
320,192,89650,2,0,L|312:304,1,90,2|6,0:0|0:0,0:0:0:0:
120,256,90018,2,0,L|128:148,1,90,8|4,0:0|0:0,0:0:0:0:
408,76,90386,6,0,L|396:255,1,180,2|8,0:0|0:0,0:0:0:0:
216,152,90938,2,0,P|262:143|316:168,1,90,4|2,0:0|0:0,0:0:0:0:
432,272,91306,1,6,0:0:0:0:
312,176,91490,1,8,0:0:0:0:
312,340,91674,6,0,P|228:348|152:272,1,180,6|6,0:0|0:0,0:0:0:0:
192,120,92226,1,8,0:0:0:0:
256,256,92410,1,4,0:0:0:0:
88,188,92594,1,2,0:0:0:0:
264,152,92778,2,0,L|244:252,1,90,6|8,0:0|0:0,0:0:0:0:
168,92,93147,1,4,0:0:0:0:
360,160,93331,5,6,0:0:0:0:
172,176,93515,1,4,0:0:0:0:
336,80,93699,1,8,0:0:0:0:
256,236,93883,2,0,P|212:224|168:216,1,90,4|2,0:0|0:0,0:0:0:0:
276,324,94251,1,6,0:0:0:0:
276,140,94435,1,8,0:0:0:0:
424,236,94619,6,0,P|444:136|412:44,1,180,6|6,0:0|0:0,0:0:0:0:
228,104,95171,1,8,0:0:0:0:
336,220,95355,1,4,0:0:0:0:
132,216,95539,2,0,L|156:320,1,90,2|6,0:0|0:0,0:0:0:0:
16,176,95907,2,0,L|24:64,1,90,8|4,0:0|0:0,0:0:0:0:
156,184,96275,6,0,P|280:184|328:156,1,180,6|8,0:0|0:0,0:0:0:0:
176,68,96828,1,4,0:0:0:0:
132,216,97012,2,0,P|141:261|152:336,1,90,2|6,0:0|0:0,0:0:0:0:
16,176,97380,1,8,0:0:0:0:
244,112,97564,6,0,P|263:205|276:308,1,180,6|6,0:0|0:0,0:0:0:0:
156,184,98116,1,8,0:0:0:0:
352,184,98300,2,0,P|400:180|460:168,1,90,6|0,0:0|0:0,0:0:0:0:
276,112,98668,1,6,0:0:0:0:
348,272,98852,1,8,0:0:0:0:
168,196,99036,6,0,P|68:200|32:292,1,180,6|6,0:0|0:0,0:0:0:0:
200,300,99588,1,8,0:0:0:0:
96,148,99772,2,0,L|104:56,1,90,4|2,0:0|0:0,0:0:0:0:
188,172,100140,1,6,0:0:0:0:
0,156,100324,1,8,0:0:0:0:
208,152,100508,6,0,B|332:164|332:164|400:128,1,180,6|6,0:0|0:0,0:0:0:0:
280,240,101061,2,8,L|290:329,1,90,8|4,0:0|0:0,0:0:0:0:
188,172,101429,2,0,L|201:83,1,90,2|6,0:0|0:0,0:0:0:0:
100,236,101797,2,0,P|109:286|116:332,1,90,8|4,0:0|0:0,0:0:0:0:
16,164,102165,6,0,P|0:84|68:16,1,180,2|8,0:0|0:0,0:0:0:0:
188,172,102717,2,0,P|141:173|76:180,1,90,4|2,0:0|0:0,0:0:0:0:
224,64,103085,1,6,0:0:0:0:
224,64,103269,1,8,0:0:0:0:
320,176,103453,6,0,P|298:307|296:360,1,180,6|2,0:0|0:0,0:0:0:0:
468,232,104005,2,0,P|464:182|456:124,1,90,8|6,0:0|0:0,0:0:0:0:
336,44,104373,1,8,0:3:0:0:
232,204,104558,1,8,0:0:0:0:
232,204,104650,1,8,0:0:0:0:
232,204,104742,1,8,0:0:0:0:
140,76,104926,1,8,0:0:0:0:
140,76,105018,1,8,0:0:0:0:
140,76,105110,6,0,L|328:60,1,161.999995056153,14|0,0:0|0:0,0:0:0:0:
372,188,105662,1,2,0:0:0:0:
248,288,105846,2,0,P|184:276|152:176,1,161.999995056153,12|0,0:0|0:0,0:0:0:0:
356,204,106398,6,0,L|344:296,1,80.9999975280763,2|4,0:0|0:0,0:0:0:0:
256,156,106766,1,8,0:3:0:0:
256,156,106950,2,0,L|244:64,1,80.9999975280763,2|0,0:0|0:0,0:0:0:0:
160,240,107318,2,0,P|80:227|0:216,1,161.999995056153,14|2,0:0|0:0,0:0:0:0:
0,215,107870,1,0,0:0:0:0:
164,348,108054,6,0,P|240:332|268:244,1,161.999995056153,4|2,0:0|0:0,0:0:0:0:
148,144,108607,1,0,0:0:0:0:
24,240,108791,2,0,L|48:344,1,80.9999975280763,12|0,0:0|0:0,0:0:0:0:
112,156,109159,1,8,0:0:0:0:
188,268,109343,6,0,L|372:248,1,161.999995056153,6|2,0:0|0:0,0:0:0:0:
480,156,109895,1,12,0:0:0:0:
348,60,110079,1,2,0:0:0:0:
310,76,110171,1,2,0:0:0:0:
292,112,110263,1,8,0:0:0:0:
292,152,110355,1,8,0:0:0:0:
317,183,110447,1,8,0:0:0:0:
353,199,110539,1,8,0:0:0:0:
380,228,110631,1,8,0:0:0:0:
394,265,110723,1,8,0:0:0:0:
387,304,110815,1,8,0:0:0:0:
358,332,110907,1,8,0:0:0:0:
312,324,110999,5,6,0:0:0:0:
224,196,111183,1,8,0:0:0:0:
88,260,111367,2,0,L|104:352,1,90,12|0,0:0|0:0,0:0:0:0:
200,168,111735,2,8,L|192:276,1,90,12|10,0:0|0:0,0:0:0:0:
88,76,112104,1,12,0:0:0:0:
272,116,112288,6,8,P|185:131|113:82,1,180,12|14,0:0|0:0,0:0:0:0:
352,232,112840,1,4,0:0:0:0:
60,168,113576,5,8,0:3:0:0:
156,244,113944,6,0,L|280:224,1,90,6|4,0:0|0:0,0:0:0:0:
368,108,114312,1,8,0:0:0:0:
384,272,114496,1,4,0:0:0:0:
384,272,114588,1,0,0:0:0:0:
384,272,114680,1,2,0:0:0:0:
476,160,114864,1,6,0:0:0:0:
272,204,115048,2,0,L|296:328,1,90,8|4,0:0|0:0,0:0:0:0:
140,204,115416,6,0,L|156:92,1,90,6|4,0:0|0:0,0:0:0:0:
296,28,115785,1,8,0:0:0:0:
240,180,115969,1,4,0:0:0:0:
240,180,116061,1,0,0:0:0:0:
240,180,116153,1,2,0:0:0:0:
140,80,116337,1,6,0:0:0:0:
348,108,116521,2,0,P|380:148|396:212,1,90,8|6,0:0|0:0,0:0:0:0:
164,276,116889,6,0,P|132:236|116:172,1,90,6|4,0:0|0:0,0:0:0:0:
256,84,117257,1,8,0:0:0:0:
340,252,117441,1,4,0:0:0:0:
340,252,117533,1,8,0:0:0:0:
340,252,117625,2,0,L|316:364,1,90,6|2,0:0|0:0,0:0:0:0:
240,180,117993,1,8,0:0:0:0:
148,288,118177,1,4,0:0:0:0:
148,288,118269,1,0,0:0:0:0:
148,288,118361,5,6,0:0:0:0:
72,136,118545,1,6,0:0:0:0:
48,252,118729,1,8,0:0:0:0:
176,96,118913,1,4,0:0:0:0:
188,104,119005,1,8,0:0:0:0:
200,112,119097,2,0,L|184:232,1,90,2|6,0:0|0:0,0:0:0:0:
336,160,119465,2,0,L|328:108,5,30,8|0|0|4|0|0,0:0|0:0|0:0|0:0|0:0|0:0,0:0:0:0:
396,216,119834,6,0,L|504:200,1,90,6|4,0:0|0:0,0:0:0:0:
396,344,120202,1,8,0:0:0:0:
276,216,120386,1,4,0:0:0:0:
276,216,120478,1,0,0:0:0:0:
276,216,120570,1,2,0:0:0:0:
156,320,120754,1,6,0:0:0:0:
114,338,120846,1,8,0:3:0:0:
70,328,120938,1,8,0:3:0:0:
30,306,121030,1,8,0:3:0:0:
7,266,121122,1,8,0:3:0:0:
7,221,121214,1,8,0:3:0:0:
39,180,121306,5,6,0:0:0:0:
136,64,121490,1,4,0:0:0:0:
0,48,121674,1,8,0:0:0:0:
108,168,121858,1,4,0:0:0:0:
108,168,121950,1,8,0:0:0:0:
108,168,122042,2,0,L|212:148,1,90,2|6,0:0|0:0,0:0:0:0:
404,216,122410,2,8,L|300:236,1,90,8|4,0:0|0:0,0:0:0:0:
236,256,122686,1,0,0:0:0:0:
236,256,122778,6,0,P|264:304|300:320,1,90,2|4,0:0|0:0,0:0:0:0:
312,144,123146,1,8,0:0:0:0:
132,184,123330,1,4,0:0:0:0:
132,184,123423,1,8,0:0:0:0:
132,184,123515,1,2,0:0:0:0:
232,84,123699,1,6,0:0:0:0:
236,256,123883,1,8,0:0:0:0:
100,160,124067,1,4,0:0:0:0:
100,160,124159,1,8,0:0:0:0:
100,160,124251,6,0,L|0:164,1,90,6|4,0:0|0:0,0:0:0:0:
96,316,124619,2,0,L|185:312,1,90,8|4,0:0|0:0,0:0:0:0:
236,256,124895,1,8,0:0:0:0:
236,256,124987,1,8,0:3:0:0:
112,116,125171,1,8,0:0:0:0:
112,116,125263,1,8,0:0:0:0:
112,116,125355,1,8,0:0:0:0:
52,300,125539,1,8,0:0:0:0:
52,300,125631,1,0,0:0:0:0:
52,300,125723,5,6,0:0:0:0:
328,128,126091,2,0,P|378:135|440:140,1,90,12|2,0:0|0:0,0:0:0:0:
252,232,126459,2,0,P|303:226|372:224,1,90,12|2,0:0|0:0,0:0:0:0:
196,144,126827,1,12,0:0:0:0:
136,268,127011,1,0,0:0:0:0:
64,152,127196,6,0,L|76:52,1,90,12|0,0:0|0:0,0:0:0:0:
164,236,127564,2,0,L|176:352,1,90,12|0,0:0|0:0,0:0:0:0:
252,296,127840,1,2,0:0:0:0:
252,296,127932,2,0,L|242:206,1,90,12|0,0:0|0:0,0:0:0:0:
368,56,128300,1,12,0:0:0:0:
368,56,128484,1,2,0:0:0:0:
196,144,128668,6,12,P|144:132|100:76,1,90,12|0,0:0|0:0,0:0:0:0:
344,76,129036,2,0,P|396:88|440:144,1,90,12|2,0:0|0:0,0:0:0:0:
332,324,129404,1,12,0:0:0:0:
392,208,129588,1,2,0:0:0:0:
208,276,129772,1,12,0:0:0:0:
368,200,129956,1,2,0:0:0:0:
192,132,130140,5,12,0:0:0:0:
360,172,130324,1,2,0:0:0:0:
176,276,130508,1,12,0:0:0:0:
272,112,130692,1,2,0:0:0:0:
272,112,130784,1,2,0:0:0:0:
272,112,130876,1,12,0:0:0:0:
208,276,131061,1,2,0:0:0:0:
208,276,131153,1,2,0:0:0:0:
208,276,131245,1,12,0:0:0:0:
84,120,131429,1,2,0:0:0:0:
84,120,131521,1,2,0:0:0:0:
84,120,131613,6,0,P|144:76|220:92,1,135,12|2,0:0|0:0,0:0:0:0:
272,112,131981,2,0,L|264:224,1,90,12|2,0:0|0:0,0:0:0:0:
156,288,132349,2,0,L|164:176,1,90,12|2,0:0|0:0,0:0:0:0:
360,88,132717,2,0,L|352:200,1,90,12|0,0:0|0:0,0:0:0:0:
160,164,133085,5,12,0:0:0:0:
312,200,133269,1,0,0:0:0:0:
136,280,133453,2,0,P|86:276|20:272,1,90,12|0,0:0|0:0,0:0:0:0:
0,208,133729,1,2,0:0:0:0:
0,208,133821,1,12,0:0:0:0:
100,360,134005,1,2,0:0:0:0:
216,188,134189,2,0,P|216:137|204:80,1,90,12|2,0:0|0:0,0:0:0:0:
320,216,134557,6,0,L|304:344,1,90,12|0,0:0|0:0,0:0:0:0:
408,152,134926,2,0,P|472:136|536:152,1,90,12|2,0:0|0:0,0:0:0:0:
400,276,135294,1,12,0:0:0:0:
304,132,135478,1,2,0:0:0:0:
212,280,135662,1,12,0:0:0:0:
112,148,135846,1,2,0:0:0:0:
36,312,136030,6,0,B|128:280|128:280|188:304,1,135,12|0,0:0|0:0,0:0:0:0:
256,356,136398,1,8,0:0:0:0:
344,224,136582,1,8,0:0:0:0:
192,204,136766,1,8,0:0:0:0:
364,304,136950,1,8,0:0:0:0:
472,152,137134,1,8,0:0:0:0:
272,120,137318,1,8,0:0:0:0:
344,224,137502,5,6,0:0:0:0:
256,192,138607,5,6,0:0:0:0:
168,160,139711,5,6,0:0:0:0:
256,192,139803,12,0,142840,0:0:0:0:
