osu file format v14

[General]
AudioFilename: audio.mp3
AudioLeadIn: 0
PreviewTime: -1
Countdown: 1
SampleSet: Normal
StackLeniency: 0.7
Mode: 0
LetterboxInBreaks: 0
WidescreenStoryboard: 1

[Editor]
Bookmarks: 1228,2746,5252,7857,10647,11762,13125,14389,15691,16989,18330,19705,21565,22608,23340,23953,24796,25564,26218,26854,27516,28106,28823,29426,30105,30709,31290,31916,32679,33363,34019,34642,35281,35866,36452,38152,38763,39203,40285,41682,42344,42976,43612,44255,44893,45504,46203,46869,47997,49324,49914,50694,51292,52600,53842,55078,56391,57110,58259,59607,60967,61595,62286,63574,64827,66133,67443,68640,69916,71209,72641,73295,73898,74493,75158,75858,76502,77144,77811,78491,79175,79761,80397,81031,81683,82283,82937,83640,84314,84926,85531,86259,86893,87520,88180,88822,89453,90093,90731,91413,92098,92770,93323,94500,95864,97150,98538,99843,101180,102414,103901,105274,106601,107759,109043,110299,111619,112846,113723
DistanceSpacing: 0.8
BeatDivisor: 8
GridSize: 32
TimelineZoom: 0.4

[Metadata]
Title:Omae Wa Mou
TitleUnicode:あなたはもう
Artist:prod. deadman
ArtistUnicode:deadman 死人
Creator:SakuwaUwU
Version:Normal
Source:
Tags:
BeatmapID:2420870
BeatmapSetID:1158789

[Difficulty]
HPDrainRate:6
CircleSize:4
OverallDifficulty:4
ApproachRate:5
SliderMultiplier:3.09999990463257
SliderTickRate:4

[Events]
//Background and Video events
0,0,"hmm.jpg",0,0
//Break Periods
2,61897,71147
//Storyboard Layer 0 (Background)
//Storyboard Layer 1 (Fail)
//Storyboard Layer 2 (Pass)
//Storyboard Layer 3 (Foreground)
//Storyboard Layer 4 (Overlay)
//Storyboard Sound Samples

[TimingPoints]
11147.2631578947,600.000000000001,4,1,0,100,1,0

[Colours]
Combo1 : 43,0,21
Combo2 : 255,0,128
Combo3 : 210,0,105
Combo4 : 140,0,70

[HitObjects]
256,192,10472,5,0,0:0:0:0:
288,192,11072,1,0,0:0:0:0:
320,192,11897,1,0,0:0:0:0:
320,224,12872,1,0,0:0:0:0:
288,224,12947,1,0,0:0:0:0:
224,192,13697,2,0,L|128:192,1,77.4999976158143
128,192,13997,1,0,0:0:0:0:
128,192,14222,1,0,0:0:0:0:
128,192,14372,2,0,L|160:64,1,116.249996423721
192,64,15122,1,0,0:0:0:0:
192,128,15647,5,0,0:0:0:0:
224,128,15872,1,0,0:0:0:0:
224,128,16022,1,0,0:0:0:0:
256,160,16322,1,0,0:0:0:0:
256,192,16922,2,0,L|96:224,2,154.999995231629
256,192,18872,12,0,19697,0:0:0:0:
256,192,21272,5,0,0:0:0:0:
320,192,21722,1,0,0:0:0:0:
352,192,22322,1,0,0:0:0:0:
352,224,22772,2,0,L|352:320,1,77.4999976158143
352,320,23147,1,0,0:0:0:0:
320,320,23747,1,0,0:0:0:0:
288,320,24422,1,0,0:0:0:0:
256,192,24947,1,0,0:0:0:0:
256,192,25022,6,0,P|352:192|320:160,1,232.499992847443
256,192,26447,1,0,0:0:0:0:
256,160,26972,1,0,0:0:0:0:
192,160,27722,1,0,0:0:0:0:
192,192,28322,1,0,0:0:0:0:
224,192,28922,1,0,0:0:0:0:
192,192,29297,1,0,0:0:0:0:
224,192,29597,1,0,0:0:0:0:
224,192,30047,6,0,P|256:256|320:192,2,154.999995231629
224,160,30872,1,0,0:0:0:0:
256,160,31922,1,0,0:0:0:0:
288,160,32447,1,0,0:0:0:0:
320,160,32972,1,0,0:0:0:0:
320,192,33197,2,0,L|128:192,1,154.999995231629
128,160,33722,1,0,0:0:0:0:
160,160,34172,1,0,0:0:0:0:
192,128,34922,5,8,0:0:0:0:
192,192,35747,6,0,P|352:192|384:128,1,232.499992847443
416,96,36422,1,0,0:0:0:0:
384,128,36947,1,0,0:0:0:0:
320,192,37997,6,0,L|128:160,2,193.749994039536
352,192,38972,1,0,0:0:0:0:
320,224,39497,1,0,0:0:0:0:
256,192,40247,1,0,0:0:0:0:
288,192,40622,1,0,0:0:0:0:
320,192,40997,1,0,0:0:0:0:
320,160,41372,6,0,L|192:160,2,116.249996423721
352,160,41897,1,0,0:0:0:0:
352,192,42122,1,0,0:0:0:0:
320,192,42422,1,0,0:0:0:0:
288,192,42647,2,0,L|288:128,1,38.7499988079071
288,128,42872,1,0,0:0:0:0:
256,128,43247,2,0,L|160:128,1,77.4999976158143
128,128,43772,1,0,0:0:0:0:
128,160,44522,1,0,0:0:0:0:
128,192,45497,6,0,B|256:224|320:128|320:96|288:96|288:64|224:64|192:64|160:64|96:96|64:96|64:128|32:160|32:192|32:256|64:256|64:288|64:288|64:192,1,697.499978542328
96,128,47672,1,0,0:0:0:0:
128,160,48272,1,0,0:0:0:0:
128,192,49022,1,0,0:0:0:0:
160,224,49697,1,0,0:0:0:0:
224,224,50447,1,0,0:0:0:0:
224,192,51047,1,0,0:0:0:0:
224,224,51497,6,0,L|416:224,3,154.999995231629
384,224,52922,1,0,0:0:0:0:
384,256,53522,1,0,0:0:0:0:
320,256,54047,1,0,0:0:0:0:
288,256,54422,2,0,P|192:160|288:192,2,348.749989271164
320,224,56147,1,0,0:0:0:0:
320,256,56747,1,0,0:0:0:0:
256,192,56822,5,8,0:0:0:0:
256,192,58547,6,0,L|384:192,2,116.249996423721
224,192,59822,2,0,P|192:224|96:192,4,154.999995231629
224,160,61697,1,0,0:0:0:0:
256,192,72347,5,0,0:0:0:0:
320,192,72872,1,0,0:0:0:0:
384,192,73547,1,0,0:0:0:0:
448,192,74147,1,0,0:0:0:0:
448,224,74522,2,0,B|96:224|256:160,1,309.999990463257
288,128,75422,1,0,0:0:0:0:
320,160,76022,1,0,0:0:0:0:
352,160,76547,1,0,0:0:0:0:
384,224,77072,6,0,L|160:224,1,193.749994039536
160,224,77672,1,0,0:0:0:0:
192,192,78197,1,0,0:0:0:0:
224,192,78797,1,0,0:0:0:0:
288,192,79472,1,0,0:0:0:0:
320,192,80072,1,0,0:0:0:0:
352,192,80672,1,0,0:0:0:0:
384,192,81272,1,0,0:0:0:0:
352,224,81572,6,0,P|256:224|288:128,1,193.749994039536
288,96,82322,2,0,P|192:128|256:192,1,193.749994039536
256,192,82922,2,0,P|256:288|128:224,1,271.24999165535
128,224,83597,2,0,P|192:160|64:64,1,271.24999165535
64,64,84272,2,0,P|0:192|128:224,1,309.999990463257
160,224,85547,2,0,P|288:256|288:192,5,232.499992847443
256,160,88472,2,0,L|416:160,2,154.999995231629
224,160,89297,1,0,0:0:0:0:
256,192,90047,6,0,L|384:192,3,116.249996423721
384,160,90947,1,0,0:0:0:0:
384,192,91547,1,0,0:0:0:0:
384,224,92147,1,0,0:0:0:0:
384,256,92822,1,0,0:0:0:0:
256,192,93497,5,0,0:0:0:0:
224,192,94097,1,0,0:0:0:0:
224,160,94622,1,0,0:0:0:0:
256,160,95147,1,0,0:0:0:0:
320,160,96122,2,0,L|160:320,2,193.749994039536
384,128,97247,6,0,L|160:128,2,193.749994039536
416,128,97997,2,0,L|416:320,3,154.999995231629
416,288,99047,1,0,0:0:0:0:
352,288,99572,1,0,0:0:0:0:
352,224,99947,2,0,L|96:224,2,232.499992847443
384,224,101147,1,0,0:0:0:0:
384,160,101747,1,0,0:0:0:0:
352,160,102197,6,0,L|128:160,3,193.749994039536
96,160,103472,1,0,0:0:0:0:
96,192,104072,1,0,0:0:0:0:
128,192,104372,2,0,L|384:192,2,232.499992847443
96,160,105122,2,0,L|96:64,2,77.4999976158143
96,192,106022,1,0,0:0:0:0:
128,192,106697,1,0,0:0:0:0:
192,192,107072,2,0,L|288:192,3,77.4999976158143
288,192,108647,5,0,0:0:0:0:
288,224,109322,1,0,0:0:0:0:
320,224,110072,1,0,0:0:0:0:
352,224,110672,1,0,0:0:0:0:
