osu file format v14

[General]
AudioFilename: bgm_ph_03.ogg
AudioLeadIn: 0
PreviewTime: 62803
Countdown: 0
SampleSet: Soft
StackLeniency: 0.7
Mode: 0
LetterboxInBreaks: 0
WidescreenStoryboard: 1

[Editor]
Bookmarks: 14347,28465,42582,56700,63759,113171,127288,141406,155524,169641,176700
DistanceSpacing: 1.5
BeatDivisor: 4
GridSize: 16
TimelineZoom: 1

[Metadata]
Title:Houmurisaru Hana
TitleUnicode:葬り去る花
Artist:pre-holder
ArtistUnicode:pre-holder
Creator:Okoratu
Version:Vell's Advanced
Source:彼岸花の咲く夜に
Tags:Higanbana no Saku Yoru ni 07th Expansion sound visual novel bgm Forgotten Flower The unforgiving flowers blossom in the dead of night Okorin J1NX1337 Vell Local Hero background music electronic instrumental OriginalSoundtracks Tokoyo Mitasu wa youen hana naku koro record ver version 常夜満たすは妖艶の花 なく頃にレコード Jinx Video game
BeatmapID:791698
BeatmapSetID:360144

[Difficulty]
HPDrainRate:4
CircleSize:3.5
OverallDifficulty:4
ApproachRate:5.8
SliderMultiplier:1
SliderTickRate:1

[Events]
//Background and Video events
0,0,"higanbana.jpg",0,0
//Break Periods
2,58986,62560
2,115897,126089
2,171927,175501
//Storyboard Layer 0 (Background)
//Storyboard Layer 1 (Fail)
//Storyboard Layer 2 (Pass)
//Storyboard Layer 3 (Foreground)
//Storyboard Layer 4 (Overlay)
//Storyboard Sound Samples

[TimingPoints]
992,441.176470588235,4,2,1,20,1,0
992,-142.857142857143,4,2,1,20,0,0
15109,-100,4,2,1,25,0,0
29227,-100,4,2,1,25,0,0
43344,-100,4,2,1,25,0,0
57462,-100,4,2,1,20,0,0
58786,-100,4,2,1,20,0,0
58886,-100,4,2,1,20,0,0
59227,-100,4,2,2,15,0,0
59668,-100,4,2,1,10,0,0
60109,-100,4,2,2,5,0,0
60550,-100,4,2,1,5,0,0
60991,-100,4,2,2,5,0,0
61102,-100,4,2,2,20,0,0
64521,-76.9230769230769,4,2,1,60,0,1
77756,-76.9230769230769,4,2,1,70,0,0
78639,-76.9230769230769,4,2,1,70,0,1
113933,-100,4,2,1,70,0,0
114043,-100,4,2,1,20,0,0
127168,-142.857142857143,4,2,1,20,0,0
128050,-100,4,2,1,25,0,0
170403,-100,4,2,1,20,0,0
172168,-100,4,2,2,15,0,0
172609,-100,4,2,1,10,0,0
173050,-100,4,2,2,5,0,0
173491,-100,4,2,1,5,0,0
173932,-100,4,2,2,5,0,0
174043,-100,4,2,2,20,0,0
177462,-76.9230769230769,4,2,1,70,0,1
190697,-76.9230769230769,4,2,1,70,0,0
191580,-76.9230769230769,4,2,1,70,0,1
226874,-76.9230769230769,4,2,1,70,0,0
228639,-76.9230769230769,4,2,1,20,0,0

[Colours]
Combo1 : 242,79,38
Combo2 : 170,170,170
Combo3 : 105,105,105
Combo4 : 177,90,192
Combo5 : 237,63,141

[HitObjects]
109,139,991,5,2,0:0:0:0:
175,220,1433,2,0,P|178:176|186:142,1,69.9999978637696
269,90,2315,2,0,P|262:124|260:159,1,69.9999978637696,2|0,0:0|0:0,0:0:0:0:
365,158,3197,2,0,P|341:179|320:224,1,69.9999978637696,2|0,0:0|0:0,0:0:0:0:
279,308,4080,2,0,P|323:291|358:286,2,69.9999978637696,2|0|2,0:0|0:0|0:0,0:0:0:0:
371,358,5403,5,0,0:0:0:0:
418,264,5844,1,2,0:0:0:0:
386,163,6286,1,0,0:0:0:0:
472,103,6727,2,0,P|424:93|399:85,1,69.9999978637696,2|0,0:0|0:0,0:0:0:0:
313,140,7609,2,0,P|323:92|331:67,1,69.9999978637696,2|2,0:0|0:0,0:0:0:0:
229,37,8491,54,0,P|263:24|295:-2,1,69.9999978637696
392,24,9374,2,0,P|404:65|419:106,1,69.9999978637696,2|0,0:0|0:0,0:0:0:0:
464,182,10256,2,0,P|475:148|485:115,1,69.9999978637696,2|0,0:0|0:0,0:0:0:0:
391,163,11139,2,0,P|352:169|319:173,2,69.9999978637696,2|0|2,0:0|0:0|0:0,0:0:0:0:
308,98,12462,5,0,0:0:0:0:
320,202,12903,1,2,0:0:0:0:
233,143,13344,1,0,0:0:0:0:
193,240,13786,1,2,0:0:0:0:
237,319,14227,38,2,P|267:301|360:288,1,122.499996261597,2|0,0:0|0:0,0:3:0:0:
375,316,15109,6,0,P|414:325|437:326,1,50,2|0,3:2|0:0,0:0:0:0:
496,308,15550,1,0,3:2:0:0:
454,163,15991,2,0,P|432:197|455:261,2,100,2|2|2,3:2|3:0|3:2,0:0:0:0:
451,12,17315,2,0,P|426:74|399:113,1,100,2|0,3:2|3:0,0:0:0:0:
275,32,18197,1,2,3:2:0:0:
343,165,18639,2,0,P|333:125|332:99,1,50,2|0,3:0|0:0,0:0:0:0:
350,43,19080,1,2,3:2:0:0:
260,163,19521,2,0,P|240:136|166:93,2,100,2|2|2,3:2|3:0|3:0,0:0:0:0:
115,124,20844,5,2,3:2:0:0:
240,40,21286,1,2,3:2:0:0:
90,53,21727,1,2,3:0:0:0:
169,180,22168,54,0,P|158:221|153:237,1,50,2|0,3:2|0:0,0:0:0:0:
117,292,22609,1,2,3:0:0:0:
258,342,23050,2,0,P|230:320|148:308,2,100,2|2|2,3:2|3:0|3:0,0:0:0:0:
407,329,24374,2,0,P|353:314|300:273,1,100,2|2,3:2|3:0,0:0:0:0:
465,275,25256,1,2,3:2:0:0:
438,127,25697,2,0,P|430:166|422:194,1,50,2|0,3:0|0:0,0:0:0:0:
393,243,26139,1,2,3:2:0:0:
245,217,26580,2,0,P|282:225|324:279,2,100,2|2|2,3:0|3:2|3:0,0:0:0:0:
102,263,27903,5,2,3:2:0:0:
247,297,28344,38,2,P|290:289|397:364,1,175,2|0,0:0|0:0,0:3:0:0:
427,373,29227,6,0,P|420:333|417:300,1,50,2|0,3:2|0:0,0:0:0:0:
452,256,29668,2,0,P|460:219|452:137,2,100,2|2|2,3:0|3:0|3:2,0:0:0:0:
376,259,30771,1,0,0:0:0:0:
314,216,30991,2,0,P|279:212|250:212,1,50,2|0,3:0|0:0,0:0:0:0:
279,285,31433,2,0,P|239:288|165:302,1,100,2|0,3:0|3:0,0:0:0:0:
53,378,32315,2,0,P|67:333|74:310,1,50,2|2,3:2|0:0,0:0:0:0:
66,255,32756,5,2,3:2:0:0:
213,228,33197,1,2,3:2:0:0:
71,177,33639,1,2,3:2:0:0:
218,150,34080,2,0,P|249:146|278:144,1,50,2|2,3:0|0:3,0:0:0:0:
306,209,34521,2,0,P|346:233|416:228,1,100,0|2,3:0|3:2,0:0:0:0:
437,89,35403,54,2,P|451:155|486:246,1,150,2|0,3:0|0:0,0:3:0:0:
442,298,36286,2,0,P|423:336|414:363,1,50,2|0,3:2|0:0,0:0:0:0:
348,363,36727,1,2,3:0:0:0:
237,261,37168,2,0,P|266:289|336:283,2,100,2|2|2,3:2|3:0|3:2,0:0:0:0:
385,240,38491,2,0,P|378:201|370:129,1,100,2|2,3:0|3:2,0:0:0:0:
473,31,39374,2,0,P|435:61|417:66,1,50,2|2,3:2|0:0,0:0:0:0:
359,64,39815,5,2,3:2:0:0:
233,145,40256,1,2,3:2:0:0:
143,24,40697,1,2,3:2:0:0:
159,173,41139,2,0,P|152:215|145:236,1,50,2|0,3:0|0:0,0:0:0:0:
74,222,41580,2,0,P|83:175|88:104,1,100,2|2,3:0|3:2,0:0:0:0:
212,40,42462,38,2,P|251:66|377:72,1,175,2|0,3:2|0:0,0:3:0:0:
409,57,43344,6,0,P|403:94|401:116,1,50,2|0,3:2|0:0,0:0:0:0:
423,178,43786,2,0,P|458:200|473:265,2,100,2|2|2,3:2|3:0|3:0,0:0:0:0:
348,168,44889,1,0,0:0:0:0:
295,221,45109,2,0,P|251:213|227:212,1,50,2|0,3:2|0:0,0:0:0:0:
174,235,45550,2,0,P|167:212|168:124,1,100,2|2,3:0|3:2,0:0:0:0:
91,5,46433,2,0,P|104:37|109:59,1,50,2|2,3:2|0:0,0:0:0:0:
92,125,46874,5,2,3:2:0:0:
241,110,47315,1,2,3:2:0:0:
120,198,47756,1,2,3:2:0:0:
269,186,48197,2,0,P|305:192|333:198,1,50,2|2,3:0|0:3,0:0:0:0:
384,158,48639,2,0,P|375:117|368:52,1,100,2|2,3:0|3:2,0:0:0:0:
459,178,49521,38,2,P|473:210|407:312,1,150,2|0,3:0|0:0,0:3:0:0:
361,344,50403,6,0,P|327:335|301:334,1,50,2|0,3:2|0:0,0:0:0:0:
242,362,50844,1,2,3:0:0:0:
272,214,51286,2,0,P|269:248|219:289,2,100,2|2|2,3:0|3:0|3:0,0:0:0:0:
125,181,52609,2,0,P|158:173|237:151,1,100,2|2,3:2|3:0,0:0:0:0:
362,208,53491,2,0,P|341:176|321:150,1,50,2|2,3:2|0:0,0:0:0:0:
282,111,53933,5,2,3:2:0:0:
426,152,54374,1,2,3:2:0:0:
321,44,54815,1,2,3:2:0:0:
221,155,55256,2,0,P|182:148|157:147,1,50,2|2,3:0|0:3,0:0:0:0:
124,88,55697,2,0,P|101:112|17:126,1,100,2|2,3:3|3:2,0:0:0:0:
67,277,56580,38,2,P|94:251|231:241,1,175,2|0,3:0|0:0,0:3:0:0:
246,268,57462,6,2,P|237:330|238:375,2,100,2|0|0,0:0|0:0|0:0,0:0:0:0:
377,195,58786,1,2,0:0:0:0:
11,296,63639,54,2,B|78:327|146:320|146:320|118:309|109:291,1,175,2|0,0:0|0:0,0:3:0:0:
93,268,64521,38,0,P|84:246|80:187,1,64.9999970245363,6|2,1:2|0:3,0:0:0:0:
138,155,64962,2,0,P|189:185|188:262,1,129.999994049073,0|8,1:0|1:0,0:0:0:0:
306,358,65844,1,2,1:2:0:0:
265,290,66065,1,2,1:2:0:0:
289,215,66286,2,0,P|306:177|330:157,1,64.9999970245363,2|2,1:2|0:3,0:0:0:0:
365,226,66727,2,0,P|399:198|493:185,2,129.999994049073,2|8|2,1:2|1:0|1:1,0:0:0:0:
427,272,67830,1,2,3:2:0:0:
382,336,68050,6,0,P|360:357|326:369,1,64.9999970245363,2|2,1:0|0:3,0:0:0:0:
315,291,68491,2,0,P|278:266|188:265,1,129.999994049073,2|8,1:2|1:0,0:0:0:0:
87,376,69374,1,0,1:0:0:0:
131,312,69594,1,0,1:0:0:0:
53,304,69815,54,0,P|23:289|-7:254,1,64.9999970245363,2|0,1:0|1:0,1:0:0:0:
67,225,70256,2,0,P|48:197|40:151,1,64.9999970245363,0|0,1:0|1:0,0:0:0:0:
118,166,70697,1,10,1:0:0:0:
181,120,70918,2,0,P|165:148|159:180,1,64.9999970245363,0|0,1:0|1:0,0:0:0:0:
237,176,71359,1,0,1:0:0:0:
204,246,71580,6,0,P|232:284|237:327,1,64.9999970245363,2|0,1:0|1:0,0:0:0:0:
310,276,72021,2,0,P|304:219|341:145,1,129.999994049073,2|8,1:2|1:0,0:0:0:0:
424,280,72903,1,2,1:3:0:0:
395,207,73124,1,2,3:2:0:0:
408,130,73344,2,0,P|418:93|438:67,1,64.9999970245363,2|2,1:0|1:3,0:0:0:0:
378,15,73786,2,0,P|328:36|229:48,1,129.999994049073,2|10,1:2|1:0,0:0:0:0:
102,11,74668,1,0,1:0:0:0:
171,46,74889,1,0,3:0:0:0:
212,111,75109,54,0,P|196:161|179:200,1,64.9999970245363,2|0,1:0|1:0,0:0:0:0:
115,192,75550,2,0,P|73:159|-16:169,1,129.999994049073,2|10,1:2|1:0,0:0:0:0:
105,275,76433,1,0,1:0:0:0:
179,251,76653,1,2,1:2:0:0:
247,289,76874,2,0,P|278:313|302:346,1,64.9999970245363,0|2,1:0|1:3,0:0:0:0:
372,338,77315,2,0,P|365:287|347:254,1,64.9999970245363,2|2,1:2|0:0,0:0:0:0:
298,226,77756,5,10,1:1:0:0:
370,197,77977,1,0,1:0:0:0:
404,127,78197,1,0,1:0:0:0:
390,49,78418,1,2,3:0:0:0:
476,160,78639,54,0,P|453:138|439:109,1,64.9999970245363,6|2,1:2|0:3,0:0:0:0:
361,119,79080,2,0,P|345:193|327:252,1,129.999994049073,0|8,1:0|1:0,0:0:0:0:
219,134,79962,1,2,1:2:0:0:
261,199,80183,1,2,1:2:0:0:
254,276,80403,2,0,P|244:310|225:358,1,64.9999970245363,2|2,1:2|0:3,0:0:0:0:
156,326,80844,2,0,P|154:260|187:196,2,129.999994049073,2|8|2,1:2|1:0|1:1,0:0:0:0:
91,369,81947,1,2,3:2:0:0:
59,297,82168,6,0,P|30:268|-3:250,1,64.9999970245363,2|2,1:0|0:3,0:0:0:0:
17,179,82609,2,0,P|68:169|118:86,1,129.999994049073,2|8,1:2|1:0,0:0:0:0:
0,0,83491,1,0,1:0:0:0:
55,54,83712,1,0,1:0:0:0:
131,36,83933,54,0,P|168:23|210:23,1,64.9999970245363,2|0,1:0|1:0,0:0:0:0:
254,115,84374,2,0,P|217:102|175:102,1,64.9999970245363,0|0,1:0|1:0,0:0:0:0:
206,176,84815,1,10,1:0:0:0:
216,253,85036,2,0,P|199:217|169:187,1,64.9999970245363,0|0,1:0|1:0,0:0:0:0:
125,144,85477,1,0,1:0:0:0:
50,167,85697,6,0,P|12:161|-20:159,1,64.9999970245363,2|0,1:0|1:0,0:0:0:0:
7,234,86139,2,0,P|45:255|71:338,1,129.999994049073,2|8,1:2|1:0,0:0:0:0:
226,354,87021,1,2,1:3:0:0:
276,294,87241,1,2,3:2:0:0:
343,255,87462,2,0,P|386:240|429:245,1,64.9999970245363,2|2,1:0|1:3,0:0:0:0:
481,257,87903,2,0,P|471:300|390:316,2,129.999994049073,2|10|0,1:2|1:0|1:0,0:0:0:0:
458,182,89006,1,0,3:0:0:0:
399,130,89227,54,0,P|427:95|436:72,1,64.9999970245363,2|0,1:0|1:0,0:0:0:0:
358,57,89668,2,0,P|312:81|217:99,1,129.999994049073,2|10,1:2|1:0,0:0:0:0:
89,45,90550,1,0,1:0:0:0:
166,57,90771,1,2,1:2:0:0:
117,117,90991,6,0,P|138:167|140:187,1,64.9999970245363,0|2,1:0|1:3,0:0:0:0:
60,177,91433,2,0,P|39:227|26:242,1,64.9999970245363,2|2,1:2|0:0,0:0:0:0:
105,264,91874,1,10,1:1:0:0:
163,314,92094,2,0,P|145:286|136:255,1,64.9999970245363,0|0,1:0|1:0,0:0:0:0:
206,219,92536,1,2,3:0:0:0:
341,259,92756,54,0,P|309:254|278:245,1,64.9999970245363,6|2,1:0|0:3,0:0:0:0:
263,169,93197,2,0,P|327:176|389:197,1,129.999994049073,0|8,1:0|1:0,0:0:0:0:
511,100,94080,1,0,1:0:0:0:
463,161,94300,1,2,3:2:0:0:
456,238,94521,2,0,P|446:288|439:317,1,64.9999970245363,0|2,1:0|0:3,0:0:0:0:
365,309,94962,2,0,P|324:324|238:319,2,129.999994049073,2|10|0,1:2|1:0|0:0,0:0:0:0:
329,238,96065,1,2,3:3:0:0:
251,221,96286,6,0,P|262:191|287:170,1,64.9999970245363,6|2,1:2|0:0,0:0:0:0:
181,258,96727,2,0,P|171:227|176:196,1,64.9999970245363,2|0,1:2|0:0,0:0:0:0:
148,329,97168,2,0,P|121:312|104:285,1,64.9999970245363,10|0,1:0|0:0,0:0:0:0:
86,208,97609,1,0,1:0:0:0:
119,137,97830,1,2,3:0:0:0:
53,180,98050,54,0,P|17:169|-29:164,1,64.9999970245363,2|2,1:2|1:3,0:0:0:0:
17,91,98491,2,0,P|49:96|131:28,1,129.999994049073,2|8,1:2|1:0,0:0:0:0:
180,104,99153,2,0,P|169:134|164:166,1,64.9999970245363,2|2,1:3|1:2,0:0:0:0:
242,158,99594,1,2,3:0:0:0:
307,38,99815,6,0,P|279:55|261:82,1,64.9999970245363,6|2,1:0|0:3,0:0:0:0:
338,109,100256,2,0,P|327:159|381:234,1,129.999994049073,2|8,1:2|1:0,0:0:0:0:
413,76,101139,1,2,1:0:0:0:
406,153,101359,1,2,3:0:0:0:
438,224,101580,2,0,P|457:253|484:281,1,64.9999970245363,2|2,1:2|0:3,0:0:0:0:
428,336,102021,2,0,P|387:314|290:302,2,129.999994049073,2|10|2,1:2|1:0|1:2,0:0:0:0:
477,275,103124,1,2,3:0:0:0:
477,197,103344,54,0,P|442:204|415:232,1,64.9999970245363,6|2,1:2|0:0,0:0:0:0:
368,163,103786,2,0,P|345:190|343:229,1,64.9999970245363,2|0,1:2|0:0,0:0:0:0:
263,209,104227,2,0,P|263:244|286:276,1,64.9999970245363,10|0,1:0|0:0,0:0:0:0:
243,339,104668,1,2,1:2:0:0:
192,279,104889,1,2,3:0:0:0:
116,260,105109,6,0,P|150:248|180:242,1,64.9999970245363,2|2,1:2|3:0,0:0:0:0:
194,165,105550,2,0,P|155:157|87:83,1,129.999994049073,2|8,1:2|1:0,0:0:0:0:
35,41,106212,2,0,P|18:83|17:122,1,64.9999970245363,0|0,1:0|1:0,0:0:0:0:
12,180,106653,1,2,3:3:0:0:
97,225,106874,54,0,P|81:197|65:169,1,64.9999970245363,6|2,1:0|0:3,0:0:0:0:
91,96,107315,2,0,P|141:73|227:90,1,129.999994049073,0|8,1:0|1:0,0:0:0:0:
363,39,108197,1,2,1:2:0:0:
293,75,108418,1,2,3:0:0:0:
356,119,108639,2,0,P|382:83|409:64,1,64.9999970245363,0|2,1:0|0:3,0:0:0:0:
474,84,109080,2,2,P|498:113|489:204,2,129.999994049073,2|10|2,1:2|1:0|1:2,0:3:0:0:
430,148,110183,1,2,3:3:0:0:
419,225,110403,6,0,P|443:260|473:274,1,64.9999970245363,6|2,1:2|0:0,0:0:0:0:
348,193,110844,2,0,P|340:234|351:265,1,64.9999970245363,2|2,1:2|3:0,0:0:0:0:
320,119,111286,2,0,P|285:143|271:173,1,64.9999970245363,10|2,1:0|3:0,0:0:0:0:
201,192,111727,1,2,1:2:0:0:
211,115,111947,1,2,0:3:0:0:
147,69,112168,54,0,P|189:75|218:86,1,64.9999970245363,2|2,1:0|0:3,0:0:0:0:
166,146,112609,2,0,P|103:149|36:167,1,129.999994049073,2|8,1:2|1:0,0:0:0:0:
12,239,113271,1,2,1:3:0:0:
89,232,113491,1,0,1:0:0:0:
158,267,113712,1,2,0:3:0:0:
256,192,113933,12,0,115697,0:0:0:0:
202,51,127168,22,2,P|213:83|186:170,1,122.499996261597,2|0,0:0|0:0,0:3:0:0:
161,189,128050,6,0,P|119:185|91:179,1,50,2|0,3:2|0:0,0:0:0:0:
58,130,128491,1,0,3:2:0:0:
36,278,128933,2,0,P|15:254|8:180,2,100,2|2|2,3:2|3:0|3:2,0:0:0:0:
175,334,130256,2,0,P|115:338|62:349,1,100,2|0,3:2|3:0,0:0:0:0:
200,261,131139,1,2,3:2:0:0:
320,350,131580,2,0,P|298:319|287:293,1,50,2|0,3:0|0:0,0:0:0:0:
275,235,132021,1,2,3:2:0:0:
422,207,132462,2,0,P|406:242|344:257,2,100,2|2|2,3:2|3:0|3:0,0:0:0:0:
346,336,133786,5,2,3:2:0:0:
332,186,134227,1,2,3:2:0:0:
477,150,134668,1,2,3:0:0:0:
351,67,135109,54,0,P|385:77|406:81,1,50,2|0,3:2|0:0,0:0:0:0:
473,70,135550,1,2,3:0:0:0:
351,157,135991,2,0,P|416:161|463:185,2,100,2|2|2,3:2|3:0|3:0,0:0:0:0:
242,52,137315,2,0,P|262:97|273:156,1,100,2|2,3:2|3:0,0:0:0:0:
147,230,138197,1,2,3:2:0:0:
277,304,138639,2,0,P|256:273|239:259,1,50,2|0,3:0|0:0,0:0:0:0:
180,299,139080,1,2,3:2:0:0:
48,219,139521,2,0,P|104:230|164:227,2,100,2|2|2,3:0|3:2|3:0,0:0:0:0:
187,164,140844,5,2,3:2:0:0:
313,245,141286,38,2,P|351:215|361:86,1,175,2|0,0:0|0:0,0:3:0:0:
339,70,142168,6,0,P|310:69|280:64,1,50,2|0,3:2|0:0,0:0:0:0:
226,107,142609,2,0,P|191:107|123:152,2,100,2|2|2,3:0|3:0|3:2,0:0:0:0:
223,31,143712,1,0,0:0:0:0:
148,40,143933,2,0,P|116:34|88:17,1,50,2|0,3:0|0:0,0:0:0:0:
27,44,144374,2,0,P|45:91|61:157,1,100,2|0,3:0|3:0,0:0:0:0:
92,284,145256,2,0,P|99:241|109:217,1,50,2|2,3:2|0:0,0:0:0:0:
129,165,145697,5,2,3:2:0:0:
168,310,146139,1,2,3:2:0:0:
203,164,146580,1,2,3:2:0:0:
245,307,147021,2,0,P|274:300|299:297,1,50,2|2,3:0|0:3,0:0:0:0:
359,334,147462,2,0,P|375:298|374:229,1,100,0|2,3:0|3:2,0:0:0:0:
504,316,148344,54,2,P|471:274|444:166,1,150,2|0,3:0|0:0,0:3:0:0:
404,118,149227,2,0,P|428:102|446:76,1,50,2|0,3:2|0:0,0:0:0:0:
419,13,149668,1,2,3:0:0:0:
269,24,150109,2,0,P|313:24|360:62,2,100,2|2|2,3:2|3:0|3:2,0:0:0:0:
164,132,151433,2,0,P|228:107|282:103,1,100,2|2,3:0|3:2,0:0:0:0:
378,192,152315,2,0,P|335:175|314:171,1,50,2|2,3:2|0:0,0:0:0:0:
256,180,152756,5,2,3:2:0:0:
377,267,153197,1,2,3:2:0:0:
227,254,153639,1,2,3:2:0:0:
106,342,154080,2,0,P|124:314|134:293,1,50,2|0,3:0|0:0,0:0:0:0:
153,227,154521,2,0,P|113:220|46:252,1,100,2|2,3:0|3:2,0:0:0:0:
12,97,155403,38,2,P|48:122|180:142,1,175,2|0,3:2|0:0,0:3:0:0:
206,122,156286,6,0,P|215:81|215:68,1,50,2|0,3:2|0:0,0:0:0:0:
285,45,156727,2,0,P|296:85|340:137,2,100,2|2|2,3:2|3:0|3:0,0:0:0:0:
356,22,157830,1,0,0:0:0:0:
411,72,158050,2,0,P|443:79|469:80,1,50,2|0,3:2|0:0,0:0:0:0:
495,146,158491,2,0,P|451:171|430:232,1,100,2|2,3:0|3:2,0:0:0:0:
280,210,159374,2,0,P|321:220|337:227,1,50,2|2,3:2|0:0,0:0:0:0:
382,274,159815,5,2,3:2:0:0:
232,270,160256,1,2,3:2:0:0:
100,342,160697,1,2,3:2:0:0:
250,345,161139,2,0,P|292:352|322:361,1,50,2|2,3:0|0:3,0:0:0:0:
345,294,161580,2,0,P|388:281|459:271,1,100,2|2,3:0|3:2,0:0:0:0:
299,227,162462,54,2,P|269:198|160:183,1,150,2|0,3:0|0:0,0:3:0:0:
100,217,163344,2,0,P|103:254|100:280,1,50,2|0,3:2|0:0,0:0:0:0:
54,325,163786,1,2,3:0:0:0:
20,178,164227,2,0,P|2:212|3:286,2,100,2|2|2,3:0|3:0|3:0,0:0:0:0:
146,97,165550,2,0,P|86:101|27:107,1,100,2|2,3:2|3:0,0:0:0:0:
173,24,166433,2,0,P|209:32|233:36,1,50,2|2,3:2|0:0,0:0:0:0:
275,87,166874,5,2,3:2:0:0:
418,43,167315,1,2,3:2:0:0:
315,152,167756,1,2,3:2:0:0:
458,107,168197,2,0,P|449:138|445:170,1,50,2|2,3:0|0:3,0:0:0:0:
383,197,168639,2,0,P|403:234|403:307,1,100,2|2,3:3|3:2,0:0:0:0:
266,344,169521,38,2,P|232:308|107:287,1,175,2|0,3:0|0:0,0:3:0:0:
86,311,170403,6,2,P|46:321|-23:326,2,100,2|0|0,0:0|0:0|0:0,0:0:0:0:
198,211,171727,1,2,0:0:0:0:
378,225,176580,54,2,B|417:190|426:143|415:62|376:85|375:132,1,175,2|2,0:0|0:0,0:3:0:0:
361,153,177462,54,0,P|320:165|289:166,1,64.9999970245363,6|2,1:2|0:3,0:0:0:0:
238,115,177903,2,0,P|274:85|296:1,1,129.999994049073,0|8,1:0|1:0,0:0:0:0:
164,91,178786,1,2,1:2:0:0:
119,27,179006,1,2,1:2:0:0:
84,97,179227,2,0,P|52:85|1:84,1,64.9999970245363,2|2,1:2|0:3,0:0:0:0:
34,159,179668,2,0,P|7:207|11:294,2,129.999994049073,2|8|2,1:2|1:0|1:1,0:0:0:0:
110,173,180771,1,2,3:2:0:0:
135,246,180991,54,0,P|165:256|191:276,1,64.9999970245363,2|2,1:0|0:3,0:0:0:0:
251,226,181433,2,0,P|206:180|169:116,1,129.999994049073,2|8,1:2|1:0,0:0:0:0:
269,1,182315,1,0,1:0:0:0:
208,50,182536,1,0,1:0:0:0:
279,81,182756,2,0,P|317:72|357:68,1,64.9999970245363,2|0,1:0|1:0,0:0:0:0:
342,146,183197,2,0,P|379:157|416:173,1,64.9999970245363,0|0,1:0|1:0,0:0:0:0:
417,90,183639,1,10,1:0:0:0:
483,49,183859,2,0,P|463:83|451:124,1,64.9999970245363,0|0,1:0|1:0,0:0:0:0:
478,181,184300,1,0,1:0:0:0:
427,240,184521,6,0,P|451:256|488:259,1,64.9999970245363,2|0,1:0|1:0,0:0:0:0:
502,335,184962,2,0,P|440:339|373:378,1,129.999994049073,2|8,1:2|1:0,0:0:0:0:
225,376,185844,1,2,1:3:0:0:
300,354,186065,1,2,3:2:0:0:
337,285,186286,2,0,P|348:230|345:203,1,64.9999970245363,2|2,1:0|1:3,0:0:0:0:
291,166,186727,2,0,P|250:181|235:261,1,129.999994049073,2|10,1:2|1:0,0:0:0:0:
105,170,187609,1,0,1:0:0:0:
151,233,187830,1,0,3:0:0:0:
176,306,188050,54,0,P|162:354|148:378,1,64.9999970245363,2|0,1:0|1:0,0:0:0:0:
93,319,188491,2,0,P|64:253|14:221,1,129.999994049073,2|10,1:2|1:0,0:0:0:0:
4,66,189374,1,0,1:0:0:0:
75,95,189594,1,2,1:2:0:0:
151,77,189815,2,0,P|184:59|235:43,1,64.9999970245363,0|2,1:0|1:3,0:0:0:0:
226,125,190256,2,0,P|262:135|309:160,1,64.9999970245363,2|2,1:2|0:0,0:0:0:0:
315,74,190697,5,10,1:1:0:0:
363,135,190918,1,0,1:0:0:0:
436,160,191139,1,0,1:0:0:0:
511,143,191359,1,2,3:0:0:0:
462,19,191580,54,0,P|457:51|458:84,1,64.9999970245363,6|2,1:2|0:3,0:0:0:0:
396,132,192021,2,0,P|370:110|355:6,1,129.999994049073,0|8,1:0|1:0,0:0:0:0:
200,64,192903,1,2,1:2:0:0:
269,28,193124,1,2,1:2:0:0:
268,105,193344,2,0,P|253:147|242:178,1,64.9999970245363,2|2,1:2|0:3,0:0:0:0:
170,146,193786,2,0,P|134:115|53:97,2,129.999994049073,2|8|2,1:2|1:0|1:1,0:0:0:0:
193,220,194889,1,2,3:2:0:0:
117,201,195109,6,0,P|119:240|141:278,1,64.9999970245363,2|2,1:0|0:3,0:0:0:0:
195,305,195550,2,0,P|242:283|330:281,1,129.999994049073,2|8,1:2|1:0,0:0:0:0:
462,341,196433,1,0,1:0:0:0:
399,295,196653,1,0,1:0:0:0:
461,248,196874,54,0,P|423:256|381:254,1,64.9999970245363,2|0,1:0|1:0,1:0:0:0:
342,169,197315,2,0,P|375:170|407:178,1,64.9999970245363,0|0,1:0|1:0,0:0:0:0:
463,124,197756,1,10,1:0:0:0:
459,45,197977,2,0,P|452:82|444:112,1,64.9999970245363,0|0,1:0|1:0,0:0:0:0:
369,88,198418,1,0,1:0:0:0:
313,33,198639,6,0,P|267:40|232:50,1,64.9999970245363,2|0,1:0|1:0,0:0:0:0:
211,112,199080,2,0,P|160:81|72:81,1,129.999994049073,2|8,1:2|1:0,0:0:0:0:
0,202,199962,1,2,1:3:0:0:
57,148,200183,1,2,3:2:0:0:
75,223,200403,2,0,P|80:190|98:162,1,64.9999970245363,2|2,1:0|1:3,0:0:0:0:
152,218,200844,2,0,P|215:217|258:284,1,129.999994049073,2|10,1:2|1:0,0:0:0:0:
105,309,201727,1,0,1:0:0:0:
181,293,201947,1,0,3:0:0:0:
241,342,202168,54,0,P|290:353|323:348,1,64.9999970245363,2|0,1:0|1:0,0:0:0:0:
376,382,202609,2,0,P|406:348|385:255,1,129.999994049073,2|10,1:2|1:0,0:0:0:0:
474,132,203491,1,0,1:0:0:0:
426,193,203712,1,2,1:2:0:0:
348,203,203933,6,0,P|312:206|274:206,1,64.9999970245363,0|2,1:0|1:3,0:0:0:0:
295,283,204374,2,0,P|259:286|221:286,1,64.9999970245363,2|2,1:2|0:0,0:0:0:0:
203,212,204815,1,10,1:1:0:0:
141,259,205036,2,0,P|160:221|166:182,1,64.9999970245363,0|0,1:0|1:0,0:0:0:0:
86,203,205477,1,2,3:0:0:0:
86,336,205697,54,0,P|71:308|63:277,1,64.9999970245363,6|2,1:0|0:3,0:0:0:0:
12,216,206139,2,0,P|20:166|89:124,1,129.999994049073,0|8,1:0|1:0,0:0:0:0:
212,38,207021,1,0,1:0:0:0:
156,93,207241,1,2,3:2:0:0:
230,117,207462,2,0,P|267:127|300:129,1,64.9999970245363,0|2,1:0|0:3,0:0:0:0:
350,75,207903,2,0,P|379:38|466:44,2,129.999994049073,2|10|0,1:2|1:0|0:0,0:0:0:0:
364,151,209006,1,0,0:0:0:0:
425,199,209227,6,0,P|445:228|474:269,1,64.9999970245363,6|2,1:2|0:0,0:0:0:0:
352,228,209668,2,0,P|345:262|337:312,1,64.9999970245363,2|0,1:2|0:0,0:0:0:0:
290,183,210109,2,0,P|260:203|219:232,1,64.9999970245363,10|0,1:0|0:0,0:0:0:0:
298,107,210550,1,0,1:0:0:0:
245,49,210771,1,2,3:0:0:0:
188,102,210991,54,0,P|203:61|206:16,1,64.9999970245363,2|2,1:2|1:3,0:0:0:0:
127,41,211433,2,0,P|104:88|26:123,1,129.999994049073,2|8,1:2|1:0,0:0:0:0:
22,198,212094,2,0,P|62:213|83:235,1,64.9999970245363,2|2,1:3|1:2,0:0:0:0:
23,284,212536,1,2,3:0:0:0:
160,292,212756,6,0,P|128:297|97:305,1,64.9999970245363,6|2,1:0|0:3,0:0:0:0:
136,372,213197,2,0,P|211:359|276:349,1,129.999994049073,2|8,1:2|1:0,0:0:0:0:
420,354,214080,1,2,1:0:0:0:
345,332,214300,1,2,3:0:0:0:
399,276,214521,2,0,P|386:233|383:204,1,64.9999970245363,2|2,1:2|0:3,0:0:0:0:
460,201,214962,2,0,P|484:164|456:77,2,129.999994049073,2|10|2,1:2|1:0|1:2,0:0:0:0:
410,140,216065,1,2,3:0:0:0:
343,99,216286,54,0,L|285:68,1,64.9999970245363,6|2,1:2|0:0,0:0:0:0:
342,180,216727,2,0,L|280:199,1,64.9999970245363,2|0,1:2|0:0,0:0:0:0:
409,225,217168,2,0,L|377:284,1,64.9999970245363,10|0,1:0|0:0,0:0:0:0:
300,276,217609,1,2,1:2:0:0:
227,304,217830,1,2,3:0:0:0:
160,266,218050,6,0,P|190:256|232:256,1,64.9999970245363,2|2,1:2|3:0,0:0:0:0:
280,199,218491,2,0,P|232:173|144:180,1,129.999994049073,2|8,1:2|1:0,0:0:0:0:
113,109,219153,2,0,P|147:85|162:56,1,64.9999970245363,0|0,1:0|1:0,0:0:0:0:
87,34,219594,1,2,3:3:0:0:
38,159,219815,54,0,P|37:126|34:94,1,64.9999970245363,6|2,1:0|0:3,0:0:0:0:
113,109,220256,2,0,P|118:180|120:246,1,129.999994049073,0|8,1:0|1:0,0:0:0:0:
31,367,221139,1,0,1:0:0:0:
87,313,221359,1,2,3:0:0:0:
164,305,221580,2,0,P|210:313|244:317,1,64.9999970245363,0|2,1:0|0:3,0:0:0:0:
290,268,222021,2,0,P|320:310|411:315,2,129.999994049073,2|10|2,1:2|1:0|1:2,0:0:0:0:
365,247,223124,1,2,3:3:0:0:
440,228,223344,6,0,P|459:202|479:177,1,64.9999970245363,6|2,1:2|0:0,0:0:0:0:
388,168,223786,2,0,P|391:136|396:104,1,64.9999970245363,2|2,1:2|3:0,0:0:0:0:
312,187,224227,2,0,P|298:157|287:127,1,64.9999970245363,10|2,1:0|3:0,0:0:0:0:
220,168,224668,1,2,1:2:0:0:
151,129,224889,1,2,3:0:0:0:
90,80,225109,54,0,P|132:90|168:82,1,64.9999970245363,2|2,1:0|0:3,0:0:0:0:
153,165,225550,2,0,P|108:173|44:239,1,129.999994049073,2|8,1:2|1:0,0:0:0:0:
70,303,226212,1,2,1:3:0:0:
138,265,226433,1,0,1:0:0:0:
215,266,226653,1,2,0:3:0:0:
256,192,226874,12,0,228639,0:0:0:0:
