osu file format v14

[General]
AudioFilename: audio.mp3
AudioLeadIn: 0
PreviewTime: -1
Countdown: 1
SampleSet: None
StackLeniency: 0.7
Mode: 0
LetterboxInBreaks: 0
WidescreenStoryboard: 1

[Editor]
Bookmarks: 25731,27032
DistanceSpacing: 0.8
BeatDivisor: 4
GridSize: 4
TimelineZoom: 2.999999

[Metadata]
Title:Snow Halation
TitleUnicode:Snow Halation
Artist:pre
ArtistUnicode:pre
Creator:Ferdeza
Version:a god
Source:
Tags:rygoon 169iq sex
BeatmapID:1988502
BeatmapSetID:952265

[Difficulty]
HPDrainRate:5
CircleSize:4
OverallDifficulty:8.5
ApproachRate:9
SliderMultiplier:1.7
SliderTickRate:1

[Events]
//Background and Video events
0,0,"pre.png",0,0
//Break Periods
2,90256,107143
2,111931,115814
//Storyboard Layer 0 (Background)
//Storyboard Layer 1 (Fail)
//Storyboard Layer 2 (Pass)
//Storyboard Layer 3 (Foreground)
//Storyboard Sound Samples

[TimingPoints]
1270,346.820809248555,4,1,0,34,1,0
1270,-100,4,1,0,34,0,0
13755,-83.3333333333333,4,1,0,34,0,0
24853,-71.4285714285714,4,1,0,34,0,0
35952,-76.9230769230769,4,1,0,34,0,0
42888,-71.4285714285714,4,1,0,34,0,0
52599,-58.8235294117647,4,1,0,34,0,0
75489,-66.6666666666667,4,1,0,34,0,0
108090,-71.4285714285714,4,1,0,34,0,0
119189,-55.5555555555556,4,1,0,34,0,0
138611,-52.6315789473684,4,1,0,34,0,0
146934,-52.6315789473684,4,1,0,34,0,1
149622,-52.6315789473684,4,1,0,34,0,0
154564,-66.6666666666667,4,1,0,34,0,0

[HitObjects]
46,160,1270,6,0,P|56:103|81:70,1,85
214,90,1616,2,0,P|234:127|238:169,1,85
128,329,1963,2,0,L|146:143,1,170
232,265,2483,6,0,B|273:262|273:262|278:266|278:266|336:260,1,85
427,257,2830,1,0,0:0:0:0:
483,158,3004,1,0,0:0:0:0:
426,61,3177,2,0,P|357:49|296:72,1,127.5
258,134,3524,1,0,0:0:0:0:
128,34,3697,1,0,0:0:0:0:
258,134,3871,1,0,0:0:0:0:
128,34,4044,6,0,B|79:111|170:127|102:224,1,170
204,317,4564,1,0,0:0:0:0:
204,317,5431,2,0,P|131:309|89:324,2,85
315,378,5952,1,0,0:0:0:0:
314,199,6125,2,0,P|316:279|357:217,1,170
496,204,6732,2,0,L|488:173,1,21.25
462,194,6819,6,0,B|447:129|447:129|406:95|406:95|391:32,1,170
259,24,7339,2,0,P|266:98|212:167,1,127.5
195,172,7686,1,0,0:0:0:0:
381,243,7859,1,0,0:0:0:0:
195,172,8033,1,0,0:0:0:0:
381,243,8206,6,0,L|270:385,1,170
103,380,8726,2,0,L|207:246,1,170
70,206,9506,2,0,L|90:184,1,21.25
59,178,9593,2,0,B|122:93|122:93|280:55,1,255
477,106,10287,1,0,0:0:0:0:
310,206,10460,1,0,0:0:0:0:
345,44,10634,1,0,0:0:0:0:
438,199,10807,1,0,0:0:0:0:
299,281,10980,1,0,0:0:0:0:
256,192,11154,12,0,12368,0:0:0:0:
397,102,13755,6,0,B|375:140|375:140|379:160|377:182|377:182|357:204|357:204|358:224|351:229|357:254|357:254|349:259|349:259|348:283|348:283|341:291,1,203.999993774414
150,332,14275,2,0,B|152:329|152:329|153:305|153:305|161:300|161:300|155:274|162:269|161:250|161:250|181:228|181:228|183:205|179:185|179:185|200:147,1,203.999993774414
263,0,14796,1,0,0:0:0:0:
131,116,14969,1,0,0:0:0:0:
298,172,15142,6,0,B|334:132|334:132|329:107|329:107|348:91|365:58|365:58|399:51|399:51|414:21,2,203.999993774414
263,0,16183,1,0,0:0:0:0:
131,116,16530,2,0,B|81:139|63:134|63:134|41:162|33:188|33:188|21:209|21:209|22:251|22:251|42:286,1,203.999993774414
199,384,17050,2,0,B|204:329|217:316|217:316|204:283|185:263|185:263|173:242|173:242|136:222|136:222|96:221,1,203.999993774414
332,285,17917,2,0,B|321:314|321:314|326:384,1,101.999996887207
474,353,18264,2,0,B|484:323|484:323|479:253,1,101.999996887207
460,155,18611,1,0,0:0:0:0:
419,3,18784,1,0,0:0:0:0:
267,44,18957,1,0,0:0:0:0:
308,196,19131,6,0,B|323:162|323:162|323:139|335:124|335:124|360:93,1,101.999996887207
230,120,19651,2,0,B|214:138|214:138|202:153|202:176|202:176|187:210,1,101.999996887207
22,104,20171,2,0,P|77:79|134:86,1,101.999996887207
111,281,20518,2,0,P|86:226|93:169,1,101.999996887207
216,315,21038,2,0,P|276:320|321:355,1,101.999996887207
429,327,21559,2,0,B|437:305|460:290|460:290|460:264|473:246|473:246|456:220|448:197|448:197|427:190|427:190|406:176|406:176|381:177|357:176,1,203.999993774414
285,189,22079,1,0,0:0:0:0:
199,54,22772,2,0,L|210:161,1,101.999996887207
74,254,23119,2,0,L|84:152,1,101.999996887207
101,30,23466,5,0,0:0:0:0:
233,322,23639,1,0,0:0:0:0:
74,254,24160,5,0,0:0:0:0:
366,123,24333,1,0,0:0:0:0:
331,333,24506,1,0,0:0:0:0:
280,332,24592,1,0,0:0:0:0:
229,331,24680,2,0,L|155:330,1,50.9999984436036
5,328,24853,5,0,0:0:0:0:
1,161,25027,2,0,B|24:158|24:158|53:159|53:159|63:173|97:173|107:186|107:186|123:195,1,118.999996368408
308,144,25374,2,0,B|284:146|284:146|255:145|255:145|245:131|211:131|201:118|201:118|185:109,1,118.999996368408
99,15,25720,1,0,0:0:0:0:
427,52,25894,2,0,B|398:86|398:86|409:114|391:134|399:150|399:150|405:183,1,118.999996368408
478,337,26241,2,0,B|463:294|463:294|433:290|424:264|407:263|407:263|375:252,1,118.999996368408
205,238,26587,2,0,B|248:246|248:246|267:222|294:228|303:213|303:213|329:191,1,118.999996368408
328,384,26934,1,0,0:0:0:0:
328,384,27021,2,0,B|265:373|265:373|231:388|231:388|194:378,1,118.999996368408
124,295,27281,2,0,B|120:262|141:233|141:233|194:175|144:128|76:145|87:205,1,237.999992736817
129,379,27801,5,0,0:0:0:0:
1,232,27975,2,0,B|9:185|9:185|3:162|3:162|11:141|10:114|10:114|10:102,1,118.999996368408
109,20,28322,2,0,B|152:33|173:53|173:53|188:47|188:47|208:48|226:39,1,118.999996368408
410,33,28668,2,0,B|351:51|351:51|343:75|325:92|325:92|328:118|321:142|321:142|329:175|329:175,1,178.499994552612
388,223,29015,5,0,0:0:0:0:
270,327,29189,1,0,0:0:0:0:
402,359,29362,5,0,0:0:0:0:
255,193,29536,1,0,0:0:0:0:
398,213,29709,5,0,0:0:0:0:
254,339,29883,1,0,0:0:0:0:
414,378,30056,5,0,0:0:0:0:
236,176,30230,1,0,0:0:0:0:
58,378,30402,2,0,B|51:325|50:325|61:301|61:301|53:272|58:253|58:253|51:248|51:248|64:234|64:234|56:205|56:201|65:168|65:168|62:139,1,237.999992736817
120,45,30923,2,0,B|176:76|176:76|229:56,1,118.999996368408
417,124,31270,2,0,B|361:93|361:93|308:113,1,118.999996368408
189,189,31616,1,0,0:0:0:0:
356,186,31790,6,0,B|341:317|260:237|233:389,1,237.999992736817
388,384,32310,1,0,0:0:0:0:
479,302,32483,2,0,P|464:239|424:195,1,118.999996368408
252,190,32830,2,0,P|203:223|174:274,1,118.999996368408
165,326,33177,5,0,0:0:0:0:
96,192,33350,1,0,0:0:0:0:
252,190,33524,5,0,0:0:0:0:
92,273,33697,1,0,0:0:0:0:
99,82,33871,5,0,0:0:0:0:
196,269,34044,1,0,0:0:0:0:
325,74,34217,5,0,0:0:0:0:
96,192,34390,1,0,0:0:0:0:
343,365,34564,5,0,0:0:0:0:
201,90,34737,1,0,0:0:0:0:
511,104,34912,5,0,0:0:0:0:
196,269,35085,1,0,0:0:0:0:
326,14,35258,5,0,0:0:0:0:
326,14,35431,1,0,0:0:0:0:
326,14,35605,1,0,0:0:0:0:
336,128,35778,1,0,0:0:0:0:
346,242,35952,6,0,B|290:339|290:339|177:396,1,220.999989883423,0|0,3:0|3:0,3:0:0:0:
57,318,36472,1,0,0:0:0:0:
57,110,36645,2,0,B|57:142|57:142|53:163|53:163|61:190|61:190|59:211|52:217,1,110.499994941712
209,226,36992,1,0,0:0:0:0:
146,68,37165,6,0,B|152:61|173:59|173:59|200:67|200:67|221:63|221:63|253:63,1,110.499994941712
386,69,37512,1,0,0:0:0:0:
512,218,37686,2,0,P|466:273|401:299,1,110.499994941712
297,297,38033,1,0,0:0:0:0:
251,131,38206,1,0,0:0:0:0:
377,234,38379,1,0,0:0:0:0:
337,377,38552,1,0,0:0:0:0:
219,236,38726,6,0,L|-20:298,1,220.999989883423
89,370,39246,1,0,0:0:0:0:
60,196,39420,2,0,B|93:160|93:160|105:154|105:154|111:139|114:127|114:127|130:116|130:114,1,110.499994941712
5,11,39767,1,0,0:0:0:0:
190,12,39940,6,0,B|232:11|232:11|256:20|283:19|283:19|304:36|304:36|327:49|327:49|333:77|333:77|350:104|368:107|372:122|372:122|371:140,1,220.999989883423
243,114,40460,1,0,0:0:0:0:
416,29,40634,1,0,0:0:0:0:
403,221,40807,2,0,B|402:222|387:233|387:233|383:245|377:260|377:260|366:266|366:266|332:302,1,110.499994941712
151,358,41154,2,0,P|214:361|267:400,1,110.499994941712
155,262,41501,6,0,B|158:211|158:211|155:188|155:188|163:172|159:153|159:153|155:137|155:137|166:119,1,110.499994941712
252,15,41848,2,0,B|249:66|249:66|252:89|252:89|244:104|248:124|248:124|252:140|252:140|241:158,1,110.499994941712
57,116,42194,2,0,B|68:86|68:86|84:77|84:77|100:78|100:78|119:76|142:66|142:66|159:73,1,110.499994941712
350,161,42541,2,0,B|339:191|339:191|323:200|323:200|307:199|307:199|288:201|265:211|265:211|248:204,1,110.499994941712
347,39,42888,6,0,B|382:35|382:35|409:46|408:46|434:45|434:45|457:65|456:88|456:88|471:111|471:111|464:142|470:157|470:157|471:181|460:194|464:205|460:216|460:216|460:227,1,237.999992736817
461,320,43408,2,0,B|437:319|437:319|422:322|422:322|407:317|407:317|390:315|362:327|362:327|340:322|325:320,1,118.999996368408
181,344,43755,1,0,0:0:0:0:
253,154,43928,2,0,B|252:178|252:178|255:193|255:193|250:208|250:208|248:225|260:253|260:253|255:275|253:290,1,118.999996368408
114,197,44275,6,0,B|56:229|56:229|56:252|33:259|33:259|28:295|44:316|32:335|32:335|28:361|28:361|10:382,2,237.999992736817
253,154,45142,1,0,0:0:0:0:
151,27,45316,2,0,B|121:27|103:46|78:44|78:44|70:60|70:60|38:78|38:78|26:121,1,118.999996368408
259,72,45663,2,0,B|316:36|316:36|330:42|330:42|348:39|359:25|359:25|384:23|384:23|403:31|403:31|425:29|425:29|435:24|435:24|478:40|478:40,1,237.999992736817
441,192,46183,2,0,B|445:250|445:250|438:265|438:265|444:277|444:277|439:307,1,118.999996368408
280,374,46530,1,0,0:0:0:0:
283,146,46703,6,0,L|281:264,1,118.999996368408
32,284,47050,2,0,B|76:242|76:242|89:239|89:239|96:229|96:229|123:229|148:221,1,118.999996368408
234,88,47397,2,0,B|190:130|190:130|177:133|177:133|170:143|170:143|143:143|118:151,1,118.999996368408
35,12,47743,2,0,B|42:34|41:34|36:59|36:59|40:73|34:93|34:93|41:130,1,118.999996368408
221,217,48090,1,0,0:0:0:0:
136,34,48264,1,0,0:0:0:0:
337,51,48437,6,0,B|405:51|381:108|456:106,1,118.999996368408
483,219,48784,2,0,B|460:224|460:224|449:220|429:224|429:224|415:223|399:240|399:240|364:239,1,118.999996368408
153,330,49131,2,0,B|176:335|176:335|187:331|207:335|207:335|221:334|237:351|237:351|272:350,1,118.999996368408
208,76,49478,2,0,B|201:145|201:145|207:171|207:171|199:207,1,118.999996368408
58,276,49824,5,0,0:0:0:0:
79,76,49998,1,0,0:0:0:0:
233,306,50171,5,0,0:0:0:0:
186,48,50345,1,0,0:0:0:0:
136,343,50518,5,0,0:0:0:0:
316,15,50691,1,0,0:0:0:0:
317,343,50865,5,0,0:0:0:0:
137,15,51038,1,0,0:0:0:0:
469,103,51212,5,0,0:0:0:0:
14,338,51385,2,0,B|22:311|22:311|19:299|19:299|25:281|21:267|21:267|21:231|21:231|28:216|28:204|25:182|25:182|32:149|32:149|19:101,1,237.999992736817
167,29,51905,1,0,0:0:0:0:
188,72,51992,1,0,0:0:0:0:
167,115,52079,1,0,0:0:0:0:
174,162,52165,1,0,0:0:0:0:
166,209,52252,2,0,L|166:288,1,59.4999981842042
258,384,52426,2,0,L|258:324,1,59.4999981842042
258,68,52599,6,0,P|363:44|456:116,1,216.750004134178
496,200,52946,2,0,B|491:218|491:218|494:245|494:245|485:257|487:265|487:265|473:280|473:280|470:336,1,144.500002756119
289,345,53293,2,0,B|275:331|275:331|279:314|250:320|250:320|244:307|236:305|236:305|230:285|230:285|189:258,1,144.500002756119
336,184,53639,1,0,0:0:0:0:
361,384,53813,1,0,0:0:0:0:
151,375,53986,6,0,B|69:373|69:373|14:317,1,144.500002756119
198,160,54333,2,0,B|154:176|154:176|138:173|138:173|124:187|131:202|117:212|117:212|92:249,1,144.500002756119
23,89,54680,2,0,B|80:102|105:85|105:85|136:93|136:93|163:85,1,144.500002756119
286,4,55027,2,0,B|229:-9|204:8|204:8|173:0|173:0|146:8,1,144.500002756119
272,89,55374,2,0,B|272:175|272:175|234:201|234:201|236:304,1,216.750004134178
242,380,55720,2,0,L|391:364,1,144.500002756119
485,254,56067,2,0,B|434:254|434:254|429:258|409:260|409:260|394:273|394:273|386:267|340:270,1,144.500002756119
376,156,56414,2,0,P|438:105|439:29,1,144.500002756119
279,13,56761,5,0,0:0:0:0:
70,132,56935,1,0,0:0:0:0:
209,133,57108,1,0,0:0:0:0:
1,12,57281,1,0,0:0:0:0:
1,12,57454,1,0,0:0:0:0:
348,134,57628,1,0,0:0:0:0:
1,256,57801,1,0,0:0:0:0:
1,256,58148,6,0,B|52:302|52:302|215:303,1,216.750004134178
328,301,58495,2,0,B|333:248|333:248|328:231|328:231|333:220|329:199|329:199|335:186|337:167|333:148,1,144.500002756119
450,81,58842,2,0,B|452:89|450:108|444:121|444:121|448:142|443:153|443:153|448:170|448:170|443:223,1,144.500002756119
431,374,59189,2,0,B|409:377|392:389|392:389|378:389|371:386|371:386|349:384|349:384|327:373|327:373|318:363|318:363|291:351,1,144.500002756119
251,192,59535,5,0,0:0:0:0:
347,48,59709,1,0,0:0:0:0:
175,37,59882,2,0,P|98:45|32:105,1,144.500002756119
166,193,60229,1,0,0:0:0:0:
30,300,60403,1,0,0:0:0:0:
302,86,60576,1,0,0:0:0:0:
273,329,60749,1,0,0:0:0:0:
166,193,60923,6,0,B|201:179|201:179|214:185|214:185|224:180|249:178|249:178|265:173|265:173|291:178|317:173|317:173|346:185|346:185|361:186|361:186|370:190|400:209|400:209|411:236|411:236|426:256,1,289.000005512238
500,380,61443,1,0,0:0:0:0:
492,187,61616,2,0,B|484:140|484:140|489:124|489:124|485:108|493:92|493:92|488:77|488:77|486:41,1,144.500002756119
307,42,61963,2,0,L|141:45,1,144.500002756119
5,51,62310,5,0,0:0:0:0:
72,292,62483,1,0,0:0:0:0:
72,292,63004,5,0,0:0:0:0:
5,51,63177,1,0,0:0:0:0:
5,51,63524,5,0,0:0:0:0:
17,108,63611,1,0,0:0:0:0:
29,165,63697,2,0,L|67:312,1,144.500002756119
206,352,64044,6,0,B|207:322|207:322|214:316|214:316|217:298|217:298|228:290|237:273|237:273|250:268|266:266|267:266|290:271|290:271|306:279|306:279|331:291|331:291|336:311|336:311|344:324,1,216.750004134178
425,247,64391,2,0,B|420:228|420:228|423:201|423:201|414:189|416:181|416:181|402:166|402:166|399:110,1,144.500002756119
289,39,64738,2,0,B|275:52|275:52|279:69|250:63|250:63|244:76|236:78|236:78|230:98|230:98|189:125,1,144.500002756119
336,200,65084,1,0,0:0:0:0:
361,0,65258,1,0,0:0:0:0:
146,7,65431,2,0,B|110:10|110:10|94:17|85:4|66:9|66:9|60:24|60:24|25:55,1,144.500002756119
198,223,65778,2,0,B|154:208|154:208|138:211|138:211|124:197|131:182|117:172|117:172|92:135,1,144.500002756119
23,295,66125,2,0,B|80:282|105:299|105:299|136:291|136:291|163:299,1,144.500002756119
286,380,66472,6,0,B|229:393|204:376|204:376|173:384|173:384|146:376,1,144.500002756119
42,370,66819,1,0,0:0:0:0:
308,250,66992,1,0,0:0:0:0:
242,4,67165,2,0,P|330:25|367:95,1,144.500002756119
468,201,67512,2,0,P|397:210|350:262,1,144.500002756119
279,371,67860,5,0,0:0:0:0:
70,252,68034,1,0,0:0:0:0:
209,251,68207,1,0,0:0:0:0:
1,372,68380,1,0,0:0:0:0:
1,372,68553,1,0,0:0:0:0:
348,250,68727,1,0,0:0:0:0:
1,128,68900,1,0,0:0:0:0:
1,128,69247,6,0,B|30:102|30:102|39:101|39:101|48:81|48:81|69:82|91:77|91:77|117:85|130:81|130:81|155:76|165:82|165:82|213:81,1,216.750004134178
328,83,69594,2,0,B|333:136|333:136|328:153|328:153|333:164|329:185|329:185|335:198|337:217|333:236,1,144.500002756119
450,303,69941,2,0,B|452:294|450:275|444:262|444:262|448:241|443:230|443:230|448:213|448:213|443:160,1,144.500002756119
431,10,70288,2,0,B|409:7|392:-5|392:-5|378:-5|371:-2|371:-2|349:0|349:0|327:11|327:11|318:21|318:21|291:33,1,144.500002756119
251,192,70634,1,0,0:0:0:0:
347,336,70808,1,0,0:0:0:0:
175,347,70981,2,0,P|98:339|32:279,1,144.500002756119
166,191,71328,1,0,0:0:0:0:
30,84,71502,1,0,0:0:0:0:
302,298,71675,1,0,0:0:0:0:
273,55,71848,1,0,0:0:0:0:
166,191,72022,6,0,B|201:205|201:205|214:199|214:199|224:204|249:206|249:206|265:211|265:211|291:206|317:211|317:211|346:199|346:199|361:198|361:198|370:194|400:175|400:175|411:148|411:148|426:128,1,289.000005512238
500,4,72542,1,0,0:0:0:0:
492,197,72715,2,0,B|484:244|484:244|489:260|489:260|485:276|493:292|493:292|488:307|488:307|486:343,1,144.500002756119
307,342,73062,2,0,L|141:339,1,144.500002756119
5,333,73409,5,0,0:0:0:0:
72,92,73582,1,0,0:0:0:0:
281,286,73755,1,0,0:0:0:0:
40,219,73928,2,0,B|62:192|87:181|87:181|91:166|91:166|111:157|111:157|116:134|138:126|138:126|153:104,1,144.500002756119
362,58,74275,2,0,B|360:60|360:60|338:68|333:91|333:91|313:100|313:100|309:115|309:115|284:126|262:153,1,144.500002756119
320,287,74622,1,0,0:0:0:0:
357,242,74709,1,0,0:0:0:0:
394,197,74796,1,0,0:0:0:0:
394,197,75142,5,0,0:0:0:0:
394,197,75489,2,0,B|428:225|428:225|433:251|433:251|440:264|434:290|434:290|427:318|432:336|432:336|425:354,1,127.500004863739
290,384,75836,2,0,B|256:356|256:356|251:330|251:330|244:317|250:291|250:291|257:263|252:245|252:245|259:227,1,127.500004863739
299,121,76183,6,0,B|287:123|266:124|266:124|250:130|225:121|225:121|224:126|224:126|218:125|199:135|199:135|163:126,1,127.500004863739
65,125,76530,1,0,0:0:0:0:
181,14,76703,1,0,0:0:0:0:
104,281,76876,2,0,P|116:368|244:295,1,255.000009727478
286,192,77397,1,0,0:0:0:0:
418,341,77570,6,0,B|423:275|423:275|426:274|426:274|432:213,1,127.500004863739
303,122,77917,1,0,0:0:0:0:
512,66,78090,1,0,0:0:0:0:
303,8,78264,2,0,B|277:12|277:12|261:9|246:12|246:12|231:9|212:13|201:5|201:5|170:5,1,127.500004863739
10,21,78611,5,0,0:0:0:0:
10,107,78784,1,0,0:0:0:0:
196,214,78957,5,0,0:0:0:0:
196,69,79131,1,0,0:0:0:0:
13,196,79305,5,0,0:0:0:0:
13,384,79478,1,0,0:0:0:0:
201,384,79651,5,0,0:0:0:0:
294,376,79824,1,0,0:0:0:0:
387,368,79998,1,0,0:0:0:0:
480,360,80171,1,0,0:0:0:0:
298,142,80345,6,0,P|206:147|212:242,1,191.250007295609
277,254,80691,1,0,0:0:0:0:
469,209,80865,1,0,0:0:0:0:
333,64,81038,2,0,B|304:70|288:61|288:61|267:68|267:68|248:71|248:71|224:70|224:70|206:77|184:81,1,127.500004863739
64,95,81385,1,0,0:0:0:0:
272,187,81559,6,0,B|243:193|227:184|227:184|206:191|206:191|187:194|187:194|163:193|163:193|145:200|123:204,1,127.500004863739
3,218,81905,1,0,0:0:0:0:
92,333,82079,1,0,0:0:0:0:
236,313,82252,2,0,B|278:306|278:306|297:306|310:309|310:309|326:309|326:309|334:318|334:318|364:318|384:343,1,127.500004863739
446,142,82599,2,0,B|431:181|431:181|422:197|413:207|413:207|405:221|405:221|393:223|393:223|378:249|346:254,1,127.500004863739
229,233,82946,1,0,0:0:0:0:
385,89,83119,5,0,0:0:0:0:
336,104,83205,1,0,0:0:0:0:
285,103,83292,1,0,0:0:0:0:
237,87,83379,1,0,0:0:0:0:
196,56,83465,1,0,0:0:0:0:
161,19,83552,1,0,0:0:0:0:
112,6,83639,1,0,0:0:0:0:
64,20,83726,1,0,0:0:0:0:
30,58,83812,1,0,0:0:0:0:
21,107,83899,1,0,0:0:0:0:
39,154,83986,1,0,0:0:0:0:
79,185,84072,1,0,0:0:0:0:
129,190,84159,1,0,0:0:0:0:
178,187,84246,1,0,0:0:0:0:
211,223,84333,1,0,0:0:0:0:
203,272,84420,1,0,0:0:0:0:
161,296,84506,5,0,0:0:0:0:
161,296,85027,5,0,0:0:0:0:
422,311,85200,1,0,0:0:0:0:
299,76,85374,1,0,0:0:0:0:
289,379,85547,5,0,0:0:0:0:
426,159,85720,1,0,0:0:0:0:
166,144,85894,1,0,0:0:0:0:
256,192,86067,12,0,90056,0:0:0:0:
137,92,107743,6,0,L|156:131,7,31.8750012159348
190,194,108090,2,0,P|236:190|301:83,1,178.499994552612
387,18,108437,2,0,B|377:61|377:61|383:71|383:71|380:83|386:104|386:104|378:134|378:134|381:147,1,118.999996368408
465,303,108784,2,0,B|464:304|464:304|472:274|472:274|466:253|469:241|469:241|463:231|463:231|473:188,1,118.999996368408
482,69,109131,1,0,0:0:0:0:
365,259,109304,2,0,B|220:242|299:338|126:317,1,237.999992736817
14,317,109824,6,0,P|42:235|100:200,1,118.999996368408
42,37,110171,2,0,B|80:75|80:75|83:98|83:98|92:109|96:136|96:136|104:162,1,118.999996368408
270,201,110518,2,0,B|218:214|218:214|196:206|196:206|182:208|157:198|157:198|130:192,1,118.999996368408
190,98,110865,6,0,P|250:46|370:133,1,237.999992736817
281,357,111385,2,0,B|260:272|260:272|298:222|298:222|270:126,1,237.999992736817
109,51,116414,6,0,B|117:69|117:69|110:77|110:77|116:94|109:109|109:109|120:134|120:135|115:141|116:165,1,118.999996368408
112,322,116761,1,0,0:0:0:0:
255,101,116934,1,0,0:0:0:0:
374,335,117108,2,0,B|366:317|366:317|373:309|373:309|367:292|374:277|374:277|363:252|363:251|368:245|367:221,1,118.999996368408
364,54,117454,1,0,0:0:0:0:
2,265,117628,1,0,0:0:0:0:
364,54,117801,6,0,B|405:56|405:56|420:64|420:64|430:63|449:74|449:74|473:105,1,118.999996368408
477,274,118495,1,0,0:0:0:0:
314,359,118668,1,0,0:0:0:0:
321,175,118842,1,0,0:0:0:0:
270,157,118928,1,0,0:0:0:0:
217,168,119015,1,0,0:0:0:0:
174,200,119102,1,0,0:0:0:0:
119,190,119189,6,0,P|66:123|101:44,1,152.999995330811
238,7,119535,2,0,B|334:116|358:-2|459:87,1,229.499992996216
491,213,119882,2,0,B|439:207|439:207|421:221|391:220|391:220|373:212|346:218|346:218|319:217,1,152.999995330811
343,360,120229,1,0,0:0:0:0:
173,231,120402,6,0,P|117:273|91:353,1,152.999995330811
230,359,120749,1,0,0:0:0:0:
23,238,120923,2,0,B|41:192|41:192|39:170|39:170|50:165|55:138|55:138|70:117|70:118|76:103|76:103|95:94,1,152.999995330811
237,14,121270,2,0,B|233:15|233:15|227:30|227:29|212:50|212:50|207:77|196:82|196:82|198:104|198:104|180:150,1,152.999995330811
0,65,121616,2,0,B|18:49|18:49|27:40|27:40|40:35|48:20|48:20|71:20|89:12|89:12|118:24|118:24|130:33,1,152.999995330811
289,127,121963,6,0,B|295:183|295:183|284:193|284:193|292:211|283:234|283:234|292:246|292:246|291:280|290:280|277:290|277:290|290:317|284:334|284:334|281:352,1,229.499992996216
376,354,122310,2,0,B|391:313|391:313|408:301|418:284|418:284|447:290|479:270|479:270|498:260,1,152.999995330811
512,22,122657,2,0,L|472:177,1,152.999995330811
337,31,123004,2,0,P|381:104|374:181,1,152.999995330811
264,340,123350,5,0,0:0:0:0:
106,239,123524,1,0,0:0:0:0:
450,331,123697,1,0,0:0:0:0:
264,340,123871,1,0,0:0:0:0:
264,340,124044,1,0,0:0:0:0:
512,91,124217,1,0,0:0:0:0:
172,1,124391,1,0,0:0:0:0:
172,1,124738,6,0,P|162:136|69:140,1,229.499992996216
0,0,125085,2,0,B|11:12|31:16|31:16|35:28|35:28|42:28|53:22|53:22|62:27|72:40|72:40|88:38|88:38|95:49|95:49|104:52|121:72|121:72,1,152.999995330811
302,184,125431,2,0,B|290:196|271:200|271:200|267:212|267:212|260:212|249:206|249:206|240:211|230:224|230:224|214:222|214:222|207:233|207:233|197:236|181:256|181:256,1,152.999995330811
17,363,125778,1,0,0:0:0:0:
5,173,125952,1,0,0:0:0:0:
207,351,126125,6,0,B|332:407|304:308|452:371,1,229.499992996216
512,384,126472,1,0,0:0:0:0:
500,151,126645,1,0,0:0:0:0:
442,280,126819,2,0,P|365:262|288:280,1,152.999995330811
216,140,127165,1,0,0:0:0:0:
498,74,127339,1,0,0:0:0:0:
216,8,127512,2,0,B|188:21|188:21|159:23|159:23|134:40|129:67|129:67|97:72|79:84|79:84|85:106|85:106|75:137|92:152|92:152|89:204|89:204|80:218|89:236,1,305.999990661621
147,352,128033,1,0,0:0:0:0:
227,227,128206,2,0,B|245:226|245:226|258:231|258:231|285:224|300:226|306:232|326:235|326:234|343:223|343:223|393:238,1,152.999995330811
362,372,128553,2,0,B|401:341|401:341|420:330|420:330|420:313|420:313|436:290|461:275|461:275|463:264,1,152.999995330811
495,44,128900,6,0,B|493:51|493:51|468:66|452:89|452:89|452:106|452:106|433:117|433:117|394:148,1,152.999995330811
301,229,129246,1,0,0:0:0:0:
511,183,129420,1,0,0:0:0:0:
367,25,129593,1,0,0:0:0:0:
157,71,129767,2,0,B|119:82|119:82|109:72|108:72|86:77|86:56|86:56|57:40|38:43|38:43|20:42,1,152.999995330811
21,180,130113,1,0,0:0:0:0:
26,245,130200,1,0,0:0:0:0:
31,310,130287,5,0,0:0:0:0:
33,311,130634,2,0,B|66:329|66:329|73:349|73:349|93:351|127:343|127:343|140:359|140:359|159:360|159:361|200:352|200:352|214:357|214:357|219:353|219:353|225:356|225:356|241:369|241:369|269:343|269:343|305:367|337:354,2,305.999990661621
157,210,131501,1,0,0:0:0:0:
326,220,131674,2,0,B|372:249|372:249|387:270|387:270|384:294|400:300|400:300|413:338,1,152.999995330811
497,171,132021,1,0,0:0:0:0:
408,13,132194,2,0,B|399:41|399:41|383:47|386:71|386:71|359:75|371:92|371:92|325:121,1,152.999995330811
215,52,132541,5,0,0:0:0:0:
1,99,132715,1,0,0:0:0:0:
48,313,132888,1,0,0:0:0:0:
262,266,133061,1,0,0:0:0:0:
262,266,133408,5,0,0:0:0:0:
373,373,133582,1,0,0:0:0:0:
411,224,133755,2,0,B|418:189|418:189|426:178|426:178|424:162|429:146|429:146|426:134|426:134|437:119|436:103|436:103|445:89|445:89|445:78,1,152.999995330811
277,18,134102,1,0,0:0:0:0:
239,167,134276,1,0,0:0:0:0:
314,128,134449,5,0,0:0:0:0:
197,98,134623,1,0,0:0:0:0:
201,316,134796,1,0,0:0:0:0:
239,167,134969,2,0,B|196:175|196:175|172:172|172:172|155:185|155:185|150:200|119:192|119:192|101:200|101:200|90:186,1,152.999995330811
14,218,135316,1,0,0:0:0:0:
37,345,135489,1,0,0:0:0:0:
101,287,135663,1,0,0:0:0:0:
143,316,135836,1,0,0:0:0:0:
143,316,136183,1,0,0:0:0:0:
219,360,136356,1,0,0:0:0:0:
320,272,136530,2,0,B|338:261|338:261|348:262|357:254|357:254|381:252|387:248|387:248|398:244|396:244|408:248|408:248|426:252|421:247|437:247|441:258|445:258|445:258|470:267,1,152.999995330811
463,181,136876,1,0,0:0:0:0:
468,131,136963,1,0,0:0:0:0:
458,82,137050,2,0,B|463:57|452:42|452:42|447:24|447:24|447:5,1,76.4999976654053
290,16,137223,6,0,P|209:18|156:80,1,152.999995330811
161,67,138090,5,0,0:0:0:0:
5,13,138264,1,0,0:0:0:0:
10,59,138350,1,0,0:0:0:0:
13,105,138437,1,0,0:0:0:0:
37,145,138524,1,0,0:0:0:0:
28,191,138611,2,0,B|26:219|26:219|18:241|18:241|22:258|24:280|24:280|33:294|33:294|50:302|61:309|61:309|63:312|63:312|70:311|70:311|80:319|84:339|84:339|114:338|114:338|146:354|146:354|162:341|162:341|193:353|216:346|216:346|247:343,1,322.99999137497
379,309,139131,1,0,0:0:0:0:
221,233,139304,1,0,0:0:0:0:
221,233,139478,1,0,0:0:0:0:
503,185,139651,2,0,L|478:13,1,161.499995687485
293,20,139998,6,0,P|356:83|196:147,1,322.99999137497
155,26,140518,1,0,0:0:0:0:
0,160,140691,1,0,0:0:0:0:
31,35,140865,1,0,0:0:0:0:
130,149,141038,2,0,B|125:168|125:168|112:178|114:186|114:186|98:200|113:210|113:210|107:227|87:249|87:249|91:269|82:273|81:285|81:285|76:289|73:290|66:317,1,161.499995687485
201,369,141385,6,0,B|221:316|221:316|232:310|232:310|232:296|232:296|248:275|255:257|255:257|268:253|268:253|273:240|293:240|293:240|325:227|325:227|336:238|336:238|359:239|359:239|375:233|375:233|382:235|382:235|378:241|378:241|414:243|414:243|438:234|438:234,1,322.99999137497
510,368,141905,1,0,0:0:0:0:
332,370,142079,1,0,0:0:0:0:
332,370,142252,1,0,0:0:0:0:
420,144,142426,2,0,P|322:126|231:161,1,161.499995687485
137,217,142772,1,0,0:0:0:0:
172,38,142946,1,0,0:0:0:0:
0,98,143119,2,0,P|-15:204|11:264,1,161.499995687485
137,217,143466,1,0,0:0:0:0:
223,382,143639,1,0,0:0:0:0:
339,58,143813,1,0,0:0:0:0:
384,139,143986,1,0,0:0:0:0:
429,220,144160,6,0,B|430:282|423:300|423:300|423:312|423:312|387:316|387:316|378:337|377:337|352:333|352:333|352:305|352:305|323:309|323:309|301:336|301:336|246:350,1,322.99999137497
62,322,144680,2,0,B|110:298|121:257|121:257|144:262|144:262|153:265|153:265|193:250|213:259|213:259,1,161.499995687485
325,237,145027,1,0,0:0:0:0:
239,0,145200,2,0,P|342:8|395:67,1,161.499995687485
512,147,145547,2,0,B|423:147|423:147|356:214,1,161.499995687485
281,114,145894,1,0,0:0:0:0:
37,67,146067,1,0,0:0:0:0:
214,25,146241,1,0,0:0:0:0:
186,172,146414,1,0,0:0:0:0:
37,67,146587,2,0,P|1:157|14:233,1,161.499995687485
98,360,146934,5,0,0:0:0:0:
311,50,147108,1,0,0:0:0:0:
332,360,147281,5,0,0:0:0:0:
119,50,147455,1,0,0:0:0:0:
448,42,147628,5,0,0:0:0:0:
235,352,147802,1,0,0:0:0:0:
214,42,147974,5,0,0:0:0:0:
427,352,148148,1,0,0:0:0:0:
29,182,148322,5,0,0:0:0:0:
427,12,148495,1,0,0:0:0:0:
427,12,149015,5,0,0:0:0:0:
29,182,149188,1,0,0:0:0:0:
36,241,149275,1,0,0:0:0:0:
66,293,149362,1,0,0:0:0:0:
115,329,149449,1,0,0:0:0:0:
173,343,149535,1,0,0:0:0:0:
233,333,149622,1,0,0:0:0:0:
256,192,150056,12,0,152830,0:0:0:0:
229,149,153524,6,0,P|244:179|250:197,2,40.3749989218712
98,300,154564,6,0,B|114:242|115:192|104:136|104:136|144:222|204:292|204:292|196:199|214:165|244:119,1,510.000019454957
386,286,155431,2,0,P|317:186|387:285,1,382.500014591218
