osu file format v14

[General]
AudioFilename: audio.mp3
AudioLeadIn: 0
PreviewTime: -1
Countdown: 0
SampleSet: None
StackLeniency: 0.7
Mode: 1
LetterboxInBreaks: 0
WidescreenStoryboard: 1

[Editor]
DistanceSpacing: 2
BeatDivisor: 4
GridSize: 32
TimelineZoom: 3.999998

[Metadata]
Title:taiko sr
TitleUnicode:taiko sr
Artist:pp
ArtistUnicode:pp
Creator:Alchyr
Version:faster h
Source:osy
Tags:working as intended
BeatmapID:2617655
BeatmapSetID:949507

[Difficulty]
HPDrainRate:0
CircleSize:2
OverallDifficulty:7
ApproachRate:10
SliderMultiplier:1.4
SliderTickRate:1

[Events]
//Background and Video events
0,0,"2016-09-22-861645.png",0,0
//Break Periods
//Storyboard Layer 0 (Background)
//Storyboard Layer 1 (Fail)
//Storyboard Layer 2 (Pass)
//Storyboard Layer 3 (Foreground)
//Storyboard Layer 4 (Overlay)
//Storyboard Sound Samples

[TimingPoints]
1241,240,7,2,0,25,1,0

[HitObjects]
320,64,1241,5,8,0:0:0:0:
320,64,1301,1,8,0:0:0:0:
320,64,1361,1,8,0:0:0:0:
320,64,1421,1,8,0:0:0:0:
64,64,1481,1,0,0:0:0:0:
64,64,1541,1,0,0:0:0:0:
320,64,1601,1,8,0:0:0:0:
64,64,1661,1,0,0:0:0:0:
64,64,1721,1,0,0:0:0:0:
64,64,1781,1,0,0:0:0:0:
320,64,1841,1,8,0:0:0:0:
320,64,1901,1,8,0:0:0:0:
320,64,1961,1,8,0:0:0:0:
320,64,2021,1,8,0:0:0:0:
320,64,2081,1,8,0:0:0:0:
320,64,2141,1,8,0:0:0:0:
64,64,2201,1,0,0:0:0:0:
64,64,2261,1,0,0:0:0:0:
64,64,2321,1,0,0:0:0:0:
64,64,2381,1,0,0:0:0:0:
320,64,2441,1,8,0:0:0:0:
320,64,2501,1,8,0:0:0:0:
64,64,2561,1,0,0:0:0:0:
320,64,2621,1,8,0:0:0:0:
320,64,2681,1,8,0:0:0:0:
320,64,2741,1,8,0:0:0:0:
64,64,2801,1,0,0:0:0:0:
64,64,2861,1,0,0:0:0:0:
64,64,2921,1,0,0:0:0:0:
64,64,2981,1,0,0:0:0:0:
64,64,3041,1,0,0:0:0:0:
64,64,3101,1,0,0:0:0:0:
320,64,3161,1,8,0:0:0:0:
320,64,3221,1,8,0:0:0:0:
320,64,3281,1,8,0:0:0:0:
320,64,3341,1,8,0:0:0:0:
64,64,3401,1,0,0:0:0:0:
64,64,3461,1,0,0:0:0:0:
320,64,3521,1,8,0:0:0:0:
64,64,3581,1,0,0:0:0:0:
64,64,3641,1,0,0:0:0:0:
64,64,3701,1,0,0:0:0:0:
320,64,3761,1,8,0:0:0:0:
320,64,3821,1,8,0:0:0:0:
320,64,3881,1,8,0:0:0:0:
320,64,3941,1,8,0:0:0:0:
320,64,4001,1,8,0:0:0:0:
320,64,4061,1,8,0:0:0:0:
64,64,4121,1,0,0:0:0:0:
64,64,4181,1,0,0:0:0:0:
64,64,4241,1,0,0:0:0:0:
64,64,4301,1,0,0:0:0:0:
320,64,4361,1,8,0:0:0:0:
320,64,4421,1,8,0:0:0:0:
64,64,4481,1,0,0:0:0:0:
320,64,4541,1,8,0:0:0:0:
320,64,4601,1,8,0:0:0:0:
320,64,4661,1,8,0:0:0:0:
64,64,4721,1,0,0:0:0:0:
64,64,4781,1,0,0:0:0:0:
64,64,4841,1,0,0:0:0:0:
64,64,4901,1,0,0:0:0:0:
64,64,4961,1,0,0:0:0:0:
64,64,5021,1,0,0:0:0:0:
320,64,5081,1,8,0:0:0:0:
320,64,5141,1,8,0:0:0:0:
320,64,5201,1,8,0:0:0:0:
320,64,5261,1,8,0:0:0:0:
64,64,5321,1,0,0:0:0:0:
64,64,5381,1,0,0:0:0:0:
320,64,5441,1,8,0:0:0:0:
64,64,5501,1,0,0:0:0:0:
64,64,5561,1,0,0:0:0:0:
64,64,5621,1,0,0:0:0:0:
320,64,5681,1,8,0:0:0:0:
320,64,5741,1,8,0:0:0:0:
320,64,5801,1,8,0:0:0:0:
320,64,5861,1,8,0:0:0:0:
320,64,5921,1,8,0:0:0:0:
320,64,5981,1,8,0:0:0:0:
64,64,6041,1,0,0:0:0:0:
64,64,6101,1,0,0:0:0:0:
64,64,6161,1,0,0:0:0:0:
64,64,6221,1,0,0:0:0:0:
320,64,6281,1,8,0:0:0:0:
320,64,6341,1,8,0:0:0:0:
64,64,6401,1,0,0:0:0:0:
320,64,6461,1,8,0:0:0:0:
320,64,6521,1,8,0:0:0:0:
320,64,6581,1,8,0:0:0:0:
64,64,6641,1,0,0:0:0:0:
64,64,6701,1,0,0:0:0:0:
64,64,6761,1,0,0:0:0:0:
64,64,6821,1,0,0:0:0:0:
64,64,6881,1,0,0:0:0:0:
64,64,6941,1,0,0:0:0:0:
320,64,7001,1,8,0:0:0:0:
320,64,7061,1,8,0:0:0:0:
320,64,7121,1,8,0:0:0:0:
320,64,7181,1,8,0:0:0:0:
64,64,7241,1,0,0:0:0:0:
64,64,7301,1,0,0:0:0:0:
320,64,7361,1,8,0:0:0:0:
64,64,7421,1,0,0:0:0:0:
64,64,7481,1,0,0:0:0:0:
64,64,7541,1,0,0:0:0:0:
320,64,7601,1,8,0:0:0:0:
320,64,7661,1,8,0:0:0:0:
320,64,7721,1,8,0:0:0:0:
320,64,7781,1,8,0:0:0:0:
320,64,7841,1,8,0:0:0:0:
320,64,7901,1,8,0:0:0:0:
64,64,7961,1,0,0:0:0:0:
64,64,8021,1,0,0:0:0:0:
64,64,8081,1,0,0:0:0:0:
64,64,8141,1,0,0:0:0:0:
320,64,8201,1,8,0:0:0:0:
320,64,8261,1,8,0:0:0:0:
64,64,8321,1,0,0:0:0:0:
320,64,8381,1,8,0:0:0:0:
320,64,8441,1,8,0:0:0:0:
320,64,8501,1,8,0:0:0:0:
64,64,8561,1,0,0:0:0:0:
64,64,8621,1,0,0:0:0:0:
64,64,8681,1,0,0:0:0:0:
64,64,8741,1,0,0:0:0:0:
64,64,8801,1,0,0:0:0:0:
64,64,8861,1,0,0:0:0:0:
320,64,8921,1,8,0:0:0:0:
320,64,8981,1,8,0:0:0:0:
320,64,9041,1,8,0:0:0:0:
320,64,9101,1,8,0:0:0:0:
64,64,9161,1,0,0:0:0:0:
64,64,9221,1,0,0:0:0:0:
320,64,9281,1,8,0:0:0:0:
64,64,9341,1,0,0:0:0:0:
64,64,9401,1,0,0:0:0:0:
64,64,9461,1,0,0:0:0:0:
320,64,9521,1,8,0:0:0:0:
320,64,9581,1,8,0:0:0:0:
320,64,9641,1,8,0:0:0:0:
320,64,9701,1,8,0:0:0:0:
320,64,9761,1,8,0:0:0:0:
320,64,9821,1,8,0:0:0:0:
64,64,9881,1,0,0:0:0:0:
64,64,9941,1,0,0:0:0:0:
64,64,10001,1,0,0:0:0:0:
64,64,10061,1,0,0:0:0:0:
320,64,10121,1,8,0:0:0:0:
320,64,10181,1,8,0:0:0:0:
64,64,10241,1,0,0:0:0:0:
320,64,10301,1,8,0:0:0:0:
320,64,10361,1,8,0:0:0:0:
320,64,10421,1,8,0:0:0:0:
64,64,10481,1,0,0:0:0:0:
64,64,10541,1,0,0:0:0:0:
64,64,10601,1,0,0:0:0:0:
64,64,10661,1,0,0:0:0:0:
64,64,10721,1,0,0:0:0:0:
64,64,10781,1,0,0:0:0:0:
320,64,10841,1,8,0:0:0:0:
320,64,10901,1,8,0:0:0:0:
320,64,10961,1,8,0:0:0:0:
320,64,11021,1,8,0:0:0:0:
64,64,11081,1,0,0:0:0:0:
64,64,11141,1,0,0:0:0:0:
320,64,11201,1,8,0:0:0:0:
64,64,11261,1,0,0:0:0:0:
64,64,11321,1,0,0:0:0:0:
64,64,11381,1,0,0:0:0:0:
320,64,11441,1,8,0:0:0:0:
320,64,11501,1,8,0:0:0:0:
320,64,11561,1,8,0:0:0:0:
320,64,11621,1,8,0:0:0:0:
320,64,11681,1,8,0:0:0:0:
320,64,11741,1,8,0:0:0:0:
64,64,11801,1,0,0:0:0:0:
64,64,11861,1,0,0:0:0:0:
64,64,11921,1,0,0:0:0:0:
64,64,11981,1,0,0:0:0:0:
320,64,12041,1,8,0:0:0:0:
320,64,12101,1,8,0:0:0:0:
64,64,12161,1,0,0:0:0:0:
320,64,12221,1,8,0:0:0:0:
320,64,12281,1,8,0:0:0:0:
320,64,12341,1,8,0:0:0:0:
64,64,12401,1,0,0:0:0:0:
64,64,12461,1,0,0:0:0:0:
64,64,12521,1,0,0:0:0:0:
64,64,12581,1,0,0:0:0:0:
64,64,12641,1,0,0:0:0:0:
64,64,12701,1,0,0:0:0:0:
320,64,12761,1,8,0:0:0:0:
320,64,12821,1,8,0:0:0:0:
320,64,12881,1,8,0:0:0:0:
320,64,12941,1,8,0:0:0:0:
64,64,13001,1,0,0:0:0:0:
64,64,13061,1,0,0:0:0:0:
320,64,13121,1,8,0:0:0:0:
64,64,13181,1,0,0:0:0:0:
64,64,13241,1,0,0:0:0:0:
64,64,13301,1,0,0:0:0:0:
320,64,13361,1,8,0:0:0:0:
320,64,13421,1,8,0:0:0:0:
320,64,13481,1,8,0:0:0:0:
320,64,13541,1,8,0:0:0:0:
320,64,13601,1,8,0:0:0:0:
320,64,13661,1,8,0:0:0:0:
64,64,13721,1,0,0:0:0:0:
64,64,13781,1,0,0:0:0:0:
64,64,13841,1,0,0:0:0:0:
64,64,13901,1,0,0:0:0:0:
320,64,13961,1,8,0:0:0:0:
320,64,14021,1,8,0:0:0:0:
64,64,14081,1,0,0:0:0:0:
320,64,14141,1,8,0:0:0:0:
320,64,14201,1,8,0:0:0:0:
320,64,14261,1,8,0:0:0:0:
64,64,14321,1,0,0:0:0:0:
64,64,14381,1,0,0:0:0:0:
64,64,14441,1,0,0:0:0:0:
64,64,14501,1,0,0:0:0:0:
64,64,14561,1,0,0:0:0:0:
64,64,14621,1,0,0:0:0:0:
320,64,14681,1,8,0:0:0:0:
320,64,14741,1,8,0:0:0:0:
320,64,14801,1,8,0:0:0:0:
320,64,14861,1,8,0:0:0:0:
64,64,14921,1,0,0:0:0:0:
64,64,14981,1,0,0:0:0:0:
320,64,15041,1,8,0:0:0:0:
64,64,15101,1,0,0:0:0:0:
64,64,15161,1,0,0:0:0:0:
64,64,15221,1,0,0:0:0:0:
320,64,15281,1,8,0:0:0:0:
320,64,15341,1,8,0:0:0:0:
320,64,15401,1,8,0:0:0:0:
320,64,15461,1,8,0:0:0:0:
320,64,15521,1,8,0:0:0:0:
320,64,15581,1,8,0:0:0:0:
64,64,15641,1,0,0:0:0:0:
64,64,15701,1,0,0:0:0:0:
64,64,15761,1,0,0:0:0:0:
64,64,15821,1,0,0:0:0:0:
320,64,15881,1,8,0:0:0:0:
320,64,15941,1,8,0:0:0:0:
64,64,16001,1,0,0:0:0:0:
320,64,16061,1,8,0:0:0:0:
320,64,16121,1,8,0:0:0:0:
320,64,16181,1,8,0:0:0:0:
64,64,16241,1,0,0:0:0:0:
64,64,16301,1,0,0:0:0:0:
64,64,16361,1,0,0:0:0:0:
64,64,16421,1,0,0:0:0:0:
64,64,16481,1,0,0:0:0:0:
64,64,16541,1,0,0:0:0:0:
320,64,16601,1,8,0:0:0:0:
320,64,16661,1,8,0:0:0:0:
320,64,16721,1,8,0:0:0:0:
320,64,16781,1,8,0:0:0:0:
64,64,16841,1,0,0:0:0:0:
64,64,16901,1,0,0:0:0:0:
320,64,16961,1,8,0:0:0:0:
64,64,17021,1,0,0:0:0:0:
64,64,17081,1,0,0:0:0:0:
64,64,17141,1,0,0:0:0:0:
320,64,17201,1,8,0:0:0:0:
320,64,17261,1,8,0:0:0:0:
320,64,17321,1,8,0:0:0:0:
320,64,17381,1,8,0:0:0:0:
320,64,17441,1,8,0:0:0:0:
320,64,17501,1,8,0:0:0:0:
64,64,17561,1,0,0:0:0:0:
64,64,17621,1,0,0:0:0:0:
64,64,17681,1,0,0:0:0:0:
64,64,17741,1,0,0:0:0:0:
320,64,17801,1,8,0:0:0:0:
320,64,17861,1,8,0:0:0:0:
64,64,17921,1,0,0:0:0:0:
320,64,17981,1,8,0:0:0:0:
320,64,18041,1,8,0:0:0:0:
320,64,18101,1,8,0:0:0:0:
64,64,18161,1,0,0:0:0:0:
64,64,18221,1,0,0:0:0:0:
64,64,18281,1,0,0:0:0:0:
64,64,18341,1,0,0:0:0:0:
64,64,18401,1,0,0:0:0:0:
64,64,18461,1,0,0:0:0:0:
