osu file format v14

[General]
AudioFilename: audio.mp3
AudioLeadIn: 0
PreviewTime: -1
Countdown: 0
SampleSet: None
StackLeniency: 0.7
Mode: 1
LetterboxInBreaks: 0
WidescreenStoryboard: 1

[Editor]
DistanceSpacing: 2
BeatDivisor: 4
GridSize: 32
TimelineZoom: 3.999998

[Metadata]
Title:taiko sr
TitleUnicode:taiko sr
Artist:pp
ArtistUnicode:pp
Creator:Alchyr
Version:even faster h
Source:osy
Tags:working as intended
BeatmapID:2617654
BeatmapSetID:949507

[Difficulty]
HPDrainRate:0
CircleSize:2
OverallDifficulty:7
ApproachRate:10
SliderMultiplier:1.4
SliderTickRate:1

[Events]
//Background and Video events
0,0,"2016-09-22-861645.png",0,0
//Break Periods
//Storyboard Layer 0 (Background)
//Storyboard Layer 1 (Fail)
//Storyboard Layer 2 (Pass)
//Storyboard Layer 3 (Foreground)
//Storyboard Layer 4 (Overlay)
//Storyboard Sound Samples

[TimingPoints]
1241,214.285714285714,7,2,0,25,1,0

[HitObjects]
320,64,1241,5,8,0:0:0:0:
320,64,1294,1,8,0:0:0:0:
320,64,1348,1,8,0:0:0:0:
320,64,1401,1,8,0:0:0:0:
64,64,1455,1,0,0:0:0:0:
64,64,1508,1,0,0:0:0:0:
320,64,1562,1,8,0:0:0:0:
64,64,1616,1,0,0:0:0:0:
64,64,1669,1,0,0:0:0:0:
64,64,1723,1,0,0:0:0:0:
320,64,1776,1,8,0:0:0:0:
320,64,1830,1,8,0:0:0:0:
320,64,1883,1,8,0:0:0:0:
320,64,1937,1,8,0:0:0:0:
320,64,1991,1,8,0:0:0:0:
320,64,2044,1,8,0:0:0:0:
64,64,2098,1,0,0:0:0:0:
64,64,2151,1,0,0:0:0:0:
64,64,2205,1,0,0:0:0:0:
64,64,2258,1,0,0:0:0:0:
320,64,2312,1,8,0:0:0:0:
320,64,2366,1,8,0:0:0:0:
64,64,2419,1,0,0:0:0:0:
320,64,2473,1,8,0:0:0:0:
320,64,2526,1,8,0:0:0:0:
320,64,2580,1,8,0:0:0:0:
64,64,2633,1,0,0:0:0:0:
64,64,2687,1,0,0:0:0:0:
64,64,2741,1,0,0:0:0:0:
64,64,2794,1,0,0:0:0:0:
64,64,2848,1,0,0:0:0:0:
64,64,2901,1,0,0:0:0:0:
320,64,2955,1,8,0:0:0:0:
320,64,3008,1,8,0:0:0:0:
320,64,3062,1,8,0:0:0:0:
320,64,3116,1,8,0:0:0:0:
64,64,3169,1,0,0:0:0:0:
64,64,3223,1,0,0:0:0:0:
320,64,3276,1,8,0:0:0:0:
64,64,3330,1,0,0:0:0:0:
64,64,3383,1,0,0:0:0:0:
64,64,3437,1,0,0:0:0:0:
320,64,3491,1,8,0:0:0:0:
320,64,3544,1,8,0:0:0:0:
320,64,3598,1,8,0:0:0:0:
320,64,3651,1,8,0:0:0:0:
320,64,3705,1,8,0:0:0:0:
320,64,3758,1,8,0:0:0:0:
64,64,3812,1,0,0:0:0:0:
64,64,3866,1,0,0:0:0:0:
64,64,3919,1,0,0:0:0:0:
64,64,3973,1,0,0:0:0:0:
320,64,4026,1,8,0:0:0:0:
320,64,4080,1,8,0:0:0:0:
64,64,4133,1,0,0:0:0:0:
320,64,4187,1,8,0:0:0:0:
320,64,4241,1,8,0:0:0:0:
320,64,4294,1,8,0:0:0:0:
64,64,4348,1,0,0:0:0:0:
64,64,4401,1,0,0:0:0:0:
64,64,4455,1,0,0:0:0:0:
64,64,4508,1,0,0:0:0:0:
64,64,4562,1,0,0:0:0:0:
64,64,4616,1,0,0:0:0:0:
320,64,4669,1,8,0:0:0:0:
320,64,4723,1,8,0:0:0:0:
320,64,4776,1,8,0:0:0:0:
320,64,4830,1,8,0:0:0:0:
64,64,4883,1,0,0:0:0:0:
64,64,4937,1,0,0:0:0:0:
320,64,4991,1,8,0:0:0:0:
64,64,5044,1,0,0:0:0:0:
64,64,5098,1,0,0:0:0:0:
64,64,5151,1,0,0:0:0:0:
320,64,5205,1,8,0:0:0:0:
320,64,5258,1,8,0:0:0:0:
320,64,5312,1,8,0:0:0:0:
320,64,5366,1,8,0:0:0:0:
320,64,5419,1,8,0:0:0:0:
320,64,5473,1,8,0:0:0:0:
64,64,5526,1,0,0:0:0:0:
64,64,5580,1,0,0:0:0:0:
64,64,5633,1,0,0:0:0:0:
64,64,5687,1,0,0:0:0:0:
320,64,5741,1,8,0:0:0:0:
320,64,5794,1,8,0:0:0:0:
64,64,5848,1,0,0:0:0:0:
320,64,5901,1,8,0:0:0:0:
320,64,5955,1,8,0:0:0:0:
320,64,6008,1,8,0:0:0:0:
64,64,6062,1,0,0:0:0:0:
64,64,6116,1,0,0:0:0:0:
64,64,6169,1,0,0:0:0:0:
64,64,6223,1,0,0:0:0:0:
64,64,6276,1,0,0:0:0:0:
64,64,6330,1,0,0:0:0:0:
320,64,6383,1,8,0:0:0:0:
320,64,6437,1,8,0:0:0:0:
320,64,6491,1,8,0:0:0:0:
320,64,6544,1,8,0:0:0:0:
64,64,6598,1,0,0:0:0:0:
64,64,6651,1,0,0:0:0:0:
320,64,6705,1,8,0:0:0:0:
64,64,6758,1,0,0:0:0:0:
64,64,6812,1,0,0:0:0:0:
64,64,6866,1,0,0:0:0:0:
320,64,6919,1,8,0:0:0:0:
320,64,6973,1,8,0:0:0:0:
320,64,7026,1,8,0:0:0:0:
320,64,7080,1,8,0:0:0:0:
320,64,7133,1,8,0:0:0:0:
320,64,7187,1,8,0:0:0:0:
64,64,7241,1,0,0:0:0:0:
64,64,7294,1,0,0:0:0:0:
64,64,7348,1,0,0:0:0:0:
64,64,7401,1,0,0:0:0:0:
320,64,7455,1,8,0:0:0:0:
320,64,7508,1,8,0:0:0:0:
64,64,7562,1,0,0:0:0:0:
320,64,7616,1,8,0:0:0:0:
320,64,7669,1,8,0:0:0:0:
320,64,7723,1,8,0:0:0:0:
64,64,7776,1,0,0:0:0:0:
64,64,7830,1,0,0:0:0:0:
64,64,7883,1,0,0:0:0:0:
64,64,7937,1,0,0:0:0:0:
64,64,7991,1,0,0:0:0:0:
64,64,8044,1,0,0:0:0:0:
320,64,8098,1,8,0:0:0:0:
320,64,8151,1,8,0:0:0:0:
320,64,8205,1,8,0:0:0:0:
320,64,8258,1,8,0:0:0:0:
64,64,8312,1,0,0:0:0:0:
64,64,8366,1,0,0:0:0:0:
320,64,8419,1,8,0:0:0:0:
64,64,8473,1,0,0:0:0:0:
64,64,8526,1,0,0:0:0:0:
64,64,8580,1,0,0:0:0:0:
320,64,8633,1,8,0:0:0:0:
320,64,8687,1,8,0:0:0:0:
320,64,8741,1,8,0:0:0:0:
320,64,8794,1,8,0:0:0:0:
320,64,8848,1,8,0:0:0:0:
320,64,8901,1,8,0:0:0:0:
64,64,8955,1,0,0:0:0:0:
64,64,9008,1,0,0:0:0:0:
64,64,9062,1,0,0:0:0:0:
64,64,9116,1,0,0:0:0:0:
320,64,9169,1,8,0:0:0:0:
320,64,9223,1,8,0:0:0:0:
64,64,9276,1,0,0:0:0:0:
320,64,9330,1,8,0:0:0:0:
320,64,9383,1,8,0:0:0:0:
320,64,9437,1,8,0:0:0:0:
64,64,9491,1,0,0:0:0:0:
64,64,9544,1,0,0:0:0:0:
64,64,9598,1,0,0:0:0:0:
64,64,9651,1,0,0:0:0:0:
64,64,9705,1,0,0:0:0:0:
64,64,9758,1,0,0:0:0:0:
320,64,9812,1,8,0:0:0:0:
320,64,9866,1,8,0:0:0:0:
320,64,9919,1,8,0:0:0:0:
320,64,9973,1,8,0:0:0:0:
64,64,10026,1,0,0:0:0:0:
64,64,10080,1,0,0:0:0:0:
320,64,10133,1,8,0:0:0:0:
64,64,10187,1,0,0:0:0:0:
64,64,10241,1,0,0:0:0:0:
64,64,10294,1,0,0:0:0:0:
320,64,10348,1,8,0:0:0:0:
320,64,10401,1,8,0:0:0:0:
320,64,10455,1,8,0:0:0:0:
320,64,10508,1,8,0:0:0:0:
320,64,10562,1,8,0:0:0:0:
320,64,10615,1,8,0:0:0:0:
64,64,10669,1,0,0:0:0:0:
64,64,10723,1,0,0:0:0:0:
64,64,10776,1,0,0:0:0:0:
64,64,10830,1,0,0:0:0:0:
320,64,10883,1,8,0:0:0:0:
320,64,10937,1,8,0:0:0:0:
64,64,10990,1,0,0:0:0:0:
320,64,11044,1,8,0:0:0:0:
320,64,11098,1,8,0:0:0:0:
320,64,11151,1,8,0:0:0:0:
64,64,11205,1,0,0:0:0:0:
64,64,11258,1,0,0:0:0:0:
64,64,11312,1,0,0:0:0:0:
64,64,11365,1,0,0:0:0:0:
64,64,11419,1,0,0:0:0:0:
64,64,11473,1,0,0:0:0:0:
320,64,11526,1,8,0:0:0:0:
320,64,11580,1,8,0:0:0:0:
320,64,11633,1,8,0:0:0:0:
320,64,11687,1,8,0:0:0:0:
64,64,11740,1,0,0:0:0:0:
64,64,11794,1,0,0:0:0:0:
320,64,11848,1,8,0:0:0:0:
64,64,11901,1,0,0:0:0:0:
64,64,11955,1,0,0:0:0:0:
64,64,12008,1,0,0:0:0:0:
320,64,12062,1,8,0:0:0:0:
320,64,12115,1,8,0:0:0:0:
320,64,12169,1,8,0:0:0:0:
320,64,12223,1,8,0:0:0:0:
320,64,12276,1,8,0:0:0:0:
320,64,12330,1,8,0:0:0:0:
64,64,12383,1,0,0:0:0:0:
64,64,12437,1,0,0:0:0:0:
64,64,12490,1,0,0:0:0:0:
64,64,12544,1,0,0:0:0:0:
320,64,12598,1,8,0:0:0:0:
320,64,12651,1,8,0:0:0:0:
64,64,12705,1,0,0:0:0:0:
320,64,12758,1,8,0:0:0:0:
320,64,12812,1,8,0:0:0:0:
320,64,12865,1,8,0:0:0:0:
64,64,12919,1,0,0:0:0:0:
64,64,12973,1,0,0:0:0:0:
64,64,13026,1,0,0:0:0:0:
64,64,13080,1,0,0:0:0:0:
64,64,13133,1,0,0:0:0:0:
64,64,13187,1,0,0:0:0:0:
320,64,13240,1,8,0:0:0:0:
320,64,13294,1,8,0:0:0:0:
320,64,13348,1,8,0:0:0:0:
320,64,13401,1,8,0:0:0:0:
64,64,13455,1,0,0:0:0:0:
64,64,13508,1,0,0:0:0:0:
320,64,13562,1,8,0:0:0:0:
64,64,13615,1,0,0:0:0:0:
64,64,13669,1,0,0:0:0:0:
64,64,13723,1,0,0:0:0:0:
320,64,13776,1,8,0:0:0:0:
320,64,13830,1,8,0:0:0:0:
320,64,13883,1,8,0:0:0:0:
320,64,13937,1,8,0:0:0:0:
320,64,13990,1,8,0:0:0:0:
320,64,14044,1,8,0:0:0:0:
64,64,14098,1,0,0:0:0:0:
64,64,14151,1,0,0:0:0:0:
64,64,14205,1,0,0:0:0:0:
64,64,14258,1,0,0:0:0:0:
320,64,14312,1,8,0:0:0:0:
320,64,14365,1,8,0:0:0:0:
64,64,14419,1,0,0:0:0:0:
320,64,14473,1,8,0:0:0:0:
320,64,14526,1,8,0:0:0:0:
320,64,14580,1,8,0:0:0:0:
64,64,14633,1,0,0:0:0:0:
64,64,14687,1,0,0:0:0:0:
64,64,14740,1,0,0:0:0:0:
64,64,14794,1,0,0:0:0:0:
64,64,14848,1,0,0:0:0:0:
64,64,14901,1,0,0:0:0:0:
320,64,14955,1,8,0:0:0:0:
320,64,15008,1,8,0:0:0:0:
320,64,15062,1,8,0:0:0:0:
320,64,15115,1,8,0:0:0:0:
64,64,15169,1,0,0:0:0:0:
64,64,15223,1,0,0:0:0:0:
320,64,15276,1,8,0:0:0:0:
64,64,15330,1,0,0:0:0:0:
64,64,15383,1,0,0:0:0:0:
64,64,15437,1,0,0:0:0:0:
320,64,15490,1,8,0:0:0:0:
320,64,15544,1,8,0:0:0:0:
320,64,15598,1,8,0:0:0:0:
320,64,15651,1,8,0:0:0:0:
320,64,15705,1,8,0:0:0:0:
320,64,15758,1,8,0:0:0:0:
64,64,15812,1,0,0:0:0:0:
64,64,15865,1,0,0:0:0:0:
64,64,15919,1,0,0:0:0:0:
64,64,15973,1,0,0:0:0:0:
320,64,16026,1,8,0:0:0:0:
320,64,16080,1,8,0:0:0:0:
64,64,16133,1,0,0:0:0:0:
320,64,16187,1,8,0:0:0:0:
320,64,16240,1,8,0:0:0:0:
320,64,16294,1,8,0:0:0:0:
64,64,16348,1,0,0:0:0:0:
64,64,16401,1,0,0:0:0:0:
64,64,16455,1,0,0:0:0:0:
64,64,16508,1,0,0:0:0:0:
64,64,16562,1,0,0:0:0:0:
64,64,16616,1,0,0:0:0:0:
