osu file format v14

[General]
AudioFilename: audio.mp3
AudioLeadIn: 0
PreviewTime: -1
Countdown: 0
SampleSet: None
StackLeniency: 0.7
Mode: 1
LetterboxInBreaks: 0
WidescreenStoryboard: 1

[Editor]
DistanceSpacing: 2
BeatDivisor: 8
GridSize: 32
TimelineZoom: 3.999998

[Metadata]
Title:taiko sr
TitleUnicode:taiko sr
Artist:pp
ArtistUnicode:pp
Creator:Alchyr
Version:an final test
Source:osy
Tags:working as intended
BeatmapID:3815887
BeatmapSetID:949507

[Difficulty]
HPDrainRate:0
CircleSize:2
OverallDifficulty:7
ApproachRate:10
SliderMultiplier:1.4
SliderTickRate:1

[Events]
//Background and Video events
0,0,"2016-09-22-861645.png",0,0
//Break Periods
//Storyboard Layer 0 (Background)
//Storyboard Layer 1 (Fail)
//Storyboard Layer 2 (Pass)
//Storyboard Layer 3 (Foreground)
//Storyboard Layer 4 (Overlay)
//Storyboard Sound Samples

[TimingPoints]
1241,240,7,2,0,25,1,0

[HitObjects]
320,64,1241,5,8,0:0:0:0:
320,64,1271,1,8,0:0:0:0:
64,64,1361,1,0,0:0:0:0:
64,64,1421,1,0,0:0:0:0:
64,64,1481,1,0,0:0:0:0:
320,64,1601,1,8,0:0:0:0:
320,64,1631,1,8,0:0:0:0:
320,64,1721,1,8,0:0:0:0:
320,64,1751,1,8,0:0:0:0:
64,64,1841,1,0,0:0:0:0:
320,64,1961,1,8,0:0:0:0:
320,64,1991,1,8,0:0:0:0:
64,64,2081,1,0,0:0:0:0:
64,64,2141,1,0,0:0:0:0:
64,64,2201,1,0,0:0:0:0:
320,64,2321,1,8,0:0:0:0:
320,64,2351,1,8,0:0:0:0:
320,64,2441,1,8,0:0:0:0:
320,64,2471,1,8,0:0:0:0:
64,64,2561,1,0,0:0:0:0:
320,64,2681,1,8,0:0:0:0:
320,64,2711,1,8,0:0:0:0:
64,64,2801,1,0,0:0:0:0:
64,64,2861,1,0,0:0:0:0:
64,64,2921,1,0,0:0:0:0:
320,64,3041,1,8,0:0:0:0:
320,64,3071,1,8,0:0:0:0:
320,64,3161,1,8,0:0:0:0:
320,64,3191,1,8,0:0:0:0:
64,64,3281,1,0,0:0:0:0:
320,64,3401,1,8,0:0:0:0:
320,64,3431,1,8,0:0:0:0:
64,64,3521,1,0,0:0:0:0:
64,64,3581,1,0,0:0:0:0:
64,64,3641,1,0,0:0:0:0:
320,64,3761,1,8,0:0:0:0:
320,64,3791,1,8,0:0:0:0:
320,64,3881,1,8,0:0:0:0:
320,64,3911,1,8,0:0:0:0:
64,64,4001,1,0,0:0:0:0:
320,64,4121,1,8,0:0:0:0:
320,64,4151,1,8,0:0:0:0:
64,64,4241,1,0,0:0:0:0:
64,64,4301,1,0,0:0:0:0:
64,64,4361,1,0,0:0:0:0:
320,64,4481,1,8,0:0:0:0:
320,64,4511,1,8,0:0:0:0:
320,64,4601,1,8,0:0:0:0:
320,64,4631,1,8,0:0:0:0:
64,64,4721,1,0,0:0:0:0:
320,64,4841,1,8,0:0:0:0:
320,64,4871,1,8,0:0:0:0:
64,64,4961,1,0,0:0:0:0:
64,64,5021,1,0,0:0:0:0:
64,64,5081,1,0,0:0:0:0:
320,64,5201,1,8,0:0:0:0:
320,64,5231,1,8,0:0:0:0:
320,64,5321,1,8,0:0:0:0:
320,64,5351,1,8,0:0:0:0:
64,64,5441,1,0,0:0:0:0:
320,64,5561,1,8,0:0:0:0:
320,64,5591,1,8,0:0:0:0:
64,64,5681,1,0,0:0:0:0:
64,64,5741,1,0,0:0:0:0:
64,64,5801,1,0,0:0:0:0:
320,64,5921,1,8,0:0:0:0:
320,64,5951,1,8,0:0:0:0:
320,64,6041,1,8,0:0:0:0:
320,64,6071,1,8,0:0:0:0:
64,64,6161,1,0,0:0:0:0:
320,64,6281,1,8,0:0:0:0:
320,64,6311,1,8,0:0:0:0:
64,64,6401,1,0,0:0:0:0:
64,64,6461,1,0,0:0:0:0:
64,64,6521,1,0,0:0:0:0:
320,64,6641,1,8,0:0:0:0:
320,64,6671,1,8,0:0:0:0:
320,64,6761,1,8,0:0:0:0:
320,64,6791,1,8,0:0:0:0:
64,64,6881,1,0,0:0:0:0:
320,64,7001,1,8,0:0:0:0:
320,64,7031,1,8,0:0:0:0:
64,64,7121,1,0,0:0:0:0:
64,64,7181,1,0,0:0:0:0:
64,64,7241,1,0,0:0:0:0:
320,64,7361,1,8,0:0:0:0:
320,64,7391,1,8,0:0:0:0:
320,64,7481,1,8,0:0:0:0:
320,64,7511,1,8,0:0:0:0:
64,64,7601,1,0,0:0:0:0:
320,64,7721,1,8,0:0:0:0:
320,64,7751,1,8,0:0:0:0:
64,64,7841,1,0,0:0:0:0:
64,64,7901,1,0,0:0:0:0:
64,64,7961,1,0,0:0:0:0:
320,64,8081,1,8,0:0:0:0:
320,64,8111,1,8,0:0:0:0:
320,64,8201,1,8,0:0:0:0:
320,64,8231,1,8,0:0:0:0:
64,64,8321,1,0,0:0:0:0:
320,64,8441,1,8,0:0:0:0:
320,64,8471,1,8,0:0:0:0:
64,64,8561,1,0,0:0:0:0:
64,64,8621,1,0,0:0:0:0:
64,64,8681,1,0,0:0:0:0:
320,64,8801,1,8,0:0:0:0:
320,64,8831,1,8,0:0:0:0:
320,64,8921,1,8,0:0:0:0:
320,64,8951,1,8,0:0:0:0:
64,64,9041,1,0,0:0:0:0:
320,64,9161,1,8,0:0:0:0:
320,64,9191,1,8,0:0:0:0:
64,64,9281,1,0,0:0:0:0:
64,64,9341,1,0,0:0:0:0:
64,64,9401,1,0,0:0:0:0:
320,64,9521,1,8,0:0:0:0:
320,64,9551,1,8,0:0:0:0:
320,64,9641,1,8,0:0:0:0:
320,64,9671,1,8,0:0:0:0:
64,64,9761,1,0,0:0:0:0:
320,64,9881,1,8,0:0:0:0:
320,64,9911,1,8,0:0:0:0:
64,64,10001,1,0,0:0:0:0:
64,64,10061,1,0,0:0:0:0:
64,64,10121,1,0,0:0:0:0:
320,64,10241,1,8,0:0:0:0:
320,64,10271,1,8,0:0:0:0:
320,64,10361,1,8,0:0:0:0:
320,64,10391,1,8,0:0:0:0:
64,64,10481,1,0,0:0:0:0:
320,64,10601,1,8,0:0:0:0:
320,64,10631,1,8,0:0:0:0:
64,64,10721,1,0,0:0:0:0:
64,64,10781,1,0,0:0:0:0:
64,64,10841,1,0,0:0:0:0:
320,64,10961,1,8,0:0:0:0:
320,64,10991,1,8,0:0:0:0:
320,64,11081,1,8,0:0:0:0:
320,64,11111,1,8,0:0:0:0:
64,64,11201,1,0,0:0:0:0:
320,64,11321,1,8,0:0:0:0:
320,64,11351,1,8,0:0:0:0:
64,64,11441,1,0,0:0:0:0:
64,64,11501,1,0,0:0:0:0:
64,64,11561,1,0,0:0:0:0:
320,64,11681,1,8,0:0:0:0:
320,64,11711,1,8,0:0:0:0:
320,64,11801,1,8,0:0:0:0:
320,64,11831,1,8,0:0:0:0:
64,64,11921,1,0,0:0:0:0:
320,64,12041,1,8,0:0:0:0:
320,64,12071,1,8,0:0:0:0:
64,64,12161,1,0,0:0:0:0:
64,64,12221,1,0,0:0:0:0:
64,64,12281,1,0,0:0:0:0:
320,64,12401,1,8,0:0:0:0:
320,64,12431,1,8,0:0:0:0:
320,64,12521,1,8,0:0:0:0:
320,64,12551,1,8,0:0:0:0:
64,64,12641,1,0,0:0:0:0:
320,64,12761,1,8,0:0:0:0:
320,64,12791,1,8,0:0:0:0:
64,64,12881,1,0,0:0:0:0:
64,64,12941,1,0,0:0:0:0:
64,64,13001,1,0,0:0:0:0:
320,64,13121,1,8,0:0:0:0:
320,64,13151,1,8,0:0:0:0:
320,64,13241,1,8,0:0:0:0:
320,64,13271,1,8,0:0:0:0:
64,64,13361,1,0,0:0:0:0:
320,64,13481,1,8,0:0:0:0:
320,64,13511,1,8,0:0:0:0:
64,64,13601,1,0,0:0:0:0:
64,64,13661,1,0,0:0:0:0:
64,64,13721,1,0,0:0:0:0:
320,64,13841,1,8,0:0:0:0:
320,64,13871,1,8,0:0:0:0:
320,64,13961,1,8,0:0:0:0:
320,64,13991,1,8,0:0:0:0:
64,64,14081,1,0,0:0:0:0:
320,64,14201,1,8,0:0:0:0:
320,64,14231,1,8,0:0:0:0:
64,64,14321,1,0,0:0:0:0:
64,64,14381,1,0,0:0:0:0:
64,64,14441,1,0,0:0:0:0:
320,64,14561,1,8,0:0:0:0:
320,64,14591,1,8,0:0:0:0:
320,64,14681,1,8,0:0:0:0:
320,64,14711,1,8,0:0:0:0:
64,64,14801,1,0,0:0:0:0:
320,64,14921,1,8,0:0:0:0:
320,64,14951,1,8,0:0:0:0:
64,64,15041,1,0,0:0:0:0:
64,64,15101,1,0,0:0:0:0:
64,64,15161,1,0,0:0:0:0:
320,64,15281,1,8,0:0:0:0:
320,64,15311,1,8,0:0:0:0:
320,64,15401,1,8,0:0:0:0:
320,64,15431,1,8,0:0:0:0:
64,64,15521,1,0,0:0:0:0:
320,64,15641,1,8,0:0:0:0:
320,64,15671,1,8,0:0:0:0:
64,64,15761,1,0,0:0:0:0:
64,64,15821,1,0,0:0:0:0:
64,64,15881,1,0,0:0:0:0:
320,64,16001,1,8,0:0:0:0:
320,64,16031,1,8,0:0:0:0:
320,64,16121,1,8,0:0:0:0:
320,64,16151,1,8,0:0:0:0:
64,64,16241,1,0,0:0:0:0:
320,64,16361,1,8,0:0:0:0:
320,64,16391,1,8,0:0:0:0:
64,64,16481,1,0,0:0:0:0:
64,64,16541,1,0,0:0:0:0:
64,64,16601,1,0,0:0:0:0:
320,64,16721,1,8,0:0:0:0:
320,64,16751,1,8,0:0:0:0:
320,64,16841,1,8,0:0:0:0:
320,64,16871,1,8,0:0:0:0:
64,64,16961,1,0,0:0:0:0:
320,64,17081,1,8,0:0:0:0:
320,64,17111,1,8,0:0:0:0:
64,64,17201,1,0,0:0:0:0:
64,64,17261,1,0,0:0:0:0:
64,64,17321,1,0,0:0:0:0:
320,64,17441,1,8,0:0:0:0:
320,64,17471,1,8,0:0:0:0:
320,64,17561,1,8,0:0:0:0:
320,64,17591,1,8,0:0:0:0:
64,64,17681,1,0,0:0:0:0:
