osu file format v14

[General]
AudioFilename: audio.mp3
AudioLeadIn: 0
PreviewTime: -1
Countdown: 0
SampleSet: None
StackLeniency: 0.7
Mode: 1
LetterboxInBreaks: 0
WidescreenStoryboard: 1

[Editor]
DistanceSpacing: 2
BeatDivisor: 4
GridSize: 32
TimelineZoom: 3.999998

[Metadata]
Title:taiko sr
TitleUnicode:taiko sr
Artist:pp
ArtistUnicode:pp
Creator:Alchyr
Version:a new test
Source:osy
Tags:working as intended
BeatmapID:3815886
BeatmapSetID:949507

[Difficulty]
HPDrainRate:0
CircleSize:2
OverallDifficulty:7
ApproachRate:10
SliderMultiplier:1.4
SliderTickRate:1

[Events]
//Background and Video events
0,0,"2016-09-22-861645.png",0,0
//Break Periods
//Storyboard Layer 0 (Background)
//Storyboard Layer 1 (Fail)
//Storyboard Layer 2 (Pass)
//Storyboard Layer 3 (Foreground)
//Storyboard Layer 4 (Overlay)
//Storyboard Sound Samples

[TimingPoints]
1241,240,7,2,0,25,1,0

[HitObjects]
283,136,1241,5,8,0:0:0:0:
283,136,1301,1,8,0:0:0:0:
96,132,1361,1,0,0:0:0:0:
283,136,1481,1,8,0:0:0:0:
283,136,1541,1,8,0:0:0:0:
283,136,1601,1,8,0:0:0:0:
96,132,1721,1,0,0:0:0:0:
96,132,1781,1,0,0:0:0:0:
336,146,1841,1,8,0:0:0:0:
96,132,1961,1,0,0:0:0:0:
96,132,2021,1,0,0:0:0:0:
96,132,2081,1,0,0:0:0:0:
283,136,2201,1,8,0:0:0:0:
283,136,2261,1,8,0:0:0:0:
96,132,2321,1,0,0:0:0:0:
283,136,2441,1,8,0:0:0:0:
283,136,2501,1,8,0:0:0:0:
283,136,2561,1,8,0:0:0:0:
96,132,2681,1,0,0:0:0:0:
96,132,2741,1,0,0:0:0:0:
336,146,2801,1,8,0:0:0:0:
96,132,2921,1,0,0:0:0:0:
96,132,2981,1,0,0:0:0:0:
96,132,3041,1,0,0:0:0:0:
283,136,3161,1,8,0:0:0:0:
283,136,3221,1,8,0:0:0:0:
96,132,3281,1,0,0:0:0:0:
283,136,3401,1,8,0:0:0:0:
283,136,3461,1,8,0:0:0:0:
283,136,3521,1,8,0:0:0:0:
96,132,3641,1,0,0:0:0:0:
96,132,3701,1,0,0:0:0:0:
336,146,3761,1,8,0:0:0:0:
96,132,3881,1,0,0:0:0:0:
96,132,3941,1,0,0:0:0:0:
96,132,4001,1,0,0:0:0:0:
283,136,4121,1,8,0:0:0:0:
283,136,4181,1,8,0:0:0:0:
96,132,4241,1,0,0:0:0:0:
283,136,4361,1,8,0:0:0:0:
283,136,4421,1,8,0:0:0:0:
283,136,4481,1,8,0:0:0:0:
96,132,4601,1,0,0:0:0:0:
96,132,4661,1,0,0:0:0:0:
336,146,4721,1,8,0:0:0:0:
96,132,4841,1,0,0:0:0:0:
96,132,4901,1,0,0:0:0:0:
96,132,4961,1,0,0:0:0:0:
283,136,5081,1,8,0:0:0:0:
283,136,5141,1,8,0:0:0:0:
96,132,5201,1,0,0:0:0:0:
283,136,5321,1,8,0:0:0:0:
283,136,5381,1,8,0:0:0:0:
283,136,5441,1,8,0:0:0:0:
96,132,5561,1,0,0:0:0:0:
96,132,5621,1,0,0:0:0:0:
336,146,5681,1,8,0:0:0:0:
96,132,5801,1,0,0:0:0:0:
96,132,5861,1,0,0:0:0:0:
96,132,5921,1,0,0:0:0:0:
283,136,6041,1,8,0:0:0:0:
283,136,6101,1,8,0:0:0:0:
96,132,6161,1,0,0:0:0:0:
283,136,6281,1,8,0:0:0:0:
283,136,6341,1,8,0:0:0:0:
283,136,6401,1,8,0:0:0:0:
96,132,6521,1,0,0:0:0:0:
96,132,6581,1,0,0:0:0:0:
336,146,6641,1,8,0:0:0:0:
96,132,6761,1,0,0:0:0:0:
96,132,6821,1,0,0:0:0:0:
96,132,6881,1,0,0:0:0:0:
283,136,7001,1,8,0:0:0:0:
283,136,7061,1,8,0:0:0:0:
96,132,7121,1,0,0:0:0:0:
283,136,7241,1,8,0:0:0:0:
283,136,7301,1,8,0:0:0:0:
283,136,7361,1,8,0:0:0:0:
96,132,7481,1,0,0:0:0:0:
96,132,7541,1,0,0:0:0:0:
336,146,7601,1,8,0:0:0:0:
96,132,7721,1,0,0:0:0:0:
96,132,7781,1,0,0:0:0:0:
96,132,7841,1,0,0:0:0:0:
283,136,7961,1,8,0:0:0:0:
283,136,8021,1,8,0:0:0:0:
96,132,8081,1,0,0:0:0:0:
283,136,8201,1,8,0:0:0:0:
283,136,8261,1,8,0:0:0:0:
283,136,8321,1,8,0:0:0:0:
96,132,8441,1,0,0:0:0:0:
96,132,8501,1,0,0:0:0:0:
336,146,8561,1,8,0:0:0:0:
96,132,8681,1,0,0:0:0:0:
96,132,8741,1,0,0:0:0:0:
96,132,8801,1,0,0:0:0:0:
283,136,8921,1,8,0:0:0:0:
283,136,8981,1,8,0:0:0:0:
96,132,9041,1,0,0:0:0:0:
283,136,9161,1,8,0:0:0:0:
283,136,9221,1,8,0:0:0:0:
283,136,9281,1,8,0:0:0:0:
96,132,9401,1,0,0:0:0:0:
96,132,9461,1,0,0:0:0:0:
336,146,9521,1,8,0:0:0:0:
96,132,9641,1,0,0:0:0:0:
96,132,9701,1,0,0:0:0:0:
96,132,9761,1,0,0:0:0:0:
283,136,9881,1,8,0:0:0:0:
283,136,9941,1,8,0:0:0:0:
96,132,10001,1,0,0:0:0:0:
283,136,10121,1,8,0:0:0:0:
283,136,10181,1,8,0:0:0:0:
283,136,10241,1,8,0:0:0:0:
96,132,10361,1,0,0:0:0:0:
96,132,10421,1,0,0:0:0:0:
336,146,10481,1,8,0:0:0:0:
96,132,10601,1,0,0:0:0:0:
96,132,10661,1,0,0:0:0:0:
96,132,10721,1,0,0:0:0:0:
283,136,10841,1,8,0:0:0:0:
283,136,10901,1,8,0:0:0:0:
96,132,10961,1,0,0:0:0:0:
283,136,11081,1,8,0:0:0:0:
283,136,11141,1,8,0:0:0:0:
283,136,11201,1,8,0:0:0:0:
96,132,11321,1,0,0:0:0:0:
96,132,11381,1,0,0:0:0:0:
336,146,11441,1,8,0:0:0:0:
96,132,11561,1,0,0:0:0:0:
96,132,11621,1,0,0:0:0:0:
96,132,11681,1,0,0:0:0:0:
283,136,11801,1,8,0:0:0:0:
283,136,11861,1,8,0:0:0:0:
96,132,11921,1,0,0:0:0:0:
283,136,12041,1,8,0:0:0:0:
283,136,12101,1,8,0:0:0:0:
283,136,12161,1,8,0:0:0:0:
96,132,12281,1,0,0:0:0:0:
96,132,12341,1,0,0:0:0:0:
336,146,12401,1,8,0:0:0:0:
96,132,12521,1,0,0:0:0:0:
96,132,12581,1,0,0:0:0:0:
96,132,12641,1,0,0:0:0:0:
283,136,12761,1,8,0:0:0:0:
283,136,12821,1,8,0:0:0:0:
96,132,12881,1,0,0:0:0:0:
283,136,13001,1,8,0:0:0:0:
283,136,13061,1,8,0:0:0:0:
283,136,13121,1,8,0:0:0:0:
96,132,13241,1,0,0:0:0:0:
96,132,13301,1,0,0:0:0:0:
336,146,13361,1,8,0:0:0:0:
96,132,13481,1,0,0:0:0:0:
96,132,13541,1,0,0:0:0:0:
96,132,13601,1,0,0:0:0:0:
283,136,13721,1,8,0:0:0:0:
283,136,13781,1,8,0:0:0:0:
96,132,13841,1,0,0:0:0:0:
283,136,13961,1,8,0:0:0:0:
283,136,14021,1,8,0:0:0:0:
283,136,14081,1,8,0:0:0:0:
96,132,14201,1,0,0:0:0:0:
96,132,14261,1,0,0:0:0:0:
336,146,14321,1,8,0:0:0:0:
96,132,14441,1,0,0:0:0:0:
96,132,14501,1,0,0:0:0:0:
96,132,14561,1,0,0:0:0:0:
283,136,14681,1,8,0:0:0:0:
283,136,14741,1,8,0:0:0:0:
96,132,14801,1,0,0:0:0:0:
283,136,14921,1,8,0:0:0:0:
283,136,14981,1,8,0:0:0:0:
283,136,15041,1,8,0:0:0:0:
96,132,15161,1,0,0:0:0:0:
96,132,15221,1,0,0:0:0:0:
336,146,15281,1,8,0:0:0:0:
96,132,15401,1,0,0:0:0:0:
96,132,15461,1,0,0:0:0:0:
96,132,15521,1,0,0:0:0:0:
283,136,15641,1,8,0:0:0:0:
283,136,15701,1,8,0:0:0:0:
96,132,15761,1,0,0:0:0:0:
283,136,15881,1,8,0:0:0:0:
283,136,15941,1,8,0:0:0:0:
283,136,16001,1,8,0:0:0:0:
96,132,16121,1,0,0:0:0:0:
96,132,16181,1,0,0:0:0:0:
336,146,16241,1,8,0:0:0:0:
96,132,16361,1,0,0:0:0:0:
96,132,16421,1,0,0:0:0:0:
96,132,16481,1,0,0:0:0:0:
283,136,16601,1,8,0:0:0:0:
283,136,16661,1,8,0:0:0:0:
96,132,16721,1,0,0:0:0:0:
283,136,16841,1,8,0:0:0:0:
283,136,16901,1,8,0:0:0:0:
283,136,16961,1,8,0:0:0:0:
96,132,17081,1,0,0:0:0:0:
96,132,17141,1,0,0:0:0:0:
336,146,17201,1,8,0:0:0:0:
96,132,17321,1,0,0:0:0:0:
96,132,17381,1,0,0:0:0:0:
96,132,17441,1,0,0:0:0:0:
283,136,17561,1,8,0:0:0:0:
283,136,17621,1,8,0:0:0:0:
96,132,17681,1,0,0:0:0:0:
283,136,17801,1,8,0:0:0:0:
283,136,17861,1,8,0:0:0:0:
283,136,17921,1,8,0:0:0:0:
96,132,18041,1,0,0:0:0:0:
96,132,18101,1,0,0:0:0:0:
336,146,18161,1,8,0:0:0:0:
96,132,18281,1,0,0:0:0:0:
96,132,18341,1,0,0:0:0:0:
96,132,18401,1,0,0:0:0:0:
