osu file format v14

[General]
AudioFilename: audio.mp3
AudioLeadIn: 0
PreviewTime: 21120
Countdown: 0
SampleSet: Soft
StackLeniency: 0.7
Mode: 0
LetterboxInBreaks: 0
WidescreenStoryboard: 0

[Editor]
DistanceSpacing: 1.5
BeatDivisor: 4
GridSize: 8
TimelineZoom: 1

[Metadata]
Title:breakfast
TitleUnicode:breakfast
Artist:potsu x lando!
ArtistUnicode:potsu x lando!
Creator:Misumena
Version:Yummy
Source:
Tags:potsu lando! breakfast lo-fi chill garvanturr Cyberia950 CutieDemon
BeatmapID:1713883
BeatmapSetID:817308

[Difficulty]
HPDrainRate:7
CircleSize:4
OverallDifficulty:7
ApproachRate:9.3
SliderMultiplier:1.6
SliderTickRate:1

[Events]
//Background and Video events
0,0,"maxresdefault.jpg",0,0
//Break Periods
2,54320,57900
//Storyboard Layer 0 (Background)
//Storyboard Layer 1 (Fail)
//Storyboard Layer 2 (Pass)
//Storyboard Layer 3 (Foreground)
//Storyboard Layer 4 (Overlay)
//Storyboard Sound Samples

[TimingPoints]
22454,333.333333333333,4,2,0,50,1,0
43787,-200,4,2,0,50,0,0
58454,-100,4,2,0,50,0,0
61120,-200,4,2,0,50,0,0
61787,-100,4,2,0,50,0,0

[Colours]
Combo1 : 0,0,160
Combo2 : 0,128,255
Combo3 : 128,128,255
Combo4 : 60,60,255

[HitObjects]
160,232,22454,5,0,1:0:0:0:
208,120,22620,1,0,0:0:0:0:
328,96,22787,2,0,L|438:92,1,80,2|0,3:0|3:0,0:0:0:0:
208,120,23120,1,8,0:0:0:0:
296,200,23287,2,0,L|381:279,1,80,2|0,0:3|3:0,0:0:0:0:
264,304,23620,2,0,L|150:278,1,80,0|2,0:0|0:0,0:0:0:0:
128,200,23954,2,0,L|205:182,1,80
304,160,24287,5,0,0:0:0:0:
400,136,24454,1,10,0:0:0:0:
376,232,24620,1,0,0:0:0:0:
304,160,24787,1,0,0:0:0:0:
400,136,24954,1,0,0:0:0:0:
339,293,25120,5,0,1:0:0:0:
339,293,25287,2,0,L|247:279,1,80,0|0,0:0|3:0,0:0:0:0:
336,197,25620,1,0,3:0:0:0:
336,197,25787,2,0,L|251:160,1,80,8|2,0:0|3:0,0:0:0:0:
332,92,26120,6,0,P|301:64|253:56,1,80,0|2,3:0|0:0,0:0:0:0:
160,64,26454,1,2,1:2:0:0:
104,152,26620,1,0,0:0:0:0:
56,240,26787,6,0,L|5:338,1,80
104,152,27120,1,10,0:0:0:0:
160,240,27287,6,0,L|208:312,1,80,0|2,0:0|3:2,0:0:0:0:
104,152,27620,1,0,0:0:0:0:
208,152,27787,6,0,L|304:152,1,80,2|0,1:2|0:0,0:0:0:0:
240,296,28120,5,0,0:0:0:0:
392,160,28287,1,0,0:0:0:0:
392,360,28454,1,8,0:0:0:0:
312,152,28620,1,0,3:0:0:0:
288,352,28787,1,2,0:3:0:0:
400,224,28954,1,0,0:0:0:0:
216,296,29120,1,2,3:2:0:0:
400,336,29287,1,0,0:0:0:0:
312,152,29454,1,0,3:0:0:0:
172,219,29620,5,2,3:0:0:0:
172,219,29787,1,0,0:0:0:0:
172,219,29954,2,0,L|88:192,1,80,0|0,0:0|3:0,0:0:0:0:
216,104,30287,1,0,0:0:0:0:
104,272,30454,5,2,1:2:0:0:
304,240,30620,1,0,0:0:0:0:
139,151,30787,1,0,0:0:0:0:
200,240,30954,2,0,L|264:335,1,80,0|8,0:0|0:0,0:0:0:0:
139,151,31287,1,2,3:0:0:0:
200,240,31454,6,0,L|253:321,1,80,0|2,3:0|0:0,0:0:0:0:
320,232,31787,1,2,0:0:0:0:
272,136,31954,2,0,L|232:56,1,80
139,151,32287,2,0,L|219:207,1,80,2|0,3:2|0:0,0:0:0:0:
296,264,32620,1,0,0:0:0:0:
368,192,32787,2,0,L|449:111,2,80,2|0|0,0:0|0:0|1:0,0:0:0:0:
240,301,33287,5,0,0:0:0:0:
240,301,33454,2,0,L|141:256,1,80,2|0,3:0|3:0,0:0:0:0:
338,162,33787,1,8,0:0:0:0:
116,195,33954,1,2,0:3:0:0:
116,195,34120,1,0,3:0:0:0:
312,247,34287,1,0,0:0:0:0:
159,83,34454,1,2,0:0:0:0:
159,83,34620,1,0,0:0:0:0:
304,104,34787,6,0,L|418:115,1,80
354,244,35120,1,10,0:0:0:0:
320,352,35287,1,0,0:0:0:0:
208,320,35454,1,0,0:0:0:0:
240,208,35620,1,0,0:0:0:0:
336,136,35787,6,0,L|416:72,1,80,0|0,1:0|0:0,0:0:0:0:
240,208,36120,1,0,3:0:0:0:
256,88,36287,2,0,L|272:0,1,80,0|8,3:0|0:0,0:0:0:0:
240,208,36620,1,2,3:0:0:0:
152,128,36787,2,0,L|72:40,2,80,0|2|2,3:0|0:0|1:2,0:0:0:0:
120,232,37287,5,0,0:0:0:0:
280,40,37454,1,0,0:0:0:0:
176,272,37620,1,0,0:0:0:0:
224,24,37787,1,10,0:0:0:0:
248,288,37954,1,0,0:0:0:0:
160,32,38120,1,2,3:2:0:0:
320,288,38287,1,0,0:0:0:0:
392,216,38454,6,0,L|472:128,1,80,2|0,1:2|0:0,0:0:0:0:
320,288,38787,1,0,0:0:0:0:
304,184,38954,2,0,L|288:104,1,80,0|8,0:0|0:0,0:0:0:0:
320,288,39287,1,0,3:0:0:0:
232,232,39454,2,0,L|160:184,1,80,2|0,0:3|0:0,0:0:0:0:
296,120,39787,5,2,3:2:0:0:
475,78,39954,1,0,0:0:0:0:
421,254,40120,1,0,3:0:0:0:
352,72,40287,1,2,3:0:0:0:
480,208,40454,5,0,0:0:0:0:
328,248,40620,1,0,0:0:0:0:
304,88,40787,1,0,3:0:0:0:
248,240,40954,1,0,0:0:0:0:
184,120,41120,6,0,L|136:32,1,80,2|0,1:2|0:0,0:0:0:0:
88,136,41454,6,0,L|113:211,1,80
32,264,41787,6,0,P|50:303|88:328,1,80,8|2,0:0|3:0,0:0:0:0:
144,248,42120,6,0,P|175:272|190:308,1,80,0|2,3:0|0:0,0:0:0:0:
256,192,42454,12,2,43454,0:0:0:0:
288,120,43787,6,0,P|328:96|368:120,1,80
344,216,44620,1,0,0:0:0:0:
304,304,44954,2,0,P|257:306|233:266,1,80
272,176,45620,5,0,0:0:0:0:
280,152,45787,1,0,0:0:0:0:
280,120,45954,1,0,0:0:0:0:
264,96,46120,1,0,0:0:0:0:
248,80,46287,1,0,0:0:0:0:
152,56,46454,6,0,P|118:77|100:111,1,80
128,224,47120,1,0,0:0:0:0:
168,280,47287,1,0,0:0:0:0:
207,224,47454,1,0,0:0:0:0:
248,279,47620,1,0,0:0:0:0:
400,248,47954,2,0,P|392:184|336:144,1,120
320,232,48787,1,0,0:0:0:0:
256,160,49120,6,0,L|198:96,1,80
72,56,49954,1,0,0:0:0:0:
144,160,50287,1,0,0:0:0:0:
216,264,50620,1,0,0:0:0:0:
256,80,50954,5,0,0:0:0:0:
328,80,51120,1,0,0:0:0:0:
328,152,51287,1,0,0:0:0:0:
400,152,51454,1,0,0:0:0:0:
400,224,51620,1,0,0:0:0:0:
336,296,51787,6,0,P|304:312|264:296,1,80
152,224,52454,5,0,0:0:0:0:
208,184,52620,1,0,0:0:0:0:
152,144,52787,1,0,0:0:0:0:
200,96,52954,2,0,P|240:80|280:80,1,80
392,168,53787,1,0,0:0:0:0:
352,256,54120,1,0,0:0:0:0:
256,192,58454,12,0,60787,0:0:0:0:
192,296,61120,6,0,L|226:258,3,40,0|0|0|0,0:0|3:0|0:0|3:0,0:0:0:0:
144,224,61787,2,0,L|72:160,1,80,2|0,3:0|3:0,0:0:0:0:
184,144,62120,2,0,L|256:208,1,80,0|0,0:0|3:0,0:0:0:0:
304,88,62454,6,0,L|392:48,1,80,0|0,3:0|0:0,0:0:0:0:
352,152,62787,2,0,L|440:176,1,80,0|0,0:0|3:0,0:0:0:0:
352,232,63120,2,0,L|424:280,2,80,2|0|0,3:0|0:0|0:0,0:0:0:0:
272,176,63620,1,0,3:0:0:0:
192,120,63787,6,0,L|112:64,2,80,0|0|0,0:0|3:0|0:0,0:0:0:0:
272,176,64287,1,0,3:0:0:0:
208,256,64453,2,0,L|156:325,2,80,2|0|0,3:0|3:0|0:0,0:0:0:0:
272,176,64954,1,0,3:0:0:0:
328,320,65120,6,0,P|400:288|424:208,1,160,2|0,3:2|0:0,0:0:0:0:
312,216,65620,1,0,3:0:0:0:
144,120,65787,1,8,0:0:0:0:
216,280,65954,1,0,0:0:0:0:
280,112,66120,1,0,0:0:0:0:
120,216,66287,1,0,3:0:0:0:
216,280,66454,6,0,L|304:336,1,80,0|0,0:0|3:0,0:0:0:0:
336,240,66787,2,0,L|248:184,1,80,0|0,0:0|3:0,0:0:0:0:
192,144,67120,1,8,0:0:0:0:
120,64,67287,1,0,3:0:0:0:
104,160,67454,1,0,0:0:0:0:
224,40,67620,1,0,3:0:0:0:
344,168,67787,6,0,P|348:247|265:286,1,160,2|0,3:2|0:0,0:0:0:0:
264,200,68287,1,0,3:0:0:0:
200,304,68454,1,8,0:0:0:0:
240,72,68620,1,0,0:0:0:0:
344,152,68787,1,0,0:0:0:0:
344,152,68954,1,0,3:0:0:0:
240,232,69120,5,0,0:0:0:0:
240,232,69287,1,0,3:0:0:0:
160,192,69454,2,0,L|88:152,1,80,0|0,0:0|3:0,0:0:0:0:
224,144,69787,2,0,L|208:56,1,80,8|0,0:0|3:0,0:0:0:0:
304,168,70120,2,0,L|368:104,1,80,0|0,0:0|3:0,0:0:0:0:
392,192,70454,5,2,3:2:0:0:
280,88,70620,1,0,0:0:0:0:
392,192,70787,1,0,0:0:0:0:
280,88,70954,1,0,3:0:0:0:
392,192,71120,2,0,P|408:248|384:280,1,80,8|0,0:0|0:0,0:0:0:0:
328,232,71454,1,0,0:0:0:0:
408,72,71620,1,0,3:0:0:0:
448,192,71787,1,0,0:0:0:0:
288,64,71954,5,0,3:0:0:0:
168,80,72120,2,0,L|64:96,1,80,0|0,0:0|3:0,0:0:0:0:
152,160,72454,2,0,L|248:144,1,80,8|0,0:0|3:0,0:0:0:0:
224,232,72787,1,0,0:0:0:0:
224,232,72954,2,0,L|120:256,1,80,0|0,3:0|0:0,0:0:0:0:
256,192,73287,12,0,74454,0:0:0:0:
144,112,74787,5,0,0:0:0:0:
144,112,74954,1,0,0:0:0:0:
336,160,75120,1,2,0:0:0:0:
336,160,75287,1,0,0:0:0:0:
152,248,75454,1,0,0:0:0:0:
152,248,75620,1,0,0:0:0:0:
248,320,75787,6,0,P|334:306|382:250,1,160,0|2,1:0|3:0,0:0:0:0:
424,144,76287,1,0,3:0:0:0:
296,40,76454,1,8,0:0:0:0:
424,144,76620,1,2,0:3:0:0:
240,176,76787,1,0,3:0:0:0:
424,144,76954,1,0,0:0:0:0:
240,176,77120,6,0,L|136:200,1,80,2|0,0:0|0:0,0:0:0:0:
312,112,77454,2,0,L|344:24,1,80
336,208,77787,2,2,L|400:264,1,80,10|0,0:0|0:0,0:0:0:0:
288,304,78120,1,0,0:0:0:0:
392,144,78287,1,0,0:0:0:0:
240,80,78454,5,0,1:0:0:0:
240,80,78620,2,0,L|152:64,1,80,0|0,0:0|3:0,0:0:0:0:
192,176,78954,1,0,3:0:0:0:
312,256,79120,1,8,0:0:0:0:
328,112,79287,1,2,3:0:0:0:
408,200,79454,6,0,L|480:272,1,80,0|2,3:0|0:0,0:0:0:0:
312,208,79787,2,0,L|248:264,1,80,2|0,1:2|0:0,0:0:0:0:
328,112,80120,2,0,L|248:32,1,80
424,104,80454,2,0,L|503:31,2,80,10|0|2,0:0|0:0|3:2,0:0:0:0:
344,168,80954,1,0,0:0:0:0:
264,104,81120,5,2,1:2:0:0:
168,64,81287,2,0,L|63:20,1,80
264,104,81620,1,0,0:0:0:0:
168,144,81787,2,0,L|64:184,1,80,8|0,0:0|3:0,0:0:0:0:
264,104,82120,1,2,0:3:0:0:
232,208,82287,2,0,L|200:296,1,80,0|2,0:0|3:2,0:0:0:0:
344,272,82620,5,0,0:0:0:0:
424,88,82787,1,0,3:0:0:0:
464,224,82954,1,2,3:0:0:0:
264,104,83120,1,0,0:0:0:0:
160,144,83287,2,0,L|56:184,1,80,0|0,0:0|3:0,0:0:0:0:
216,240,83620,5,0,0:0:0:0:
320,208,83787,2,0,P|360:184|376:144,1,80,2|0,1:2|0:0,0:0:0:0:
336,288,84120,2,0,P|416:248|448:176,1,160,0|8,0:0|0:0,0:0:0:0:
344,72,84620,1,2,3:0:0:0:
272,144,84787,1,0,3:0:0:0:
344,216,84954,1,2,0:0:0:0:
272,288,85120,5,2,0:0:0:0:
200,216,85287,1,0,0:0:0:0:
272,144,85454,1,0,0:0:0:0:
200,80,85620,1,2,3:2:0:0:
112,136,85787,2,0,L|32:192,1,80
128,224,86120,2,0,L|176:288,1,80,2|0,0:0|0:0,0:0:0:0:
272,96,86454,6,0,P|344:64|424:112,1,160,0|2,1:0|3:0,0:0:0:0:
344,192,86954,1,0,3:0:0:0:
413,287,87120,2,0,P|342:320|272:288,1,160,8|0,0:0|3:0,0:0:0:0:
176,176,87620,1,0,0:0:0:0:
176,176,87787,2,0,L|96:88,1,80,2|0,0:0|0:0,0:0:0:0:
264,88,88120,5,0,0:0:0:0:
272,88,88287,1,0,0:0:0:0:
280,88,88454,1,10,0:0:0:0:
336,176,88620,1,0,0:0:0:0:
344,176,88787,1,0,0:0:0:0:
352,176,88954,1,0,0:0:0:0:
280,264,89120,6,0,P|240:304|152:264,1,160,0|0,1:0|3:0,0:0:0:0:
104,344,89620,1,0,3:0:0:0:
215,177,89787,1,8,0:0:0:0:
320,344,89954,1,2,3:0:0:0:
448,248,90120,2,0,L|515:193,1,80,0|2,3:0|0:0,0:0:0:0:
389,127,90454,5,2,1:2:0:0:
312,48,90620,2,0,L|240:105,1,80
326,176,90954,2,0,L|398:119,1,80,0|10,0:0|0:0,0:0:0:0:
400,216,91287,1,0,0:0:0:0:
312,48,91454,1,2,3:2:0:0:
216,216,91620,1,0,0:0:0:0:
176,106,91787,6,0,P|240:50|320:50,1,160,2|0,1:2|0:0,0:0:0:0:
280,144,92287,1,0,0:0:0:0:
296,240,92454,2,0,L|312:336,1,80,8|0,0:0|3:0,0:0:0:0:
216,216,92787,2,0,L|152:272,1,80,2|0,0:3|0:0,0:0:0:0:
40,256,93120,5,2,3:2:0:0:
40,56,93287,1,0,0:0:0:0:
157,217,93454,1,0,3:0:0:0:
40,56,93620,1,2,3:0:0:0:
112,152,93787,2,0,L|168:232,1,80
264,168,94120,2,0,L|216:96,1,80,0|0,3:0|0:0,0:0:0:0:
219,101,94454,5,2,1:2:0:0:
328,256,94620,1,0,0:0:0:0:
200,224,94787,2,0,L|120:264,1,80
136,152,95120,2,0,L|224:112,1,80,8|2,0:0|3:0,0:0:0:0:
320,72,95454,1,0,3:0:0:0:
320,72,95620,1,2,0:0:0:0:
408,160,95787,1,2,0:0:0:0:
408,160,95954,1,0,0:0:0:0:
368,272,96120,5,0,0:0:0:0:
368,272,96287,1,2,3:2:0:0:
272,232,96454,2,0,L|176:192,1,80
360,168,96787,2,0,L|352:64,1,80,2|0,0:0|0:0,0:0:0:0:
256,24,97120,6,0,P|184:-8|105:26,1,160,0|2,1:0|3:0,0:0:0:0:
184,104,97620,1,0,3:0:0:0:
264,232,97787,1,8,0:0:0:0:
104,232,97954,1,2,0:3:0:0:
184,104,98120,2,0,L|80:96,1,80,0|0,3:0|0:0,0:0:0:0:
272,112,98454,2,0,L|384:120,1,80,2|0,0:0|0:0,0:0:0:0:
224,176,98787,2,0,L|216:272,1,80
351,117,99120,5,10,0:0:0:0:
168,40,99287,1,0,0:0:0:0:
217,255,99454,1,0,0:0:0:0:
351,117,99620,1,0,0:0:0:0:
112,120,99787,1,0,1:0:0:0:
296,192,99954,5,0,0:0:0:0:
120,104,100120,1,0,3:0:0:0:
288,208,100287,1,0,3:0:0:0:
128,88,100454,1,8,0:0:0:0:
280,224,100620,1,2,3:0:0:0:
136,72,100787,1,0,3:0:0:0:
272,232,100954,1,2,0:0:0:0:
272,112,101120,6,0,L|360:72,1,80,2|0,1:2|0:0,0:0:0:0:
160,168,101454,2,0,L|64:216,1,80
168,272,101787,1,10,0:0:0:0:
168,272,101954,1,0,0:0:0:0:
168,272,102120,2,0,L|251:232,1,80,2|0,3:2|0:0,0:0:0:0:
320,304,102454,6,0,P|352:272|352:216,1,80,2|0,1:2|0:0,0:0:0:0:
320,120,102787,1,0,0:0:0:0:
320,304,102954,1,0,0:0:0:0:
400,144,103120,1,8,0:0:0:0:
256,216,103287,1,0,3:0:0:0:
168,136,103454,6,0,L|104:80,1,80,2|0,0:3|0:0,0:0:0:0:
256,104,103787,2,0,L|256:16,1,80,2|0,3:2|0:0,0:0:0:0:
256,216,104120,2,0,L|256:312,1,80,0|2,3:0|3:0,0:0:0:0:
256,296,104454,1,0,0:0:0:0:
160,144,104620,1,0,0:0:0:0:
256,296,104787,1,0,3:0:0:0:
352,144,104954,1,0,0:0:0:0:
256,104,105120,6,0,L|256:8,1,80,2|0,1:2|0:0,0:0:0:0:
152,64,105454,2,0,P|80:104|64:176,1,160,0|8,0:0|0:0,0:0:0:0:
63,175,105954,1,2,3:0:0:0:
152,352,106120,1,0,3:0:0:0:
248,176,106287,1,2,0:0:0:0:
320,256,106454,2,0,L|376:320,2,80,2|0|0,0:0|0:0|0:0,0:0:0:0:
248,176,106954,1,2,3:2:0:0:
176,96,107120,2,0,L|120:32,2,80,0|0|2,0:0|0:0|0:0,0:0:0:0:
248,176,107620,1,0,0:0:0:0:
224,296,107787,6,0,P|312:296|352:232,1,160,0|2,1:0|3:0,0:0:0:0:
248,176,108287,1,0,3:0:0:0:
144,32,108454,1,8,0:0:0:0:
40,176,108620,1,2,0:3:0:0:
144,320,108787,1,0,3:0:0:0:
320,272,108954,5,0,0:0:0:0:
248,176,109120,2,0,L|192:96,1,80,2|0,0:0|0:0,0:0:0:0:
320,272,109454,1,0,0:0:0:0:
368,160,109620,2,0,L|408:72,1,80,0|10,0:0|0:0,0:0:0:0:
320,272,109954,1,0,0:0:0:0:
202,110,110120,1,0,0:0:0:0:
320,272,110287,1,0,0:0:0:0:
152,256,110454,5,0,1:0:0:0:
152,256,110620,1,0,0:0:0:0:
152,256,110787,2,0,P|168:216|200:200,1,80,0|0,3:0|3:0,0:0:0:0:
248,288,111120,6,0,P|232:328|200:344,1,80,8|2,0:0|3:0,0:0:0:0:
152,256,111454,2,0,P|168:216|200:200,1,80,0|2,3:0|0:0,0:0:0:0:
248,288,111787,1,2,1:2:0:0:
312,200,111954,2,0,P|346:219|360:256,1,80
200,136,112287,1,0,0:0:0:0:
384,216,112454,1,10,0:0:0:0:
200,136,112620,1,0,0:0:0:0:
303,304,112787,1,2,3:2:0:0:
200,136,112954,1,0,0:0:0:0:
384,216,113120,6,0,P|408:248|408:288,1,80,2|0,1:2|0:0,0:0:0:0:
327,374,113454,6,0,P|303:342|303:302,1,80
415,233,113787,6,0,P|423:272|406:309,1,80,8|0,0:0|3:0,0:0:0:0:
297,352,114120,6,0,P|288:313|305:277,1,80,2|0,0:3|0:0,0:0:0:0:
304,277,114454,1,2,3:2:0:0:
328,96,114620,1,0,0:0:0:0:
304,277,114787,1,0,3:0:0:0:
328,96,114954,1,2,3:0:0:0:
193,248,115120,2,0,L|128:320,3,80,0|0|0|0,0:0|0:0|3:0|0:0,0:0:0:0:
256,176,115787,5,2,1:2:0:0:
456,272,115954,1,0,0:0:0:0:
296,120,116120,1,0,0:0:0:0:
408,320,116287,1,0,0:0:0:0:
360,104,116454,1,8,0:0:0:0:
336,320,116620,1,2,3:0:0:0:
432,112,116787,5,0,3:0:0:0:
264,304,116954,1,2,0:0:0:0:
488,160,117120,1,2,0:0:0:0:
224,240,117287,1,0,0:0:0:0:
496,232,117454,1,0,0:0:0:0:
232,168,117620,1,2,3:2:0:0:
464,296,117787,1,0,0:0:0:0:
288,128,117954,5,0,0:0:0:0:
400,320,118120,1,2,0:0:0:0:
344,160,118287,1,0,0:0:0:0:
336,296,118454,1,0,0:0:0:0:
