osu file format v14

[General]
AudioFilename: audio.mp3
AudioLeadIn: 0
PreviewTime: -1
Countdown: 1
SampleSet: Normal
StackLeniency: 0.7
Mode: 0
LetterboxInBreaks: 0
WidescreenStoryboard: 0

[Editor]
DistanceSpacing: 0.5
BeatDivisor: 12
GridSize: 16
TimelineZoom: 1

[Metadata]
Title:deja vu
TitleUnicode:deja vu
Artist:post malone
ArtistUnicode:post malone
Creator:fenrirkm
Version:Hard
Source:
Tags:
BeatmapID:1251166
BeatmapSetID:591213

[Difficulty]
HPDrainRate:5
CircleSize:5
OverallDifficulty:5
ApproachRate:5
SliderMultiplier:1.4
SliderTickRate:1

[Events]
//Background and Video events
0,0,"1.jpg",0,0
//Break Periods
2,199450,207393
//Storyboard Layer 0 (Background)
//Storyboard Layer 1 (Fail)
//Storyboard Layer 2 (Pass)
//Storyboard Layer 3 (Foreground)
//Storyboard Sound Samples

[TimingPoints]
0,500,4,1,0,100,1,0
0,500,4,1,0,100,1,0

[HitObjects]
256,192,8000,12,8,13750,0:0:0:0:
80,96,14500,5,8,0:0:0:0:
352,80,15500,1,8,0:0:0:0:
112,256,18000,1,8,0:0:0:0:
112,256,18250,1,8,0:0:0:0:
368,256,21500,1,8,0:0:0:0:
368,256,21750,1,8,0:0:0:0:
352,96,26250,1,8,0:0:0:0:
352,96,26500,1,8,0:0:0:0:
80,96,28250,2,8,B|288:32|432:128|368:288|176:320|96:240|176:160|240:144|224:160,2,525
400,80,35250,6,8,B|192:32|80:112|48:240|176:336|288:336|416:240|272:160|368:160,1,630
144,224,39000,1,0,0:0:0:0:
272,144,40250,1,0,0:0:0:0:
400,208,40500,1,0,0:0:0:0:
160,208,41500,1,0,0:0:0:0:
448,128,41750,1,0,0:0:0:0:
160,128,42250,1,0,0:0:0:0:
304,96,43250,1,0,0:0:0:0:
304,96,43500,1,0,0:0:0:0:
432,192,44250,1,0,0:0:0:0:
192,288,44500,1,0,0:0:0:0:
80,192,45000,1,0,0:0:0:0:
128,112,46250,1,0,0:0:0:0:
128,112,46500,1,0,0:0:0:0:
432,80,47500,1,0,0:0:0:0:
448,208,48000,1,0,0:0:0:0:
192,160,48500,1,0,0:0:0:0:
272,112,49250,1,0,0:0:0:0:
80,64,49750,1,0,0:0:0:0:
448,96,50250,1,0,0:0:0:0:
144,240,51250,1,0,0:0:0:0:
352,272,51500,1,0,0:0:0:0:
144,96,52000,1,0,0:0:0:0:
336,128,52750,1,0,0:0:0:0:
96,160,53250,1,0,0:0:0:0:
416,176,54500,1,0,0:0:0:0:
128,160,55500,1,0,0:0:0:0:
336,192,56000,1,0,0:0:0:0:
144,192,56250,1,0,0:0:0:0:
96,192,57750,1,0,0:0:0:0:
400,192,58750,1,0,0:0:0:0:
80,192,59250,1,0,0:0:0:0:
416,208,59750,1,0,0:0:0:0:
80,48,62250,1,0,0:0:0:0:
384,352,62750,1,0,0:0:0:0:
432,128,63250,1,0,0:0:0:0:
160,320,64750,1,0,0:0:0:0:
80,96,65750,1,0,0:0:0:0:
352,96,66500,1,0,0:0:0:0:
128,304,67000,1,0,0:0:0:0:
0,192,69250,1,0,0:0:0:0:
192,192,69500,1,0,0:0:0:0:
304,192,70000,1,0,0:0:0:0:
64,176,71250,1,0,0:0:0:0:
64,192,72500,1,0,0:0:0:0:
240,192,72750,1,0,0:0:0:0:
240,192,73000,1,0,0:0:0:0:
336,192,74000,1,0,0:0:0:0:
480,192,74500,1,0,0:0:0:0:
256,192,75500,1,0,0:0:0:0:
96,192,76500,1,0,0:0:0:0:
48,208,76750,1,0,0:0:0:0:
224,192,78250,1,0,0:0:0:0:
368,96,79000,1,0,0:0:0:0:
144,176,79500,1,0,0:0:0:0:
352,256,80250,1,0,0:0:0:0:
352,256,80500,1,0,0:0:0:0:
352,112,81250,1,0,0:0:0:0:
80,160,81750,1,0,0:0:0:0:
96,304,83250,1,0,0:0:0:0:
464,208,83750,1,0,0:0:0:0:
64,96,84250,1,0,0:0:0:0:
384,64,84750,1,0,0:0:0:0:
224,16,85500,1,0,0:0:0:0:
256,32,86000,2,0,P|160:304|96:112,1,717.5
333,365,89593,2,0,B|489:-46|48:3|-32:117,2,665
50,187,96812,1,0,0:0:0:0:
475,182,98562,1,0,0:0:0:0:
100,188,100125,1,0,0:0:0:0:
169,187,101125,1,0,0:0:0:0:
214,186,101437,1,0,0:0:0:0:
299,189,102500,1,0,0:0:0:0:
63,110,103562,1,0,0:0:0:0:
455,116,103812,1,0,0:0:0:0:
124,200,104062,1,0,0:0:0:0:
78,111,105812,1,0,0:0:0:0:
284,288,106125,1,0,0:0:0:0:
409,122,107062,1,0,0:0:0:0:
122,180,107312,1,0,0:0:0:0:
352,193,107500,1,0,0:0:0:0:
225,227,107750,1,0,0:0:0:0:
174,119,109437,1,0,0:0:0:0:
406,145,109625,1,0,0:0:0:0:
110,300,109812,1,0,0:0:0:0:
112,113,110875,1,0,0:0:0:0:
112,113,111000,1,0,0:0:0:0:
383,269,112687,1,0,0:0:0:0:
80,186,113500,1,0,0:0:0:0:
421,160,114312,1,0,0:0:0:0:
421,160,114375,1,0,0:0:0:0:
434,100,115687,2,0,P|59:304|47:263,2,752.5
38,249,123000,2,0,P|484:32|529:184,2,840
117,174,130000,1,0,0:0:0:0:
212,174,130625,1,0,0:0:0:0:
313,174,131375,1,0,0:0:0:0:
313,174,131500,1,0,0:0:0:0:
469,181,132875,1,0,0:0:0:0:
136,181,134125,1,0,0:0:0:0:
128,113,134625,1,0,0:0:0:0:
358,108,135250,1,0,0:0:0:0:
355,117,135500,1,0,0:0:0:0:
215,304,136250,1,0,0:0:0:0:
362,299,137375,1,0,0:0:0:0:
230,135,138000,1,0,0:0:0:0:
386,116,138750,1,0,0:0:0:0:
379,124,138875,1,0,0:0:0:0:
59,244,139750,1,0,0:0:0:0:
334,129,140875,1,0,0:0:0:0:
176,132,141500,1,0,0:0:0:0:
176,132,142125,1,0,0:0:0:0:
176,132,142250,1,0,0:0:0:0:
373,241,143375,1,0,0:0:0:0:
480,86,144625,1,0,0:0:0:0:
144,46,145625,1,0,0:0:0:0:
29,238,146875,1,0,0:0:0:0:
384,180,147125,1,0,0:0:0:0:
63,114,147375,1,0,0:0:0:0:
183,74,148375,1,0,0:0:0:0:
186,123,149000,1,0,0:0:0:0:
200,171,149375,1,0,0:0:0:0:
438,216,150500,1,0,0:0:0:0:
480,71,150750,1,0,0:0:0:0:
234,151,151000,1,0,0:0:0:0:
34,258,152000,1,0,0:0:0:0:
107,299,152625,1,0,0:0:0:0:
230,323,153500,1,0,0:0:0:0:
303,322,153750,1,0,0:0:0:0:
392,173,155125,1,0,0:0:0:0:
385,98,155750,1,0,0:0:0:0:
342,91,155875,1,0,0:0:0:0:
132,96,156500,1,0,0:0:0:0:
71,160,157625,1,0,0:0:0:0:
224,211,158625,1,0,0:0:0:0:
336,205,159375,1,0,0:0:0:0:
336,205,159500,1,0,0:0:0:0:
391,115,160500,1,0,0:0:0:0:
341,55,161375,1,0,0:0:0:0:
339,48,161625,1,0,0:0:0:0:
301,53,162375,1,0,0:0:0:0:
171,69,163250,1,0,0:0:0:0:
171,69,163375,1,0,0:0:0:0:
75,247,164750,1,0,0:0:0:0:
75,247,164875,1,0,0:0:0:0:
250,294,165750,1,0,0:0:0:0:
366,239,166875,1,0,0:0:0:0:
366,239,167000,1,0,0:0:0:0:
366,133,167750,1,0,0:0:0:0:
186,165,168750,1,0,0:0:0:0:
358,174,169625,1,0,0:0:0:0:
157,177,169875,1,0,0:0:0:0:
338,176,171250,1,0,0:0:0:0:
262,184,172125,1,0,0:0:0:0:
258,14,172625,2,0,L|258:376,1,350
258,20,174687,2,0,P|253:370|105:259,1,770
136,159,178250,1,0,0:0:0:0:
356,152,180343,1,0,0:0:0:0:
174,122,181000,1,0,0:0:0:0:
336,123,181531,1,0,0:0:0:0:
259,184,183968,1,0,0:0:0:0:
259,184,184656,1,0,0:0:0:0:
259,184,184843,1,0,0:0:0:0:
259,184,184968,1,0,0:0:0:0:
259,185,186468,1,0,0:0:0:0:
85,189,187500,1,0,0:0:0:0:
380,197,188031,1,0,0:0:0:0:
232,199,188375,1,0,0:0:0:0:
397,176,188781,1,0,0:0:0:0:
114,95,191125,1,0,0:0:0:0:
114,95,191281,1,0,0:0:0:0:
197,118,192125,1,0,0:0:0:0:
326,136,192656,1,0,0:0:0:0:
370,300,194093,1,0,0:0:0:0:
370,300,194250,1,0,0:0:0:0:
325,239,194968,1,0,0:0:0:0:
442,104,195500,1,0,0:0:0:0:
105,267,197156,1,0,0:0:0:0:
105,267,197312,1,0,0:0:0:0:
439,78,198250,1,0,0:0:0:0:
240,63,198937,1,0,0:0:0:0:
377,69,199250,1,0,0:0:0:0:
59,153,208593,5,4,0:0:0:0:
291,130,209656,1,4,0:0:0:0:
329,274,210437,1,4,0:0:0:0:
159,275,211250,1,4,0:0:0:0:
396,181,211531,1,4,0:0:0:0:
454,83,211812,1,4,0:0:0:0:
233,104,212093,1,0,0:0:0:0:
240,118,214875,1,0,0:0:0:0:
