osu file format v14

[General]
AudioFilename: Mynarco Addiction.mp3
AudioLeadIn: 0
PreviewTime: 242742
Countdown: 0
SampleSet: Soft
StackLeniency: 0.7
Mode: 0
LetterboxInBreaks: 0
WidescreenStoryboard: 0

[Editor]
Bookmarks: 46498,67714,91581,110145,131360,152576,163184,184399,205614,216222,242742,263957,266609,285172,290476,311692
DistanceSpacing: 0.8
BeatDivisor: 4
GridSize: 4
TimelineZoom: 1.399999

[Metadata]
Title:Mynarco Addiction
TitleUnicode:Mynarco Addiction
Artist:positive MAD-crew
ArtistUnicode:positive MAD-crew
Creator:Phos-
Version:EX
Source:pop'n music Sunny Park
Tags:video game japanese jubeat saucer plus Android jukebeat KONAMI music pack 31 original soundtrack vol.1 Disc 1 ニアちゃんのうたのひと ちっひ nia-chan no Uta no Hito DRUM'N COREDUST Marathon MakkuruP Osamu Migitera 右寺修 BEMANI Des-ROW
BeatmapID:1396017
BeatmapSetID:659139

[Difficulty]
HPDrainRate:4
CircleSize:7
OverallDifficulty:9
ApproachRate:9.3
SliderMultiplier:1.7
SliderTickRate:1

[Events]
//Background and Video events
0,0,"1465241280251.jpg",0,0
//Break Periods
2,205814,214326
2,285372,289906
//Storyboard Layer 0 (Background)
//Storyboard Layer 1 (Fail)
//Storyboard Layer 2 (Pass)
//Storyboard Layer 3 (Foreground)
//Storyboard Layer 4 (Overlay)
//Storyboard Sound Samples

[TimingPoints]
4068,331.491712707182,4,2,0,60,1,0
22631,-100,4,2,0,30,0,0
22880,-100,4,2,0,60,0,0
37217,-133.333333333333,4,2,0,60,0,0
38543,-100,4,2,0,60,0,0
39537,-80,4,2,0,60,0,0
40034,-100,4,2,0,60,0,0
131360,-80,4,2,0,60,0,1
152576,-100,4,2,0,60,0,0
184399,-80,4,2,0,60,0,1
205614,-100,4,2,0,60,0,0
242742,-80,4,2,0,60,0,1
263957,-200,4,2,0,60,0,0
265283,-153.846153846154,4,2,0,60,0,0
265614,-125,4,2,0,60,0,0
265946,-105.263157894737,4,2,0,60,0,0
266277,-90.9090909090909,4,2,0,60,0,0
266609,-80,4,2,0,60,0,1
285172,-80,4,2,0,60,0,0
313018,-80,4,2,0,50,0,0
314344,-80,4,2,0,40,0,0
315670,-80,4,2,0,30,0,0
316996,-80,4,2,0,10,0,0
318322,-80,4,1,1,5,0,0

[Colours]
Combo1 : 89,172,255
Combo2 : 255,128,192
Combo3 : 203,151,255
Combo4 : 176,255,225

[HitObjects]
0,260,4067,5,0,0:0:0:0:
76,328,4233,1,0,0:0:0:0:
152,260,4399,2,0,P|200:244|248:276,1,85,2|0,0:0|0:0,0:0:0:0:
260,320,4730,2,0,L|252:136,1,170,2|0,0:0|0:0,0:0:0:0:
272,72,5228,2,0,P|336:60|312:140,1,170,2|0,0:0|0:0,0:0:0:0:
252,150,5725,2,0,L|167:144,1,85,0|0,3:0|0:0,0:0:0:0:
262,257,6056,2,0,L|347:263,1,85,0|0,3:0|0:0,0:0:0:0:
452,272,6388,1,0,3:0:0:0:
452,272,6719,5,0,0:0:0:0:
504,184,6885,1,0,0:0:0:0:
440,104,7051,2,0,P|396:92|344:100,1,85,2|0,0:0|0:0,0:0:0:0:
264,132,7382,2,0,P|324:100|328:-12,1,170,2|0,0:0|0:0,0:0:0:0:
70,24,7880,2,0,P|152:49|239:32,1,170,2|0,0:0|0:0,0:0:0:0:
40,132,8377,2,0,P|83:150|145:152,1,85,0|0,3:0|0:0,0:0:0:0:
224,252,8708,2,0,P|181:270|119:272,1,85,0|0,3:0|0:0,0:0:0:0:
44,364,9040,1,0,3:0:0:0:
44,364,9371,5,0,0:0:0:0:
144,376,9537,1,0,0:0:0:0:
232,316,9703,2,0,L|325:322,1,85,2|0,0:0|0:0,0:0:0:0:
432,304,10034,2,0,P|480:332|408:364,1,170,2|0,0:0|0:0,0:0:0:0:
360,272,10532,2,0,B|350:206|350:206|354:166|354:166|344:84,1,170,2|0,0:0|0:0,0:0:0:0:
224,76,11029,2,0,P|204:128|216:160,1,85,0|0,3:0|0:0,0:0:0:0:
288,284,11360,2,0,P|295:242|276:206,1,85,0|0,3:0|0:0,0:0:0:0:
404,160,11692,1,0,3:0:0:0:
404,160,12023,5,0,0:0:0:0:
392,260,12189,1,0,0:0:0:0:
452,108,12355,2,0,P|408:88|364:100,1,85,2|0,0:0|0:0,0:0:0:0:
264,160,12686,2,0,P|184:175|136:111,1,170,2|0,0:0|0:0,0:0:0:0:
147,46,13184,2,0,P|202:87|137:112,1,170,2|0,0:0|0:0,0:0:0:0:
44,56,13681,2,0,P|24:104|56:184,1,127.5,0|0,3:0|0:0,0:0:0:0:
152,192,14012,2,0,P|156:212|156:268,3,42.5,0|0|0|0,3:0|0:0|0:0|0:0,0:0:0:0:
32,264,14344,2,0,P|28:284|28:340,3,42.5,0|0|0|0,3:0|0:0|0:0|0:0,0:0:0:0:
140,384,14675,5,0,1:0:0:0:
140,384,15007,2,0,L|240:380,1,85,2|0,0:0|0:0,0:0:0:0:
340,280,15338,2,0,L|255:283,1,85,2|0,0:0|0:0,0:0:0:0:
220,144,15670,1,0,0:0:0:0:
359,172,15835,2,0,P|403:224|327:276,1,170,2|0,0:0|0:0,0:0:0:0:
272,208,16333,1,0,3:0:0:0:
348,228,16498,1,0,0:0:0:0:
304,76,16664,1,0,3:0:0:0:
380,88,16829,1,0,0:0:0:0:
220,108,16996,2,0,P|216:52|240:16,1,85,0|0,3:0|0:0,0:0:0:0:
44,104,17327,6,0,L|128:107,1,85,2|0,0:0|0:0,0:0:0:0:
188,208,17659,1,2,0:0:0:0:
88,208,17824,1,0,0:0:0:0:
52,304,17990,2,0,L|164:308,1,85,2|0,0:0|0:0,0:0:0:0:
240,315,18322,1,0,0:0:0:0:
240,315,18487,2,0,P|183:366|136:307,1,170,2|0,0:0|0:0,0:0:0:0:
192,228,18985,6,0,L|188:328,1,85,0|0,3:0|0:0,0:0:0:0:
256,128,19316,2,0,L|252:228,1,85,0|0,3:0|0:0,0:0:0:0:
328,80,19648,1,0,3:0:0:0:
340,72,19979,5,4,3:0:0:0:
424,40,20145,1,0,0:0:0:0:
460,124,20311,2,0,L|452:224,1,85,2|0,0:0|0:0,0:0:0:0:
340,312,20642,2,0,L|333:227,1,85,2|0,0:0|0:0,0:0:0:0:
416,280,20974,1,0,0:0:0:0:
408,360,21139,2,0,P|356:388|256:336,1,170,2|0,0:0|0:0,0:0:0:0:
220,280,21637,5,0,3:0:0:0:
188,344,21802,1,0,0:0:0:0:
124,316,21968,1,0,3:0:0:0:
156,252,22134,1,0,0:0:0:0:
261,345,22300,1,2,3:0:0:0:
272,352,22631,5,0,3:0:0:0:
284,356,22714,1,0,3:0:0:0:
296,356,22797,1,0,3:0:0:0:
308,352,22880,1,0,3:0:0:0:
316,346,22963,1,2,0:0:0:0:
400,280,23128,1,2,0:0:0:0:
360,172,23294,2,0,P|348:124|384:80,1,85
456,136,23626,1,2,0:0:0:0:
360,172,23791,2,0,P|304:144|308:40,1,170
324,36,24206,1,0,0:0:0:0:
348,40,24288,5,0,1:0:0:0:
232,116,24454,1,0,0:0:0:0:
211,127,24537,1,0,0:0:0:0:
187,123,24620,2,0,L|140:116,3,42.5,0|0|0|0,1:0|0:0|0:0|0:0,0:0:0:0:
92,168,24951,2,0,L|49:174,3,42.5,0|0|0|0,1:0|0:0|0:0|0:0,0:0:0:0:
0,104,25283,5,4,1:0:0:0:
164,188,25449,1,0,0:0:0:0:
16,288,25614,2,0,P|84:284|104:268,1,85,2|0,0:0|0:0,0:0:0:0:
164,188,25946,2,0,P|202:170|243:175,1,85,0|0,1:0|0:0,0:0:0:0:
220,312,26277,1,0,1:0:0:0:
164,188,26443,6,0,P|180:128|244:176,1,170
220,312,26940,1,0,1:0:0:0:
304,228,27106,1,0,0:0:0:0:
270,363,27272,1,0,1:0:0:0:
353,277,27438,1,0,0:0:0:0:
238,246,27603,5,0,1:0:0:0:
336,343,27769,1,0,0:0:0:0:
476,328,27935,2,0,L|492:216,1,85,0|0,1:0|0:0,0:0:0:0:
460,140,28266,2,0,P|444:116|448:152,1,85,2|0,0:0|0:0,0:0:0:0:
484,36,28598,2,0,P|416:28|388:48,1,85,2|0,0:0|0:0,0:0:0:0:
276,120,28929,1,0,0:0:0:0:
276,120,29095,2,0,B|200:116|200:116|176:120|176:120|96:116,1,170,2|0,0:0|0:0,0:0:0:0:
96,172,29592,5,2,0:0:0:0:
184,180,29758,1,0,0:0:0:0:
160,64,29924,1,2,0:0:0:0:
68,64,30090,1,0,0:0:0:0:
268,200,30255,2,0,L|376:192,1,85,2|0,0:0|0:0,0:0:0:0:
504,220,30587,5,0,1:0:0:0:
480,224,30670,1,0,0:0:0:0:
456,228,30753,1,0,0:0:0:0:
432,232,30835,1,0,0:0:0:0:
416,252,30918,5,2,0:0:0:0:
392,256,31001,1,0,0:0:0:0:
368,260,31084,1,0,0:0:0:0:
344,264,31166,1,0,0:0:0:0:
328,284,31250,6,0,L|224:292,1,85,2|0,0:0|0:0,0:0:0:0:
269,177,31581,1,0,0:0:0:0:
269,177,31747,2,0,P|342:206|328:284,1,170,2|0,0:0|0:0,0:0:0:0:
172,292,32244,1,0,1:0:0:0:
272,352,32410,1,0,0:0:0:0:
168,220,32576,2,0,L|80:212,1,85,2|0,0:0|0:0,0:0:0:0:
268,176,32907,2,0,L|356:184,1,85,2|0,0:0|0:0,0:0:0:0:
184,112,33239,5,0,1:0:0:0:
268,176,33405,1,0,0:0:0:0:
364,132,33570,2,0,L|468:112,1,85,2|0,0:0|0:0,0:0:0:0:
270,179,33902,2,0,P|218:187|274:143,1,170,2|0,0:0|0:0,0:0:0:0:
320,200,34399,2,0,P|236:248|168:216,1,170,2|0,0:0|0:0,0:0:0:0:
156,204,34813,1,0,0:0:0:0:
152,180,34896,5,0,1:0:0:0:
208,308,35062,1,0,0:0:0:0:
184,308,35145,1,0,0:0:0:0:
160,296,35228,2,0,L|84:288,3,42.5,0|0|0|0,1:0|0:0|0:0|0:0,0:0:0:0:
16,224,35559,2,0,L|58:228,3,42.5,0|0|0|0,1:0|0:0|0:0|0:0,0:0:0:0:
152,180,35890,5,4,1:0:0:0:
12,120,36056,1,0,0:0:0:0:
156,80,36222,2,0,P|196:88|228:136,1,85,2|0,0:0|0:0,0:0:0:0:
168,236,36554,2,0,P|120:224|96:180,1,85,2|0,0:0|0:0,0:0:0:0:
276,164,36885,1,0,0:0:0:0:
240,264,37051,1,0,0:0:0:0:
352,196,37217,6,0,L|344:104,1,63.7500024318696
292,224,37548,1,0,3:0:0:0:
300,240,37880,1,0,3:0:0:0:
308,256,38211,1,0,3:0:0:0:
316,268,38543,6,0,L|328:164,1,85,0|0,1:0|0:0,0:0:0:0:
308,328,38874,1,2,0:0:0:0:
196,236,39040,1,0,0:0:0:0:
325,183,39206,2,0,P|350:153|303:182,1,170,2|0,0:0|0:0,0:0:0:0:
327,190,39703,6,0,P|358:152|299:188,1,212.5,2|0,0:0|0:0,0:0:0:0:
364,240,40200,1,0,3:0:0:0:
388,244,40283,1,0,3:0:0:0:
412,248,40366,1,0,3:0:0:0:
436,252,40449,1,0,3:0:0:0:
460,256,40532,5,2,3:0:0:0:
336,360,40697,1,2,3:0:0:0:
208,272,40863,2,0,L|168:268,2,21.25,0|0|0,3:0|0:0|0:0,0:0:0:0:
244,108,41195,5,2,0:0:0:0:
256,244,41360,1,0,0:0:0:0:
360,160,41526,2,0,P|396:148|440:172,1,85,2|0,0:0|0:0,0:0:0:0:
376,304,41858,2,0,L|196:288,1,170
148,188,42355,1,0,0:0:0:0:
134,148,42437,1,0,0:0:0:0:
146,108,42520,1,0,0:0:0:0:
178,81,42603,1,0,0:0:0:0:
220,78,42686,1,0,0:0:0:0:
380,120,42852,5,0,1:0:0:0:
300,232,43018,1,0,0:0:0:0:
360,356,43184,2,0,L|448:348,1,85,2|0,0:0|0:0,0:0:0:0:
224,312,43515,2,0,L|312:320,1,85,2|0,0:0|0:0,0:0:0:0:
52,348,43847,5,0,1:0:0:0:
164,340,44012,1,0,0:0:0:0:
44,188,44178,2,0,L|36:280,1,85,0|0,1:0|0:0,0:0:0:0:
180,164,44509,2,0,L|176:64,1,85,0|0,1:0|0:0,0:0:0:0:
72,36,44841,1,0,0:0:0:0:
284,72,45007,1,0,0:0:0:0:
128,228,45172,5,0,1:0:0:0:
116,252,45255,1,0,0:0:0:0:
112,276,45338,1,0,0:0:0:0:
116,300,45421,1,0,0:0:0:0:
128,324,45504,2,0,L|156:336,6,21.25,2|0|0|0|0|0|0,0:0|0:0|0:0|0:0|0:0|0:0|0:0,0:0:0:0:
208,272,45835,5,0,1:0:0:0:
240,260,45918,1,0,0:0:0:0:
272,264,46001,1,0,0:0:0:0:
304,276,46084,1,0,0:0:0:0:
336,292,46167,1,2,0:0:0:0:
368,304,46250,1,0,0:0:0:0:
400,300,46333,1,2,0:0:0:0:
428,280,46416,1,0,0:0:0:0:
436,248,46498,70,0,L|434:154,1,85,0|0,1:0|0:0,0:0:0:0:
364,56,46830,1,2,0:0:0:0:
296,176,46996,2,0,P|284:224|297:269,1,85
434,163,47327,1,0,0:0:0:0:
260,132,47493,2,0,B|200:128|200:128|176:136,1,85,2|0,0:0|0:0,0:0:0:0:
96,248,47824,5,0,0:0:0:0:
176,136,47990,2,0,P|120:96|136:164,1,170,2|0,0:0|0:0,0:0:0:0:
268,232,48487,2,0,P|290:204|256:199,1,85,2|0,0:0|0:0,0:0:0:0:
88,344,48819,2,0,P|64:332|100:316,1,85,2|0,0:0|0:0,0:0:0:0:
288,360,49150,6,0,L|396:364,1,85
472,268,49482,1,2,0:0:0:0:
380,176,49648,2,0,L|295:179,1,85
216,100,49979,1,0,0:0:0:0:
300,24,50145,2,0,L|408:28,1,85,2|0,0:0|0:0,0:0:0:0:
468,116,50476,69,0,1:0:0:0:
348,96,50642,1,0,3:0:0:0:
408,232,50808,5,0,1:0:0:0:
296,96,50974,1,0,3:0:0:0:
284,220,51139,5,0,1:0:0:0:
260,60,51305,1,0,3:0:0:0:
168,180,51471,5,0,1:0:0:0:
144,192,51554,1,0,3:0:0:0:
120,192,51637,1,0,3:0:0:0:
96,180,51719,1,0,3:0:0:0:
80,160,51802,6,0,B|88:96|88:96|104:76,1,85,0|0,1:0|0:0,0:0:0:0:
68,268,52134,1,2,0:0:0:0:
168,180,52300,2,0,B|218:140|218:140|244:137,1,85
68,268,52631,1,0,0:0:0:0:
204,276,52797,2,0,B|268:284|268:284|288:300,1,85,2|0,0:0|0:0,0:0:0:0:
144,324,53128,5,0,1:0:0:0:
168,180,53294,1,2,0:0:0:0:
312,196,53460,1,2,0:0:0:0:
336,52,53626,1,2,0:0:0:0:
476,84,53791,2,0,P|509:80|482:60,1,85,2|0,0:0|0:0,0:0:0:0:
312,196,54123,2,0,P|288:204|312:180,1,85,2|0,0:0|0:0,0:0:0:0:
448,336,54454,6,0,B|412:344|412:344|392:340|392:340|344:344,1,85,0|0,1:0|0:0,0:0:0:0:
192,356,54786,1,2,0:0:0:0:
384,224,54951,2,0,B|356:248|356:248|337:255|337:255|297:282,1,85
192,356,55283,1,0,0:0:0:0:
292,148,55449,2,0,B|280:183|280:183|267:198|267:198|246:242,1,85,2|0,0:0|0:0,0:0:0:0:
192,356,55780,5,0,1:0:0:0:
184,332,55863,1,0,3:0:0:0:
176,308,55946,1,0,3:0:0:0:
168,284,56029,1,0,3:0:0:0:
160,260,56112,5,0,1:0:0:0:
168,236,56195,1,0,3:0:0:0:
176,212,56278,1,0,3:0:0:0:
184,188,56361,1,0,3:0:0:0:
192,164,56443,6,0,L|176:112,1,42.5,0|0,1:0|0:0,0:0:0:0:
140,8,56609,2,0,L|156:60,1,42.5,0|0,1:0|0:0,0:0:0:0:
248,56,56775,2,0,L|196:72,1,42.5,0|0,1:0|0:0,0:0:0:0:
88,112,56941,2,0,L|140:96,1,42.5,0|0,1:0|0:0,0:0:0:0:
276,184,57106,6,0,B|328:200|328:200|368:192,1,85,0|0,1:0|0:0,0:0:0:0:
464,140,57438,1,2,0:0:0:0:
452,320,57603,2,0,L|456:220,1,85
364,360,57935,1,0,0:0:0:0:
186,314,58101,2,0,B|216:308|216:308|268:324,1,85,2|0,0:0|0:0,0:0:0:0:
92,356,58432,5,0,0:0:0:0:
116,204,58598,2,0,P|104:160|88:224,1,170,2|0,0:0|0:0,0:0:0:0:
200,128,59095,2,0,L|208:28,1,85,0|0,3:0|0:0,0:0:0:0:
316,248,59427,2,0,L|308:148,1,85,0|0,3:0|0:0,0:0:0:0:
204,352,59758,6,0,P|168:368|116:348,1,85,0|0,1:0|0:0,0:0:0:0:
73,222,60090,1,2,0:0:0:0:
204,352,60255,2,0,B|200:296|200:296|208:232|208:232|200:152,1,170
296,108,60753,1,0,3:0:0:0:
352,212,60918,1,0,3:0:0:0:
432,84,61084,5,0,1:0:0:0:
444,52,61167,1,0,0:0:0:0:
428,20,61250,1,0,0:0:0:0:
396,16,61333,1,0,0:0:0:0:
372,40,61416,1,0,1:0:0:0:
340,48,61498,1,0,0:0:0:0:
308,44,61581,1,0,0:0:0:0:
284,20,61664,1,0,0:0:0:0:
256,4,61747,6,0,L|196:0,3,42.5,0|0|0|0,1:0|0:0|0:0|0:0,0:0:0:0:
336,140,62079,2,0,L|396:136,3,42.5,0|0|0|0,1:0|0:0|0:0|0:0,0:0:0:0:
252,256,62410,6,0,P|204:260|160:220,1,85,0|0,1:0|0:0,0:0:0:0:
236,116,62742,1,2,0:0:0:0:
296,307,62907,2,0,P|315:270|310:229,1,85
242,88,63239,1,0,0:0:0:0:
121,274,63405,2,0,P|116:232|136:196,1,85,2|0,0:0|0:0,0:0:0:0:
248,60,63736,5,0,1:0:0:0:
216,248,63902,1,0,3:0:0:0:
392,184,64067,1,0,3:0:0:0:
272,148,64233,1,0,0:0:0:0:
271,186,64315,1,0,0:0:0:0:
279,223,64398,1,0,0:0:0:0:
296,257,64481,1,0,0:0:0:0:
321,286,64564,1,0,0:0:0:0:
160,292,64730,2,0,L|96:296,3,42.5
64,240,65062,5,0,1:0:0:0:
40,216,65145,1,0,0:0:0:0:
44,184,65228,1,0,0:0:0:0:
68,160,65311,1,0,0:0:0:0:
92,136,65393,1,0,1:0:0:0:
88,104,65476,1,0,0:0:0:0:
56,88,65559,1,0,0:0:0:0:
24,104,65642,1,0,0:0:0:0:
20,136,65725,5,0,1:0:0:0:
138,233,65891,1,0,3:0:0:0:
228,110,66056,1,0,3:0:0:0:
106,17,66222,1,0,3:0:0:0:
20,136,66388,5,0,1:0:0:0:
8,168,66471,1,0,0:0:0:0:
16,200,66554,1,0,0:0:0:0:
36,224,66637,1,0,0:0:0:0:
65,235,66719,2,0,L|129:227,1,42.5,0|0,1:0|0:0,0:0:0:0:
248,204,66885,5,0,0:0:0:0:
276,191,66968,1,0,0:0:0:0:
296,168,67051,2,0,L|312:117,1,42.5,0|0,1:0|0:0,0:0:0:0:
403,71,67217,2,0,L|352:87,1,42.5,0|0,1:0|0:0,0:0:0:0:
276,29,67382,2,0,L|312:77,1,42.5,0|0,1:0|0:0,0:0:0:0:
396,180,67548,2,0,L|353:126,1,42.5,0|0,1:0|0:0,0:0:0:0:
208,112,67714,6,0,P|152:104|116:136,1,85,4|0,1:0|0:0,0:0:0:0:
176,244,68045,1,2,0:0:0:0:
208,112,68211,2,0,P|164:55|129:118,1,170
300,200,68708,2,0,L|396:192,1,85,2|0,0:0|0:0,0:0:0:0:
208,300,69040,6,0,L|112:292,1,85
312,312,69371,1,2,0:0:0:0:
123,292,69537,2,0,P|88:228|152:272,1,170
72,368,70034,1,2,0:0:0:0:
16,244,70200,1,0,0:0:0:0:
80,124,70366,6,0,P|124:112|172:128,1,85
256,260,70697,1,2,0:0:0:0:
350,121,70863,2,0,P|391:112|344:164,1,170
168,76,71360,2,0,P|126:66|86:78,1,85,2|0,0:0|0:0,0:0:0:0:
40,224,71692,5,0,3:0:0:0:
128,136,71858,1,2,3:0:0:0:
160,255,72023,1,2,0:0:0:0:
112,204,72189,5,2,3:0:0:0:
152,364,72355,1,2,3:0:0:0:
270,250,72520,1,2,3:0:0:0:
400,332,72686,5,0,1:0:0:0:
427,342,72769,1,0,3:0:0:0:
456,337,72852,1,0,3:0:0:0:
478,316,72935,1,0,3:0:0:0:
480,286,73018,6,0,L|476:192,1,85,0|0,1:0|0:0,0:0:0:0:
464,64,73349,1,2,0:0:0:0:
264,104,73515,2,0,P|305:110|347:104,1,85
224,24,73847,1,0,0:0:0:0:
196,180,74013,2,0,P|152:180|108:168,1,85,2|0,0:0|0:0,0:0:0:0:
248,334,74344,6,0,P|264:290|249:247,1,85
120,288,74675,1,2,0:0:0:0:
296,368,74841,2,0,P|324:300|296:212,1,170
140,86,75338,1,0,0:0:0:0:
109,108,75421,1,0,0:0:0:0:
121,144,75504,1,0,0:0:0:0:
159,144,75587,1,0,0:0:0:0:
172,108,75670,6,0,L|176:196,1,85
256,48,76001,1,2,0:0:0:0:
336,192,76167,2,0,L|340:108,1,85
256,288,76498,1,0,0:0:0:0:
176,192,76664,2,0,P|128:180|92:196,1,85,2|0,0:0|0:0,0:0:0:0:
256,288,76996,6,0,L|264:228,1,42.5,0|0,1:0|3:0,0:0:0:0:
284,88,77161,2,0,L|276:148,1,42.5,0|0,3:0|3:0,3:0:0:0:
360,208,77327,5,0,1:0:0:0:
388,228,77410,1,0,3:0:0:0:
420,232,77493,2,0,L|480:224,1,42.5,0|0,3:0|3:0,3:0:0:0:
496,116,77659,2,0,L|453:110,1,42.5,0|0,1:0|0:0,0:0:0:0:
396,8,77824,2,0,L|438:2,1,42.5,0|0,3:0|0:0,3:0:0:0:
236,104,77990,2,0,P|196:116|228:68,1,127.5,0|0,1:0|0:0,0:0:0:0:
260,148,78322,6,0,P|192:164|156:144,1,85,4|0,1:0|0:0,0:0:0:0:
196,12,78653,1,2,0:0:0:0:
308,180,78819,2,0,P|204:224|128:196,1,170
64,68,79316,2,0,L|60:168,1,85,2|0,0:0|0:0,0:0:0:0:
149,296,79648,6,0,L|153:196,1,85
232,72,79979,1,2,0:0:0:0:
364,168,80145,2,0,P|424:160|416:48,1,170
312,216,80642,2,0,P|300:252|308:316,1,85,2|0,0:0|0:0,0:0:0:0:
188,136,80974,6,0,P|224:148|288:140,1,85
388,116,81305,1,2,0:0:0:0:
244,40,81471,2,0,P|168:64|188:136,1,170
372,156,81968,1,0,3:0:0:0:
216,88,82134,1,0,3:0:0:0:
72,180,82300,5,0,1:0:0:0:
56,208,82382,1,0,3:0:0:0:
52,240,82465,1,0,3:0:0:0:
64,272,82548,1,0,3:0:0:0:
88,296,82631,1,0,1:0:0:0:
120,288,82714,1,0,3:0:0:0:
152,284,82797,1,0,3:0:0:0:
184,296,82880,1,0,3:0:0:0:
208,320,82963,6,0,L|204:368,3,42.5,0|0|0|0,1:0|0:0|0:0|0:0,0:0:0:0:
307,266,83294,2,0,L|304:224,3,42.5,0|0|0|0,1:0|0:0|0:0|0:0,0:0:0:0:
208,140,83626,6,0,P|160:128|112:148,1,85,0|0,1:0|0:0,0:0:0:0:
160,268,83957,1,2,0:0:0:0:
208,140,84123,2,0,P|220:92|200:44,1,85
84,8,84454,1,0,0:0:0:0:
208,140,84620,2,0,P|256:152|304:132,1,85,2|0,0:0|0:0,0:0:0:0:
424,116,84951,6,0,P|344:88|288:152,1,170,0|2,0:0|0:0,0:0:0:0:
376,236,85449,1,0,3:0:0:0:
376,236,85532,1,0,3:0:0:0:
376,236,85614,1,0,1:0:0:0:
240,320,85780,1,0,3:0:0:0:
112,264,85946,1,0,1:0:0:0:
104,260,86029,1,0,3:0:0:0:
96,256,86112,1,0,3:0:0:0:
88,252,86195,1,0,3:0:0:0:
80,248,86277,5,0,1:0:0:0:
60,220,86360,1,0,3:0:0:0:
72,188,86443,1,0,3:0:0:0:
95,163,86526,1,0,3:0:0:0:
114,135,86609,1,0,1:0:0:0:
103,102,86692,1,0,3:0:0:0:
69,94,86775,1,0,3:0:0:0:
45,118,86858,1,0,3:0:0:0:
50,151,86940,5,0,1:0:0:0:
240,133,87106,1,0,3:0:0:0:
140,44,87272,1,0,1:0:0:0:
151,233,87438,1,0,3:0:0:0:
244,20,87603,5,0,1:0:0:0:
272,4,87686,1,0,0:0:0:0:
304,12,87769,1,0,0:0:0:0:
320,40,87852,1,0,0:0:0:0:
316,72,87935,2,0,L|312:108,6,21.25,0|0|0|0|0|0|0,1:0|3:0|3:0|3:0|3:0|3:0|3:0,0:0:0:0:
340,172,88266,6,0,L|336:216,1,42.5,0|0,1:0|0:0,3:0:0:0:
372,336,88432,2,0,L|376:292,1,42.5,0|0,1:0|3:0,3:0:0:0:
324,184,88598,2,0,L|320:228,1,42.5,0|0,1:0|0:0,0:0:0:0:
356,348,88764,2,0,L|360:304,1,42.5,0|0,1:0|3:0,3:0:0:0:
264,220,88929,5,4,1:0:0:0:
200,348,89095,1,0,0:0:0:0:
120,228,89261,2,0,L|116:136,1,85,2|0,3:0|0:0,0:0:0:0:
44,20,89592,2,0,L|48:112,1,85
120,280,89924,1,2,3:0:0:0:
244,128,90090,2,0,P|280:100|384:152,1,170
456,300,90587,6,0,L|464:176,1,85,2|0,3:0|0:0,0:0:0:0:
328,324,90918,2,0,L|336:200,1,85
224,344,91250,1,2,3:0:0:0:
216,244,91416,1,0,0:0:0:0:
120,276,91581,6,0,P|80:280|32:244,1,85
128,80,91913,1,2,3:0:0:0:
96,208,92079,1,0,0:0:0:0:
100,24,92244,2,0,P|140:20|188:56,1,85
52,136,92576,1,2,3:0:0:0:
196,112,92742,1,0,0:0:0:0:
192,244,92907,5,0,1:0:0:0:
196,280,92990,1,0,3:0:0:0:
216,312,93073,1,0,3:0:0:0:
248,332,93156,1,0,3:0:0:0:
284,336,93239,5,0,1:0:0:0:
320,328,93322,1,0,3:0:0:0:
352,308,93405,1,0,3:0:0:0:
368,276,93488,1,0,3:0:0:0:
368,240,93570,2,0,L|362:150,1,85,0|0,1:0|3:0,3:0:0:0:
260,20,93902,2,0,L|254:110,1,85,0|0,1:0|3:0,3:0:0:0:
137,221,94233,5,4,1:0:0:0:
128,84,94399,1,0,0:0:0:0:
104,276,94565,2,0,P|168:276|192:256,1,85,2|0,3:0|0:0,0:0:0:0:
352,192,94896,2,0,P|288:192|264:212,1,85
456,252,95228,1,2,3:0:0:0:
480,128,95393,1,0,0:0:0:0:
484,96,95476,1,0,0:0:0:0:
464,68,95559,2,0,L|356:72,1,85
272,202,95891,5,2,3:0:0:0:
248,226,95974,1,0,0:0:0:0:
216,226,96056,1,0,0:0:0:0:
188,206,96139,1,0,0:0:0:0:
180,174,96222,2,0,L|172:82,1,85
16,40,96554,2,0,L|24:132,1,85,2|0,3:0|0:0,0:0:0:0:
84,320,96885,5,0,0:0:0:0:
156,200,97051,1,0,0:0:0:0:
248,296,97217,2,0,P|292:312|360:296,1,85,2|0,3:0|0:0,0:0:0:0:
312,140,97548,2,0,L|300:232,1,85
380,88,97880,2,0,P|320:52|244:96,1,127.5,2|0,3:0|0:0,0:0:0:0:
200,120,98211,5,0,1:0:0:0:
184,152,98294,1,0,3:0:0:0:
188,184,98377,1,0,3:0:0:0:
212,208,98460,1,0,3:0:0:0:
244,212,98543,2,0,L|272:200,6,21.25,0|0|0|0|0|0|0,1:0|3:0|3:0|3:0|3:0|3:0|3:0,3:0:0:0:
240,280,98874,5,0,1:0:0:0:
236,312,98957,1,0,3:0:0:0:
248,344,99040,1,0,3:0:0:0:
280,360,99123,1,0,3:0:0:0:
312,356,99206,1,0,1:0:0:0:
340,344,99288,1,0,3:0:0:0:
370,333,99371,1,0,3:0:0:0:
405,337,99454,1,0,3:0:0:0:
427,363,99537,5,0,1:0:0:0:
288,304,99703,1,0,0:0:0:0:
356,160,99869,2,0,P|367:120|350:82,1,85,2|0,0:0|0:0,0:0:0:0:
452,0,100200,2,0,P|435:38|447:78,1,85
472,220,100532,1,2,3:0:0:0:
372,332,100697,2,0,P|328:352|228:288,1,170
140,216,101195,5,2,3:0:0:0:
124,332,101360,1,0,0:0:0:0:
228,188,101526,1,0,0:0:0:0:
212,72,101691,1,0,0:0:0:0:
328,160,101858,1,2,3:0:0:0:
320,264,102023,1,0,0:0:0:0:
476,52,102189,6,0,L|472:156,1,85
360,284,102521,1,2,3:0:0:0:
332,112,102686,1,0,0:0:0:0:
192,48,102852,2,0,L|292:44,1,85
116,96,103184,1,2,3:0:0:0:
188,192,103349,1,0,0:0:0:0:
111,300,103515,5,0,3:0:0:0:
88,308,103598,1,0,3:0:0:0:
64,296,103681,1,0,3:0:0:0:
52,272,103764,1,0,3:0:0:0:
60,248,103847,1,0,3:0:0:0:
80,232,103929,1,0,3:0:0:0:
104,232,104012,1,0,3:0:0:0:
120,252,104095,1,0,3:0:0:0:
124,276,104178,5,0,1:0:0:0:
88,380,104344,1,0,0:0:0:0:
224,244,104509,1,0,3:0:0:0:
228,252,104592,1,0,3:0:0:0:
232,260,104675,1,0,3:0:0:0:
236,268,104758,1,0,3:0:0:0:
240,276,104841,5,0,3:0:0:0:
188,84,105007,1,0,0:0:0:0:
244,284,105172,2,0,L|256:196,1,85,2|0,3:0|0:0,0:0:0:0:
396,84,105504,2,0,L|384:168,1,85
348,280,105835,1,2,3:0:0:0:
214,334,106001,2,0,P|178:274|246:294,1,170
132,360,106498,6,0,L|28:364,1,85,2|0,3:0|0:0,0:0:0:0:
8,232,106830,1,0,3:0:0:0:
4,200,106913,1,0,3:0:0:0:
16,168,106996,1,0,3:0:0:0:
44,152,107079,1,0,3:0:0:0:
76,148,107161,2,0,L|180:144,1,85,2|0,3:0|0:0,0:0:0:0:
372,140,107493,5,0,0:0:0:0:
276,168,107659,1,0,0:0:0:0:
412,312,107824,2,0,L|416:208,1,85,2|0,3:0|0:0,0:0:0:0:
256,124,108156,2,0,L|252:228,1,85
104,280,108487,2,0,P|72:272|128:232,1,127.5,2|0,3:0|0:0,0:0:0:0:
168,248,108819,5,0,1:0:0:0:
192,272,108902,1,0,3:0:0:0:
224,276,108985,1,0,3:0:0:0:
256,264,109067,1,0,3:0:0:0:
272,236,109150,2,0,L|276:212,6,21.25,0|0|0|0|0|0|0,1:0|3:0|3:0|3:0|3:0|3:0|3:0,3:0:0:0:
232,148,109482,5,0,1:0:0:0:
216,116,109565,1,0,3:0:0:0:
220,84,109648,1,0,3:0:0:0:
244,64,109730,1,0,3:0:0:0:
276,56,109813,2,0,L|288:104,1,42.5,0|0,1:0|3:0,3:0:0:0:
368,224,109979,2,0,L|357:265,1,42.5,0|0,3:0|3:0,3:0:0:0:
280,376,110145,6,0,P|220:380|192:352,1,85,4|0,1:0|0:0,0:0:0:0:
152,240,110476,1,2,0:0:0:0:
92,96,110642,2,0,P|48:132|128:144,1,170
280,76,111139,2,0,P|228:64|184:88,1,85,2|0,0:0|0:0,0:0:0:0:
236,180,111471,6,0,P|304:196|376:100,1,170,0|2,0:0|0:0,0:0:0:0:
376,28,111968,1,0,0:0:0:0:
370,217,112134,2,0,L|373:133,1,85
272,328,112465,2,0,L|275:218,1,85,2|0,0:0|0:0,0:0:0:0:
132,364,112797,6,0,P|76:356|136:300,1,170,0|2,0:0|0:0,0:0:0:0:
272,328,113294,2,0,P|328:332|400:228,1,170
408,120,113791,2,0,P|368:101|372:140,1,85,2|0,0:0|0:0,0:0:0:0:
468,192,114123,5,0,3:0:0:0:
480,88,114288,1,0,3:0:0:0:
320,264,114454,1,0,3:0:0:0:
301,162,114619,1,0,3:0:0:0:
480,360,114786,1,0,3:0:0:0:
488,256,114951,1,0,3:0:0:0:
332,368,115117,1,0,3:0:0:0:
298,379,115200,1,0,3:0:0:0:
264,376,115283,1,0,3:0:0:0:
237,353,115366,1,0,3:0:0:0:
221,329,115449,6,0,P|228:245|312:211,1,170
151,342,115946,2,0,P|149:249|196:167,1,170
90,361,116443,2,0,P|76:320|82:264,1,85
70,112,116775,6,0,P|57:195|78:278,1,170
196,208,117272,1,0,0:0:0:0:
272,304,117438,2,0,L|384:308,1,85
260,112,117769,1,2,0:0:0:0:
236,80,117852,1,0,0:0:0:0:
200,96,117935,1,0,0:0:0:0:
203,134,118018,1,0,0:0:0:0:
236,143,118101,6,0,P|209:84|211:140,1,170,0|2,0:0|0:0,0:0:0:0:
280,204,118598,2,0,P|328:128|295:40,1,170
157,51,119095,2,0,P|140:83|138:132,1,85,2|0,0:0|0:0,0:0:0:0:
300,268,119427,6,0,L|232:272,1,42.5,0|0,1:0|3:0,3:0:0:0:
160,344,119592,2,0,L|92:340,1,42.5,0|0,3:0|3:0,3:0:0:0:
48,240,119758,1,0,1:0:0:0:
32,208,119841,1,0,3:0:0:0:
32,172,119924,2,0,L|40:108,1,42.5,0|0,3:0|3:0,3:0:0:0:
160,48,120090,2,0,L|168:112,1,42.5,0|0,1:0|3:0,3:0:0:0:
288,192,120255,2,0,L|296:128,1,42.5,0|0,1:0|3:0,3:0:0:0:
412,64,120421,2,0,P|456:48|424:96,1,127.5,0|0,1:0|0:0,0:0:0:0:
293,149,120753,6,0,L|197:145,1,85,4|0,1:0|0:0,0:0:0:0:
88,212,121084,1,2,0:0:0:0:
290,292,121250,2,0,P|329:206|271:138,1,170
264,344,121747,2,0,P|312:348|344:320,1,85,2|0,0:0|0:0,0:0:0:0:
436,228,122079,6,0,L|428:136,1,85
352,32,122410,1,2,0:0:0:0:
292,148,122576,2,0,P|260:180|264:104,1,170
352,196,123073,2,0,P|316:240|252:252,1,85,2|0,0:0|0:0,0:0:0:0:
168,356,123405,6,0,L|68:352,1,85
20,232,123736,1,2,0:0:0:0:
124,144,123902,2,0,P|156:112|76:108,1,170
144,284,124399,1,2,3:0:0:0:
260,212,124565,1,0,3:0:0:0:
360,304,124730,5,0,1:0:0:0:
388,324,124813,1,0,3:0:0:0:
424,324,124896,1,0,3:0:0:0:
456,308,124979,1,0,3:0:0:0:
463,274,125062,1,0,1:0:0:0:
454,240,125145,1,0,3:0:0:0:
429,216,125228,1,0,3:0:0:0:
420,183,125311,1,0,3:0:0:0:
435,153,125393,6,0,L|439:97,3,42.5,0|0|0|0,1:0|0:0|0:0|0:0,0:0:0:0:
356,37,125725,2,0,L|360:80,3,42.5,0|0|0|0,1:0|0:0|0:0|0:0,0:0:0:0:
284,156,126056,6,0,P|244:164|192:148,1,85,4|0,1:0|0:0,0:0:0:0:
104,60,126388,1,2,0:0:0:0:
28,172,126554,2,0,P|17:212|25:254,1,85
145,331,126885,1,0,0:0:0:0:
276,270,127051,2,0,P|316:262|368:278,1,85,2|0,0:0|0:0,0:0:0:0:
220,332,127382,6,0,P|196:292|260:188,1,170,0|2,0:0|0:0,0:0:0:0:
372,140,127880,1,0,3:0:0:0:
372,140,127963,1,0,3:0:0:0:
372,140,128045,1,0,3:0:0:0:
436,260,128211,1,0,3:0:0:0:
312,320,128377,1,0,3:0:0:0:
296,324,128460,1,0,3:0:0:0:
280,328,128543,1,0,3:0:0:0:
264,332,128626,1,0,3:0:0:0:
248,324,128708,5,0,3:0:0:0:
216,312,128791,1,0,3:0:0:0:
184,308,128874,1,0,3:0:0:0:
152,320,128957,1,0,3:0:0:0:
124,340,129040,1,0,3:0:0:0:
92,336,129123,1,0,3:0:0:0:
72,308,129206,1,0,3:0:0:0:
88,276,129288,1,0,3:0:0:0:
120,268,129371,5,0,3:0:0:0:
196,380,129537,1,0,3:0:0:0:
100,220,129703,1,0,3:0:0:0:
92,204,129786,1,0,3:0:0:0:
88,188,129869,1,0,3:0:0:0:
88,172,129951,1,0,3:0:0:0:
96,156,130034,5,0,3:0:0:0:
128,168,130117,1,0,3:0:0:0:
160,164,130200,1,0,3:0:0:0:
184,140,130283,1,0,3:0:0:0:
192,108,130366,1,0,3:0:0:0:
176,80,130449,1,0,3:0:0:0:
148,64,130532,1,0,3:0:0:0:
116,64,130614,1,0,3:0:0:0:
92,88,130697,6,0,L|84:136,1,42.5
192,276,130863,2,0,L|186:235,1,42.5
100,96,131029,2,0,L|92:144,1,42.5
200,284,131195,2,0,L|194:243,1,42.5
336,36,131360,6,0,L|339:142,1,106.25,4|0,1:0|0:0,0:0:0:0:
336,312,131692,1,4,3:0:0:0:
216,180,131858,1,0,0:0:0:0:
466,268,132023,2,0,P|490:216|460:156,1,106.25,0|0,1:0|0:0,0:0:0:0:
305,87,132355,2,0,P|282:133|296:184,1,106.25,4|0,3:0|0:0,0:0:0:0:
176,264,132686,5,0,0:0:0:0:
116,128,132852,1,0,0:0:0:0:
16,240,133018,5,4,3:0:0:0:
126,64,133184,1,0,0:0:0:0:
176,264,133349,2,0,P|200:304|296:308,1,106.25,0|0,0:0|0:0,0:0:0:0:
304,96,133681,2,0,P|257:96|205:177,1,106.25,4|0,3:0|0:0,0:0:0:0:
381,307,134012,5,0,0:0:0:0:
325,103,134178,1,0,0:0:0:0:
489,219,134344,1,4,3:0:0:0:
281,215,134510,1,0,0:0:0:0:
441,107,134675,2,0,L|457:-13,1,106.25,0|0,0:0|0:0,0:0:0:0:
213,132,135007,2,0,L|227:237,1,106.25,4|0,3:0|0:0,0:0:0:0:
248,344,135338,5,2,3:0:0:0:
272,364,135421,1,0,0:0:0:0:
304,364,135504,1,0,0:0:0:0:
328,344,135587,1,0,0:0:0:0:
332,312,135670,1,2,3:0:0:0:
324,280,135753,1,0,0:0:0:0:
296,264,135835,1,0,0:0:0:0:
288,232,135918,1,0,0:0:0:0:
316,208,136001,5,2,3:0:0:0:
351,220,136084,1,0,0:0:0:0:
352,256,136167,1,0,0:0:0:0:
324,280,136250,1,0,0:0:0:0:
288,292,136333,1,2,3:0:0:0:
252,284,136416,1,0,0:0:0:0:
224,260,136498,1,0,0:0:0:0:
208,224,136581,1,0,0:0:0:0:
212,188,136664,5,0,1:0:0:0:
176,344,136830,1,0,0:0:0:0:
60,160,136996,1,4,3:0:0:0:
28,316,137161,1,0,0:0:0:0:
256,376,137327,2,0,L|376:372,1,106.25,0|0,1:0|0:0,0:0:0:0:
484,184,137659,2,0,L|377:180,1,106.25,4|0,3:0|0:0,0:0:0:0:
168,32,137990,5,0,1:0:0:0:
118,206,138156,1,0,0:0:0:0:
293,161,138322,1,4,3:0:0:0:
192,124,138487,5,0,0:0:0:0:
142,298,138653,1,0,1:0:0:0:
317,253,138819,1,0,0:0:0:0:
208,220,138985,1,4,3:0:0:0:
168,376,139150,1,0,0:0:0:0:
93,111,139316,5,0,1:0:0:0:
125,235,139482,1,0,0:0:0:0:
249,202,139648,1,4,3:0:0:0:
216,79,139813,1,0,0:0:0:0:
30,192,139979,5,0,1:0:0:0:
206,296,140145,1,0,0:0:0:0:
310,119,140311,1,4,3:0:0:0:
133,16,140476,1,0,0:0:0:0:
84,296,140642,5,2,3:0:0:0:
88,312,140725,1,0,0:0:0:0:
96,324,140808,1,0,0:0:0:0:
108,332,140891,1,0,0:0:0:0:
124,336,140974,1,2,3:0:0:0:
140,336,141056,1,0,0:0:0:0:
156,332,141139,1,0,0:0:0:0:
168,324,141222,1,0,0:0:0:0:
180,312,141305,5,4,3:0:0:0:
204,288,141388,1,0,0:0:0:0:
236,280,141471,1,0,0:0:0:0:
264,296,141554,1,0,0:0:0:0:
280,324,141637,1,4,3:0:0:0:
308,340,141719,1,0,0:0:0:0:
340,332,141802,1,0,0:0:0:0:
360,308,141885,1,0,0:0:0:0:
376,280,141968,6,0,P|384:227|370:176,1,106.25,4|0,1:0|0:0,0:0:0:0:
168,168,142300,2,0,P|154:218|162:271,1,106.25,4|0,3:0|0:0,0:0:0:0:
252,364,142631,1,0,1:0:0:0:
272,120,142797,1,0,0:0:0:0:
360,308,142963,2,0,L|472:312,1,106.25,4|0,3:0|0:0,0:0:0:0:
232,196,143294,5,0,1:0:0:0:
116,276,143460,1,0,0:0:0:0:
112,128,143626,1,4,3:0:0:0:
312,264,143792,1,0,0:0:0:0:
128,376,143957,2,0,L|20:380,1,106.25,0|0,1:0|0:0,0:0:0:0:
232,196,144288,2,0,L|338:199,1,106.25,4|0,3:0|0:0,0:0:0:0:
208,368,144620,5,0,1:0:0:0:
376,384,144786,1,0,0:0:0:0:
201,211,144951,5,4,3:0:0:0:
372,200,145117,1,0,0:0:0:0:
196,32,145283,5,0,1:0:0:0:
356,0,145449,1,0,0:0:0:0:
136,120,145614,2,0,P|56:120|20:88,1,106.25,4|0,3:0|0:0,0:0:0:0:
196,32,145946,5,2,3:0:0:0:
224,16,146029,1,0,0:0:0:0:
256,20,146112,1,0,0:0:0:0:
280,44,146195,1,0,0:0:0:0:
280,76,146277,1,2,3:0:0:0:
268,104,146360,1,0,0:0:0:0:
272,136,146443,1,0,0:0:0:0:
296,156,146526,1,0,0:0:0:0:
332,156,146609,5,2,3:0:0:0:
356,128,146692,1,0,0:0:0:0:
352,92,146775,1,0,0:0:0:0:
320,72,146858,1,0,0:0:0:0:
280,76,146940,1,2,3:0:0:0:
248,96,147023,1,0,0:0:0:0:
212,104,147106,1,0,0:0:0:0:
180,88,147189,1,0,0:0:0:0:
168,52,147272,5,0,1:0:0:0:
248,236,147438,1,0,0:0:0:0:
164,44,147603,5,4,3:0:0:0:
160,264,147769,1,0,0:0:0:0:
160,36,147935,5,0,1:0:0:0:
68,272,148101,1,0,0:0:0:0:
288,288,148266,2,0,P|340:290|387:266,1,106.25,4|0,3:0|0:0,0:0:0:0:
352,88,148598,6,0,P|299:85|252:109,1,106.25,0|0,1:0|0:0,0:0:0:0:
436,364,148929,1,4,3:0:0:0:
448,180,149095,1,0,0:0:0:0:
216,160,149261,1,0,1:0:0:0:
204,344,149427,1,0,0:0:0:0:
328,260,149592,1,4,3:0:0:0:
92,240,149758,1,0,0:0:0:0:
236,44,149924,5,2,3:0:0:0:
271,32,150007,1,0,0:0:0:0:
301,53,150090,1,0,0:0:0:0:
309,88,150172,1,0,0:0:0:0:
292,120,150255,1,2,3:0:0:0:
284,156,150338,1,0,0:0:0:0:
304,188,150421,1,0,0:0:0:0:
340,200,150504,1,0,0:0:0:0:
377,196,150587,5,2,3:0:0:0:
385,160,150670,1,0,0:0:0:0:
354,141,150753,1,0,0:0:0:0:
325,166,150835,1,0,0:0:0:0:
340,200,150918,1,2,3:0:0:0:
362,229,151001,1,0,0:0:0:0:
397,240,151084,1,0,0:0:0:0:
429,221,151167,1,0,0:0:0:0:
451,191,151250,5,2,3:0:0:0:
451,148,151333,1,0,0:0:0:0:
422,120,151416,1,0,0:0:0:0:
395,87,151498,1,0,0:0:0:0:
413,48,151581,1,2,3:0:0:0:
455,40,151664,1,0,0:0:0:0:
481,74,151747,1,0,0:0:0:0:
464,113,151830,1,0,0:0:0:0:
422,120,151913,5,2,3:0:0:0:
378,106,151996,1,0,0:0:0:0:
353,67,152079,1,0,0:0:0:0:
319,37,152161,1,0,0:0:0:0:
276,20,152244,5,2,3:0:0:0:
231,24,152327,1,0,0:0:0:0:
195,52,152410,1,0,0:0:0:0:
169,89,152493,1,0,0:0:0:0:
163,137,152576,5,4,1:0:0:0:
258,233,152742,1,0,0:0:0:0:
176,344,152907,2,0,P|108:348|68:328,1,85,2|0,3:0|0:0,0:0:0:0:
86,191,153239,2,0,P|118:239|80:353,1,170,0|2,0:0|3:0,0:0:0:0:
24,204,153736,2,0,P|24:181|32:153,1,42.5
72,68,153902,5,0,0:0:0:0:
81,59,153985,1,0,0:0:0:0:
93,55,154067,1,0,0:0:0:0:
105,56,154150,1,0,0:0:0:0:
117,60,154233,2,0,L|177:55,1,42.5,2|0,3:0|0:0,0:0:0:0:
240,161,154399,2,0,L|197:157,1,42.5
72,248,154565,2,0,L|132:243,1,42.5
180,348,154731,2,0,L|222:351,1,42.5
348,268,154896,2,0,P|356:216|308:240,1,127.5,2|0,3:0|0:0,0:0:0:0:
396,312,155228,5,0,3:0:0:0:
400,312,155311,1,0,3:0:0:0:
404,312,155393,1,0,3:0:0:0:
408,312,155476,1,0,3:0:0:0:
412,312,155559,1,0,3:0:0:0:
416,312,155642,1,0,3:0:0:0:
420,312,155725,1,0,3:0:0:0:
424,312,155808,1,0,3:0:0:0:
428,312,155891,5,0,3:0:0:0:
413,281,155974,1,0,0:0:0:0:
421,249,156056,1,0,0:0:0:0:
441,221,156139,1,0,0:0:0:0:
449,189,156222,1,0,3:0:0:0:
441,157,156305,1,0,0:0:0:0:
421,129,156388,1,0,0:0:0:0:
421,93,156471,1,0,0:0:0:0:
441,64,156554,5,4,1:0:0:0:
441,64,157880,6,0,L|365:68,1,42.5,0|0,1:0|0:0,0:0:0:0:
308,108,158045,1,0,0:0:0:0:
276,120,158128,1,0,0:0:0:0:
240,116,158211,2,0,L|184:112,1,42.5,0|0,1:0|0:0,0:0:0:0:
96,200,158377,2,0,L|152:196,1,42.5
206,301,158543,5,0,1:0:0:0:
248,308,158626,1,0,0:0:0:0:
268,270,158709,1,0,0:0:0:0:
238,240,158791,1,0,0:0:0:0:
199,258,158874,2,0,L|206:306,1,42.5,0|0,1:0|0:0,0:0:0:0:
356,368,159040,2,0,L|352:320,1,42.5
464,256,159206,5,0,1:0:0:0:
480,228,159288,1,0,0:0:0:0:
480,192,159371,1,0,0:0:0:0:
464,160,159454,1,0,0:0:0:0:
432,144,159537,2,0,L|388:140,1,42.5,0|0,1:0|0:0,0:0:0:0:
264,128,159703,2,0,L|308:132,1,42.5
356,36,159869,2,0,L|352:80,1,42.5,0|0,1:0|0:0,0:0:0:0:
340,248,160034,2,0,L|344:204,1,42.5
212,20,160200,2,0,L|208:64,1,42.5,0|0,1:0|0:0,0:0:0:0:
188,228,160366,2,0,L|192:184,1,42.5
80,88,160532,5,4,1:0:0:0:
56,68,160614,1,0,3:0:0:0:
24,72,160697,1,0,3:0:0:0:
8,104,160780,1,0,3:0:0:0:
16,136,160863,2,0,L|20:168,6,21.25,0|0|0|0|0|0|0,3:0|3:0|3:0|3:0|3:0|3:0|3:0,3:0:0:0:
68,216,161195,5,0,3:0:0:0:
80,248,161277,1,0,3:0:0:0:
72,280,161360,1,0,3:0:0:0:
44,300,161443,1,0,3:0:0:0:
16,320,161526,1,0,3:0:0:0:
12,352,161609,1,0,3:0:0:0:
36,376,161692,1,0,3:0:0:0:
68,364,161775,1,0,3:0:0:0:
100,348,161858,6,0,L|160:352,1,42.5
244,272,162023,2,0,L|184:276,1,42.5
116,360,162189,2,0,L|176:364,1,42.5
256,284,162355,2,0,L|196:288,1,42.5
128,372,162521,2,0,L|188:376,1,42.5
272,296,162686,2,0,L|212:300,1,42.5
140,380,162852,2,0,L|200:384,1,42.5
284,304,163018,2,0,L|224:308,1,42.5
132,196,163184,6,0,P|116:156|140:112,1,85,4|0,1:0|0:0,0:0:0:0:
268,156,163515,1,2,0:0:0:0:
68,240,163681,2,0,P|44:164|76:72,1,170
136,276,164178,2,0,P|92:316|44:316,1,85,2|0,0:0|0:0,0:0:0:0:
199,240,164509,6,0,P|241:247|271:276,1,85
184,380,164841,1,2,0:0:0:0:
198,241,165007,2,0,P|260:203|270:275,1,170
144,235,165504,2,0,P|148:207|192:159,1,85,2|0,0:0|0:0,0:0:0:0:
348,256,165835,6,0,P|344:284|300:332,1,85
300,156,166167,1,2,0:0:0:0:
424,164,166333,2,0,P|476:148|408:108,1,170
416,224,166830,2,0,P|472:224|508:204,1,85,2|0,0:0|0:0,0:0:0:0:
432,32,167161,5,0,3:0:0:0:
441,129,167327,1,0,3:0:0:0:
336,92,167493,5,0,3:0:0:0:
345,206,167659,1,0,3:0:0:0:
236,148,167824,5,0,3:0:0:0:
243,268,167990,1,0,3:0:0:0:
140,200,168156,5,0,3:0:0:0:
108,188,168239,1,0,3:0:0:0:
76,192,168322,1,0,3:0:0:0:
48,212,168405,1,0,3:0:0:0:
36,244,168487,6,0,L|44:344,1,85
128,132,168819,1,2,0:0:0:0:
272,176,168985,2,0,P|328:184|368:144,1,85
308,40,169316,1,0,0:0:0:0:
272,176,169482,2,0,L|264:272,1,85,2|0,0:0|0:0,0:0:0:0:
424,348,169813,6,0,L|416:252,1,85
488,148,170145,1,2,0:0:0:0:
384,60,170311,2,0,P|316:40|224:92,1,170
184,212,170808,1,0,3:0:0:0:
172,244,170891,1,0,3:0:0:0:
140,260,170974,1,0,3:0:0:0:
108,256,171056,1,0,3:0:0:0:
84,232,171139,6,0,L|76:136,1,85
104,348,171471,1,2,0:0:0:0:
236,304,171637,2,0,P|300:332|232:352,1,170
184,212,172134,2,0,L|188:104,1,85,2|0,0:0|0:0,0:0:0:0:
296,44,172465,6,0,L|292:100,1,42.5,0|0,1:0|0:0,0:0:0:0:
352,236,172631,2,0,L|356:180,1,42.5
444,88,172797,1,0,1:0:0:0:
464,60,172880,1,0,0:0:0:0:
452,28,172963,2,0,L|408:20,1,42.5
260,152,173128,2,0,L|304:144,1,42.5,0|0,1:0|0:0,0:0:0:0:
456,292,173294,2,0,L|412:284,1,42.5,0|0,1:0|0:0,0:0:0:0:
204,320,173460,2,0,P|168:268|220:292,1,127.5,0|0,1:0|0:0,0:0:0:0:
214,384,173791,6,0,P|162:388|130:368,1,85,4|0,1:0|0:0,0:0:0:0:
192,200,174123,1,2,0:0:0:0:
336,340,174288,2,0,P|380:352|468:252,1,170
244,276,174786,2,0,P|224:328|232:356,1,85,2|0,0:0|0:0,0:0:0:0:
476,208,175117,6,0,L|468:116,1,85
380,48,175449,1,2,0:0:0:0:
256,112,175614,2,0,P|220:120|264:68,1,170
384,248,176112,2,0,P|390:289|377:329,1,85,2|0,0:0|0:0,0:0:0:0:
134,329,176443,6,0,P|121:289|128:248,1,85
208,284,176775,1,2,0:0:0:0:
64,372,176940,2,0,P|40:308|72:188,1,170
176,164,177438,1,2,0:0:0:0:
280,236,177603,1,0,0:0:0:0:
400,196,177769,5,0,1:0:0:0:
432,180,177852,1,0,3:0:0:0:
444,148,177935,1,0,3:0:0:0:
432,116,178018,1,0,3:0:0:0:
404,96,178101,1,0,1:0:0:0:
372,100,178184,1,0,3:0:0:0:
344,116,178266,1,0,3:0:0:0:
312,116,178349,1,0,3:0:0:0:
284,100,178432,6,0,L|288:48,3,42.5,0|0|0|0,1:0|3:0|3:0|3:0,3:0:0:0:
148,148,178764,2,0,L|144:96,3,42.5,0|0|0|0,1:0|3:0|3:0|3:0,3:0:0:0:
272,272,179095,6,0,P|316:288|368:272,1,85,4|0,1:0|0:0,0:0:0:0:
324,156,179427,1,2,0:0:0:0:
200,300,179592,2,0,P|230:335|283:348,1,85
292,196,179924,1,0,0:0:0:0:
128,288,180090,2,0,P|136:334|175:371,1,85,2|0,0:0|0:0,0:0:0:0:
176,232,180421,6,0,P|124:212|56:296,1,170,0|2,0:0|0:0,0:0:0:0:
164,368,180918,1,0,3:0:0:0:
164,368,181001,1,0,3:0:0:0:
164,368,181084,1,0,3:0:0:0:
296,320,181250,1,0,3:0:0:0:
192,224,181416,1,0,3:0:0:0:
180,212,181498,1,0,3:0:0:0:
172,196,181581,1,0,3:0:0:0:
172,180,181664,1,0,3:0:0:0:
176,164,181747,5,0,3:0:0:0:
192,132,181830,1,0,3:0:0:0:
180,100,181913,1,0,3:0:0:0:
152,84,181996,1,0,3:0:0:0:
120,96,182079,1,0,3:0:0:0:
108,128,182161,1,0,3:0:0:0:
116,160,182244,1,0,3:0:0:0:
104,192,182327,1,0,3:0:0:0:
80,216,182410,5,0,3:0:0:0:
16,44,182576,1,0,0:0:0:0:
4,240,182742,1,0,3:0:0:0:
4,256,182824,1,0,3:0:0:0:
8,272,182907,1,0,3:0:0:0:
16,288,182990,1,0,3:0:0:0:
28,300,183073,5,0,3:0:0:0:
56,280,183156,1,0,3:0:0:0:
92,280,183239,1,0,3:0:0:0:
120,300,183322,1,0,3:0:0:0:
132,332,183405,1,0,3:0:0:0:
152,360,183487,1,0,3:0:0:0:
184,368,183570,1,0,3:0:0:0:
216,356,183653,1,0,3:0:0:0:
240,332,183736,6,0,L|236:268,1,42.5
184,148,183902,2,0,L|180:212,1,42.5
264,312,184067,2,0,L|260:248,1,42.5
208,128,184233,2,0,L|204:192,1,42.5
384,312,184399,70,0,P|440:332|504:304,1,106.25,4|0,3:1|0:0,0:0:0:0:
324,144,184730,1,4,3:0:0:0:
268,368,184896,1,0,0:0:0:0:
444,192,185062,2,0,L|452:72,1,106.25,0|0,1:0|0:0,0:0:0:0:
221,146,185393,2,0,L|229:266,1,106.25,4|0,3:0|0:0,0:0:0:0:
32,116,185725,5,0,1:0:0:0:
36,8,185891,1,0,0:0:0:0:
221,146,186056,1,4,3:0:0:0:
28,232,186222,1,0,0:0:0:0:
172,24,186388,2,0,P|224:12|280:28,1,106.25,0|0,1:0|0:0,0:0:0:0:
436,164,186719,2,0,P|384:176|328:160,1,106.25,4|0,3:0|0:0,0:0:0:0:
476,88,187051,5,0,1:0:0:0:
466,267,187217,1,0,0:0:0:0:
288,257,187382,1,4,3:0:0:0:
300,78,187548,1,0,0:0:0:0:
372,336,187714,2,0,L|258:344,1,106.25,0|0,1:0|0:0,0:0:0:0:
92,216,188045,2,0,L|197:223,1,106.25,4|0,3:0|0:0,0:0:0:0:
296,108,188377,5,2,3:0:0:0:
324,92,188460,1,0,0:0:0:0:
356,104,188543,1,0,0:0:0:0:
364,136,188626,1,0,0:0:0:0:
348,164,188708,1,2,3:0:0:0:
336,192,188791,1,0,0:0:0:0:
340,224,188874,1,0,0:0:0:0:
368,240,188957,1,0,0:0:0:0:
396,228,189040,5,2,3:0:0:0:
400,192,189123,1,0,0:0:0:0:
368,176,189206,1,0,0:0:0:0:
336,192,189288,1,0,0:0:0:0:
316,224,189371,1,2,3:0:0:0:
312,260,189454,1,0,0:0:0:0:
328,292,189537,1,0,0:0:0:0:
360,308,189620,1,0,0:0:0:0:
396,308,189703,5,0,1:0:0:0:
420,144,189869,1,0,0:0:0:0:
468,328,190034,5,4,3:0:0:0:
332,120,190200,1,0,0:0:0:0:
219,341,190366,2,0,P|171:365|95:337,1,106.25,0|0,1:0|0:0,0:0:0:0:
100,156,190697,2,0,P|148:132|224:160,1,106.25,4|0,3:0|0:0,0:0:0:0:
376,224,191029,5,0,1:0:0:0:
388,108,191195,1,0,0:0:0:0:
468,291,191360,1,4,3:0:0:0:
270,270,191526,1,0,0:0:0:0:
396,27,191692,1,0,1:0:0:0:
476,210,191858,1,0,0:0:0:0:
278,189,192024,1,4,3:0:0:0:
460,115,192189,1,0,0:0:0:0:
372,311,192355,5,0,1:0:0:0:
384,167,192521,1,0,0:0:0:0:
240,155,192686,1,4,3:0:0:0:
228,299,192852,1,0,0:0:0:0:
465,247,193018,5,0,1:0:0:0:
325,81,193184,1,0,0:0:0:0:
159,221,193349,1,4,3:0:0:0:
299,387,193515,1,0,0:0:0:0:
436,120,193681,5,2,3:0:0:0:
444,104,193764,1,0,0:0:0:0:
448,88,193847,1,0,0:0:0:0:
448,72,193929,1,0,0:0:0:0:
448,56,194012,1,2,3:0:0:0:
444,40,194095,1,0,0:0:0:0:
440,24,194178,1,0,0:0:0:0:
432,12,194261,1,0,0:0:0:0:
420,4,194344,5,4,3:0:0:0:
396,24,194427,1,0,1:0:0:0:
372,44,194509,1,0,1:0:0:0:
340,52,194592,1,0,1:0:0:0:
308,44,194675,1,4,3:0:0:0:
284,24,194758,1,0,1:0:0:0:
252,16,194841,1,0,1:0:0:0:
220,28,194924,1,0,1:0:0:0:
196,48,195007,6,0,P|140:64|88:40,1,106.25,4|0,1:0|0:0,0:0:0:0:
8,168,195338,1,4,3:0:0:0:
144,4,195504,1,0,0:0:0:0:
184,206,195670,2,0,P|232:222|300:206,1,106.25,0|0,1:0|0:0,0:0:0:0:
396,50,196001,2,0,P|358:83|338:150,1,106.25,4|0,3:0|0:0,0:0:0:0:
420,314,196333,6,0,P|409:264|362:213,1,106.25,0|0,1:0|0:0,0:0:0:0:
192,128,196664,1,4,3:0:0:0:
152,348,196830,1,0,0:0:0:0:
376,222,196996,2,0,L|384:102,1,106.25,0|0,1:0|0:0,0:0:0:0:
120,276,197327,2,0,L|112:169,1,106.25,4|0,3:0|0:0,0:0:0:0:
380,332,197658,5,0,1:0:0:0:
304,137,197824,1,0,0:0:0:0:
478,250,197990,1,4,3:0:0:0:
272,261,198155,1,0,0:0:0:0:
432,131,198322,2,0,P|448:72|432:16,1,106.25,0|0,1:0|0:0,0:0:0:0:
208,16,198653,2,0,P|192:75|208:131,1,106.25,4|0,3:0|0:0,0:0:0:0:
328,324,198985,5,2,3:0:0:0:
357,334,199067,1,0,0:0:0:0:
388,327,199150,1,0,0:0:0:0:
403,299,199233,1,0,0:0:0:0:
401,267,199316,1,2,3:0:0:0:
375,247,199399,1,0,0:0:0:0:
343,242,199482,1,0,0:0:0:0:
313,254,199565,1,0,0:0:0:0:
282,245,199648,5,2,3:0:0:0:
250,225,199730,1,0,0:0:0:0:
241,188,199813,1,0,0:0:0:0:
258,154,199896,1,0,0:0:0:0:
281,120,199979,5,2,3:0:0:0:
294,79,200062,1,0,0:0:0:0:
264,48,200145,1,0,0:0:0:0:
220,64,200228,1,0,0:0:0:0:
220,108,200311,5,0,1:0:0:0:
280,336,200477,1,0,0:0:0:0:
357,139,200643,1,4,3:0:0:0:
180,248,200808,1,0,0:0:0:0:
391,262,200974,2,0,L|500:268,1,106.25,0|0,1:0|0:0,0:0:0:0:
400,68,201305,2,0,L|293:73,1,106.25,4|0,3:0|0:0,0:0:0:0:
76,96,201637,6,0,P|66:148|88:196,1,106.25,0|0,1:0|0:0,0:0:0:0:
248,260,201968,1,4,3:0:0:0:
212,124,202134,1,0,0:0:0:0:
40,240,202300,2,0,L|52:364,1,106.25,0|0,1:0|0:0,0:0:0:0:
248,260,202631,2,0,L|258:154,1,106.25,4|0,3:0|0:0,0:0:0:0:
64,360,202963,5,0,1:0:0:0:
206,347,203128,1,0,0:0:0:0:
54,255,203294,5,4,3:0:0:0:
222,239,203459,1,0,0:0:0:0:
46,159,203626,5,0,1:0:0:0:
238,143,203791,1,0,0:0:0:0:
34,59,203957,5,4,3:0:0:0:
250,39,204122,1,0,0:0:0:0:
150,231,204288,5,2,3:0:0:0:
134,259,204371,1,0,0:0:0:0:
130,291,204454,1,0,0:0:0:0:
138,323,204537,1,0,0:0:0:0:
162,343,204620,2,0,L|230:335,1,53.125,2|0,3:0|0:0,0:0:0:0:
122,139,204786,1,0,0:0:0:0:
90,129,204869,1,0,0:0:0:0:
60,140,204952,2,0,L|50:207,1,53.125,2|0,3:0|0:0,0:0:0:0:
222,159,205117,1,0,0:0:0:0:
246,136,205200,1,0,0:0:0:0:
252,104,205283,2,0,L|242:43,1,53.125,2|0,3:0|0:0,0:0:0:0:
38,15,205449,2,0,L|30:67,1,53.125,2|0,3:0|0:0,0:0:0:0:
92,260,205614,5,4,1:0:0:0:
256,192,214896,12,0,215891,0:0:0:0:
36,280,216222,37,4,1:0:0:0:
124,224,216388,1,0,0:0:0:0:
196,300,216554,2,0,P|260:312|336:292,1,127.5,2|0,0:0|0:0,0:0:0:0:
360,268,216885,2,0,P|368:224|344:180,1,85
332,360,217217,2,0,L|416:363,1,85,2|0,0:0|0:0,0:0:0:0:
492,296,217548,5,0,0:0:0:0:
500,196,217714,1,0,0:0:0:0:
468,100,217880,2,0,P|420:68|316:84,1,127.5,2|0,0:0|0:0,0:0:0:0:
312,96,218211,2,0,P|268:108|216:92,1,85
148,40,218543,2,0,P|164:100|152:176,1,127.5,2|0,0:0|0:0,0:0:0:0:
132,208,218874,5,0,0:0:0:0:
160,308,219040,1,0,0:0:0:0:
260,280,219206,2,0,P|324:272|400:308,1,127.5,2|0,0:0|0:0,0:0:0:0:
424,320,219537,2,0,P|444:280|444:240,1,85
388,156,219869,1,2,0:0:0:0:
476,108,220034,1,0,0:0:0:0:
392,48,220200,5,0,3:0:0:0:
380,46,220283,1,0,3:0:0:0:
368,45,220366,1,0,3:0:0:0:
356,44,220449,1,0,3:0:0:0:
344,43,220532,1,0,3:0:0:0:
332,42,220614,1,0,3:0:0:0:
320,41,220697,1,0,3:0:0:0:
308,40,220780,1,0,3:0:0:0:
296,39,220863,2,0,L|176:44,1,85
103,80,221195,2,0,L|60:76,3,42.5,0|0|0|0,1:0|1:0|1:0|1:0,1:0:0:0:
128,124,221526,6,0,P|136:172|104:232,1,85,4|0,1:0|1:0,1:0:0:0:
48,288,221858,2,0,P|132:256|192:280,1,127.5,2|0,0:0|0:0,0:0:0:0:
213,282,222189,2,0,P|257:298|301:290,1,85
362,196,222521,2,0,P|311:232|293:292,1,127.5,2|0,0:0|0:0,0:0:0:0:
313,338,222852,5,0,0:0:0:0:
413,358,223018,1,0,0:0:0:0:
484,284,223184,2,0,L|488:148,1,127.5,2|0,0:0|0:0,0:0:0:0:
476,108,223515,2,0,P|440:84|400:92,1,85
294,136,223847,2,0,P|354:136|402:88,1,127.5,2|0,0:0|0:0,0:0:0:0:
400,40,224178,5,0,0:0:0:0:
300,12,224344,1,0,0:0:0:0:
224,80,224509,2,0,L|228:216,1,127.5,2|0,0:0|0:0,0:0:0:0:
268,240,224841,2,0,L|272:340,1,85
364,368,225172,1,2,0:0:0:0:
360,268,225338,1,0,0:0:0:0:
204,316,225504,5,0,3:0:0:0:
192,320,225587,1,0,3:0:0:0:
180,324,225670,1,0,3:0:0:0:
168,324,225753,1,0,3:0:0:0:
156,320,225835,2,0,L|148:220,1,85,2|0,3:0|0:0,0:0:0:0:
168,188,226084,2,0,P|212:176|260:188,1,85,2|0,3:0|0:0,0:0:0:0:
96,288,226333,2,0,P|68:288|40:276,1,42.5,2|0,3:0|0:0,0:0:0:0:
176,168,226498,2,0,P|220:156|304:196,1,127.5,2|0,3:0|0:0,0:0:0:0:
120,120,226830,6,0,P|116:56|128:32,1,85,4|0,1:0|0:0,0:0:0:0:
232,0,227161,1,2,0:0:0:0:
212,116,227327,1,2,0:0:0:0:
324,72,227493,1,0,0:0:0:0:
200,224,227659,1,0,0:0:0:0:
404,152,227824,2,0,L|408:52,1,85,2|0,0:0|0:0,0:0:0:0:
336,240,228156,5,2,0:0:0:0:
448,252,228322,1,0,0:0:0:0:
404,152,228487,1,2,0:0:0:0:
264,336,228653,1,2,0:0:0:0:
484,368,228819,2,0,L|488:268,1,85
316,160,229150,1,2,0:0:0:0:
200,180,229316,1,0,0:0:0:0:
248,84,229482,5,2,0:0:0:0:
272,272,229648,1,0,0:0:0:0:
88,200,229813,2,0,L|92:100,1,85,2|2,0:0|0:0,0:0:0:0:
164,36,230145,1,0,0:0:0:0:
236,116,230311,1,0,0:0:0:0:
272,20,230476,1,2,0:0:0:0:
200,208,230642,1,0,0:0:0:0:
68,56,230808,5,2,3:0:0:0:
40,44,230891,1,0,3:0:0:0:
12,56,230974,1,0,3:0:0:0:
4,84,231056,1,0,3:0:0:0:
12,112,231139,1,2,3:0:0:0:
36,132,231222,1,0,3:0:0:0:
52,156,231305,1,0,3:0:0:0:
52,184,231388,1,0,3:0:0:0:
44,212,231471,1,2,0:0:0:0:
4,360,231637,1,2,0:0:0:0:
140,264,231802,2,0,P|182:256|276:280,1,127.5,12|0,3:0|0:0,0:0:0:0:
308,300,232134,6,0,P|350:305|391:297,1,85,4|0,3:0|0:0,0:0:0:0:
464,192,232465,1,2,0:0:0:0:
364,124,232631,1,2,0:0:0:0:
468,64,232797,1,0,0:0:0:0:
460,268,232963,1,0,0:0:0:0:
300,160,233128,2,0,L|304:60,1,85,2|0,0:0|0:0,0:0:0:0:
188,188,233460,5,2,0:0:0:0:
208,32,233626,1,0,0:0:0:0:
260,260,233791,1,2,0:0:0:0:
96,240,233957,1,2,0:0:0:0:
303,75,234123,2,0,L|399:71,1,85
472,228,234454,2,0,L|376:224,1,85,2|0,0:0|0:0,0:0:0:0:
168,312,234786,5,0,1:0:0:0:
328,336,234951,1,0,1:0:0:0:
276,176,235117,2,0,P|240:138|105:155,1,170
56,236,235614,5,0,1:0:0:0:
263,267,235779,1,0,1:0:0:0:
196,59,235945,1,0,1:0:0:0:
48,248,236112,5,0,3:0:0:0:
40,268,236195,1,0,3:0:0:0:
44,288,236277,1,0,3:0:0:0:
56,304,236360,1,0,3:0:0:0:
76,308,236443,2,0,L|128:304,1,42.5,4|0,3:0|0:0,0:0:0:0:
192,208,236609,2,0,L|244:212,1,42.5,8|0,3:0|0:0,0:0:0:0:
304,344,236775,2,0,L|356:340,1,42.5,8|0,3:0|0:0,0:0:0:0:
384,160,236940,2,0,L|436:164,1,42.5,8|0,3:0|0:0,0:0:0:0:
492,356,237106,1,4,3:0:0:0:
336,48,237438,5,4,1:0:0:0:
240,176,237603,1,0,0:0:0:0:
252,24,237769,1,2,3:0:0:0:
312,228,237935,1,0,0:0:0:0:
164,316,238101,2,0,P|77:324|4:276,1,170,0|2,1:0|3:0,0:0:0:0:
124,140,238598,1,0,0:0:0:0:
180,364,238764,5,0,1:0:0:0:
224,228,238929,1,0,0:0:0:0:
104,260,239095,5,2,3:0:0:0:
288,328,239261,1,0,0:0:0:0:
252,136,239427,1,0,1:0:0:0:
180,364,239592,5,2,3:0:0:0:
356,228,239758,1,0,1:0:0:0:
156,124,239924,1,2,3:0:0:0:
384,344,240090,5,4,3:0:0:0:
424,36,240255,1,0,0:0:0:0:
224,228,240421,1,2,3:0:0:0:
512,208,240587,1,0,0:0:0:0:
260,76,240753,2,0,P|164:64|96:96,1,170,0|2,1:0|3:0,0:0:0:0:
408,208,241250,1,0,0:0:0:0:
364,32,241416,5,0,1:0:0:0:
236,276,241581,1,0,0:0:0:0:
268,4,241747,5,2,3:0:0:0:
360,300,241913,1,0,0:0:0:0:
119,113,242079,1,0,1:0:0:0:
460,152,242244,5,2,3:0:0:0:
120,328,242410,1,0,1:0:0:0:
360,16,242576,1,2,3:0:0:0:
264,368,242742,70,0,L|144:364,1,106.25,4|0,1:0|0:0,0:0:0:0:
336,224,243073,1,4,3:0:0:0:
448,360,243239,1,0,0:0:0:0:
496,184,243405,2,0,P|504:128|492:76,1,106.25,0|0,1:0|0:0,0:0:0:0:
252,176,243736,2,0,P|244:232|256:284,1,106.25,4|0,3:0|0:0,0:0:0:0:
348,56,244067,5,0,1:0:0:0:
148,104,244233,1,0,0:0:0:0:
332,176,244399,1,4,3:0:0:0:
360,8,244565,1,0,0:0:0:0:
100,104,244730,2,0,L|111:209,1,106.25,0|0,1:0|0:0,0:0:0:0:
292,332,245062,2,0,L|303:226,1,106.25,4|0,3:0|0:0,0:0:0:0:
412,84,245393,5,0,1:0:0:0:
360,228,245559,1,0,0:0:0:0:
512,208,245725,1,4,3:0:0:0:
404,28,245891,1,0,0:0:0:0:
302,226,246056,2,0,P|258:226|190:186,1,106.25,0|0,1:0|0:0,0:0:0:0:
68,104,246388,2,0,P|120:105|167:130,1,106.25,4|0,3:0|0:0,0:0:0:0:
216,308,246719,5,0,3:0:0:0:
264,80,246885,1,0,3:0:0:0:
388,292,247051,2,0,P|416:292|460:280,1,53.125,4|0,3:0|0:0,0:0:0:0:
464,112,247217,1,0,3:0:0:0:
468,80,247300,1,0,1:0:0:0:
448,56,247382,2,0,P|421:51|395:51,1,53.125,0|0,3:0|3:0,3:0:0:0:
284,176,247548,2,0,P|310:180|336:180,1,53.125,0|0,3:0|3:0,3:0:0:0:
408,356,247714,2,0,P|381:356|355:351,1,53.125,4|0,3:0|3:0,3:0:0:0:
80,312,247880,1,0,3:0:0:0:
68,304,247963,1,0,3:0:0:0:
60,292,248045,6,0,L|56:176,1,106.25,0|0,1:0|0:0,0:0:0:0:
240,73,248377,2,0,L|236:189,1,106.25,4|0,3:0|0:0,0:0:0:0:
388,292,248708,1,0,1:0:0:0:
404,120,248874,1,0,0:0:0:0:
228,272,249040,2,0,P|176:284|108:248,1,106.25,4|0,3:0|0:0,0:0:0:0:
139,67,249371,6,0,P|191:55|259:91,1,106.25,0|0,1:0|0:0,0:0:0:0:
32,256,249703,1,4,3:0:0:0:
40,64,249869,1,0,0:0:0:0:
184,176,250034,1,0,1:0:0:0:
20,372,250200,5,0,0:0:0:0:
76,148,250366,1,4,3:0:0:0:
284,260,250532,1,0,0:0:0:0:
264,24,250697,5,0,1:0:0:0:
184,176,250863,1,0,0:0:0:0:
336,256,251029,1,4,3:0:0:0:
416,104,251195,1,0,0:0:0:0:
171,72,251360,5,0,1:0:0:0:
232,268,251526,1,0,0:0:0:0:
428,207,251692,1,4,3:0:0:0:
367,11,251858,1,0,0:0:0:0:
340,280,252023,5,2,3:0:0:0:
336,295,252106,1,0,3:0:0:0:
323,304,252189,1,0,3:0:0:0:
307,305,252272,1,0,3:0:0:0:
294,295,252355,1,2,3:0:0:0:
289,279,252438,1,0,3:0:0:0:
292,263,252521,1,0,3:0:0:0:
305,254,252603,1,0,3:0:0:0:
320,255,252686,1,2,3:0:0:0:
334,261,252769,1,0,3:0:0:0:
348,267,252852,1,0,3:0:0:0:
363,270,252935,1,0,3:0:0:0:
378,269,253018,1,2,3:0:0:0:
393,265,253101,1,0,3:0:0:0:
405,255,253184,1,0,3:0:0:0:
416,244,253266,1,0,3:0:0:0:
424,230,253349,6,0,P|436:178|420:114,1,106.25,4|0,1:0|0:0,0:0:0:0:
267,384,253681,1,4,3:0:0:0:
447,356,253847,1,0,0:0:0:0:
320,188,254012,2,0,L|204:192,1,106.25,0|0,1:0|0:0,0:0:0:0:
13,292,254344,2,0,L|120:296,1,106.25,4|0,3:0|0:0,0:0:0:0:
119,87,254675,6,0,L|13:91,1,106.25,0|0,1:0|0:0,0:0:0:0:
200,8,255007,1,4,3:0:0:0:
136,200,255172,1,0,0:0:0:0:
300,320,255338,2,0,P|360:328|412:308,1,106.25,0|0,1:0|0:0,0:0:0:0:
260,108,255670,2,0,P|223:155|214:210,1,106.25,4|0,3:0|0:0,0:0:0:0:
460,176,256001,5,0,1:0:0:0:
248,40,256167,1,0,0:0:0:0:
348,268,256333,1,4,3:0:0:0:
396,24,256498,1,0,0:0:0:0:
213,199,256664,2,0,L|205:307,1,106.25,0|0,1:0|0:0,0:0:0:0:
27,193,256996,2,0,L|20:88,1,106.25,4|0,3:0|0:0,0:0:0:0:
152,40,257327,5,2,3:0:0:0:
168,36,257410,1,0,3:0:0:0:
184,36,257493,1,0,3:0:0:0:
200,44,257576,1,0,3:0:0:0:
212,56,257659,1,2,3:0:0:0:
224,68,257742,1,0,3:0:0:0:
240,72,257824,1,0,3:0:0:0:
256,72,257907,1,0,3:0:0:0:
272,68,257990,5,4,3:0:0:0:
296,48,258073,1,0,1:0:0:0:
324,36,258156,1,0,1:0:0:0:
356,40,258239,1,0,1:0:0:0:
384,56,258322,1,4,3:0:0:0:
404,80,258405,1,0,1:0:0:0:
432,96,258487,1,0,1:0:0:0:
464,92,258570,1,0,1:0:0:0:
492,76,258653,5,0,1:0:0:0:
332,112,258819,1,0,0:0:0:0:
480,320,258985,1,4,3:0:0:0:
444,188,259150,1,0,0:0:0:0:
268,300,259316,2,0,P|212:308|160:292,1,106.25,0|0,1:0|0:0,0:0:0:0:
176,92,259648,2,0,P|232:84|284:100,1,106.25,4|0,3:0|0:0,0:0:0:0:
392,296,259979,5,0,1:0:0:0:
408,120,260145,1,0,0:0:0:0:
280,232,260311,1,4,3:0:0:0:
504,256,260476,1,0,0:0:0:0:
416,40,260642,2,0,L|288:32,1,106.25,0|0,1:0|0:0,0:0:0:0:
124,200,260974,2,0,L|230:193,1,106.25,4|0,3:0|0:0,0:0:0:0:
388,360,261305,5,2,3:0:0:0:
404,364,261388,1,0,3:0:0:0:
420,364,261471,1,0,3:0:0:0:
436,360,261554,1,0,3:0:0:0:
448,348,261637,1,2,3:0:0:0:
456,332,261719,1,0,3:0:0:0:
456,316,261802,1,0,3:0:0:0:
452,300,261885,1,0,3:0:0:0:
444,288,261968,1,2,3:0:0:0:
432,280,262051,1,0,3:0:0:0:
420,268,262134,1,0,3:0:0:0:
416,252,262217,1,0,3:0:0:0:
416,236,262300,1,2,3:0:0:0:
420,220,262382,1,0,3:0:0:0:
428,208,262465,1,0,3:0:0:0:
440,196,262548,1,0,3:0:0:0:
452,188,262631,6,0,L|448:120,1,53.125,2|0,3:0|0:0,0:0:0:0:
312,24,262797,1,0,0:0:0:0:
280,16,262880,1,0,0:0:0:0:
248,24,262963,2,0,L|244:92,1,53.125,2|0,3:0|0:0,0:0:0:0:
264,312,263128,1,0,0:0:0:0:
296,320,263211,1,0,0:0:0:0:
328,312,263294,2,0,L|332:244,1,53.125,2|0,3:0|0:0,0:0:0:0:
172,96,263460,1,0,0:0:0:0:
140,88,263543,1,0,0:0:0:0:
108,96,263626,2,0,L|104:164,1,53.125,2|0,3:0|0:0,0:0:0:0:
212,352,263791,2,0,L|216:284,1,53.125,2|0,3:0|0:0,0:0:0:0:
35,155,263957,6,0,P|21:73|73:9,1,170,4|0,1:0|1:0,0:0:0:0:
128,232,264951,2,0,P|104:264|92:268,1,42.5
120,168,265283,6,0,P|160:176|176:188,1,55.2499974708558,0|0,1:0|0:0,0:0:0:0:
44,306,265614,2,0,P|32:270|36:234,1,68
192,310,265946,2,0,P|168:342|128:358,1,80.7499978437424,0|0,1:0|0:0,0:0:0:0:
60,160,266277,2,0,L|72:48,1,93.5000028533936,4|0,3:0|0:0,0:0:0:0:
292,28,266609,6,0,L|302:133,1,106.25,4|0,1:0|0:0,0:0:0:0:
287,372,266940,1,4,3:0:0:0:
192,180,267106,1,0,0:0:0:0:
380,312,267272,2,0,P|432:324|492:296,1,106.25,0|0,1:0|0:0,0:0:0:0:
468,108,267603,2,0,P|416:96|356:124,1,106.25,4|0,3:0|0:0,0:0:0:0:
176,288,267935,5,2,3:0:0:0:
148,300,268018,1,0,0:0:0:0:
120,296,268101,1,0,0:0:0:0:
96,276,268184,1,0,0:0:0:0:
96,244,268266,1,2,3:0:0:0:
116,220,268349,1,0,0:0:0:0:
148,216,268432,1,0,0:0:0:0:
180,216,268515,1,0,0:0:0:0:
212,200,268598,5,2,3:0:0:0:
216,163,268681,1,0,0:0:0:0:
187,139,268764,1,0,0:0:0:0:
154,156,268847,1,0,0:0:0:0:
150,192,268929,1,2,3:0:0:0:
180,216,269012,1,0,0:0:0:0:
215,225,269095,1,0,0:0:0:0:
251,216,269178,1,0,0:0:0:0:
275,187,269261,6,0,L|279:75,1,106.25,0|0,1:0|0:0,0:0:0:0:
476,224,269592,1,4,3:0:0:0:
460,360,269758,1,0,0:0:0:0:
392,164,269924,2,0,L|396:52,1,106.25,0|0,1:0|0:0,0:0:0:0:
176,109,270255,2,0,L|180:216,1,106.25,4|0,3:0|0:0,0:0:0:0:
508,360,270587,6,0,L|512:248,1,106.25,0|0,1:0|0:0,0:0:0:0:
395,57,270918,1,4,3:0:0:0:
328,228,271084,1,0,0:0:0:0:
496,44,271250,1,0,1:0:0:0:
228,84,271416,1,0,0:0:0:0:
420,288,271581,1,4,3:0:0:0:
392,136,271747,1,0,0:0:0:0:
484,204,271913,5,0,1:0:0:0:
328,228,272079,1,0,0:0:0:0:
304,72,272244,1,4,3:0:0:0:
460,48,272410,1,0,0:0:0:0:
356,290,272576,5,0,1:0:0:0:
202,253,272742,1,0,0:0:0:0:
238,100,272907,1,4,3:0:0:0:
392,136,273073,1,0,0:0:0:0:
196,328,273239,5,0,1:0:0:0:
68,233,273405,1,0,0:0:0:0:
161,106,273570,1,4,3:0:0:0:
289,200,273736,1,0,0:0:0:0:
36,304,273902,5,2,3:0:0:0:
8,280,273985,1,0,0:0:0:0:
0,244,274067,1,0,0:0:0:0:
8,208,274150,1,0,0:0:0:0:
32,180,274233,1,2,3:0:0:0:
56,152,274316,1,0,0:0:0:0:
60,116,274399,1,0,0:0:0:0:
44,80,274482,1,0,0:0:0:0:
44,42,274565,6,0,P|108:34|152:46,1,106.25,4|0,1:0|0:0,0:0:0:0:
140,236,274896,2,0,P|76:244|32:232,1,106.25,4|0,3:0|0:0,0:0:0:0:
256,128,275228,1,0,1:0:0:0:
248,336,275393,1,0,0:0:0:0:
139,150,275559,2,0,L|147:44,1,106.25,4|0,3:0|0:0,0:0:0:0:
360,153,275891,6,0,L|368:260,1,106.25,0|0,1:0|0:0,0:0:0:0:
284,72,276222,1,4,3:0:0:0:
456,108,276388,1,0,0:0:0:0:
272,256,276554,2,0,P|236:260|164:220,1,106.25,0|0,1:0|0:0,0:0:0:0:
424,188,276885,1,4,3:0:0:0:
416,352,277051,1,0,0:0:0:0:
180,328,277217,6,0,L|64:324,1,106.25,0|0,1:0|0:0,0:0:0:0:
0,132,277548,2,0,L|116:128,1,106.25,4|0,3:0|0:0,0:0:0:0:
240,16,277880,1,0,1:0:0:0:
244,188,278045,1,0,0:0:0:0:
0,132,278211,2,0,P|-12:76|12:8,1,106.25,4|0,3:0|0:0,0:0:0:0:
28,240,278543,5,2,3:0:0:0:
32,276,278626,1,0,0:0:0:0:
55,304,278708,1,0,0:0:0:0:
90,308,278791,1,0,0:0:0:0:
125,297,278874,1,2,3:0:0:0:
151,270,278957,1,0,0:0:0:0:
137,235,279040,1,0,0:0:0:0:
99,238,279123,1,0,0:0:0:0:
89,274,279206,5,2,3:0:0:0:
125,297,279288,1,0,0:0:0:0:
167,299,279371,1,0,0:0:0:0:
203,276,279454,1,0,0:0:0:0:
232,244,279537,5,2,3:0:0:0:
271,221,279620,1,0,0:0:0:0:
316,223,279703,1,0,0:0:0:0:
354,245,279786,1,0,0:0:0:0:
382,280,279869,6,0,P|433:293|485:289,1,106.25,0|0,1:0|0:0,0:0:0:0:
224,320,280200,2,0,P|220:268|236:212,1,106.25,4|0,3:0|0:0,0:0:0:0:
380,116,280532,1,0,1:0:0:0:
320,284,280697,1,0,0:0:0:0:
124,248,280863,2,0,L|128:120,1,106.25,4|0,3:0|0:0,0:0:0:0:
320,68,281195,6,0,L|323:174,1,106.25,0|0,1:0|0:0,0:0:0:0:
20,336,281526,1,4,3:0:0:0:
20,188,281692,1,0,0:0:0:0:
180,356,281858,2,0,P|248:384|300:376,1,106.25,0|0,1:0|0:0,0:0:0:0:
324,196,282189,2,0,P|256:168|204:176,1,106.25,4|0,3:0|0:0,0:0:0:0:
400,320,282521,5,2,3:0:0:0:
432,300,282603,1,0,0:0:0:0:
456,272,282686,1,0,0:0:0:0:
460,236,282769,1,0,0:0:0:0:
456,204,282852,1,2,3:0:0:0:
432,176,282935,1,0,0:0:0:0:
440,140,283018,1,0,0:0:0:0:
476,128,283101,1,0,0:0:0:0:
500,156,283184,5,2,3:0:0:0:
492,192,283266,1,0,0:0:0:0:
456,204,283349,1,0,0:0:0:0:
420,212,283432,1,0,0:0:0:0:
384,200,283515,1,2,3:0:0:0:
360,172,283598,1,0,0:0:0:0:
356,136,283681,1,0,0:0:0:0:
364,100,283764,1,0,0:0:0:0:
348,68,283847,5,2,3:0:0:0:
312,40,283929,1,0,0:0:0:0:
270,57,284012,1,0,0:0:0:0:
253,98,284095,1,0,0:0:0:0:
266,141,284178,1,2,3:0:0:0:
263,186,284261,1,0,0:0:0:0:
242,226,284344,1,0,0:0:0:0:
198,239,284427,1,0,0:0:0:0:
157,221,284509,5,2,3:0:0:0:
139,176,284592,1,0,0:0:0:0:
160,132,284675,1,0,0:0:0:0:
205,117,284758,1,0,0:0:0:0:
245,142,284841,1,2,3:0:0:0:
263,186,284924,1,0,0:0:0:0:
295,221,285007,1,0,0:0:0:0:
341,231,285090,1,0,0:0:0:0:
386,216,285172,5,4,1:0:0:0:
72,280,290476,86,0,L|184:276,1,106.25,0|0,1:0|0:0,0:0:0:0:
4,180,290808,1,4,3:0:0:0:
128,364,290974,1,0,0:0:0:0:
236,176,291139,2,0,P|244:132|220:72,1,106.25,0|0,1:0|0:0,0:0:0:0:
56,28,291471,1,4,3:0:0:0:
4,180,291637,1,0,0:0:0:0:
236,248,291802,6,0,L|364:244,1,106.25,0|0,1:0|0:0,0:0:0:0:
128,172,292134,1,4,3:0:0:0:
216,364,292300,1,0,0:0:0:0:
386,219,292465,2,0,P|402:168|388:103,1,106.25,0|0,1:0|0:0,0:0:0:0:
282,302,292797,2,0,P|318:342|382:362,1,106.25,4|0,3:0|0:0,0:0:0:0:
258,160,293128,6,0,P|206:171|164:316,1,212.5,0|0,1:0|0:0,0:0:0:0:
336,319,293626,2,0,P|341:217|258:160,1,212.5,0|0,1:0|0:0,0:0:0:0:
159,306,294123,2,0,P|194:345|284:356,1,106.25,0|0,3:0|0:0,0:0:0:0:
432,268,294454,5,2,3:0:0:0:
456,240,294537,1,0,0:0:0:0:
460,204,294620,1,0,0:0:0:0:
440,172,294703,1,0,0:0:0:0:
416,144,294786,5,2,3:0:0:0:
419,102,294869,1,0,0:0:0:0:
456,84,294951,1,0,0:0:0:0:
494,98,295034,1,0,0:0:0:0:
502,138,295117,1,2,3:0:0:0:
478,167,295200,1,0,0:0:0:0:
440,172,295283,1,0,0:0:0:0:
403,153,295366,1,0,0:0:0:0:
374,123,295449,5,2,3:0:0:0:
334,101,295532,1,0,0:0:0:0:
289,99,295614,1,0,0:0:0:0:
248,118,295697,1,0,0:0:0:0:
220,154,295780,6,0,L|216:274,1,106.25,0|0,1:0|0:0,0:0:0:0:
352,368,296112,1,4,3:0:0:0:
372,216,296277,1,0,0:0:0:0:
172,336,296443,2,0,P|120:336|72:296,1,106.25,0|0,1:0|0:0,0:0:0:0:
88,160,296775,1,4,3:0:0:0:
0,336,296940,1,0,0:0:0:0:
160,220,297106,6,0,L|164:96,1,106.25,0|0,1:0|0:0,0:0:0:0:
368,284,297438,2,0,L|364:160,1,106.25,4|0,3:0|0:0,0:0:0:0:
56,220,297769,1,0,1:0:0:0:
72,80,297935,1,0,0:0:0:0:
248,256,298101,1,4,3:0:0:0:
264,112,298266,1,0,0:0:0:0:
104,292,298432,6,0,P|32:296|8:156,1,212.5,0|0,1:0|0:0,0:0:0:0:
152,75,298929,2,0,P|147:176|56:220,1,212.5,0|0,1:0|0:0,0:0:0:0:
100,24,299427,2,0,P|156:0|212:40,1,106.25,2|0,3:0|0:0,0:0:0:0:
280,264,299758,5,2,3:0:0:0:
276,296,299841,1,0,0:0:0:0:
260,324,299924,1,0,0:0:0:0:
232,336,300007,1,0,0:0:0:0:
200,336,300090,2,0,L|132:328,1,53.125,2|0,3:0|0:0,0:0:0:0:
56,220,300255,2,0,L|124:212,1,53.125
220,144,300421,1,2,3:0:0:0:
244,116,300504,1,0,0:0:0:0:
252,80,300587,1,0,0:0:0:0:
240,44,300670,1,0,0:0:0:0:
208,28,300753,5,2,3:0:0:0:
168,36,300835,1,0,0:0:0:0:
144,72,300918,1,0,0:0:0:0:
148,112,301001,1,0,0:0:0:0:
176,144,301084,6,0,L|296:152,1,106.25,0|0,1:0|0:0,0:0:0:0:
92,52,301416,1,4,3:0:0:0:
57,226,301581,1,0,0:0:0:0:
212,248,301747,2,0,L|332:256,1,106.25,0|0,1:0|0:0,0:0:0:0:
132,148,302079,1,4,3:0:0:0:
97,322,302244,1,0,0:0:0:0:
252,344,302410,6,0,L|372:352,1,106.25,0|0,1:0|0:0,0:0:0:0:
464,188,302742,2,0,L|344:196,1,106.25,4|0,3:0|0:0,0:0:0:0:
248,56,303073,2,0,L|368:64,1,106.25,0|0,1:0|0:0,0:0:0:0:
476,248,303405,1,4,3:0:0:0:
512,96,303570,1,0,0:0:0:0:
264,248,303736,6,0,P|208:256|136:220,1,106.25,0|0,1:0|0:0,0:0:0:0:
224,116,304067,1,4,3:0:0:0:
196,380,304233,1,0,0:0:0:0:
312,260,304399,1,0,1:0:0:0:
101,237,304565,1,0,0:0:0:0:
216,172,304730,1,4,3:0:0:0:
199,330,304896,1,0,0:0:0:0:
76,92,305062,5,2,3:0:0:0:
104,68,305145,1,0,0:0:0:0:
140,56,305228,1,0,0:0:0:0:
176,60,305311,1,0,0:0:0:0:
208,76,305393,1,2,3:0:0:0:
232,104,305476,1,0,0:0:0:0:
244,140,305559,1,0,0:0:0:0:
240,176,305642,1,0,0:0:0:0:
227,205,305725,5,2,3:0:0:0:
197,172,305807,1,0,0:0:0:0:
153,168,305890,1,0,0:0:0:0:
117,194,305973,1,0,0:0:0:0:
107,237,306056,1,2,3:0:0:0:
128,276,306139,1,0,0:0:0:0:
170,291,306222,1,0,0:0:0:0:
211,275,306305,1,0,0:0:0:0:
236,237,306388,6,0,L|228:125,1,106.25,0|0,1:0|0:0,0:0:0:0:
106,13,306719,1,4,3:0:0:0:
54,181,306885,1,0,0:0:0:0:
286,257,307051,54,0,L|278:145,1,106.25,0|0,1:0|0:0,0:0:0:0:
158,37,307382,1,4,3:0:0:0:
106,205,307548,1,0,0:0:0:0:
332,281,307714,5,2,0:0:0:0:
363,282,307797,1,0,0:0:0:0:
391,264,307880,1,0,0:0:0:0:
410,236,307963,1,0,0:0:0:0:
416,205,308045,5,2,0:0:0:0:
427,181,308128,1,0,0:0:0:0:
448,166,308211,1,0,0:0:0:0:
474,163,308294,1,0,0:0:0:0:
495,180,308377,1,2,0:0:0:0:
507,203,308460,1,0,0:0:0:0:
496,227,308543,1,0,0:0:0:0:
475,244,308626,1,0,0:0:0:0:
447,245,308708,5,2,0:0:0:0:
410,236,308791,1,0,0:0:0:0:
379,215,308874,1,0,0:0:0:0:
352,188,308957,1,0,0:0:0:0:
342,151,309040,5,2,3:0:0:0:
343,105,309123,1,0,0:0:0:0:
323,64,309206,1,0,0:0:0:0:
282,45,309288,1,0,0:0:0:0:
240,62,309371,1,2,3:0:0:0:
226,105,309454,1,0,0:0:0:0:
239,148,309537,1,0,0:0:0:0:
238,193,309620,1,0,0:0:0:0:
215,230,309703,5,2,3:0:0:0:
174,250,309786,1,0,0:0:0:0:
136,224,309869,1,0,0:0:0:0:
138,179,309951,1,0,0:0:0:0:
179,159,310034,1,2,3:0:0:0:
215,185,310117,1,0,0:0:0:0:
215,230,310200,1,0,0:0:0:0:
210,274,310283,1,0,0:0:0:0:
178,308,310366,5,2,3:0:0:0:
133,320,310449,1,0,0:0:0:0:
90,305,310532,1,0,0:0:0:0:
59,271,310614,1,0,0:0:0:0:
56,226,310697,1,2,3:0:0:0:
72,183,310780,1,0,0:0:0:0:
97,145,310863,1,0,0:0:0:0:
117,104,310946,1,0,0:0:0:0:
117,55,311029,5,2,3:0:0:0:
74,30,311112,1,0,0:0:0:0:
26,39,311195,1,0,0:0:0:0:
1,80,311277,1,0,0:0:0:0:
8,128,311360,1,2,3:0:0:0:
48,155,311443,1,0,0:0:0:0:
97,145,311526,1,0,0:0:0:0:
138,119,311609,1,0,0:0:0:0:
162,76,311692,5,4,1:0:0:0:
256,192,311775,12,0,318322,2:0:0:0:
