osu file format v14

[General]
AudioFilename: audio.mp3
AudioLeadIn: 0
PreviewTime: 55486
Countdown: 0
SampleSet: Normal
StackLeniency: 0.3
Mode: 0
LetterboxInBreaks: 0
WidescreenStoryboard: 0

[Editor]
Bookmarks: 9438,10728,56212,69438,82126
DistanceSpacing: 0.9
BeatDivisor: 4
GridSize: 4
TimelineZoom: 1.7

[Metadata]
Title:Lapistoria no yakusoku
TitleUnicode:ラピストリアの約束
Artist:positive MAD-crew
ArtistUnicode:positive MAD-crew
Creator:SLM
Version:Normal
Source:pop'n music ラピストリア
Tags:Beomsan Rigid Blue Remains Des ROW DesROW Dcrew MakkuruP Konami nia
BeatmapID:1126906
BeatmapSetID:531745

[Difficulty]
HPDrainRate:4
CircleSize:3
OverallDifficulty:5
ApproachRate:5
SliderMultiplier:1.2
SliderTickRate:1

[Events]
//Background and Video events
0,0,"residentsleeper.png",0,0
//Break Periods
2,87180,93722
//Storyboard Layer 0 (Background)
//Storyboard Layer 1 (Fail)
//Storyboard Layer 2 (Pass)
//Storyboard Layer 3 (Foreground)
//Storyboard Sound Samples

[TimingPoints]
2019,322.58064516129,4,1,1,65,1,0
13631,-100,4,1,1,75,0,0
14277,-100,4,1,1,85,0,0
14922,-100,4,1,1,50,0,0
32986,-100,4,1,1,65,0,0
33631,-100,4,1,1,55,0,0
34277,-100,4,1,1,65,0,0
35567,-100,4,1,1,45,0,0
40728,-100,4,1,1,50,0,0
45889,-100,4,1,1,55,0,0
48470,-100,4,1,1,45,0,0
51051,-100,4,1,1,35,0,0
53631,-100,4,1,1,70,0,0
55567,-100,4,1,1,75,0,0
56212,-100,4,1,1,65,0,1
65889,-100,4,1,1,70,0,1
66535,-100,4,1,1,75,0,1
66857,-100,4,1,1,65,0,1
71696,-100,4,1,1,75,0,1
74277,-100,4,1,1,65,0,1
76857,-100,4,1,1,60,0,0
79438,-100,4,1,1,65,0,0
82018,-100,4,1,1,62,0,0
82664,-100,4,1,1,66,0,0
83309,-100,4,1,1,68,0,0
84814,-100,4,1,1,74,0,0
85459,-100,4,1,1,80,0,0
86535,-100,4,1,1,75,0,0
94922,-100,4,1,1,65,0,0
96535,-100,4,1,1,75,0,0
97502,-100,4,1,1,80,0,1
98793,-100,4,1,1,65,0,1
102664,-100,4,1,1,70,0,1
103954,-100,4,1,1,80,0,1
105244,-100,4,1,1,65,0,1
107502,-100,4,1,1,55,0,1
107825,-100,4,1,1,55,0,0
109115,-100,4,1,1,5,0,0

[Colours]
Combo1 : 51,157,208
Combo2 : 66,191,154
Combo3 : 111,92,209

[HitObjects]
138,186,4599,6,0,P|80:203|21:196,2,120,6|0|0,0:0|0:0|0:0,0:0:0:0:
234,136,5567,1,0,0:0:0:0:
326,80,5889,2,0,P|383:63|442:69,1,120
464,175,6535,2,0,L|464:317,1,120,12|0,0:0|0:0,0:0:0:0:
361,327,7180,6,0,B|302:339|302:339|228:339,2,120,6|0|0,0:0|0:0|0:0,0:0:0:0:
464,295,8148,1,0,0:0:0:0:
436,190,8470,2,0,P|390:125|340:106,1,120,2|0,0:0|0:0,0:0:0:0:
304,91,8954,2,0,L|139:116,1,120,8|0,0:0|0:0,0:0:0:0:
141,137,9438,1,8,0:0:0:0:
64,215,9760,6,0,P|102:239|193:232,1,120,6|0,0:0|0:0,0:0:0:0:
252,161,10406,2,0,P|214:137|123:144,1,120,8|0,0:0|0:0,0:0:0:0:
64,215,11051,2,0,P|52:312|85:349,1,120,6|0,0:0|0:0,0:0:0:0:
105,357,11535,2,0,L|280:369,1,120,8|0,0:0|0:0,0:0:0:0:
275,348,12018,1,8,0:0:0:0:
382,363,12341,6,0,P|444:358|502:321,1,120,6|0,0:0|0:0,0:0:0:0:
496,275,12825,2,0,B|496:215|496:215|473:138,1,120,8|0,0:0|0:0,0:0:0:0:
463,106,13309,1,2,0:0:0:0:
385,30,13631,5,8,0:0:0:0:
355,133,13954,1,8,0:0:0:0:
263,75,14277,2,0,L|143:86,1,120,8|8,0:0|0:0,0:0:0:0:
201,177,14922,6,0,L|55:191,2,120,6|8|0,0:0|0:0|0:0,0:0:0:0:
253,193,15728,1,2,0:0:0:0:
253,193,15889,1,8,0:0:0:0:
346,247,16212,2,0,P|361:189|343:133,1,120,2|8,0:0|0:0,0:0:0:0:
313,87,16696,2,0,P|252:84|202:44,1,120,0|2,0:0|0:0,0:0:0:0:
164,19,17180,1,8,0:0:0:0:
129,121,17502,6,0,L|-19:117,2,120,2|8|0,0:0|0:0|0:0,0:0:0:0:
176,149,18309,2,0,L|258:150,1,60,2|8,0:0|0:0,0:0:0:0:
337,189,18793,2,0,P|417:155|483:192,1,120,2|8,0:0|0:0,0:0:0:0:
492,189,19277,2,0,L|492:313,1,120,0|2,0:0|0:0,0:0:0:0:
456,349,19760,1,8,0:0:0:0:
368,284,20083,6,0,L|231:296,2,120,6|8|0,0:0|0:0|0:0,0:0:0:0:
397,238,20889,1,2,0:0:0:0:
397,238,21051,1,8,0:0:0:0:
477,165,21373,2,0,P|423:133|342:148,1,120,2|8,0:0|0:0,0:0:0:0:
318,159,21857,2,0,P|258:160|208:129,1,120,0|2,0:0|0:0,0:0:0:0:
173,88,22341,1,8,0:0:0:0:
67,66,22664,5,2,0:0:0:0:
35,169,22986,1,8,0:0:0:0:
129,227,23309,1,0,0:0:0:0:
129,227,23470,2,0,L|102:355,1,120,8|0,0:0|0:0,0:0:0:0:
156,357,23954,2,0,P|212:338|291:338,1,120,10|4,0:0|0:0,0:0:0:0:
313,300,24438,2,0,P|272:249|227:189,1,120,8|2,0:0|0:0,0:0:0:0:
209,162,24922,2,0,L|118:179,1,60,8|8,0:0|0:0,0:0:0:0:
102,147,25244,6,0,P|61:109|26:32,2,120,2|12|0,0:0|0:0|0:0,0:0:0:0:
209,162,26212,1,8,0:0:0:0:
315,181,26535,1,2,0:0:0:0:
334,74,26857,1,8,0:0:0:0:
228,56,27180,1,0,0:0:0:0:
209,162,27502,1,8,0:0:0:0:
145,249,27825,6,0,P|97:290|13:313,2,120,2|8|0,0:0|0:0|0:0,0:0:0:0:
209,162,28793,1,8,0:0:0:0:
315,181,29115,1,2,0:0:0:0:
392,254,29438,1,8,0:0:0:0:
466,174,29760,1,0,0:0:0:0:
387,100,30082,1,8,0:0:0:0:
315,181,30406,6,0,P|286:241|294:298,2,120,2|8|0,0:0|0:0|0:0,0:0:0:0:
387,100,31373,1,8,0:0:0:0:
289,49,31696,2,0,P|208:36|145:37,1,120,2|8,0:0|0:0,0:0:0:0:
62,35,32341,1,0,0:0:0:0:
20,135,32664,1,8,0:0:0:0:
81,223,32986,6,0,L|81:360,1,120,2|8,0:0|0:0,0:0:0:0:
190,357,33631,1,0,0:0:0:0:
291,320,33954,1,10,0:0:0:0:
341,226,34277,2,0,P|401:219|477:181,2,120,10|8|8,0:0|0:0|0:0,0:0:0:0:
268,145,35244,1,8,0:0:0:0:
183,76,35567,6,0,P|123:83|47:121,1,120,2|0,0:0|0:0,0:0:0:0:
49,156,36051,1,2,0:0:0:0:
49,156,36212,2,0,P|68:214|72:286,1,120,8|2,0:0|0:0,0:0:0:0:
163,331,36857,2,0,P|218:307|277:300,1,120,2|0,0:0|0:0,0:0:0:0:
331,292,37341,1,2,0:0:0:0:
331,292,37502,2,0,L|316:147,1,120,8|2,0:0|0:0,0:0:0:0:
414,121,38148,6,0,P|374:78|317:63,1,120,2|0,0:0|0:0,0:0:0:0:
263,72,38631,1,2,0:0:0:0:
263,72,38793,1,8,0:0:0:0:
157,92,39115,1,2,0:0:0:0:
111,188,39438,1,2,0:0:0:0:
111,188,39599,2,0,P|170:197|225:174,1,120,8|2,0:0|0:0,0:0:0:0:
279,170,40083,2,0,B|298:233|298:233|259:289,1,120,8|2,0:0|0:0,0:0:0:0:
165,314,40728,6,0,P|101:312|27:288,1,120,2|8,0:0|0:0,0:0:0:0:
19,194,41373,1,2,0:0:0:0:
65,96,41696,1,8,0:0:0:0:
65,96,41857,2,0,P|119:76|193:74,1,120,2|2,0:0|0:0,0:0:0:0:
223,105,42341,2,0,L|283:123,2,60,8|0|2,0:0|0:0|0:0,0:0:0:0:
176,201,42986,2,0,L|121:226,1,60,8|2,0:0|0:0,0:0:0:0:
124,281,43309,6,0,P|182:301|235:338,2,120,2|8|2,0:0|0:0|0:0,0:0:0:0:
17,263,44277,1,8,0:0:0:0:
36,158,44599,2,0,P|42:99|80:52,1,120,2|8,0:0|0:0,0:0:0:0:
144,142,45244,2,0,P|203:134|261:145,1,120,8|8,0:0|0:0,0:0:0:0:
324,57,45889,6,0,P|363:107|366:174,1,120,2|8,0:0|0:0,0:0:0:0:
295,242,46535,2,0,P|303:300|340:346,1,120,2|8,0:0|0:0,0:0:0:0:
448,347,47180,2,0,P|485:301|492:242,1,120,2|10,0:0|0:0,0:0:0:0:
494,134,47825,1,2,0:0:0:0:
433,44,48148,1,8,0:0:0:0:
325,34,48470,1,2,0:0:0:0:
222,68,48793,6,0,L|51:70,2,120,8|2|8,0:0|0:0|0:0,0:0:0:0:
306,133,49760,2,0,P|369:121|449:168,1,120,2|8,0:0|0:0,0:0:0:0:
357,231,50406,1,2,0:0:0:0:
357,231,50567,2,0,L|271:242,1,60,2|8,0:0|0:0,0:0:0:0:
202,290,51051,6,0,P|139:302|59:255,2,120,2|8|2,0:0|0:0|0:0,0:0:0:0:
297,238,52018,1,8,0:0:0:0:
381,305,52341,2,0,P|444:317|524:270,2,120,2|8|2,0:0|0:0|0:0,0:0:0:0:
168,193,53631,6,0,L|62:198,2,80,2|2|2,0:0|0:0|0:0,0:0:0:0:
224,135,54277,2,0,L|336:129,2,80,2|2|2,0:0|0:0|0:0,0:0:0:0:
146,115,54922,2,0,L|33:122,2,80,2|2|2,0:0|0:0|0:0,0:0:0:0:
202,58,55567,1,2,0:0:0:0:
346,213,56212,6,0,P|295:220|215:200,1,120,2|8,0:0|0:0,0:0:0:0:
177,190,56696,2,0,L|177:321,1,120,2|0,0:0|0:0,0:0:0:0:
177,364,57180,1,8,0:0:0:0:
73,335,57502,6,0,L|73:215,1,120,2|8,0:0|0:0,0:0:0:0:
44,169,57986,2,0,P|46:106|101:62,1,120,2|0,0:0|0:0,0:0:0:0:
134,48,58470,1,8,0:0:0:0:
241,51,58793,6,0,L|361:51,1,120,2|8,0:0|0:0,0:0:0:0:
415,51,59277,2,0,P|445:85|471:166,1,120,2|0,0:0|0:0,0:0:0:0:
476,207,59760,1,8,0:0:0:0:
419,298,60083,6,0,B|343:309|370:287|299:297,1,120,2|8,0:0|0:0,0:0:0:0:
226,217,60728,2,0,B|155:227|182:205|106:216,2,120,0|8|2,0:0|0:0|0:0,0:0:0:0:
328,167,61696,5,8,0:0:0:0:
328,167,61857,2,0,P|291:120|227:102,1,120,2|0,0:0|0:0,0:0:0:0:
181,98,62341,2,0,L|61:109,1,120,8|2,0:0|0:0,0:0:0:0:
69,214,62986,5,8,0:0:0:0:
69,214,63148,2,0,L|194:202,1,120,2|0,0:0|0:0,0:0:0:0:
242,198,63631,1,8,0:0:0:0:
341,156,63954,6,0,P|346:215|342:285,1,120,2|8,0:0|0:0,0:0:0:0:
303,313,64438,2,0,P|238:303|181:349,1,120,2|0,0:0|0:0,0:0:0:0:
142,313,64922,1,8,0:0:0:0:
70,232,65244,5,2,0:0:0:0:
115,134,65567,2,0,L|64:83,2,60,0|2|8,0:0|0:0|0:0,0:0:0:0:
221,112,66212,2,0,L|221:33,1,60,2|8,0:0|0:0,0:0:0:0:
273,37,66535,6,0,P|330:34|394:47,1,120,6|8,0:0|0:0,0:0:0:0:
430,83,67018,2,0,L|430:216,1,120,2|0,0:0|0:0,0:0:0:0:
383,231,67502,1,10,0:0:0:0:
282,190,67825,6,0,B|224:225|224:225|204:292,1,120,2|8,0:0|0:0,0:0:0:0:
217,328,68309,2,0,P|272:338|356:322,1,120,2|0,0:0|0:0,0:0:0:0:
387,316,68793,1,10,0:0:0:0:
482,365,69115,6,0,B|498:299|498:299|465:237,1,120,2|8,0:0|0:0,0:0:0:0:
453,202,69599,2,0,P|398:211|313:195,1,120,2|0,0:0|0:0,0:0:0:0:
282,190,70083,1,10,0:0:0:0:
201,117,70406,5,2,0:0:0:0:
298,68,70728,1,8,0:0:0:0:
298,68,70889,2,0,B|346:102|346:102|415:113,1,120,2|0,0:0|0:0,0:0:0:0:
448,145,71373,1,2,0:0:0:0:
398,241,71696,6,0,P|335:231|267:248,1,120,2|8,0:0|0:0,0:0:0:0:
186,189,72341,2,0,P|123:179|55:196,1,120,0|10,0:0|0:0,0:0:0:0:
75,82,72986,6,0,B|131:63|131:63|214:75,1,120,2|8,0:0|0:0,0:0:0:0:
269,145,73631,2,0,B|329:153|329:153|385:134,1,120,0|10,0:0|0:0,0:0:0:0:
471,68,74277,6,0,L|471:206,2,120,2|8|0,0:0|0:0|0:0,0:0:0:0:
364,45,75244,1,2,0:0:0:0:
257,28,75567,5,6,0:0:0:0:
257,28,75728,2,0,P|209:61|194:135,1,120,2|6,0:0|0:0,0:0:0:0:
192,172,76212,1,8,0:0:0:0:
289,219,76535,1,6,0:0:0:0:
281,114,76857,6,0,P|331:91|410:99,1,120,0|2,0:0|0:0,0:0:0:0:
451,185,77502,2,0,B|432:240|432:240|354:299,1,120,8|2,1:2|0:0,0:0:0:0:
289,219,78148,1,8,1:2:0:0:
197,275,78470,2,0,L|197:337,2,60,0|8|6,0:0|1:2|0:0,1:0:0:0:
101,222,79115,1,8,1:2:0:0:
98,113,79438,6,0,B|141:76|141:76|212:53,1,120,6|2,0:0|0:0,0:0:0:0:
305,27,80083,1,8,1:2:0:0:
405,67,80406,1,2,0:0:0:0:
466,155,80728,1,8,1:2:0:0:
413,249,81051,2,0,L|413:319,2,60,0|8|4,0:0|1:2|0:0,1:0:0:0:
351,160,81696,1,2,0:0:0:0:
231,159,82018,6,0,L|289:72,2,80,2|2|2,0:0|0:0|0:0,0:0:0:0:
152,175,82664,2,0,L|57:139,2,80,2|2|2,0:0|0:0|0:0,0:0:0:0:
205,235,83309,2,0,L|236:320,2,80,2|2|2,0:0|0:0|0:0,0:0:0:0:
152,175,83954,1,2,0:0:0:0:
114,104,84169,6,0,L|19:104,2,80,2|2|2,0:0|0:0|0:0,0:0:0:0:
193,104,84814,2,0,L|193:24,2,80,2|2|2,0:0|0:0|0:0,0:0:0:0:
258,150,85459,2,0,L|346:216,1,80,2|2,0:0|0:0,0:0:0:0:
386,245,85889,6,0,L|392:324,2,80,2|2|0,0:0|0:0|0:0,0:0:0:0:
391,161,86535,1,2,0:0:0:0:
380,244,94922,5,8,1:3:0:0:
380,244,95083,2,0,L|442:240,2,60,8|4|4,1:3|1:3|1:3,1:3:0:0:
334,274,95567,2,0,P|274:295|205:271,1,120,4|4,1:3|1:3,1:3:0:0:
161,191,96212,1,0,0:0:0:0:
166,82,96535,2,0,B|103:32|42:37,2,120,8|8|8,0:0|0:0|0:0,0:0:0:0:
246,153,97502,6,0,P|263:203|261:294,1,120,6|8,0:0|0:0,0:0:0:0:
229,310,97986,2,0,P|172:322|93:317,1,120,4|0,0:0|0:0,0:0:0:0:
91,269,98470,1,12,0:0:0:0:
50,168,98793,6,0,P|66:118|125:69,1,120,2|8,0:0|0:0,0:0:0:0:
219,44,99438,1,0,0:0:0:0:
324,67,99760,1,10,0:0:0:0:
406,137,100083,6,0,P|387:203|327:245,1,120,2|8,0:0|0:0,0:0:0:0:
297,250,100567,2,0,B|263:221|263:221|165:226,1,120
133,229,101051,1,8,0:0:0:0:
149,120,101373,5,2,0:0:0:0:
234,53,101696,1,8,0:0:0:0:
234,53,101857,2,0,L|387:49,1,120
395,85,102341,1,2,0:0:0:0:
417,190,102664,5,2,0:0:0:0:
376,290,102986,2,0,B|236:293,1,120,10|2,0:0|0:0,0:0:0:0:
188,208,103631,1,2,0:0:0:0:
230,108,103954,6,0,B|176:86|176:86|105:89,1,120,6|2,0:0|0:0,0:0:0:0:
44,174,104599,1,2,0:0:0:0:
85,274,104922,1,2,0:0:0:0:
192,290,105244,6,0,P|245:307|338:301,2,120,2|8|8,0:0|0:0|0:0,0:0:0:0:
156,188,106212,1,0,0:0:0:0:
198,88,106535,2,0,P|251:71|344:77,1,120,2|0,0:0|0:0,0:0:0:0:
407,125,107180,1,8,0:0:0:0:
408,232,107502,6,0,L|437:290,2,60,2|2|8,0:0|0:0|0:0,0:0:0:0:
256,192,107906,12,0,109115,2:0:0:0:
