osu file format v14

[General]
AudioFilename: audio.mp3
AudioLeadIn: 0
PreviewTime: 55486
Countdown: 0
SampleSet: Normal
StackLeniency: 0.3
Mode: 0
LetterboxInBreaks: 0
WidescreenStoryboard: 1

[Editor]
Bookmarks: 9438,10728,56212,69438,82126
DistanceSpacing: 0.9
BeatDivisor: 4
GridSize: 4
TimelineZoom: 1.7

[Metadata]
Title:Lapistoria no yakusoku
TitleUnicode:ラピストリアの約束
Artist:positive MAD-crew
ArtistUnicode:positive MAD-crew
Creator:SLM
Version:Hyper
Source:pop'n music ラピストリア
Tags:Beomsan Rigid Blue Remains Des ROW DesROW Dcrew MakkuruP Konami nia
BeatmapID:1149220
BeatmapSetID:531745

[Difficulty]
HPDrainRate:6
CircleSize:4
OverallDifficulty:7
ApproachRate:8.5
SliderMultiplier:1.6
SliderTickRate:1

[Events]
//Background and Video events
0,0,"residentsleeper.png",0,0
//Break Periods
2,87180,94247
//Storyboard Layer 0 (Background)
//Storyboard Layer 1 (Fail)
//Storyboard Layer 2 (Pass)
//Storyboard Layer 3 (Foreground)
//Storyboard Sound Samples

[TimingPoints]
2019,322.58064516129,4,1,1,45,1,0
2019,-142.857142857143,4,1,1,45,0,0
3631,-142.857142857143,4,1,1,50,0,0
3954,-142.857142857143,4,1,1,55,0,0
4277,-142.857142857143,4,1,1,60,0,0
4599,-100,4,1,1,65,0,0
13631,-100,4,1,1,75,0,0
14277,-100,4,1,1,85,0,0
14922,-125,4,1,1,50,0,0
22664,-125,4,1,1,65,0,0
22825,-125,4,1,1,75,0,0
22986,-125,4,1,1,65,0,0
23148,-125,4,1,1,75,0,0
23470,-125,4,1,1,65,0,0
23631,-125,4,1,1,75,0,0
23954,-125,4,1,1,50,0,0
25244,-111.111111111111,4,1,1,50,0,0
32986,-111.111111111111,4,1,1,65,0,0
33631,-111.111111111111,4,1,1,55,0,0
34277,-100,4,1,1,65,0,0
35567,-100,4,1,1,45,0,0
40728,-100,4,1,1,50,0,0
45889,-100,4,1,1,55,0,0
48470,-100,4,1,1,45,0,0
51051,-125,4,1,1,35,0,0
53631,-125,4,1,1,70,0,0
55567,-125,4,1,1,75,0,0
56212,-100,4,1,1,65,0,1
60889,-100,4,1,1,75,0,1
61373,-100,4,1,1,65,0,1
65889,-100,4,1,1,70,0,1
66535,-100,4,1,1,75,0,1
66857,-100,4,1,1,65,0,1
71696,-100,4,1,1,75,0,1
74277,-100,4,1,1,65,0,1
76857,-100,4,2,1,60,0,0
79438,-100,4,2,1,65,0,0
82018,-100,4,1,1,62,0,0
82664,-100,4,1,1,66,0,0
83309,-100,4,1,1,68,0,0
84814,-100,4,1,1,74,0,0
85459,-100,4,1,1,80,0,0
86535,-100,4,1,1,75,0,0
94922,-100,4,1,1,65,0,0
96696,-100,4,1,1,75,0,0
97502,-90.9090909090909,4,1,1,80,0,1
98793,-90.9090909090909,4,1,1,65,0,1
102664,-90.9090909090909,4,1,1,70,0,1
103954,-90.9090909090909,4,1,1,80,0,1
105244,-90.9090909090909,4,1,1,65,0,1
105728,-90.9090909090909,4,1,1,75,0,1
105889,-90.9090909090909,4,1,1,65,0,1
106051,-90.9090909090909,4,1,1,75,0,1
106212,-90.9090909090909,4,1,1,65,0,1
107502,-90.9090909090909,4,1,1,55,0,1
107825,-90.9090909090909,4,1,1,55,0,0
109115,-90.9090909090909,4,1,1,5,0,0

[Colours]
Combo1 : 51,157,208
Combo2 : 66,191,154
Combo3 : 111,92,209

[HitObjects]
35,61,2019,5,2,0:0:0:0:
55,162,2664,1,2,0:0:0:0:
133,94,2986,1,2,0:0:0:0:
231,127,3309,6,0,L|270:125,3,27.9999991455078,2|0|0|0,0:0|0:0|0:0|0:0,0:0:0:0:
293,168,3631,2,0,L|332:166,3,27.9999991455078,2|0|0|0,0:0|0:0|0:0|0:0,0:0:0:0:
355,209,3954,6,0,L|394:207,3,27.9999991455078,2|0|0|0,0:0|0:0|0:0|0:0,0:0:0:0:
417,250,4277,2,0,L|456:248,3,27.9999991455078,2|0|0|0,0:0|0:0|0:0|0:0,0:0:0:0:
460,290,4599,6,0,P|400:326|310:334,1,160,6|0,0:0|0:0,0:0:0:0:
238,245,5083,1,0,0:0:0:0:
303,150,5244,2,0,P|341:133|408:135,1,80
403,225,5567,2,0,P|366:241|327:245,1,80
191,135,5889,6,0,P|116:131|60:206,1,160
151,229,6373,1,0,0:0:0:0:
118,323,6535,2,0,L|198:322,1,80,12|0,0:0|0:0,0:0:0:0:
231,226,6857,2,0,L|152:229,1,80
306,295,7180,6,0,P|392:276|455:233,1,160,6|0,0:0|0:0,0:0:0:0:
428,127,7664,1,0,0:0:0:0:
350,62,7825,2,0,P|309:66|258:101,1,80
171,202,8148,2,0,P|211:199|247:182,1,80
67,132,8470,6,0,P|31:148|5:178,1,80,2|0,0:0|0:0,0:0:0:0:
57,259,8793,1,0,0:0:0:0:
57,259,8954,1,8,0:0:0:0:
170,133,9116,2,0,P|158:94|136:62,1,80,4|0,0:0|0:0,0:0:0:0:
157,240,9438,2,0,P|196:236|232:219,1,80,8|0,0:0|0:0,0:0:0:0:
355,193,9760,6,0,L|342:272,1,80,6|0,0:0|0:0,0:0:0:0:
215,327,10083,2,0,L|228:248,1,80,0|0,0:0|0:0,0:0:0:0:
386,198,10406,2,0,L|374:277,1,80,8|0,0:0|0:0,0:0:0:0:
303,132,10728,1,0,0:0:0:0:
227,248,10889,1,0,0:0:0:0:
137,191,11051,6,0,L|125:113,1,80,6|0,0:0|0:0,0:0:0:0:
227,248,11373,1,0,0:0:0:0:
253,120,11535,1,8,0:0:0:0:
89,157,11696,2,0,L|102:235,1,80
289,281,12018,1,8,0:0:0:0:
327,121,12180,1,0,0:0:0:0:
160,94,12341,6,0,P|114:96|79:117,1,80,6|0,0:0|0:0,0:0:0:0:
52,212,12664,1,0,0:0:0:0:
232,183,12825,1,8,0:0:0:0:
140,181,12986,1,0,0:0:0:0:
256,283,13148,1,0,0:0:0:0:
316,143,13309,2,0,P|332:135|357:131,3,40,2|2|2|2,0:0|0:0|0:0|0:0,0:0:0:0:
389,141,13631,5,8,0:0:0:0:
404,166,13711,1,8,0:0:0:0:
407,195,13792,1,8,0:0:0:0:
397,223,13872,1,8,0:0:0:0:
374,243,13954,2,0,L|322:245,3,40,8|8|8|8,0:0|0:0|0:0|0:0,0:0:0:0:
292,222,14277,6,0,L|259:192,3,40,8|8|8|8,0:0|0:0|0:0|0:0,0:0:0:0:
231,172,14599,1,8,0:0:0:0:
198,163,14680,1,8,0:0:0:0:
165,163,14760,1,8,0:0:0:0:
134,175,14841,1,8,0:0:0:0:
110,198,14922,6,0,P|90:264|126:326,1,128,6|8,0:0|0:0,0:0:0:0:
184,255,15406,1,0,0:0:0:0:
308,321,15567,2,0,L|245:329,1,64,0|2,0:0|0:0,0:0:0:0:
359,240,15889,1,8,0:0:0:0:
308,321,16212,6,0,P|375:336|434:296,1,128,2|8,0:0|0:0,0:0:0:0:
409,160,16696,2,0,P|341:144|282:184,1,128,0|2,0:0|0:0,0:0:0:0:
219,279,17180,2,0,L|157:258,1,64,8|0,0:0|0:0,0:0:0:0:
115,110,17502,6,0,P|170:81|231:97,1,128,2|8,0:0|0:0,0:0:0:0:
292,170,17986,1,0,0:0:0:0:
378,131,18148,2,0,L|392:68,1,64,0|2,0:0|0:0,0:0:0:0:
292,170,18470,1,8,0:0:0:0:
230,96,18793,6,0,P|197:166|213:226,1,128,2|8,0:0|0:0,0:0:0:0:
358,256,19277,2,0,P|389:201|381:138,1,128,0|2,0:0|0:0,0:0:0:0:
268,197,19760,2,0,L|189:217,1,64,8|0,0:0|0:0,0:0:0:0:
240,300,20083,6,0,P|303:288|358:256,1,128,6|8,0:0|0:0,0:0:0:0:
388,151,20567,1,0,0:0:0:0:
306,82,20728,2,0,P|245:60|172:60,1,128,0|8,0:0|0:0,0:0:0:0:
104,135,21212,1,0,0:0:0:0:
119,243,21373,6,0,P|180:265|253:265,1,128,2|8,0:0|0:0,0:0:0:0:
325,200,21857,2,0,B|349:262|349:262|332:338,1,128,0|2,0:0|0:0,0:0:0:0:
179,349,22341,2,0,P|210:355|242:358,1,64,8|0,0:0|0:0,0:0:0:0:
242,266,22664,6,0,P|206:249|168:224,1,64,2|0,3:1|3:1,3:1:0:0:
251,107,22986,2,0,P|254:145|251:191,1,64,8|0,3:1|3:1,3:1:0:0:
138,151,23309,1,0,3:0:0:0:
187,300,23470,2,0,P|185:269|185:237,1,64,8|0,3:1|3:1,3:1:0:0:
253,170,23793,1,0,3:0:0:0:
365,265,23954,6,0,P|365:233|362:201,2,64,10|0|4,0:0|0:0|0:2,0:0:0:0:
333,111,24438,2,0,L|260:115,1,64,8|0,0:0|0:0,0:0:0:0:
181,193,24760,1,2,0:0:0:0:
181,193,24841,1,2,0:0:0:0:
181,193,24922,2,0,L|128:171,2,32,8|8|8,0:0|0:0|0:0,0:0:0:0:
336,215,25244,5,2,0:0:0:0:
326,352,25567,2,0,P|348:285|336:215,1,143.999995605469,12|0,0:0|0:0,0:0:0:0:
181,193,26051,2,0,P|150:200|113:224,2,71.9999978027344,2|8|0,0:0|0:0|0:0,0:0:0:0:
279,127,26535,6,0,P|252:110|207:100,1,71.9999978027344,2|0,0:0|0:0,0:0:0:0:
336,215,26857,2,0,L|413:176,1,71.9999978027344,8|0,0:0|0:0,0:0:0:0:
181,193,27180,2,0,L|116:225,1,71.9999978027344,0|2,0:0|0:0,0:0:0:0:
238,273,27502,2,0,P|265:290|310:300,1,71.9999978027344,8|0,0:0|0:0,0:0:0:0:
400,182,27825,6,0,P|388:102|344:46,2,143.999995605469,2|8|0,0:0|0:0|0:0,0:0:0:0:
416,273,28631,2,0,P|378:272|345:257,2,71.9999978027344,0|8|0,0:0|0:0|0:0,0:0:0:0:
304,339,29115,6,0,L|213:354,1,71.9999978027344,2|0,0:0|0:0,0:0:0:0:
155,257,29438,2,0,L|233:267,1,71.9999978027344,8|0,0:0|0:0,0:0:0:0:
86,177,29760,2,0,L|14:166,1,71.9999978027344,0|2,0:0|0:0,0:0:0:0:
83,267,30083,2,0,L|155:256,1,71.9999978027344,8|0,0:0|0:0,0:0:0:0:
317,143,30406,6,0,L|176:169,2,143.999995605469,2|8|0,0:0|0:0|0:0,0:0:0:0:
300,59,31212,2,0,L|228:73,2,71.9999978027344,2|8|0,0:0|0:0|0:0,0:0:0:0:
317,236,31696,6,0,L|245:250,1,71.9999978027344,2|0,0:0|0:0,0:0:0:0:
308,330,32018,2,0,L|382:338,1,71.9999978027344,8|0,0:0|0:0,0:0:0:0:
344,136,32341,2,0,L|272:150,1,71.9999978027344,0|2,0:0|0:0,0:0:0:0:
174,241,32664,2,0,L|245:249,1,71.9999978027344,8|0,0:0|0:0,0:0:0:0:
448,228,32986,6,0,B|465:162|465:162|449:84,1,143.999995605469,2|8,0:0|0:0,0:0:0:0:
314,270,33631,1,0,0:0:0:0:
357,161,33793,1,8,0:0:0:0:
282,55,33954,2,0,L|358:38,1,71.9999978027344,10|0,0:0|0:0,0:0:0:0:
164,149,34277,6,0,L|108:129,3,40,8|8|8|8,0:0|0:0|0:0|0:0,0:0:0:0:
157,171,34600,1,8,0:0:0:0:
150,193,34680,1,8,0:0:0:0:
142,216,34761,1,8,0:0:0:0:
135,238,34841,1,8,0:0:0:0:
128,262,34922,6,0,L|60:280,3,40,8|8|8|8,0:0|0:0|0:0|0:0,0:0:0:0:
145,278,35244,1,8,0:0:0:0:
162,294,35324,1,8,0:0:0:0:
180,310,35405,1,8,0:0:0:0:
197,326,35485,1,8,0:0:0:0:
215,343,35567,6,0,L|319:317,1,80,2|0,0:0|0:0,0:0:0:0:
386,325,35889,1,0,0:0:0:0:
317,217,36051,1,2,0:0:0:0:
215,359,36212,2,0,L|319:333,1,80,8|0,0:0|0:0,0:0:0:0:
175,221,36535,2,0,L|97:240,1,80,2|0,0:0|0:0,0:0:0:0:
41,345,36857,6,0,L|65:240,1,80,2|0,0:0|0:0,0:0:0:0:
57,159,37179,1,0,0:0:0:0:
175,221,37341,1,2,0:0:0:0:
175,221,37422,1,0,0:0:0:0:
175,221,37502,2,0,L|156:298,1,80,8|0,0:0|0:0,0:0:0:0:
282,251,37825,2,0,P|243:245|207:229,1,80,2|8,0:0|0:0,0:0:0:0:
57,159,38148,6,0,P|93:142|132:136,1,80,2|0,0:0|0:0,0:0:0:0:
233,141,38470,2,0,P|227:102|211:66,1,80,0|2,0:0|0:0,0:0:0:0:
175,221,38793,2,0,P|181:260|197:296,1,80,8|0,0:0|0:0,0:0:0:0:
358,302,39115,2,0,L|281:322,1,80,2|0,0:0|0:0,0:0:0:0:
386,153,39438,5,2,0:0:0:0:
287,225,39599,2,0,P|249:211|216:188,1,80,8|0,0:0|0:0,0:0:0:0:
262,43,39922,1,2,0:0:0:0:
262,43,40002,1,0,0:0:0:0:
262,43,40083,2,0,P|279:79|287:118,1,80,8|0,0:0|0:0,0:0:0:0:
168,71,40406,2,0,P|130:58|90:55,1,80,2|0,0:0|0:0,0:0:0:0:
30,172,40728,6,0,P|68:185|108:188,1,80,2|0,0:0|0:0,0:0:0:0:
287,154,41051,2,0,P|249:141|209:138,1,80,8|0,0:0|0:0,0:0:0:0:
130,288,41373,2,0,P|167:273|200:250,1,80,2|0,0:0|0:0,0:0:0:0:
287,154,41696,1,8,0:0:0:0:
287,154,41857,6,0,P|300:116|303:76,1,80,2|0,0:0|0:0,0:0:0:0:
341,234,42180,2,0,L|321:311,1,80,2|8,0:0|0:0,0:0:0:0:
399,154,42502,2,0,L|393:115,2,40,0|0|2,0:0|0:0|0:0,0:0:0:0:
457,52,42825,1,0,0:0:0:0:
488,171,42986,2,0,P|474:224|455:258,1,80,8|2,0:0|0:0,0:0:0:0:
393,115,43309,6,0,L|315:101,1,80,2|2,0:0|0:0,0:0:0:0:
214,137,43631,2,0,P|210:95|214:57,1,80,8|0,0:0|0:0,0:0:0:0:
184,223,43954,2,0,L|366:223,1,160,2|8,0:0|0:0,0:0:0:0:
312,320,44438,1,2,0:0:0:0:
212,351,44599,6,0,L|134:337,1,80,2|0,0:0|0:0,0:0:0:0:
184,223,44922,2,0,L|96:239,1,80,8|2,0:0|0:0,0:0:0:0:
105,237,45164,1,0,0:0:0:0:
105,237,45244,1,8,0:0:0:0:
124,125,45406,1,2,0:0:0:0:
224,73,45567,2,0,L|315:133,1,80,8|2,0:0|0:0,0:0:0:0:
376,62,45889,6,0,P|396:117|394:161,1,80,2|0,0:0|0:0,0:0:0:0:
500,159,46212,2,0,P|486:195|461:227,1,80,8|0,0:0|0:0,0:0:0:0:
420,318,46535,2,0,L|342:336,1,80,2|0,0:0|0:0,0:0:0:0:
253,254,46857,2,0,L|330:235,1,80,8|0,0:0|0:0,0:0:0:0:
242,149,47180,6,0,L|160:149,1,80,2|0,0:0|0:0,0:0:0:0:
129,269,47502,1,10,0:0:0:0:
57,197,47664,1,0,0:0:0:0:
57,197,47745,1,0,0:0:0:0:
57,197,47825,2,0,P|49:153|54:104,1,80,2|0,0:0|0:0,0:0:0:0:
157,46,48148,2,0,P|165:90|160:139,1,80,8|2,0:0|0:0,0:0:0:0:
266,118,48470,6,0,L|272:39,1,80,2|0,0:0|0:0,0:0:0:0:
355,171,48793,2,0,L|315:240,1,80,8|0,0:0|0:0,0:0:0:0:
207,328,49115,2,0,P|207:289|217:250,1,80,2|0,0:0|0:0,0:0:0:0:
309,327,49438,2,0,L|344:355,2,40,8|2|0,0:0|0:0|0:0,0:0:0:0:
218,251,49760,6,0,L|139:268,1,80,2|0,0:0|0:0,0:0:0:0:
277,181,50083,1,8,0:0:0:0:
277,181,50244,2,0,L|329:168,2,40,0|0|2,0:0|0:0|0:0,0:0:0:0:
405,108,50567,1,2,0:0:0:0:
467,189,50728,1,8,0:0:0:0:
421,103,50889,1,2,0:0:0:0:
374,202,51051,6,0,L|329:220,2,32,2|2|2,0:0|0:0|0:0,0:0:0:0:
310,292,51373,1,8,0:0:0:0:
310,292,51454,2,0,P|337:318|374:325,1,64,2|2,0:0|0:0,0:0:0:0:
397,326,51696,6,0,L|409:367,2,32,2|2|2,0:0|0:0|0:0,0:0:0:0:
483,309,52018,1,8,0:0:0:0:
374,202,52341,5,2,0:0:0:0:
374,202,52422,2,0,L|325:220,1,32,2|0,0:0|0:0,0:0:0:0:
268,190,52664,1,8,0:0:0:0:
233,279,52825,2,0,L|179:253,2,32,2|2|2,0:0|0:0|0:0,0:0:0:0:
374,202,53309,1,2,0:2:0:0:
238,189,53631,5,2,0:0:0:0:
374,202,53846,1,2,0:0:0:0:
317,87,54062,1,2,0:0:0:0:
389,212,54277,5,2,0:0:0:0:
319,69,54492,1,2,0:0:0:0:
220,196,54707,1,2,0:0:0:0:
406,224,54922,5,2,0:0:0:0:
205,205,55137,1,2,0:0:0:0:
322,54,55352,1,2,0:0:0:0:
382,245,55567,1,2,0:0:0:0:
315,194,56212,6,0,L|153:199,1,160,2|8,0:0|0:0,0:0:0:0:
278,90,56696,2,0,L|171:92,2,80,2|0|0,0:0|0:0|0:0,0:0:0:0:
385,137,57180,2,0,P|395:92|379:39,1,80,8|0,0:0|0:0,0:0:0:0:
257,199,57502,6,0,P|246:269|271:354,1,160,2|8,0:0|0:0,0:0:0:0:
365,226,57986,2,0,P|357:264|366:303,1,80,2|0,0:0|0:0,0:0:0:0:
270,353,58309,1,2,2:0:0:0:
270,353,58389,1,2,2:0:0:0:
270,353,58470,2,0,L|166:351,1,80,8|0,0:0|0:0,0:0:0:0:
38,258,58793,6,0,B|78:213|78:213|180:180,1,160,2|8,0:0|0:0,0:0:0:0:
209,288,59277,2,0,L|134:315,2,80,2|0|0,0:0|0:0|0:0,0:0:0:0:
342,208,59760,2,0,L|264:238,1,80,8|0,0:0|0:0,0:0:0:0:
387,333,60083,6,0,P|418:280|423:230,1,80,2|0,0:0|0:0,0:0:0:0:
334,128,60406,2,0,L|342:209,1,80,8|0,0:0|0:0,0:0:0:0:
240,81,60728,5,0,2:0:0:0:
161,153,60889,1,2,2:0:0:0:
146,141,60969,1,2,2:0:0:0:
130,128,61050,1,10,2:1:0:0:
114,116,61130,1,2,2:0:0:0:
99,103,61211,1,2,2:0:0:0:
51,207,61373,6,0,B|3:250|2:305|2:305|26:366,1,160,2|8,0:0|0:0,0:0:0:0:
172,269,61857,2,0,B|124:276|124:276|62:306,2,80,2|0|0,0:0|0:0|0:0,0:0:0:0:
263,312,62341,2,0,B|311:305|311:305|373:275,1,80,8|0,0:0|0:0,0:0:0:0:
266,168,62664,6,0,P|189:200|176:284,1,160,2|8,0:0|0:0,0:0:0:0:
340,292,63148,1,2,2:1:0:0:
340,292,63228,1,2,2:2:0:0:
340,292,63309,2,0,P|303:308|264:313,1,80
261,135,63631,2,0,L|278:213,1,80,8|0,0:0|0:0,0:0:0:0:
426,296,63954,6,0,B|425:212|425:212|352:152,1,160,2|8,0:0|0:0,0:0:0:0:
264,313,64438,2,0,P|304:308|354:282,2,80,2|0|0,0:0|0:0|0:0,0:0:0:0:
243,236,64922,1,8,0:0:0:0:
175,298,65083,1,2,0:0:0:0:
264,313,65244,6,0,P|259:273|233:223,1,80,2|8,0:0|0:0,0:0:0:0:
92,256,65567,1,0,0:0:0:0:
175,298,65728,1,2,0:0:0:0:
171,187,65889,2,0,P|134:169|78:163,1,80,8|0,0:0|0:0,0:0:0:0:
109,253,66212,1,2,0:0:0:0:
218,158,66373,1,8,0:0:0:0:
92,75,66535,6,0,P|23:117|14:197,1,160,6|8,0:0|0:0,0:0:0:0:
96,243,67018,2,0,L|96:150,2,80,2|0|0,0:0|0:0|0:0,0:0:0:0:
237,115,67502,2,0,L|208:41,1,80,10|0,0:0|0:0,0:0:0:0:
212,208,67825,6,0,P|255:272|332:280,1,160,2|8,0:0|0:0,0:0:0:0:
237,115,68309,1,2,2:1:0:0:
217,112,68389,1,2,2:2:0:0:
197,116,68470,2,0,P|133:160|125:237,1,160,0|10,0:0|0:0,0:0:0:0:
207,279,68954,1,0,0:0:0:0:
261,203,69115,6,0,P|185:188|125:237,1,160,2|8,0:0|0:0,0:0:0:0:
145,346,69599,2,0,B|192:330|213:311|213:311|242:321|298:311,1,160,2|0,0:0|0:0,0:0:0:0:
370,214,70083,2,0,L|265:202,1,80,10|0,0:0|0:0,0:0:0:0:
105,174,70406,6,0,L|210:162,1,80,2|0,0:0|0:0,0:0:0:0:
272,85,70728,1,8,0:0:0:0:
291,206,70889,1,2,2:1:0:0:
291,206,70970,1,2,2:0:0:0:
291,206,71051,2,0,L|387:192,1,80,2|0,2:0|0:0,0:0:0:0:
389,187,71293,1,8,0:0:0:0:
406,175,71373,2,0,P|407:127|392:87,1,80,2|0,0:0|0:0,0:0:0:0:
291,206,71696,6,0,L|306:295,1,80,2|0,0:0|0:0,0:0:0:0:
197,247,72018,2,0,L|197:344,1,80,8|2,0:0|0:0,0:0:0:0:
72,346,72341,2,0,L|91:269,1,80
131,92,72664,2,0,L|131:172,1,80,10|0,0:0|0:0,0:0:0:0:
272,256,72986,6,0,L|296:169,1,80,2|0,0:0|0:0,0:0:0:0:
344,44,73309,1,8,0:0:0:0:
391,181,73470,1,2,2:1:0:0:
391,181,73551,1,2,2:0:0:0:
391,181,73631,2,0,L|420:288,1,80
302,329,73954,2,0,P|236:338|189:327,1,80,10|0,0:0|0:0,0:0:0:0:
61,298,74277,6,0,P|108:240|179:265,1,160,2|8,0:0|0:0,0:0:0:0:
225,188,74760,1,0,0:0:0:0:
225,188,74922,2,0,B|180:146|180:146|154:64,1,120,0|8,0:0|0:0,0:0:0:0:
155,65,75244,2,0,B|119:59|119:59|58:75,1,80,2|0,0:0|0:0,0:0:0:0:
256,95,75567,5,6,0:0:0:0:
96,145,75728,2,0,P|107:184|148:222,1,80,2|8,0:0|1:3,0:0:0:0:
155,65,76051,1,6,0:0:0:0:
225,188,76212,2,0,L|317:180,1,80,8|0,0:0|0:0,0:0:0:0:
361,50,76535,2,0,L|269:58,1,80,6|2,0:0|0:0,0:0:0:0:
231,128,80728,6,0,L|325:116,2,80,8|0|0,0:0|0:0|0:0,0:0:0:0:
288,220,81212,6,0,L|247:226,1,40,8|2,0:0|2:1,2:1:0:0:
301,247,81373,2,0,L|216:278,1,80,4|2,0:0|2:1,0:0:0:0:
133,189,81696,6,0,L|80:194,1,40,2|0,2:1|0:0,0:0:0:0:
221,105,81857,1,8,0:0:0:0:
248,225,82018,5,2,0:0:0:0:
221,105,82234,1,2,0:0:0:0:
133,189,82449,1,2,0:0:0:0:
250,310,82664,5,2,0:0:0:0:
133,189,82879,1,2,0:0:0:0:
295,151,83094,1,2,0:0:0:0:
191,250,83309,5,2,0:0:0:0:
236,90,83524,1,2,0:0:0:0:
271,229,83739,1,2,0:0:0:0:
315,70,83954,1,2,0:0:0:0:
351,209,84169,5,2,0:0:0:0:
236,90,84384,1,2,0:0:0:0:
191,250,84599,1,2,0:0:0:0:
373,130,84814,5,2,0:0:0:0:
191,250,85029,1,2,0:0:0:0:
409,269,85244,1,2,0:0:0:0:
213,169,85459,5,2,0:0:0:0:
432,190,85674,1,2,0:0:0:0:
236,90,85889,1,2,0:0:0:0:
352,212,86105,2,0,L|333:271,1,53.3333333333333,2|0,0:0|0:0,0:0:0:0:
396,50,86320,1,0,0:0:0:0:
432,190,86535,5,2,0:0:0:0:
245,212,94922,6,0,P|284:203|318:182,1,80,8|8,1:3|1:3,1:3:0:0:
331,80,95244,1,4,1:3:0:0:
331,80,95406,1,4,1:3:0:0:
230,48,95567,2,0,P|227:86|238:125,1,80,4|4,1:3|1:3,1:3:0:0:
133,107,95889,2,0,L|94:124,3,40,4|0|0|0,1:3|0:0|0:0|0:0,0:0:0:0:
84,174,96212,6,0,P|117:213|163:228,1,80,0|0,0:3|0:3,0:3:0:0:
245,212,96535,1,8,0:0:0:0:
245,212,96696,1,8,0:0:0:0:
346,243,96857,6,0,L|338:282,3,40,8|8|8|8,0:0|0:0|0:0|0:0,0:0:0:0:
380,220,97180,1,8,0:0:0:0:
377,194,97260,1,8,0:0:0:0:
374,167,97341,1,8,0:0:0:0:
371,140,97421,1,8,0:0:0:0:
368,110,97502,6,0,L|251:89,1,88.000002685547,6|0,0:0|0:0,0:0:0:0:
190,120,97825,1,8,0:0:0:0:
147,238,97986,2,0,L|266:210,1,88.000002685547,4|0,0:0|0:0,0:0:0:0:
315,198,98309,1,0,0:0:0:0:
367,287,98470,2,0,B|413:289|413:289|467:273,1,88.000002685547,12|0,0:0|0:0,0:0:0:0:
462,177,98793,6,0,P|376:149|311:206,1,176.000005371094,2|8,0:0|0:0,0:0:0:0:
203,179,99277,1,0,0:0:0:0:
203,179,99438,2,0,L|116:190,1,88.000002685547
34,148,99760,2,0,P|63:116|105:102,1,88.000002685547,10|0,0:0|0:0,0:0:0:0:
203,179,100083,6,0,P|171:258|89:275,1,176.000005371094,2|8,0:0|0:0,0:0:0:0:
197,340,100567,2,0,P|237:325|289:325,2,88.000002685547
88,274,101051,2,0,P|52:245|32:184,1,88.000002685547,8|0,0:0|0:0,0:0:0:0:
115,153,101373,6,0,P|117:107|133:61,1,88.000002685547,2|0,0:0|0:0,0:0:0:0:
213,196,101696,1,8,0:0:0:0:
318,161,101857,2,0,P|321:202|305:270,1,88.000002685547,0|2,0:0|0:0,0:0:0:0:
322,68,102180,1,0,0:0:0:0:
408,145,102341,2,0,L|483:149,2,44.0000013427735,2|0|0,0:0|0:0|0:0,0:0:0:0:
427,254,102664,6,0,P|400:287|339:312,1,88.000002685547,2|8,0:0|0:0,0:0:0:0:
137,210,102986,2,0,L|234:171,1,88.000002685547,10|8,0:0|0:0,0:0:0:0:
350,121,103309,2,0,L|311:216,1,88.000002685547,2|8,0:0|0:0,0:0:0:0:
214,79,103631,2,0,B|169:69|169:69|127:70,1,88.000002685547,2|8,0:0|0:0,0:0:0:0:
225,286,103954,6,0,L|286:350,1,88.000002685547,6|8,0:0|0:0,0:0:0:0:
218,177,104277,2,0,L|121:216,1,88.000002685547,2|8,0:0|0:0,0:0:0:0:
376,132,104599,2,0,L|371:45,1,88.000002685547,2|8,0:0|0:0,0:0:0:0:
420,256,104922,2,0,P|373:264|332:254,1,88.000002685547,2|8,0:0|0:0,0:0:0:0:
218,177,105244,6,0,P|265:169|306:179,1,88.000002685547,2|0,0:0|0:0,0:0:0:0:
185,274,105567,1,8,0:0:0:0:
112,189,105728,2,0,L|56:179,2,44.0000013427735,0|0|8,2:0|2:0|0:0,0:0:0:0:
163,93,106051,1,0,2:0:0:0:
163,93,106131,1,0,2:0:0:0:
163,93,106212,2,0,L|252:94,1,88.000002685547
370,137,106535,6,0,L|368:50,1,88.000002685547,2|0,0:0|0:0,0:0:0:0:
291,111,106857,1,0,0:0:0:0:
241,179,107019,1,0,0:0:0:0:
291,247,107180,1,8,0:0:0:0:
370,221,107341,1,0,0:0:0:0:
385,152,107502,5,2,1:1:0:0:
385,152,107583,1,2,2:1:0:0:
385,152,107664,1,2,2:1:0:0:
385,152,107744,1,2,2:1:0:0:
385,152,107825,1,8,1:1:0:0:
256,192,107906,12,0,109115,2:0:0:0:
