osu file format v14

[General]
AudioFilename: audio.mp3
AudioLeadIn: 0
PreviewTime: 55486
Countdown: 0
SampleSet: Normal
StackLeniency: 0.3
Mode: 0
LetterboxInBreaks: 0
WidescreenStoryboard: 0

[Editor]
Bookmarks: 9438,10728,53631,56212,69438,82126
DistanceSpacing: 1.3
BeatDivisor: 4
GridSize: 4
TimelineZoom: 1.7

[Metadata]
Title:Lapistoria no yakusoku
TitleUnicode:ラピストリアの約束
Artist:positive MAD-crew
ArtistUnicode:positive MAD-crew
Creator:SLM
Version:Hard
Source:pop'n music ラピストリア
Tags:Beomsan Rigid Blue Remains Des ROW DesROW Dcrew MakkuruP Konami nia
BeatmapID:1126904
BeatmapSetID:531745

[Difficulty]
HPDrainRate:5
CircleSize:4
OverallDifficulty:6
ApproachRate:7.5
SliderMultiplier:1.4
SliderTickRate:1

[Events]
//Background and Video events
0,0,"residentsleeper.png",0,0
//Break Periods
2,86735,94097
//Storyboard Layer 0 (Background)
//Storyboard Layer 1 (Fail)
//Storyboard Layer 2 (Pass)
//Storyboard Layer 3 (Foreground)
//Storyboard Sound Samples

[TimingPoints]
2019,322.58064516129,4,1,1,50,1,0
2019,-142.857142857143,4,1,1,50,0,0
4599,-100,4,1,1,65,0,0
13631,-100,4,1,1,75,0,0
14277,-100,4,1,1,85,0,0
14922,-100,4,1,1,50,0,0
22664,-100,4,1,1,65,0,0
22825,-100,4,1,1,75,0,0
22986,-100,4,1,1,65,0,0
23148,-100,4,1,1,75,0,0
23470,-100,4,1,1,65,0,0
23631,-100,4,1,1,75,0,0
23954,-100,4,1,1,50,0,0
32986,-100,4,1,1,65,0,0
33631,-100,4,1,1,55,0,0
34277,-100,4,1,1,65,0,0
35567,-100,4,1,1,45,0,0
40728,-100,4,1,1,50,0,0
45889,-100,4,1,1,55,0,0
48470,-100,4,1,1,45,0,0
51051,-100,4,1,1,35,0,0
53631,-100,4,1,1,70,0,0
55567,-100,4,1,1,75,0,0
56212,-100,4,1,1,65,0,1
60889,-100,4,1,1,75,0,1
61373,-100,4,1,1,65,0,1
65889,-100,4,1,1,70,0,1
66535,-100,4,1,1,75,0,1
66857,-100,4,1,1,65,0,1
71696,-100,4,1,1,75,0,1
74277,-100,4,1,1,65,0,1
76857,-100,4,2,1,60,0,0
79438,-100,4,2,1,65,0,0
82018,-100,4,1,1,62,0,0
82664,-100,4,1,1,66,0,0
83309,-100,4,1,1,68,0,0
84814,-100,4,1,1,74,0,0
85459,-100,4,1,1,80,0,0
86535,-100,4,1,1,75,0,0
94922,-100,4,1,1,65,0,0
96696,-100,4,1,1,75,0,0
97502,-90.9090909090909,4,1,1,80,0,1
98470,-100,4,1,1,80,0,1
98793,-100,4,1,1,65,0,1
102664,-100,4,1,1,70,0,1
103954,-100,4,1,1,80,0,1
105244,-100,4,1,1,65,0,1
107502,-100,4,1,1,55,0,1
107825,-100,4,1,1,55,0,0
109115,-100,4,1,1,5,0,0

[Colours]
Combo1 : 51,157,208
Combo2 : 66,191,154
Combo3 : 111,92,209

[HitObjects]
87,131,2019,6,0,P|112:47|186:91,1,195.999994018555,2|2,0:0|0:0,0:0:0:0:
266,72,2986,1,2,0:0:0:0:
342,106,3309,6,0,P|391:103|433:136,1,97.9999970092774,2|2,0:0|0:0,0:0:0:0:
457,210,3954,2,0,P|407:212|365:179,1,97.9999970092774,2|0,0:0|0:0,0:0:0:0:
247,301,4599,6,0,B|99:301,1,140,6|0,0:0|0:0,0:0:0:0:
67,226,5083,1,0,0:0:0:0:
76,142,5244,2,0,P|98:112|125:95,1,70
154,174,5567,2,0,P|182:154|216:146,1,70
241,66,5889,6,0,P|309:52|399:78,1,140
451,106,6373,1,0,0:0:0:0:
451,190,6535,2,0,L|452:271,1,70,12|0,0:0|0:0,0:0:0:0:
373,288,6857,2,0,L|372:218,1,70
293,250,7180,6,0,P|226:265|155:254,1,140,6|0,0:0|0:0,0:0:0:0:
91,307,7664,1,0,0:0:0:0:
32,246,7825,2,0,P|37:206|64:163,1,70
102,113,8148,2,0,P|97:73|70:30,1,70
102,113,8470,6,0,L|247:94,1,140,2|0,0:0|0:0,0:0:0:0:
316,132,8954,1,8,0:0:0:0:
366,66,9115,2,0,B|398:56|398:56|460:72,1,70,4|0,0:0|0:0,0:0:0:0:
474,138,9438,2,0,B|442:148|442:148|380:132,1,70,8|0,0:0|0:0,0:0:0:0:
316,132,9760,6,0,L|316:220,1,70,6|0,0:0|0:0,0:0:0:0:
368,267,10083,2,0,P|399:269|436:288,1,70
375,347,10406,2,0,L|279:347,1,70,8|0,0:0|0:0,0:0:0:0:
221,347,10728,2,0,P|190:345|153:326,1,70
214,267,11051,6,0,L|214:171,1,70,6|0,0:0|0:0,0:0:0:0:
132,179,11373,1,0,0:0:0:0:
132,179,11535,2,0,L|132:249,2,70,8|0|0,0:0|0:0|0:0,0:0:0:0:
79,113,12018,2,0,P|109:97|144:94,1,70,8|0,0:0|0:0,0:0:0:0:
211,145,12341,6,0,P|245:142|276:126,1,70,6|0,0:0|0:0,0:0:0:0:
331,61,12664,1,0,0:0:0:0:
411,84,12825,2,0,L|493:84,2,70,8|0|0,0:0|0:0|0:0,0:0:0:0:
331,61,13309,2,0,L|234:61,1,70,2|2,0:0|0:0,0:0:0:0:
179,94,13631,6,0,L|132:94,7,35,8|8|8|8|8|8|8|8,0:0|0:0|0:0|0:0|0:0|0:0|0:0|0:0,0:0:0:0:
201,126,14277,6,0,L|255:126,3,35,8|8|8|8,0:0|0:0|0:0|0:0,0:0:0:0:
258,158,14599,2,0,L|312:158,3,35,8|8|8|8,0:0|0:0|0:0|0:0,0:0:0:0:
314,190,14922,6,0,P|378:164|442:189,1,140,6|8,0:0|0:0,0:0:0:0:
338,321,15567,2,0,L|259:341,1,70,0|2,0:0|0:0,0:0:0:0:
207,281,15889,1,8,0:0:0:0:
207,281,16212,6,0,P|248:227|315:216,1,140,2|8,0:0|0:0,0:0:0:0:
373,276,16696,2,0,P|398:210|368:152,1,140,0|2,0:0|0:0,0:0:0:0:
299,99,17180,1,8,0:0:0:0:
299,99,17502,6,0,P|236:69|169:85,1,140,2|8,0:0|0:0,0:0:0:0:
242,236,18148,2,0,L|319:210,1,70,0|2,0:0|0:0,0:0:0:0:
365,151,18470,1,8,0:0:0:0:
365,151,18793,6,0,L|365:298,1,140,2|8,0:0|0:0,0:0:0:0:
345,373,19277,2,0,P|291:330|286:262,1,140,0|2,0:0|0:0,0:0:0:0:
286,179,19760,1,8,0:0:0:0:
286,179,20083,6,0,L|139:191,1,140,6|8,0:0|0:0,0:0:0:0:
125,40,20728,2,0,L|201:34,1,70,0|2,0:0|0:0,0:0:0:0:
277,28,21051,1,8,0:0:0:0:
286,179,21373,6,0,B|216:201|216:201|144:204,1,140,2|8,0:0|0:0,0:0:0:0:
67,212,21857,2,0,P|88:147|168:120,1,140,0|2,0:0|0:0,0:0:0:0:
236,110,22341,2,0,P|262:87|290:52,1,70,8|0,0:0|0:0,0:0:0:0:
369,84,22664,6,0,P|351:119|326:151,1,70,2|0,3:1|3:1,3:1:0:0:
429,145,22986,2,0,P|418:182|398:218,1,70,8|0,3:1|3:1,3:1:0:0:
304,283,23309,5,0,3:1:0:0:
304,283,23470,2,0,P|313:249|328:218,2,70,8|0|0,3:1|3:1|3:1,3:1:0:0:
213,283,23954,2,0,P|210:248|214:213,2,70,10|0|4,0:0|0:0|0:0,0:0:0:0:
128,317,24438,2,0,P|113:285|105:251,1,70,8|0,0:0|0:0,0:0:0:0:
56,184,24760,6,0,L|12:186,4,35,2|2|8|8|8,0:0|0:0|0:0|0:0|0:0,0:0:0:0:
96,109,25244,6,0,L|241:98,3,140,2|12|0|8,0:0|0:0|0:0|0:0,0:0:0:0:
342,83,26535,6,0,P|373:66|420:52,1,70,2|0,0:0|0:0,0:0:0:0:
377,152,26857,2,0,P|410:140|459:135,1,70,8|0,0:0|0:0,0:0:0:0:
396,224,27180,2,0,P|430:218|479:221,1,70,0|2,0:0|0:0,0:0:0:0:
395,300,27502,2,0,P|430:300|478:312,1,70,8|0,0:0|0:0,0:0:0:0:
322,332,27825,6,0,L|156:343,3,140,2|8|0|8,0:0|0:0|0:0|0:0,0:0:0:0:
153,263,29115,6,0,P|120:275|79:302,1,70,2|0,0:0|0:0,0:0:0:0:
126,191,29438,2,0,P|91:197|46:217,1,70,8|0,0:0|0:0,0:0:0:0:
118,116,29760,2,0,P|82:116|34:128,1,70,0|2,0:0|0:0,0:0:0:0:
128,40,30083,2,0,P|93:34|44:37,1,70,8|0,0:0|0:0,0:0:0:0:
206,89,30406,6,0,P|255:130|305:88,3,140,2|8|0|8,0:0|0:0|0:0|0:0,0:0:0:0:
366,172,31696,6,0,P|388:211|391:263,1,70,2|0,0:0|0:0,0:0:0:0:
306,234,32018,2,0,P|317:277|306:328,1,70,8|0,0:0|0:0,0:0:0:0:
205,233,32341,2,0,P|194:267|195:301,1,70,0|2,0:0|0:0,0:0:0:0:
145,171,32663,2,0,P|126:201|119:234,1,70,8|0,0:0|0:0,0:0:0:0:
206,104,32986,6,0,P|255:63|304:106,1,140,2|8,0:0|0:0,0:0:0:0:
472,92,33631,1,0,0:0:0:0:
402,139,33793,1,8,0:0:0:0:
477,176,33954,2,0,L|477:263,1,70,10|0,0:0|0:0,0:0:0:0:
398,284,34277,6,0,L|332:292,3,35,10|8|8|8,0:0|0:0|0:0|0:0,0:0:0:0:
348,331,34599,2,0,L|281:327,3,35,8|8|8|8,0:0|0:0|0:0|0:0,0:0:0:0:
290,368,34922,6,0,L|225:352,3,35,8|8|8|8,0:0|0:0|0:0|0:0,0:0:0:0:
231,321,35244,2,0,L|197:323,3,35,8|8|8|8,0:0|0:0|0:0|0:0,0:0:0:0:
173,284,35567,6,0,L|75:307,1,70,2|0,0:0|0:0,0:0:0:0:
57,230,35890,1,0,0:0:0:0:
57,230,36051,1,2,0:0:0:0:
57,230,36212,2,0,L|155:207,1,70,8|0,0:0|0:0,0:0:0:0:
140,131,36535,2,0,L|124:62,1,70,2|0,0:0|0:0,0:0:0:0:
223,129,36857,6,0,L|223:216,1,70,2|0,0:0|0:0,0:0:0:0:
304,221,37180,1,0,0:0:0:0:
304,221,37341,1,2,0:0:0:0:
304,221,37502,2,0,L|304:135,1,70,8|0,0:0|0:0,0:0:0:0:
386,133,37825,2,0,P|394:166|416:214,1,70,2|8,0:0|0:0,0:0:0:0:
372,275,38148,6,0,P|329:302|285:302,1,70,2|0,0:0|0:0,0:0:0:0:
230,330,38470,2,0,P|228:279|250:241,1,70,0|2,0:0|0:0,0:0:0:0:
242,178,38793,2,0,P|192:189|161:220,1,70,8|0,0:0|0:0,0:0:0:0:
146,277,39115,2,0,P|117:257|99:228,1,70,2|0,0:0|0:0,0:0:0:0:
70,150,39438,5,2,0:0:0:0:
70,150,39599,2,0,B|107:146|107:146|156:121,1,70,8|0,0:0|0:0,0:0:0:0:
211,92,39922,1,2,0:0:0:0:
211,92,40083,2,0,B|248:96|248:96|297:121,1,70,8|0,0:0|0:0,0:0:0:0:
361,111,40406,2,0,L|448:110,1,70,2|0,0:0|0:0,0:0:0:0:
405,189,40728,6,0,L|335:189,1,70,2|0,0:0|0:0,0:0:0:0:
368,266,41051,2,0,L|286:266,1,70,8|0,0:0|0:0,0:0:0:0:
245,331,41373,2,0,L|175:330,1,70,2|0,0:0|0:0,0:0:0:0:
91,319,41696,1,8,0:0:0:0:
137,249,41857,6,0,P|93:221|86:139,1,140,2|2,0:0|0:0,0:0:0:0:
163,173,42341,1,8,0:0:0:0:
163,173,42502,1,0,0:0:0:0:
163,173,42664,2,0,L|190:108,1,70,2|0,0:0|0:0,0:0:0:0:
253,163,42986,2,0,L|333:107,1,70,8|2,0:0|0:0,0:0:0:0:
362,189,43309,6,0,P|395:192|458:180,1,70,2|2,0:0|0:0,0:0:0:0:
463,110,43631,2,0,P|430:107|367:119,1,70,8|0,0:0|0:0,0:0:0:0:
310,122,43954,2,0,B|240:122|240:122|165:74,1,140,2|8,0:0|0:0,0:0:0:0:
103,51,44438,1,2,0:0:0:0:
103,51,44599,6,0,L|103:135,1,70,2|0,0:0|0:0,0:0:0:0:
30,164,44922,2,0,L|30:248,1,70,8|2,0:0|0:0,0:0:0:0:
109,259,45244,1,8,0:0:0:0:
45,314,45406,1,2,0:0:0:0:
125,336,45567,2,0,L|220:352,1,70,8|2,0:0|0:0,0:0:0:0:
255,279,45889,6,0,L|160:263,1,70,2|0,0:0|0:0,0:0:0:0:
147,192,46212,2,0,L|230:181,1,70,8|0,0:0|0:0,0:0:0:0:
298,200,46535,2,0,P|346:218|377:249,1,70,2|0,0:0|0:0,0:0:0:0:
406,299,46857,2,0,P|437:258|447:215,1,70,8|0,0:0|0:0,0:0:0:0:
415,161,47180,6,0,L|344:125,1,70,2|0,0:0|0:0,0:0:0:0:
305,60,47502,1,10,0:0:0:0:
305,60,47664,1,0,0:0:0:0:
248,122,47825,2,0,P|199:137|157:137,1,70,2|0,0:0|0:0,0:0:0:0:
111,89,48148,2,0,P|76:93|43:105,1,70,8|2,0:0|0:0,0:0:0:0:
15,184,48470,6,0,L|15:265,1,70,2|0,0:0|0:0,0:0:0:0:
52,329,48793,2,0,B|86:321|86:321|140:332,1,70,8|0,0:0|0:0,0:0:0:0:
191,371,49115,2,0,L|284:371,1,70,2|0,0:0|0:0,0:0:0:0:
333,327,49438,2,0,B|367:319,2,35,8|2|0,0:0|0:0|0:0,0:0:0:0:
259,286,49760,6,0,L|189:286,1,70,2|0,0:0|0:0,0:0:0:0:
117,242,50083,1,8,0:0:0:0:
117,242,50244,2,0,B|83:234,2,35,0|0|2,0:0|0:0|0:0,0:0:0:0:
191,202,50567,1,2,0:0:0:0:
191,202,50728,2,0,B|226:195|226:195|283:205,1,70,8|2,0:0|0:0,0:0:0:0:
332,244,51051,6,0,B|365:249|365:249|400:242,1,70,2|2,0:0|0:0,0:0:0:0:
332,244,51373,2,0,B|326:277|326:277|333:312,1,70,8|0,0:0|0:0,0:0:0:0:
248,314,51696,2,0,B|253:280|253:280|246:245,1,70,2|2,0:0|0:0,0:0:0:0:
248,314,52018,2,0,B|214:308|214:308|179:315,1,70,8|0,0:0|0:0,0:0:0:0:
96,330,52341,6,0,L|6:356,2,70,2|2|8,0:0|0:0|0:0,0:0:0:0:
125,251,52825,1,2,0:0:0:0:
179,315,52986,2,0,B|266:297|266:297|286:221,1,140,2|2,0:0|0:2,0:0:0:0:
400,90,53631,6,0,L|499:55,2,93.3333333333333,2|2|2,0:0|0:0|0:0,0:0:0:0:
335,159,54277,5,2,0:0:0:0:
256,206,54492,1,2,0:0:0:0:
176,160,54707,1,2,0:0:0:0:
114,90,54922,6,0,L|15:55,2,93.3333333333333,2|2|2,0:0|0:0|0:0,0:0:0:0:
221,133,55567,1,2,0:0:0:0:
206,250,56212,6,0,L|346:250,1,140,2|8,0:0|0:0,0:0:0:0:
434,273,56696,2,0,L|481:330,2,70,2|0|0,0:0|0:0|0:0,0:0:0:0:
420,182,57180,2,0,P|423:129|438:94,1,70,8|0,0:0|0:0,0:0:0:0:
366,51,57502,6,0,P|362:142|315:190,1,140,2|8,0:0|0:0,0:0:0:0:
248,212,57986,2,0,P|267:240|295:261,2,70,2|0|0,0:0|0:0|0:0,0:0:0:0:
197,135,58470,2,0,P|177:106|149:85,1,70,8|0,0:0|0:0,0:0:0:0:
107,166,58793,6,0,L|107:309,1,140,2|8,0:0|0:0,0:0:0:0:
196,322,59277,2,0,P|231:307|286:315,2,70,2|0|0,0:0|0:0|0:0,0:0:0:0:
107,306,59760,2,0,L|58:235,1,70,8|0,0:0|0:0,0:0:0:0:
146,197,60083,6,0,L|146:127,1,70,2|0,0:0|0:0,0:0:0:0:
87,56,60406,2,0,P|104:46|160:37,2,70,8|0|0,0:0|0:0|2:0,0:0:0:0:
58,142,60889,2,0,L|20:154,4,35,2|2|10|2|2,2:0|2:0|2:1|2:0|2:0,0:0:0:0:
146,127,61373,6,0,L|300:127,1,140,2|8,0:0|0:0,0:0:0:0:
365,81,61857,2,0,B|344:41|282:33,2,70,2|0|0,0:0|0:0|0:0,0:0:0:0:
368,172,62341,2,0,P|417:157|447:120,1,70,8|0,0:0|0:0,0:0:0:0:
484,71,62664,6,0,L|484:239,1,140,2|8,0:0|0:0,0:0:0:0:
407,261,63148,2,0,L|319:293,2,70,2|0|0,0:0|0:0|0:0,0:0:0:0:
400,170,63631,2,0,P|380:137|327:115,1,70,8|0,0:0|0:0,0:0:0:0:
317,203,63954,6,0,B|251:227|251:227|159:228,1,140,2|8,0:0|0:0,0:0:0:0:
94,257,64438,2,0,P|87:214|97:179,2,70,2|0|0,0:0|0:0|0:0,0:0:0:0:
165,313,64922,2,0,L|250:312,1,70,8|2,0:0|0:0,0:0:0:0:
315,354,65244,6,0,L|402:354,1,70,2|8,0:0|0:0,0:0:0:0:
443,284,65567,1,0,0:0:0:0:
443,284,65728,1,2,0:0:0:0:
443,284,65889,2,0,L|443:208,1,70,8|0,0:0|0:0,0:0:0:0:
417,126,66212,5,2,0:0:0:0:
355,192,66373,1,8,0:0:0:0:
272,153,66535,2,0,P|211:122|150:152,2,140,6|8|0,0:0|0:0|0:0,0:0:0:0:
210,272,67502,2,0,L|210:202,1,70,10|0,0:0|0:0,0:0:0:0:
295,234,67825,6,0,B|363:252|363:252|431:234,1,140,2|8,0:0|0:0,0:0:0:0:
443,143,68309,1,2,0:0:0:0:
379,75,68470,2,0,P|318:93|278:165,1,140,0|10,0:0|0:0,0:0:0:0:
286,318,69115,6,0,B|216:306|216:306|128:328,1,140,2|8,0:0|0:0,0:0:0:0:
88,254,69599,2,0,L|244:214,1,140,2|0,0:0|0:0,0:0:0:0:
316,237,70083,1,10,0:0:0:0:
452,264,70406,6,0,P|472:235|476:200,1,70,2|0,0:0|0:0,0:0:0:0:
439,118,70728,1,8,0:0:0:0:
439,118,70889,2,0,P|432:87|415:54,2,70,2|0|0,0:0|0:0|0:0,0:0:0:0:
388,194,71373,2,0,P|369:223|339:240,1,70,2|0,0:0|0:0,0:0:0:0:
288,316,71696,6,0,P|241:316|196:307,1,70,2|0,0:0|0:0,0:0:0:0:
133,345,72018,2,0,P|92:321|57:291,1,70,8|2,0:0|0:0,0:0:0:0:
107,222,72341,2,0,L|107:142,1,70
197,163,72664,2,0,B|197:67,1,70,10|0,0:0|0:0,0:0:0:0:
109,75,72986,6,0,L|39:75,1,70,2|0,0:0|0:0,0:0:0:0:
165,7,73309,2,0,L|242:7,1,70,8|2,0:0|0:0,0:0:0:0:
302,66,73631,2,0,P|337:70|397:59,1,70
456,31,73954,2,0,P|459:65|455:100,1,70,10|0,0:0|0:0,0:0:0:0:
386,161,74277,6,0,B|317:146|317:146|241:164,1,140,2|8,0:0|0:0,0:0:0:0:
156,278,74922,2,0,B|197:289|235:275|235:275|242:321,1,105,0|8,0:0|0:0,0:0:0:0:
249,343,75244,2,0,P|289:346|326:337,1,70,2|0,0:0|0:0,0:0:0:0:
371,265,75567,5,6,0:0:0:0:
451,222,75728,2,0,P|455:162|447:132,1,70,2|8,0:0|1:3,0:0:0:0:
391,85,76051,1,6,0:0:0:0:
391,85,76212,2,0,P|331:81|301:89,1,70,8|0,0:0|0:0,0:0:0:0:
294,169,76535,2,0,P|354:173|384:165,1,70,6|2,0:0|0:0,0:0:0:0:
453,152,76857,6,0,P|456:187|451:222,1,70,2|0,0:0|0:0,0:0:0:0:
376,260,77180,2,0,P|361:291|339:318,1,70,2|2,2:1|2:1,0:0:0:0:
257,339,77502,2,0,L|257:378,2,35,8|0|2,0:0|0:0|2:1,0:0:0:0:
207,270,77825,2,0,L|179:242,2,35,2|2|2,2:1|2:1|2:1,0:0:0:0:
138,319,78148,6,0,L|165:346,2,35,8|0|2,0:0|0:0|2:1,0:0:0:0:
91,249,78470,1,2,0:0:0:0:
91,249,78631,2,0,L|118:221,2,35,8|0|6,0:0|0:0|2:1,0:0:0:0:
45,86,79115,2,0,L|114:84,1,70,8|2,0:0|2:1,0:0:0:0:
195,133,79438,6,0,L|264:131,1,70,6|0,2:1|0:0,0:0:0:0:
338,168,79760,2,0,P|345:136|326:79,1,70,2|2,2:1|2:1,0:0:0:0:
270,52,80083,2,0,L|242:24,2,35,8|0|0,0:0|0:0|0:0,0:0:0:0:
339,100,80406,2,0,L|378:100,2,35,2|2|2,2:1|2:1|2:1,0:0:0:0:
264,130,80728,6,0,P|229:135|192:130,1,70,8|0,0:0|0:0,0:0:0:0:
113,109,81051,1,2,0:0:0:0:
63,176,81212,2,0,P|94:191|136:189,1,70,8|4,0:0|0:0,0:0:0:0:
194,130,81535,1,2,2:1:0:0:
194,130,81696,2,0,L|184:77,2,35,2|0|8,2:1|0:0|0:0,0:0:0:0:
282,156,82018,6,0,L|390:162,2,93.3333333333333,2|2|2,0:0|0:0|0:0,0:0:0:0:
194,130,82664,5,2,0:0:0:0:
115,177,82879,1,2,0:0:0:0:
35,131,83094,1,2,0:0:0:0:
115,84,83309,6,0,L|221:84,2,93.3333333333333,2|2|2,0:0|0:0|0:0,2:0:0:0:
35,131,83954,1,2,0:0:0:0:
1,219,84169,6,0,L|1:320,2,93.3333333333333,2|2|2,0:0|0:0|0:0,0:0:0:0:
35,131,84815,5,2,0:0:0:0:
115,177,85030,1,2,0:0:0:0:
194,131,85245,1,2,0:0:0:0:
274,196,85459,6,0,L|264:291,2,93.3333333333333,2|2|2,0:0|0:0|0:0,0:0:0:0:
292,110,86105,2,0,L|327:52,2,46.6666666666667,2|0|0,0:0|0:0|0:0,0:0:0:0:
169,177,86535,5,2,0:0:0:0:
241,135,94922,5,8,1:3:0:0:
241,135,95083,1,8,1:3:0:0:
322,94,95244,2,0,P|356:89|407:101,1,70,4|4,1:3|1:3,0:0:0:0:
355,178,95567,2,0,P|382:198|410:243,1,70,4|4,1:3|1:3,0:0:0:0:
319,261,95889,2,0,L|319:297,2,35,4|0|0,1:3|0:0|0:0,0:0:0:0:
259,191,96212,6,0,L|165:192,1,70
125,257,96535,1,8,0:0:0:0:
125,257,96696,1,8,0:0:0:0:
62,190,96857,6,0,L|11:188,3,35,8|8|8|8,0:0|0:0|0:0|0:0,0:0:0:0:
39,151,97180,2,0,L|-13:148,2,35,8|8|8,0:0|0:0|0:0,0:0:0:0:
114,86,97502,6,0,L|211:83,2,77.0000023498536,6|0|8,0:0|0:0|0:0,0:0:0:0:
170,168,97986,2,0,L|246:165,2,77.0000023498536,4|0|0,0:0|0:0|0:0,0:0:0:0:
101,228,98470,2,0,L|16:230,1,70,12|0,0:0|0:0,0:0:0:0:
55,317,98793,6,0,B|118:320|154:305|154:305|213:329,1,140,2|8,0:0|0:0,0:0:0:0:
269,274,99277,1,0,0:0:0:0:
269,274,99438,2,0,P|302:279|361:269,1,70
398,344,99760,2,0,P|432:338|467:342,1,70,10|0,0:0|0:0,0:0:0:0:
470,250,100083,6,0,P|455:216|458:104,1,140,2|8,0:0|0:0,0:0:0:0:
376,66,100567,2,0,L|304:66,2,70
454,114,101051,2,0,P|424:141|376:160,1,70,8|0,0:0|0:0,0:0:0:0:
306,157,101373,6,0,P|271:153|236:156,1,70,2|0,0:0|0:0,0:0:0:0:
161,103,101696,1,8,0:0:0:0:
161,103,101857,2,0,L|100:42,2,70,0|2|0,0:0|0:0|0:0,0:0:0:0:
162,194,102341,2,0,L|161:269,1,70,2|0,0:0|0:0,0:0:0:0:
240,309,102664,6,0,P|258:250|279:216,1,70,2|8,0:0|0:0,0:0:0:0:
325,178,102986,2,0,P|292:164|258:156,1,70,10|8,0:0|0:0,0:0:0:0:
194,93,103309,2,0,P|180:125|172:159,1,70,2|8,0:0|0:0,0:0:0:0:
109,224,103631,2,0,P|141:237|175:245,1,70,2|8,0:0|0:0,0:0:0:0:
249,298,103954,6,0,L|319:298,1,70,6|8,0:0|0:0,0:0:0:0:
381,231,104277,2,0,P|374:196|378:162,1,70,2|8,0:0|0:0,0:0:0:0:
307,105,104599,2,0,L|237:105,1,70,2|8,0:0|0:0,0:0:0:0:
177,176,104922,2,0,P|170:210|174:244,1,70,2|8,0:0|0:0,0:0:0:0:
123,319,105244,6,0,P|190:333|248:298,1,140,2|8,0:0|0:0,0:0:0:0:
261,207,105728,1,0,0:0:0:0:
261,207,105889,2,0,P|266:173|254:129,1,70,8|0,0:0|0:0,0:0:0:0:
177,176,106212,2,0,L|90:174,1,70
66,256,106535,6,0,L|135:257,1,70,2|0,0:0|0:0,0:0:0:0:
203,318,106857,2,0,P|239:310|288:279,1,70
298,208,107180,2,0,L|214:208,1,70,8|0,0:0|0:0,0:0:0:0:
142,175,107502,6,0,L|86:175,4,35,2|2|2|2|8,1:1|2:1|2:1|2:1|1:1,0:0:0:0:
256,192,107906,12,0,109115,2:0:0:0:
