osu file format v14

[General]
AudioFilename: audio.mp3
AudioLeadIn: 0
PreviewTime: 55486
Countdown: 0
SampleSet: Normal
StackLeniency: 0.3
Mode: 0
LetterboxInBreaks: 0
WidescreenStoryboard: 0

[Editor]
Bookmarks: 9438,10728,17502,56212,63954,69438,82126,85459
DistanceSpacing: 0.9
BeatDivisor: 4
GridSize: 4
TimelineZoom: 1.7

[Metadata]
Title:Lapistoria no yakusoku
TitleUnicode:ラピストリアの約束
Artist:positive MAD-crew
ArtistUnicode:positive MAD-crew
Creator:SLM
Version:Easy
Source:pop'n music ラピストリア
Tags:Beomsan Rigid Blue Remains Des ROW DesROW Dcrew MakkuruP Konami nia
BeatmapID:1126902
BeatmapSetID:531745

[Difficulty]
HPDrainRate:2
CircleSize:3
OverallDifficulty:2
ApproachRate:3
SliderMultiplier:1
SliderTickRate:1

[Events]
//Background and Video events
0,0,"residentsleeper.png",0,0
//Break Periods
2,87180,93482
//Storyboard Layer 0 (Background)
//Storyboard Layer 1 (Fail)
//Storyboard Layer 2 (Pass)
//Storyboard Layer 3 (Foreground)
//Storyboard Sound Samples

[TimingPoints]
2019,322.58064516129,4,1,1,65,1,0
13631,-100,4,1,1,75,0,0
14277,-100,4,1,1,85,0,0
14922,-100,4,1,1,50,0,0
15244,-100,4,1,2,40,0,0
15325,-100,4,1,1,50,0,0
16535,-100,4,1,2,40,0,0
16615,-100,4,1,1,50,0,0
17825,-100,4,1,2,40,0,0
17906,-100,4,1,1,50,0,0
19115,-100,4,1,2,40,0,0
19196,-100,4,1,1,50,0,0
20406,-100,4,1,2,40,0,0
20486,-100,4,1,1,50,0,0
21696,-100,4,1,2,40,0,0
21777,-100,4,1,1,50,0,0
28148,-100,4,1,2,40,0,0
28228,-100,4,1,1,50,0,0
30728,-100,4,1,2,40,0,0
30809,-100,4,1,1,50,0,0
32986,-100,4,1,1,65,0,0
33631,-100,4,1,1,55,0,0
34277,-100,4,1,1,65,0,0
35567,-100,4,1,1,45,0,0
40728,-100,4,1,1,50,0,0
43631,-100,4,1,2,40,0,0
43954,-100,4,1,3,40,0,0
44035,-100,4,1,1,50,0,0
45889,-100,4,1,1,55,0,0
46212,-100,4,1,2,45,0,0
46293,-100,4,1,1,55,0,0
48470,-100,4,1,1,45,0,0
49115,-100,4,1,3,35,0,0
49196,-100,4,1,1,45,0,0
50083,-100,4,1,2,35,0,0
50164,-100,4,1,1,45,0,0
51051,-100,4,1,1,35,0,0
51373,-100,4,1,2,25,0,0
51696,-100,4,1,3,25,0,0
51777,-100,4,1,1,35,0,0
52664,-100,4,1,2,25,0,0
52744,-100,4,1,1,35,0,0
53631,-100,4,1,1,70,0,0
55567,-100,4,1,1,75,0,0
56212,-100,4,1,1,65,0,1
56535,-100,4,1,2,55,0,1
56615,-100,4,1,1,65,0,1
57825,-100,4,1,2,55,0,1
57906,-100,4,1,1,65,0,1
59115,-100,4,1,2,55,0,1
59196,-100,4,1,1,65,0,1
61696,-100,4,1,2,55,0,1
61777,-100,4,1,1,65,0,1
62986,-100,4,1,2,55,0,1
63067,-100,4,1,1,65,0,1
64277,-100,4,1,2,55,0,1
64357,-100,4,1,1,65,0,1
65889,-100,4,1,1,70,0,1
66535,-100,4,1,1,75,0,1
66857,-100,4,1,2,55,0,1
66938,-100,4,1,1,65,0,1
68148,-100,4,1,2,55,0,1
68228,-100,4,1,1,65,0,1
69438,-100,4,1,2,55,0,1
69518,-100,4,1,1,65,0,1
71696,-100,4,1,1,75,0,1
74277,-100,4,1,1,65,0,1
74599,-100,4,1,2,55,0,1
74680,-100,4,1,1,65,0,1
76857,-100,4,1,1,60,0,0
77180,-100,4,1,3,50,0,0
77260,-100,4,1,1,60,0,0
78793,-100,4,1,3,50,0,0
78873,-100,4,1,1,60,0,0
79438,-100,4,1,1,65,0,0
79760,-100,4,1,3,55,0,0
79841,-100,4,1,1,65,0,0
82018,-100,4,1,1,62,0,0
82664,-100,4,1,1,66,0,0
83309,-100,4,1,1,68,0,0
84814,-100,4,1,1,74,0,0
85459,-100,4,1,1,80,0,0
94922,-100,4,1,1,65,0,0
96535,-100,4,1,1,75,0,0
97502,-100,4,1,1,80,0,1
97825,-100,4,1,2,70,0,1
97906,-100,4,1,1,80,0,1
98793,-100,4,1,1,65,0,1
99115,-100,4,1,2,55,0,1
99196,-100,4,1,1,65,0,1
100406,-100,4,1,2,55,0,1
100486,-100,4,1,1,65,0,1
101696,-100,4,1,2,55,0,1
101777,-100,4,1,1,65,0,1
102664,-100,4,1,1,70,0,1
103954,-100,4,1,1,80,0,1
105244,-100,4,1,1,65,0,1
105567,-100,4,1,2,55,0,1
105648,-100,4,1,1,65,0,1
107502,-100,4,1,1,55,0,0
109115,-100,4,1,1,5,0,0

[Colours]
Combo1 : 51,157,208
Combo2 : 66,191,154
Combo3 : 111,92,209

[HitObjects]
129,333,4599,6,0,P|166:246|96:165,1,200,6|0,0:0|0:0,0:0:0:0:
30,123,5567,1,0,0:0:0:0:
108,80,5889,2,0,P|160:81|230:102,1,100
255,168,6535,2,0,P|304:167|353:155,1,100,12|0,0:0|0:0,0:0:0:0:
384,71,7180,6,0,P|443:145|403:231,1,200,6|0,0:0|0:0,0:0:0:0:
318,258,8148,1,0,0:0:0:0:
229,272,8470,2,0,L|76:275,2,150,2|8|8,0:0|0:0|0:0,0:0:0:0:
265,354,9760,6,0,P|315:293|261:188,1,200,6|8,0:0|0:0,0:0:0:0:
191,149,10728,1,0,0:0:0:0:
269,104,11051,2,0,P|344:98|389:16,2,150,6|8|8,0:0|0:0|0:0,0:0:0:0:
191,148,12341,6,0,P|159:237|194:292,2,150,6|8|2,0:0|0:0|0:0,0:0:0:0:
245,219,13631,2,0,L|343:237,1,100,8|8,0:0|0:0,0:0:0:0:
431,255,14277,2,0,P|394:312|322:324,1,100,8|8,0:0|0:0,0:0:0:0:
278,342,14922,6,0,B|180:352|180:352|123:348|84:304,1,200,6|0,0:0|0:0,0:0:0:0:
41,235,15889,1,8,0:0:0:0:
89,158,16212,2,0,L|89:3,2,150,2|0|8,0:0|0:0|0:0,0:0:0:0:
142,230,17502,6,0,B|191:265|256:227|256:227|287:254|337:252,1,200,2|0,0:0|0:0,0:0:0:0:
406,204,18470,1,8,0:0:0:0:
328,159,18793,2,0,P|260:130|190:153,2,150,2|0|8,0:0|0:0|0:0,0:0:0:0:
389,93,20083,6,0,P|275:41|192:53,1,200,6|0,0:0|0:0,0:0:0:0:
122,89,21051,1,8,0:0:0:0:
106,177,21373,2,0,B|160:188|198:140|198:140|258:125,2,150,2|0|8,0:0|0:0|0:0,0:0:0:0:
38,116,22664,6,0,P|16:172|31:226,1,100,2|8,0:0|0:0,0:0:0:0:
95,264,23309,2,0,P|142:269|215:254,1,100
278,233,23954,2,0,P|270:306|211:348,2,150,10|8|8,0:0|0:0|0:0,0:0:0:0:
320,153,25244,6,0,P|271:142|224:158,2,100,2|12|0,0:0|0:0|0:0,0:0:0:0:
403,187,26212,1,8,0:0:0:0:
458,257,26535,2,0,P|416:274|349:257,1,100,2|8,0:0|0:0,0:0:0:0:
279,233,27180,2,0,P|230:242|193:276,1,100,0|8,0:0|0:0,0:0:0:0:
270,322,27825,6,0,B|209:390|131:341|131:341|89:352|89:352|33:324|28:276,1,300,2|8,0:0|0:0,0:0:0:0:
57,191,29115,1,2,0:0:0:0:
51,100,29438,2,0,P|99:112|134:146,2,100,8|0|8,0:0|0:0|0:0,0:0:0:0:
57,191,30406,6,0,P|82:219|195:80,1,300,2|8,0:0|0:0,0:0:0:0:
267,24,31696,2,0,P|315:9|364:23,2,100,2|8|0,0:0|0:0|0:0,0:0:0:0:
317,98,32664,1,8,0:0:0:0:
401,127,32986,6,0,L|400:253,1,100,2|8,0:0|0:0,0:0:0:0:
335,289,33631,2,0,P|287:304|232:286,1,100,0|10,0:0|0:0,0:0:0:0:
196,212,34277,2,0,L|85:212,2,100,10|8|8,0:0|0:0|0:0,0:0:0:0:
285,212,35244,1,8,0:0:0:0:
375,211,35567,6,0,P|419:126|375:40,1,200,2|8,0:0|0:0,0:0:0:0:
285,50,36535,1,2,0:0:0:0:
229,121,36857,2,0,P|169:196|72:192,1,200,2|8,0:0|0:0,0:0:0:0:
18,120,37825,1,2,0:0:0:0:
75,50,38148,6,0,P|119:41|173:52,1,100,2|0,0:0|0:0,0:0:0:0:
229,121,38793,2,0,P|273:130|327:119,1,100,8|2,0:0|0:0,0:0:0:0:
393,59,39438,2,0,P|441:49|490:60,1,100,2|0,0:0|0:0,0:0:0:0:
489,150,40083,2,0,L|488:257,1,100,8|2,0:0|0:0,0:0:0:0:
397,249,40728,6,0,L|397:136,1,100,2|8,0:0|0:0,0:0:0:0:
393,59,41373,1,2,0:0:0:0:
309,24,41696,2,0,P|257:31|208:64,1,100,8|0,0:0|0:0,0:0:0:0:
181,137,42341,1,8,0:0:0:0:
163,224,42664,2,0,P|114:222|72:248,1,100,2|8,0:0|0:0,0:0:0:0:
137,310,43309,6,0,B|209:332|263:253|263:253|251:218|251:218|329:169|284:85,1,300,2|8,0:0|0:0,0:0:0:0:
249,48,44599,2,0,P|213:97|215:143,1,100,2|8,0:0|0:0,0:0:0:0:
125,160,45244,2,0,P|97:120|51:104,1,100,8|8,0:0|0:0,0:0:0:0:
44,193,45889,6,0,B|87:269|167:238|167:238|230:252,1,200,2|2,0:0|0:0,0:0:0:0:
298,205,46857,1,8,0:0:0:0:
381,239,47180,2,0,P|432:218|458:165,1,100,2|10,0:0|0:0,0:0:0:0:
369,149,47825,2,0,L|351:44,2,100,2|8|2,0:0|0:0|0:0,0:0:0:0:
298,205,48793,6,0,B|219:159|165:223|165:223|145:291,1,200,8|8,0:0|0:0,0:0:0:0:
63,248,49760,2,0,P|101:159|208:102,1,200,2|2,0:0|0:0,0:0:0:0:
275,97,50728,1,8,0:0:0:0:
365,98,51051,6,0,P|444:204|329:272,1,300,2|8,0:0|0:0,0:0:0:0:
244,304,52341,2,0,P|263:211|354:185,1,200,2|2,0:0|0:0,0:0:0:0:
199,94,53631,6,0,B|260:64|260:64|322:71|322:71|393:37,1,200,2|2,0:0|0:0,0:0:0:0:
282,189,54922,2,0,B|159:247|159:247|89:240,1,200,2|2,0:0|0:0,0:0:0:0:
199,94,56212,6,0,B|260:65|260:65|358:66,2,150,2|2|8,0:0|0:0|0:0,0:0:0:0:
160,175,57502,2,0,P|122:254|58:287,2,150,2|2|8,0:0|0:0|0:0,0:0:0:0:
232,120,58793,6,0,B|311:105|311:105|379:119,2,150,2|2|8,0:0|0:0|0:0,0:0:0:0:
160,175,60083,1,2,0:0:0:0:
69,184,60406,2,0,P|28:157|6:113,2,100,8|0|8,0:0|0:0|0:0,0:0:0:0:
122,258,61373,6,0,P|159:322|245:334,2,150,2|2|8,0:0|0:0|0:0,0:0:0:0:
160,175,62664,2,0,P|123:111|52:94,2,150,2|2|8,0:0|0:0|0:0,0:0:0:0:
70,183,63954,6,0,B|74:222|98:242|98:242|40:325,2,150,2|2|8,0:0|0:0|0:0,0:0:0:0:
106,100,65244,2,0,L|218:81,1,100,2|0,0:0|0:0,0:0:0:0:
267,147,65889,2,0,L|397:161,1,100,8|2,0:0|0:0,0:0:0:0:
430,94,66535,6,0,B|482:164|428:225|428:225|452:269|452:269|386:279|353:346,1,300,6|10,0:0|0:0,0:0:0:0:
291,272,67825,2,0,P|211:222|131:273,1,200,2|0,0:0|0:0,0:0:0:0:
212,313,68793,1,10,0:0:0:0:
288,359,69115,6,0,L|464:311,2,150,2|2|10,0:0|0:0|0:0,0:0:0:0:
212,313,70406,1,2,0:0:0:0:
122,318,70728,2,0,B|43:295|33:211|33:211|57:131,1,200,8|2,0:0|0:0,0:0:0:0:
133,133,71696,6,0,L|263:113,2,100,2|8|0,0:0|0:0|0:0,0:0:0:0:
64,74,72664,1,10,0:0:0:0:
148,43,72986,2,0,L|278:23,1,100,2|8,0:0|0:0,0:0:0:0:
315,86,73631,2,0,L|449:109,1,100,0|10,0:0|0:0,0:0:0:0:
484,159,74277,6,0,P|491:268|423:317,1,200,2|0,0:0|0:0,0:0:0:0:
346,273,75244,1,2,0:0:0:0:
265,312,75567,2,0,L|139:312,2,100,6|0|8,0:0|0:0|0:0,0:0:0:0:
346,273,76535,1,6,0:0:0:0:
424,224,76857,6,0,P|430:145|319:142,1,200,0|8,0:0|1:2,0:0:0:0:
246,165,77825,1,2,0:0:0:0:
171,118,78148,2,0,P|100:97|33:126,2,150,8|8|8,1:2|1:2|1:2,0:0:0:0:
108,182,79438,6,0,P|63:256|155:316,1,200,6|8,0:0|1:2,0:0:0:0:
223,344,80406,1,2,0:0:0:0:
303,304,80728,2,0,P|375:326|439:289,2,150,8|8|2,1:2|1:2|0:0,0:0:0:0:
256,192,82018,12,0,86535,0:0:0:0:
193,55,94922,6,0,P|240:39|290:42,1,100,8|4,1:3|1:3,0:0:0:0:
375,72,95567,2,0,P|370:122|386:169,1,100,4|4,1:3|1:3,0:0:0:0:
455,226,96212,1,0,0:0:0:0:
369,255,96535,2,0,L|267:282,2,100,8|8|8,0:0|0:0|0:0,0:0:0:0:
455,225,97502,6,0,P|492:161|502:87,2,150,6|4|12,0:0|0:0|0:0,0:0:0:0:
369,255,98793,2,0,P|300:194|203:247,1,200,2|0,0:0|0:0,0:0:0:0:
236,318,99760,1,10,0:0:0:0:
150,343,100083,6,0,P|75:353|4:334,2,150,2|0|8,0:0|0:0|0:0,0:0:0:0:
236,318,101373,2,0,P|289:260|234:160,1,200,2|2,0:0|0:0,0:0:0:0:
170,106,102341,1,2,0:0:0:0:
96,158,102664,6,0,P|55:192|-7:206,2,100,2|10|2,0:0|0:0|0:0,0:0:0:0:
170,106,103631,1,2,0:0:0:0:
241,160,103954,2,0,P|278:192|326:207,1,100,6|2,0:0|0:0,0:0:0:0:
416,210,104599,2,0,P|463:194|501:162,1,100,2|2,0:0|0:0,0:0:0:0:
466,80,105244,6,0,B|370:48|370:48|275:76,1,200,2|8,0:0|0:0,0:0:0:0:
189,106,106212,1,0,0:0:0:0:
145,185,106535,2,0,L|93:307,1,100,2|0,0:0|0:0,0:0:0:0:
189,314,107180,2,0,L|226:221,1,100,0|2,0:0|0:0,0:0:0:0:
256,192,107825,12,0,109115,2:0:0:0:
