osu file format v14

[General]
AudioFilename: audio.mp3
AudioLeadIn: 0
PreviewTime: 55486
Countdown: 0
SampleSet: Normal
StackLeniency: 0.3
Mode: 0
LetterboxInBreaks: 0
WidescreenStoryboard: 0

[Editor]
Bookmarks: 15406,19760,69438
DistanceSpacing: 0.9
BeatDivisor: 4
GridSize: 4
TimelineZoom: 3.199999

[Metadata]
Title:Lapistoria no yakusoku
TitleUnicode:ラピストリアの約束
Artist:positive MAD-crew
ArtistUnicode:positive MAD-crew
Creator:SLM
Version:EX
Source:pop'n music ラピストリア
Tags:Beomsan Rigid Blue Remains Des ROW DesROW Dcrew MakkuruP Konami nia
BeatmapID:1126903
BeatmapSetID:531745

[Difficulty]
HPDrainRate:5
CircleSize:4
OverallDifficulty:8
ApproachRate:9.2
SliderMultiplier:1.6
SliderTickRate:1

[Events]
//Background and Video events
0,0,"residentsleeper.png",0,0
//Break Periods
//Storyboard Layer 0 (Background)
//Storyboard Layer 1 (Fail)
//Storyboard Layer 2 (Pass)
//Storyboard Layer 3 (Foreground)
//Storyboard Sound Samples

[TimingPoints]
2019,322.58064516129,4,1,1,45,1,0
2019,-142.857142857143,4,1,1,45,0,0
3631,-142.857142857143,4,1,1,50,0,0
3954,-142.857142857143,4,1,1,55,0,0
4599,-83.3333333333333,4,1,1,65,0,0
13631,-83.3333333333333,4,1,1,75,0,0
14277,-83.3333333333333,4,1,1,85,0,0
14922,-100,4,1,1,50,0,0
22664,-100,4,1,1,65,0,0
22825,-100,4,1,1,75,0,0
22986,-100,4,1,1,65,0,0
23148,-100,4,1,1,75,0,0
23470,-100,4,1,1,65,0,0
23631,-100,4,1,1,75,0,0
23954,-100,4,1,1,50,0,0
32986,-100,4,1,1,65,0,0
33631,-100,4,1,1,55,0,0
34277,-100,4,1,1,65,0,0
35567,-83.3333333333333,4,1,1,45,0,0
40728,-83.3333333333333,4,1,1,50,0,0
45889,-83.3333333333333,4,1,1,55,0,0
48470,-83.3333333333333,4,1,1,45,0,0
51051,-125,4,1,1,35,0,0
53631,-125,4,1,1,70,0,0
55567,-125,4,1,1,75,0,0
56212,-83.3333333333333,4,1,1,65,0,1
60889,-83.3333333333333,4,1,1,75,0,1
61373,-83.3333333333333,4,1,1,65,0,1
65889,-83.3333333333333,4,1,1,70,0,1
66535,-83.3333333333333,4,1,1,75,0,1
66857,-83.3333333333333,4,1,1,65,0,1
71696,-83.3333333333333,4,1,1,75,0,1
74277,-83.3333333333333,4,1,1,65,0,1
76857,-83.3333333333333,4,2,1,60,0,0
79438,-83.3333333333333,4,2,1,65,0,0
80728,-71.4285714285714,4,2,1,65,0,0
81373,-83.3333333333333,4,2,1,65,0,0
82018,-71.4285714285714,4,1,1,62,0,0
82664,-71.4285714285714,4,1,1,66,0,0
83309,-71.4285714285714,4,1,1,68,0,0
84814,-71.4285714285714,4,1,1,74,0,0
85459,-71.4285714285714,4,1,1,80,0,0
86535,-100,4,1,1,75,0,0
87180,-100,4,2,1,45,0,0
94922,-83.3333333333333,4,1,1,65,0,0
96212,-100,4,1,1,65,0,0
96696,-100,4,1,1,75,0,0
97341,-83.3333333333333,4,1,1,75,0,0
97502,-83.3333333333333,4,1,1,80,0,1
98793,-83.3333333333333,4,1,1,65,0,1
100244,-83.3333333333333,4,1,1,75,0,1
100567,-83.3333333333333,4,1,1,65,0,1
102664,-83.3333333333333,4,1,1,70,0,1
103954,-71.4285714285714,4,1,1,80,0,1
105244,-83.3333333333333,4,1,1,65,0,1
105648,-83.3333333333333,4,1,1,75,0,1
105889,-83.3333333333333,4,1,1,65,0,1
106051,-83.3333333333333,4,1,1,75,0,1
106212,-83.3333333333333,4,1,1,65,0,1
107502,-83.3333333333333,4,1,1,55,0,1
107825,-83.3333333333333,4,1,1,55,0,0
109115,-83.3333333333333,4,1,1,5,0,0

[Colours]
Combo1 : 51,157,208
Combo2 : 66,191,154
Combo3 : 111,92,209

[HitObjects]
69,141,2019,6,0,L|197:151,1,111.999996582031,2|0,0:0|2:0,0:0:0:0:
402,193,2664,1,2,0:0:0:0:
215,63,2986,1,2,0:0:0:0:
405,86,3309,6,0,L|432:81,3,27.9999991455078,2|0|0|0,0:0|0:0|0:0|0:0,0:0:0:0:
310,110,3631,2,0,L|283:115,3,27.9999991455078,2|0|0|0,0:0|0:0|0:0|0:0,0:0:0:0:
269,199,3954,6,0,L|242:203,3,27.9999991455078,2|0|0|0,0:0|0:0|0:0|0:0,0:0:0:0:
229,282,4277,2,0,L|205:286,6,13.9999995727539
149,331,4599,6,0,B|108:298|88:213|88:213|108:224|131:253,1,191.999994140625,6|0,0:0|0:0,0:0:0:0:
181,42,5082,1,0,0:0:0:0:
181,42,5163,1,0,0:0:0:0:
181,42,5244,1,0,0:0:0:0:
88,213,5406,1,0,0:0:0:0:
200,142,5567,2,0,P|217:210|235:238,1,95.9999970703126
323,144,5889,6,0,B|328:91|282:17|282:17|307:28|351:32,1,191.999994140625,0|0,0:0|0:0,0:0:0:0:
230,231,6373,1,0,0:0:0:0:
230,231,6454,1,0,0:0:0:0:
230,231,6535,2,0,P|157:231|116:208,1,95.9999970703126,12|0,0:0|0:0,0:0:0:0:
344,245,6857,1,0,0:0:0:0:
391,125,7019,1,0,0:0:0:0:
438,284,7180,6,0,P|402:331|266:309,1,191.999994140625,6|0,0:0|0:0,0:0:0:0:
94,161,7664,1,0,0:0:0:0:
94,161,7744,1,0,0:0:0:0:
94,161,7825,2,0,P|167:161|208:184,1,95.9999970703126
279,324,8148,2,0,P|206:324|165:301,1,95.9999970703126
94,161,8470,6,0,P|94:88|117:47,1,95.9999970703126,2|0,0:0|0:0,0:0:0:0:
251,184,8793,1,0,0:0:0:0:
265,23,8954,1,8,0:0:0:0:
265,23,9035,1,0,0:0:0:0:
265,23,9115,2,0,L|152:31,1,95.9999970703126,4|0,0:0|0:0,0:0:0:0:
251,184,9438,1,8,0:0:0:0:
94,161,9599,1,0,0:0:0:0:
202,324,9760,6,0,L|315:316,1,95.9999970703126,6|0,0:0|0:0,0:0:0:0:
136,221,10083,1,0,0:0:0:0:
348,228,10244,1,0,0:0:0:0:
348,228,10325,1,0,0:0:0:0:
348,228,10406,2,0,L|435:174,1,95.9999970703126,8|0,0:0|0:0,0:0:0:0:
251,184,10728,1,0,0:0:0:0:
314,76,10889,1,0,0:0:0:0:
122,136,11051,6,0,P|75:126|2:135,1,95.9999970703126,6|0,0:0|0:0,0:0:0:0:
170,288,11373,1,0,0:0:0:0:
314,76,11535,1,8,0:0:0:0:
314,76,11615,1,0,0:0:0:0:
314,76,11696,2,0,P|361:66|434:75,1,95.9999970703126
298,223,12019,1,8,0:0:0:0:
449,177,12180,1,0,0:0:0:0:
163,194,12341,6,0,P|160:241|170:288,1,95.9999970703126,6|0,0:0|0:0,0:0:0:0:
369,248,12664,1,0,0:0:0:0:
249,44,12825,1,8,0:0:0:0:
249,44,12905,1,0,0:0:0:0:
249,44,12986,2,0,P|202:34|129:43,1,95.9999970703126,0|0,0:0|0:0,0:0:0:0:
261,334,13309,1,2,0:0:0:0:
273,338,13389,1,2,0:0:0:0:
286,342,13470,2,0,P|333:352|378:347,1,47.9999985351563,2|0,0:0|0:0,0:0:0:0:
433,262,13631,6,0,P|475:239|506:206,3,47.9999985351563,8|8|8|8,0:0|0:0|0:0|0:0,0:0:0:0:
493,218,13954,1,8,0:0:0:0:
490,202,14034,1,8,0:0:0:0:
487,186,14115,1,8,0:0:0:0:
484,170,14195,1,8,0:0:0:0:
477,147,14277,5,8,0:0:0:0:
445,123,14357,1,8,0:0:0:0:
408,115,14438,1,8,0:0:0:0:
371,125,14518,1,8,0:0:0:0:
337,147,14599,1,8,0:0:0:0:
293,173,14679,1,8,0:0:0:0:
242,184,14760,1,8,0:0:0:0:
192,178,14841,1,8,0:0:0:0:
149,152,14922,6,0,P|76:143|10:217,1,160,6|8,0:0|0:0,0:0:0:0:
104,238,15406,1,0,0:0:0:0:
249,239,15567,1,0,0:0:0:0:
176,303,15729,1,2,0:0:0:0:
248,139,15889,2,0,L|326:126,1,80,8|0,0:0|0:0,0:0:0:0:
461,255,16212,6,0,P|423:309|325:316,1,160,2|8,0:0|0:0,0:0:0:0:
288,214,16696,2,0,L|366:227,1,80
213,280,17018,1,2,0:0:0:0:
258,119,17180,2,0,L|336:132,1,80,8|0,0:0|0:0,0:0:0:0:
217,299,17502,6,0,L|60:271,1,160,2|8,0:0|0:0,0:0:0:0:
96,177,17986,2,0,L|174:190,1,80
210,309,18309,1,2,0:0:0:0:
340,125,18470,2,0,L|262:138,1,80,8|0,0:0|0:0,0:0:0:0:
297,237,18793,6,0,B|337:247|390:233|390:233|423:248|426:285,1,160,2|8,0:0|0:0,0:0:0:0:
284,340,19277,2,0,L|211:310,1,80
192,210,19599,1,2,0:0:0:0:
340,125,19760,2,0,L|262:138,1,80,8|0,0:0|0:0,0:0:0:0:
422,190,20083,6,0,P|450:117|419:45,1,160,6|8,0:0|0:0,0:0:0:0:
234,43,20567,2,0,L|314:43,1,80
170,119,20889,1,2,0:0:0:0:
316,197,21051,2,0,L|236:197,1,80,8|0,0:0|0:0,0:0:0:0:
49,277,21373,6,0,P|21:204|53:133,1,160,2|8,0:0|0:0,0:0:0:0:
147,304,21857,2,0,L|227:304,1,80
251,119,22180,1,2,0:0:0:0:
125,206,22341,2,0,L|205:206,1,80,8|0,0:0|0:0,0:0:0:0:
91,86,22664,5,2,3:1:0:0:
205,206,22825,1,0,3:1:0:0:
251,42,22987,1,8,3:1:0:0:
183,110,23148,1,0,3:1:0:0:
277,144,23309,5,0,3:1:0:0:
110,186,23470,1,8,3:1:0:0:
231,303,23632,1,0,3:1:0:0:
205,206,23793,1,0,3:1:0:0:
322,145,23954,5,10,0:0:0:0:
397,249,24115,2,0,P|446:262|492:259,1,80,0|4,0:0|0:2,0:0:0:0:
453,123,24438,2,0,P|439:74|414:35,1,80,8|0,0:0|0:0,0:0:0:0:
306,43,24760,1,2,0:0:0:0:
276,48,24840,1,2,0:0:0:0:
246,53,24921,1,8,0:0:0:0:
217,59,25001,1,8,0:0:0:0:
187,64,25082,1,8,0:0:0:0:
117,241,25244,5,2,0:0:0:0:
262,213,25567,2,0,P|194:254|110:237,1,160,12|0,0:0|0:0,0:0:0:0:
153,64,26051,2,0,L|174:142,2,80,2|8|0,0:0|0:0|0:0,0:0:0:0:
288,116,26535,6,0,L|373:144,1,80,2|0,0:0|0:0,0:0:0:0:
338,233,26857,2,0,L|423:261,1,80,8|0,0:0|0:0,0:0:0:0:
173,141,27180,2,0,P|159:180|128:222,1,80,0|2,0:0|0:0,0:0:0:0:
78,100,27502,2,0,P|91:61|123:19,1,80,8|0,0:0|0:0,0:0:0:0:
268,152,27825,6,0,P|250:229|203:293,2,160,2|8|0,0:0|0:0|0:0,0:0:0:0:
252,360,28631,2,0,P|289:374|329:377,2,80,2|8|0,0:0|0:0|0:0,0:0:0:0:
374,295,29115,6,0,P|431:255|452:219,1,80,2|0,0:0|0:0,0:0:0:0:
352,184,29438,2,0,P|352:145|341:106,1,80,8|2,0:0|0:0,0:0:0:0:
158,183,29760,2,0,P|157:144|169:105,1,80,0|2,0:0|0:0,0:0:0:0:
137,294,30083,2,0,P|102:276|75:247,1,80,8|0,0:0|0:0,0:0:0:0:
257,156,30406,6,0,B|257:323,2,160,2|8|0,0:0|0:0|0:0,0:0:0:0:
166,42,31212,2,0,P|101:59|61:84,2,80,2|8|0,0:0|0:0|0:0,0:0:0:0:
346,42,31696,6,0,P|411:59|451:84,1,80,2|0,0:0|0:0,0:0:0:0:
449,223,32018,2,0,P|433:186|411:153,1,80,8|0,0:0|0:0,0:0:0:0:
115,179,32341,2,0,P|147:155|183:138,1,80,0|2,0:0|0:0,0:0:0:0:
264,75,32664,2,0,P|199:56|152:56,1,80,8|0,0:0|0:0,0:0:0:0:
307,254,32986,6,0,P|297:168|249:185,1,160,2|8,0:0|0:0,0:0:0:0:
307,253,33631,1,0,0:0:0:0:
264,75,33793,1,8,0:0:0:0:
115,179,33954,2,0,P|103:218|102:258,1,80,10|0,0:0|0:0,0:0:0:0:
232,270,34277,5,10,0:0:0:0:
267,253,34357,1,8,0:0:0:0:
307,253,34438,1,8,0:0:0:0:
343,269,34518,1,8,0:0:0:0:
392,274,34599,1,8,0:0:0:0:
438,255,34679,1,8,0:0:0:0:
464,212,34760,1,8,0:0:0:0:
463,163,34840,1,8,0:0:0:0:
449,113,34922,6,0,P|438:96|418:81,3,40,8|8|8|8,0:0|0:0|0:0|0:0,0:0:0:0:
372,80,35244,2,0,L|341:94,6,20,8|0|8|8|8|8|8,0:0|2:0|0:0|0:0|0:0|0:0|0:0,0:0:0:0:
348,160,35567,6,0,L|221:171,1,95.9999970703126,2|0,0:0|0:0,0:0:0:0:
137,229,35889,1,0,0:0:0:0:
166,85,36051,1,2,0:0:0:0:
239,244,36212,2,0,L|344:271,1,95.9999970703126,8|0,0:0|0:0,0:0:0:0:
108,315,36535,2,0,L|213:342,1,95.9999970703126,2|0,0:0|0:0,0:0:0:0:
426,337,36857,6,0,L|321:364,1,95.9999970703126,2|0,0:0|0:0,0:0:0:0:
367,184,37180,1,0,0:0:0:0:
208,211,37341,1,2,0:0:0:0:
193,215,37422,1,0,0:0:0:0:
178,218,37502,2,0,L|178:106,1,95.9999970703126,8|0,0:0|0:0,0:0:0:0:
409,93,37825,2,0,P|356:90|280:106,1,95.9999970703126,2|8,0:0|0:0,0:0:0:0:
112,307,38148,6,0,P|165:310|241:294,1,95.9999970703126,2|0,0:0|0:0,0:0:0:0:
294,215,38470,1,0,0:0:0:0:
298,95,38631,1,2,0:0:0:0:
111,322,38793,6,0,P|164:325|240:309,1,95.9999970703126,8|0,0:0|0:0,0:0:0:0:
356,250,39115,1,2,0:0:0:0:
313,96,39277,1,0,0:0:0:0:
207,304,39438,5,2,0:0:0:0:
236,183,39599,2,0,P|188:183|139:199,1,95.9999970703126,8|0,0:0|0:0,0:0:0:0:
316,276,39922,1,2,0:0:0:0:
316,276,40002,1,0,0:0:0:0:
316,276,40083,2,0,P|358:194|348:155,1,95.9999970703126,8|0,0:0|0:0,0:0:0:0:
358,18,40406,2,0,L|364:127,1,95.9999970703126,2|0,0:0|0:0,0:0:0:0:
258,171,40728,6,0,P|229:114|195:130,1,95.9999970703126,2|0,0:0|0:0,0:0:0:0:
357,194,41051,1,8,0:0:0:0:
153,173,41212,1,0,0:0:0:0:
290,258,41373,6,0,P|340:291|390:288,1,95.9999970703126,2|0,0:0|0:0,0:0:0:0:
363,113,41696,1,8,0:0:0:0:
153,173,41857,1,2,0:0:0:0:
357,194,42018,6,0,B|404:207|404:207|453:193,1,95.9999970703126,0|2,0:0|0:0,0:0:0:0:
290,93,42341,1,8,0:0:0:0:
250,259,42502,2,0,L|250:320,2,47.9999985351563,0|0|2,0:0|0:0|0:0,0:0:0:0:
185,129,42825,5,0,0:0:0:0:
357,231,42986,1,8,0:0:0:0:
148,236,43148,1,2,0:0:0:0:
305,111,43309,5,2,0:0:0:0:
250,307,43470,1,2,0:0:0:0:
152,84,43631,2,0,P|100:92|48:123,1,95.9999970703126,8|0,0:0|0:0,0:0:0:0:
223,222,43954,2,0,P|130:162|73:222,1,191.999994140625,2|8,0:0|0:0,0:0:0:0:
223,222,44438,1,2,0:0:0:0:
421,263,44599,5,2,0:0:0:0:
383,101,44760,1,0,0:0:0:0:
288,242,44922,1,8,0:0:0:0:
352,89,45083,2,0,L|366:32,2,47.9999985351563,2|0|8,0:0|0:0|0:0,0:0:0:0:
351,274,45406,1,2,0:0:0:0:
414,117,45567,1,8,0:0:0:0:
421,263,45728,1,2,0:0:0:0:
266,335,45889,6,0,P|222:351|174:353,1,95.9999970703126,2|0,0:0|0:0,0:0:0:0:
105,228,46212,2,0,P|147:250|195:259,1,95.9999970703126,8|0,0:0|0:0,0:0:0:0:
125,140,46535,2,0,P|78:140|37:164,1,95.9999970703126,2|0,0:0|0:0,0:0:0:0:
220,160,46857,2,0,P|265:172|311:159,1,95.9999970703126,8|0,0:0|0:0,0:0:0:0:
460,68,47180,6,0,P|393:64|344:76,1,95.9999970703126,2|0,0:0|0:0,0:0:0:0:
311,159,47502,1,10,0:0:0:0:
394,258,47664,1,0,0:0:0:0:
394,258,47744,1,0,0:0:0:0:
394,258,47825,2,0,P|415:196|414:150,1,95.9999970703126,2|0,0:0|0:0,0:0:0:0:
179,109,48148,1,8,0:0:0:0:
335,158,48309,1,2,0:0:0:0:
226,289,48470,6,0,B|179:278|179:278|97:280,1,95.9999970703126,2|0,0:0|0:0,0:0:0:0:
316,327,48793,1,8,0:0:0:0:
150,195,48954,1,0,0:0:0:0:
170,362,49115,1,2,0:0:0:0:
276,182,49277,1,0,0:0:0:0:
316,327,49438,2,0,L|366:344,2,47.9999985351563,8|2|0,0:0|0:0|0:0,0:0:0:0:
164,205,49760,5,2,0:0:0:0:
367,228,49922,1,0,0:0:0:0:
232,122,50083,1,8,0:0:0:0:
243,119,50163,1,0,0:0:0:0:
255,116,50244,1,0,0:0:0:0:
267,114,50324,1,0,0:0:0:0:
278,111,50405,5,2,0:0:0:0:
367,228,50567,1,2,0:0:0:0:
379,124,50728,1,8,0:0:0:0:
245,247,50889,1,2,0:0:0:0:
156,199,51051,6,0,L|111:186,2,32,2|2|2,0:0|0:0|0:0,0:0:0:0:
245,247,51373,1,8,0:0:0:0:
245,247,51454,2,0,L|331:268,1,64,2|2,0:0|0:0,0:0:0:0:
404,293,51696,6,0,L|438:320,2,32,2|2|2,0:0|0:0|0:0,0:0:0:0:
458,229,52018,1,8,0:0:0:0:
469,146,52180,1,0,0:0:0:0:
432,71,52341,5,2,0:0:0:0:
432,71,52422,2,0,L|451:46,1,32,2|0,0:0|0:0,0:0:0:0:
349,87,52664,1,8,0:0:0:0:
274,48,52825,2,0,L|252:71,2,32,2|2|2,0:0|0:0|0:0,0:0:0:0:
326,205,53309,1,2,0:2:0:0:
202,264,53631,5,2,0:0:0:0:
326,205,53846,1,2,0:0:0:0:
218,136,54062,1,2,0:0:0:0:
352,222,54277,5,2,0:0:0:0:
295,53,54492,1,2,0:0:0:0:
155,160,54707,1,2,0:0:0:0:
255,353,54922,5,2,0:0:0:0:
256,30,55137,1,2,0:0:0:0:
94,191,55352,1,2,0:0:0:0:
417,192,55567,1,2,0:0:0:0:
318,223,56212,6,0,P|193:231|101:246,1,191.999994140625,2|8,0:0|0:0,0:0:0:0:
280,122,56696,2,0,L|184:123,2,95.9999970703126,2|0|0,0:0|0:0|0:0,0:0:0:0:
375,320,57180,2,0,P|436:250|438:206,1,95.9999970703126,8|0,0:0|0:0,0:0:0:0:
280,122,57502,6,0,P|184:124|126:194,1,191.999994140625,2|8,0:0|0:0,0:0:0:0:
314,226,57986,2,0,P|271:208|223:209,1,95.9999970703126,2|0,0:0|0:0,0:0:0:0:
388,61,58309,1,2,2:0:0:0:
417,81,58389,1,2,2:0:0:0:
436,111,58470,2,0,P|448:162|442:227,1,95.9999970703126,8|0,0:0|0:0,0:0:0:0:
168,59,58793,6,0,P|159:154|185:246,1,191.999994140625,2|8,0:0|0:0,0:0:0:0:
268,95,59277,2,0,P|264:142|278:188,2,95.9999970703126,2|0|0,0:0|0:0|0:0,0:0:0:0:
424,243,59760,1,8,0:0:0:0:
303,301,59922,1,0,0:0:0:0:
359,133,60083,5,2,0:0:0:0:
424,243,60244,1,0,2:0:0:0:
484,87,60406,2,0,P|456:38|413:12,1,95.9999970703126,8|2,0:0|0:0,0:0:0:0:
184,50,60728,6,0,L|171:118,1,47.9999985351563,2|0,2:0|2:0,2:0:0:0:
82,119,60890,1,2,2:0:0:0:
98,135,60970,1,2,2:0:0:0:
110,155,61051,5,10,2:1:0:0:
92,178,61131,1,2,2:0:0:0:
80,204,61212,1,2,2:0:0:0:
73,231,61293,1,2,2:0:0:0:
66,252,61373,6,0,B|95:316|95:316|240:349,1,191.999994140625,2|8,0:0|0:0,0:0:0:0:
338,239,61857,2,0,P|289:231|230:233,2,95.9999970703126,2|0|0,0:0|0:0|0:0,0:0:0:0:
149,139,62341,2,0,P|198:124|252:126,1,95.9999970703126,8|0,0:0|0:0,0:0:0:0:
82,57,62664,6,0,P|164:19|269:24,1,191.999994140625,2|8,0:0|0:0,0:0:0:0:
375,114,63148,1,2,2:1:0:0:
375,114,63228,1,2,2:2:0:0:
375,114,63309,1,2,2:0:0:0:
255,179,63470,1,0,0:0:0:0:
374,300,63631,2,0,P|366:252|345:209,1,95.9999970703126,8|0,0:0|0:0,0:0:0:0:
129,257,63954,6,0,P|195:313|278:230,1,191.999994140625,2|8,0:0|0:0,0:0:0:0:
255,179,64438,2,0,P|207:182|161:172,2,95.9999970703126,2|0|0,0:0|0:0|0:0,0:0:0:0:
213,88,64922,1,8,0:0:0:0:
274,264,65083,1,2,0:0:0:0:
417,134,65244,6,0,P|371:124|323:126,1,95.9999970703126,2|8,0:0|0:0,0:0:0:0:
274,264,65567,1,0,0:0:0:0:
364,214,65728,1,2,0:0:0:0:
284,40,65889,2,0,P|237:46|192:63,1,95.9999970703126,8|0,0:0|0:0,0:0:0:0:
159,243,66212,1,2,0:0:0:0:
263,138,66373,1,8,0:0:0:0:
45,46,66535,6,0,P|19:131|102:166,1,191.999994140625,6|8,0:0|0:0,0:0:0:0:
158,242,67018,2,0,P|195:273|222:313,2,95.9999970703126,2|0|2,0:0|0:0|0:0,0:0:0:0:
290,71,67502,2,0,P|316:110|353:141,1,95.9999970703126,10|0,0:0|0:0,0:0:0:0:
432,342,67825,6,0,P|395:281|484:210,1,191.999994140625,2|8,0:0|0:0,0:0:0:0:
195,60,68309,1,2,2:1:0:0:
195,60,68389,1,2,2:0:0:0:
195,60,68470,2,0,P|151:142|57:159,1,191.999994140625,2|10,1:2|0:0,0:0:0:0:
87,54,68954,1,0,0:0:0:0:
317,60,69115,6,0,P|361:142|455:159,1,191.999994140625,2|8,0:0|0:0,0:0:0:0:
351,257,69599,2,0,B|279:222|279:222|146:227,1,191.999994140625,2|0,0:0|0:0,0:0:0:0:
88,110,70083,2,0,L|182:95,1,95.9999970703126,10|0,0:0|0:0,0:0:0:0:
133,323,70406,6,0,L|39:338,1,95.9999970703126,2|0,0:0|0:0,0:0:0:0:
33,191,70728,1,8,0:0:0:0:
167,226,70889,1,2,2:1:0:0:
167,226,70970,1,2,2:0:0:0:
167,226,71051,2,0,L|258:259,1,95.9999970703126,2|0,2:0|0:0,0:0:0:0:
300,331,71293,1,8,0:0:0:0:
300,331,71373,2,0,L|395:312,1,95.9999970703126,2|0,2:0|0:0,0:0:0:0:
403,211,71696,6,0,P|345:163|302:145,1,95.9999970703126,2|0,0:0|0:0,0:0:0:0:
167,226,72018,2,0,P|235:257|281:263,1,95.9999970703126,8|2,0:0|0:0,0:0:0:0:
287,83,72341,2,0,P|212:70|166:76,1,95.9999970703126
229,344,72664,2,0,P|303:336|347:319,1,95.9999970703126,10|0,0:0|0:0,0:0:0:0:
122,30,72986,6,0,P|51:56|14:84,1,95.9999970703126,2|0,0:0|0:0,0:0:0:0:
100,214,73309,1,8,0:0:0:0:
255,260,73470,1,2,2:1:0:0:
255,260,73551,1,2,2:0:0:0:
255,260,73631,2,0,P|325:233|362:205,1,95.9999970703126,0|0,1:1|2:0,2:0:0:0:
287,83,73954,2,0,P|212:70|166:76,1,95.9999970703126,10|0,0:0|0:0,0:0:0:0:
28,232,74277,6,0,P|84:290|176:206,1,191.999994140625,2|8,0:0|0:0,0:0:0:0:
292,166,74760,1,0,0:0:0:0:
439,300,74922,2,0,B|474:243|436:202|436:202|398:203,1,143.999995605469,0|8,0:0|0:0,0:0:0:0:
382,190,75244,2,0,B|345:191|345:191|258:149,1,95.9999970703126,2|0,0:0|0:0,0:0:0:0:
120,69,75567,5,6,0:0:0:0:
56,273,75728,2,0,P|118:292|182:270,1,95.9999970703126,2|8,0:0|1:3,0:0:0:0:
117,142,76051,1,6,0:0:0:0:
246,250,76212,2,0,L|381:231,1,95.9999970703126,8|0,0:0|0:0,0:0:0:0:
256,64,76535,2,0,P|282:128|271:181,1,95.9999970703126,6|2,0:0|0:0,0:0:0:0:
445,122,76857,6,0,L|467:167,1,47.9999985351563,2|0,0:0|0:0,0:0:0:0:
421,185,77018,2,0,L|432:233,1,47.9999985351563,2|0,0:0|0:0,0:0:0:0:
386,249,77180,2,0,L|386:299,1,47.9999985351563,2|0,2:1|0:0,0:0:0:0:
338,302,77341,2,0,L|326:350,1,47.9999985351563,2|2,2:1|2:1,0:0:0:0:
209,191,77502,6,0,L|276:169,1,47.9999985351563,8|0,2:2|0:0,0:0:0:0:
260,276,77664,2,0,L|181:282,1,47.9999985351563,2|0,2:1|0:0,0:0:0:0:
130,241,77825,1,2,2:1:0:0:
130,241,77906,1,2,2:1:0:0:
130,241,77986,2,0,L|99:182,1,47.9999985351563,2|0,2:1|0:0,0:0:0:0:
155,69,78148,6,0,L|173:114,1,47.9999985351563,8|0,0:0|0:0,0:0:0:0:
290,124,78309,2,0,L|272:73,3,47.9999985351563,2|2|0|0,2:1|2:1|0:0|0:0,0:0:0:0:
226,220,78631,2,0,L|277:241,1,47.9999985351563,8|0,0:0|0:0,0:0:0:0:
412,55,78793,6,0,L|361:88,1,47.9999985351563,6|0,2:1|0:0,0:0:0:0:
290,124,78954,2,0,L|341:157,1,47.9999985351563,2|0,0:0|0:0,0:0:0:0:
458,128,79115,2,0,L|393:154,1,47.9999985351563,8|0,2:0|0:0,0:0:0:0:
377,220,79277,2,0,L|428:239,1,47.9999985351563,2|2,2:1|2:1,0:0:0:0:
371,81,79438,6,0,L|330:54,3,47.9999985351563,6|0|0|0,2:1|0:0|0:0|0:0,0:0:0:0:
180,186,79760,2,0,L|228:186,1,47.9999985351563,2|2,2:1|2:1,0:0:0:0:
243,110,79922,2,0,L|290:124,1,47.9999985351563,2|2,2:1|2:1,0:0:0:0:
422,284,80083,6,0,L|421:217,1,47.9999985351563,8|0,0:0|0:0,0:0:0:0:
356,157,80244,2,0,L|357:224,1,47.9999985351563,2|0,0:0|0:0,0:0:0:0:
276,273,80406,1,2,2:1:0:0:
276,273,80486,1,2,2:1:0:0:
276,273,80567,2,0,L|292:203,1,47.9999985351563,2|0,2:1|2:1,2:1:0:0:
282,359,80728,6,0,P|228:345|190:277,1,111.999996582031,8|0,0:0|0:0,0:0:0:0:
165,119,81051,5,2,0:0:0:0:
165,119,81212,1,8,0:0:0:0:
241,77,81373,6,0,P|208:43|185:36,1,47.9999985351563,4|0,0:0|0:0,0:0:0:0:
82,267,81535,2,0,P|115:301|138:308,1,47.9999985351563,2|2,2:1|2:1,0:0:0:0:
197,153,81696,6,0,P|162:117|137:109,1,47.9999985351563,2|0,2:1|0:0,0:0:0:0:
127,192,81858,2,0,P|162:228|187:236,1,47.9999985351563,8|0,0:0|0:0,0:0:0:0:
338,119,82018,5,2,0:0:0:0:
441,159,82234,1,2,0:0:0:0:
351,231,82449,1,2,0:0:0:0:
418,64,82664,5,2,0:0:0:0:
449,260,82880,1,2,0:0:0:0:
261,184,83095,1,2,0:0:0:0:
502,153,83309,5,2,0:0:0:0:
330,291,83525,1,2,0:0:0:0:
240,48,83740,1,2,0:0:0:0:
82,284,83954,1,2,0:0:0:0:
327,163,84169,5,2,0:0:0:0:
149,102,84385,1,2,0:0:0:0:
178,288,84600,1,2,0:0:0:0:
0,228,84814,5,2,0:0:0:0:
159,53,85030,1,2,0:0:0:0:
215,327,85245,1,2,0:0:0:0:
256,18,85459,5,2,0:0:0:0:
254,364,85674,1,2,0:0:0:0:
472,174,85890,1,2,0:0:0:0:
99,169,86105,2,0,L|28:132,1,74.6666643880209,2|0,0:0|0:0,0:0:0:0:
45,275,86333,2,0,L|18:301,4,27.9999991455078
94,253,86535,5,2,0:0:0:0:
205,195,87180,6,0,P|269:222|312:226,2,80
497,261,87664,2,0,B|457:270|457:270|409:267,1,80,0|0,0:0|0:0,0:0:0:0:
332,341,87986,2,0,L|268:329,1,40
334,315,88148,2,0,P|309:283|291:247,1,80,0|0,0:0|0:0,0:0:0:0:
178,69,88470,6,0,P|217:127|228:168,1,80,4|0,0:0|0:0,0:0:0:0:
188,256,88793,1,0,0:0:0:0:
52,198,88954,2,0,P|82:172|118:155,2,80
276,76,89438,1,0,0:0:0:0:
354,207,89599,2,0,P|366:220|378:247,1,40,0|0,0:0|0:0,0:0:0:0:
369,176,89760,6,0,P|404:193|435:218,2,80,0|0|0,0:0|0:0|0:0,0:0:0:0:
242,85,90244,1,0,0:0:0:0:
214,97,90325,2,0,L|199:216,1,120,0|0,0:0|0:0,0:0:0:0:
317,351,90728,2,0,P|347:311|358:262,1,80,0|0,0:0|0:0,0:0:0:0:
452,173,91051,5,0,0:0:0:0:
319,142,91212,2,0,L|305:97,2,40,0|0|0,0:0|0:0|0:0,0:0:0:0:
258,266,91535,1,0,0:0:0:0:
258,266,91615,1,0,0:0:0:0:
258,266,91696,1,0,0:0:0:0:
165,191,91857,2,0,L|111:191,2,40,0|0|0,0:0|0:0|0:0,0:0:0:0:
319,142,92180,1,0,0:0:0:0:
177,46,92341,6,0,P|140:61|109:86,1,80,0|0,0:0|0:0,0:0:0:0:
109,86,92583,1,0,0:0:0:0:
109,86,92664,1,0,0:0:0:0:
40,243,92825,2,0,P|87:290|124:303,1,80,0|0,0:0|0:0,0:0:0:0:
236,164,93148,2,0,L|192:153,1,40
245,191,93309,2,0,L|142:191,1,80
225,319,93631,6,0,L|305:319,1,80,0|0,0:0|0:0,0:0:0:0:
305,319,93873,1,0,0:0:0:0:
305,319,93954,1,0,0:0:0:0:
364,206,94115,2,0,P|366:166|357:128,2,80
382,221,94518,1,0,0:0:0:0:
399,240,94599,2,0,P|438:242|477:232,1,80,0|0,0:0|0:0,0:0:0:0:
455,104,94922,6,0,P|428:56|364:26,1,95.9999970703126,8|8,1:3|1:3,0:0:0:0:
271,170,95244,1,4,1:3:0:0:
271,170,95405,1,4,1:3:0:0:
127,93,95567,1,4,1:3:0:0:
127,93,95728,1,4,1:3:0:0:
42,236,95889,1,4,1:3:0:0:
42,260,95969,1,0,1:0:0:0:
47,285,96050,1,0,1:0:0:0:
58,307,96130,1,0,1:0:0:0:
74,327,96212,6,0,B|112:339|112:339|174:335,1,80
244,243,96535,2,0,L|306:266,1,40,8|0,0:0|0:0,0:0:0:0:
330,361,96696,2,0,L|383:344,1,40,8|8,0:0|0:0,0:0:0:0:
467,317,96857,5,8,0:0:0:0:
462,273,96937,1,8,0:0:0:0:
458,229,97018,1,8,0:0:0:0:
453,185,97098,1,8,0:0:0:0:
449,141,97179,1,8,0:0:0:0:
445,97,97260,1,8,0:0:0:0:
434,58,97341,2,0,L|402:70,3,23.9999992675781,8|8|8|8,0:0|0:0|0:0|0:0,0:0:0:0:
383,78,97502,6,0,L|320:174,1,95.9999970703126,6|0,0:0|0:0,0:0:0:0:
268,61,97825,1,8,0:0:0:0:
52,164,97986,2,0,L|115:260,1,95.9999970703126,4|0,0:0|0:0,0:0:0:0:
167,147,98309,1,0,0:0:0:0:
265,295,98470,2,0,P|316:291|365:263,1,95.9999970703126,12|0,0:0|0:0,0:0:0:0:
214,67,98793,6,0,P|182:102|167:148,1,95.9999970703126,2|0,0:0|0:0,0:0:0:0:
223,277,99115,1,8,0:0:0:0:
223,277,99277,1,0,0:0:0:0:
326,113,99438,2,0,P|291:79|246:63,1,95.9999970703126
99,227,99760,2,0,P|141:247|189:250,1,95.9999970703126,10|0,0:0|0:0,0:0:0:0:
174,88,100083,5,2,0:0:0:0:
272,175,100244,2,0,L|281:232,2,47.9999985351563,0|0|8,2:0|2:0|1:1,0:0:0:0:
438,153,100567,2,0,P|395:132|347:129,2,95.9999970703126
344,329,101051,2,0,L|370:219,1,95.9999970703126,8|0,0:0|0:0,0:0:0:0:
140,64,101373,6,0,L|166:174,1,95.9999970703126,2|0,0:0|0:0,0:0:0:0:
329,51,101696,1,8,0:0:0:0:
264,213,101857,2,0,P|288:163|345:135,1,95.9999970703126,0|2,0:0|0:0,0:0:0:0:
232,76,102180,1,0,0:0:0:0:
132,187,102341,2,0,L|139:240,1,47.9999985351563,2|0,0:0|0:0,0:0:0:0:
82,241,102502,2,0,L|72:292,1,47.9999985351563,0|0,0:0|0:0,0:0:0:0:
151,320,102664,5,2,0:0:0:0:
260,238,102825,1,8,0:0:0:0:
203,355,102986,5,10,0:0:0:0:
279,228,103148,1,8,0:0:0:0:
133,187,103309,5,2,0:0:0:0:
299,219,103470,1,8,0:0:0:0:
191,78,103631,5,2,0:0:0:0:
318,209,103793,1,8,0:0:0:0:
462,67,103954,6,0,L|346:66,1,111.999996582031,6|8,0:0|0:0,0:0:0:0:
246,339,104277,5,2,0:0:0:0:
279,87,104438,1,8,0:0:0:0:
396,301,104599,5,2,0:0:0:0:
153,125,104760,1,8,0:0:0:0:
406,142,104922,5,2,0:0:0:0:
127,264,105083,1,8,0:0:0:0:
328,152,105244,6,0,L|217:151,1,95.9999970703126,2|0,0:0|0:0,0:0:0:0:
99,192,105567,2,0,L|57:231,1,47.9999985351563,8|0,1:1|2:1,2:1:0:0:
127,264,105728,2,0,L|127:317,2,47.9999985351563,0|0|8,2:1|2:1|1:1,2:1:0:0:
258,281,106051,1,0,2:0:0:0:
258,281,106131,1,0,2:0:0:0:
258,281,106212,6,0,L|384:260,2,95.9999970703126,0|0|2,0:0|0:0|0:0,0:0:0:0:
168,170,106696,1,0,0:0:0:0:
249,142,106857,1,0,0:0:0:0:
179,90,107018,1,0,0:0:0:0:
261,63,107180,1,8,0:0:0:0:
329,115,107341,1,0,0:0:0:0:
334,209,107502,5,2,1:1:0:0:
334,209,107583,1,2,2:1:0:0:
334,209,107664,1,2,2:1:0:0:
334,209,107744,1,2,2:1:0:0:
334,209,107825,1,8,1:1:0:0:
256,192,107906,12,0,109115,2:0:0:0:
