osu file format v14

[General]
AudioFilename: audio_0.95.mp3
AudioLeadIn: 0
PreviewTime: 214629
Countdown: 0
SampleSet: None
StackLeniency: 0.7
Mode: 3
LetterboxInBreaks: 0
SpecialStyle: 0
WidescreenStoryboard: 0

[Editor]
Bookmarks: 24634,37265,48317,72176,117089,166212,177437,204103,204396,260243,265856
DistanceSpacing: 1.1
BeatDivisor: 6
GridSize: 4
TimelineZoom: 1.4

[Metadata]
Title:Shironaga Star Jet
TitleUnicode:シロナガスタージェット
Artist:ponkichi
ArtistUnicode:ぽんきち
Creator:Kawawa
Version:x0.95(171)
Source:
Tags:
BeatmapID:1902652
BeatmapSetID:911493

[Difficulty]
HPDrainRate:8
CircleSize:7
OverallDifficulty:8
ApproachRate:5
SliderMultiplier:1.4
SliderTickRate:1

[Events]
//Background and Video events
0,0,"2131.jpg",0,0
//Break Periods
//Storyboard Layer 0 (Background)
//Storyboard Layer 1 (Fail)
//Storyboard Layer 2 (Pass)
//Storyboard Layer 3 (Foreground)
//Storyboard Sound Samples

[TimingPoints]
2138,350.877192982456,4,2,0,0,1,0
13189,350.877192982456,4,2,0,0,1,0
18101,-45.4545454545455,4,2,0,0,0,0
18188,-166.666666666667,4,2,0,0,0,0
18451,-45.4545454545455,4,2,0,0,0,0
18539,-166.666666666667,4,2,0,0,0,0
18803,-100,4,2,0,0,0,0
23013,350.877192982456,5,2,0,0,1,0
24592,350.877192982456,4,2,0,0,1,0
42662,350.877192982456,4,2,0,0,1,0
58100,-45.4545454545455,4,2,0,0,0,0
58187,-166.666666666667,4,2,0,0,0,0
58450,-45.4545454545455,4,2,0,0,0,0
58539,-166.666666666667,4,2,0,0,0,0
58802,-45.4545454545455,4,2,0,0,0,0
58889,-166.666666666667,4,2,0,0,0,0
59152,-45.4545454545455,4,2,0,0,0,0
59240,-166.666666666667,4,2,0,0,0,0
59503,-100,4,2,0,0,0,0
71082,-105.263157894737,4,2,0,0,0,0
71608,-111.111111111111,4,2,0,0,0,0
72134,-117.647058823529,4,2,0,0,0,0
80147,-113.636363636364,4,2,0,0,0,0
80264,-108.695652173913,4,2,0,0,0,0
80381,-105.263157894737,4,2,0,0,0,0
80498,-102.040816326531,4,2,0,0,0,0
80614,-100,4,2,0,0,0,0
82661,-45.4545454545455,4,2,0,0,0,0
82748,-166.666666666667,4,2,0,0,0,0
83012,-45.4545454545455,4,2,0,0,0,0
83100,-166.666666666667,4,2,0,0,0,0
83363,-100,4,2,0,0,0,0
92486,-45.4545454545455,4,2,0,0,0,0
92573,-166.666666666667,4,2,0,0,0,0
92836,-45.4545454545455,4,2,0,0,0,0
92924,-166.666666666667,4,2,0,0,0,0
93187,-100,4,2,0,0,0,0
115994,-45.4545454545455,4,2,0,0,0,0
116039,-166.666666666667,4,2,0,0,0,0
116170,-45.4545454545455,4,2,0,0,0,0
116214,-166.666666666667,4,2,0,0,0,0
116345,-45.4545454545455,4,2,0,0,0,0
116389,-166.666666666667,4,2,0,0,0,0
116521,350.877192982456,4,2,0,0,1,0
116521,-102.040816326531,4,2,0,0,0,0
116608,-104.166666666667,4,2,0,0,0,0
116695,-106.382978723404,4,2,0,0,0,0
116784,-108.695652173913,4,2,0,0,0,0
116871,-111.111111111111,4,2,0,0,0,0
116929,-112.359550561798,4,2,0,0,0,0
116988,-113.636363636364,4,2,0,0,0,0
117047,-114.942528735632,4,2,0,0,0,0
117105,-116.279069767442,4,2,0,0,0,0
117164,-117.647058823529,4,2,0,0,0,0
117222,350.877192982456,4,2,0,0,1,0
117222,-119.047619047619,4,2,0,0,0,0
127747,-119.047619047619,4,2,0,0,0,0
127835,-116.279069767442,4,2,0,0,0,0
127923,-113.636363636364,4,2,0,0,0,0
128010,-111.111111111111,4,2,0,0,0,0
128099,-108.695652173913,4,2,0,0,0,0
128186,-106.382978723404,4,2,0,0,0,0
128273,-104.166666666667,4,2,0,0,0,0
128362,-102.040816326531,4,2,0,0,0,0
128449,-100,4,2,0,0,0,0
133186,-45.4545454545455,4,2,0,0,0,0
133230,-166.666666666667,4,2,0,0,0,0
133361,-45.4545454545455,4,2,0,0,0,0
133405,-166.666666666667,4,2,0,0,0,0
133536,-45.4545454545455,4,2,0,0,0,0
133581,-166.666666666667,4,2,0,0,0,0
133712,-45.4545454545455,4,2,0,0,0,0
133756,-166.666666666667,4,2,0,0,0,0
133888,-100,4,2,0,0,0,0
141081,-142.857142857143,4,2,0,0,0,0
154765,-119.047619047619,4,2,0,0,0,0
160028,-45.4545454545455,4,2,0,0,0,0
160072,-166.666666666667,4,2,0,0,0,0
160204,-45.4545454545455,4,2,0,0,0,0
160248,-166.666666666667,4,2,0,0,0,0
160379,-45.4545454545455,4,2,0,0,0,0
160423,-166.666666666667,4,2,0,0,0,0
160554,-45.4545454545455,4,2,0,0,0,0
160599,-166.666666666667,4,2,0,0,0,0
160730,-100,4,2,0,0,0,0
166168,350.877192982456,4,2,0,0,1,0
182308,-45.4545454545455,4,2,0,0,0,0
182395,-166.666666666667,4,2,0,0,0,0
182659,-45.4545454545455,4,2,0,0,0,0
182746,-166.666666666667,4,2,0,0,0,0
183009,-100,4,2,0,0,0,0
190027,350.877192982456,5,2,0,0,1,0
190027,-117.647058823529,5,2,0,0,0,0
191606,350.877192982456,5,2,0,0,1,0
191606,-117.647058823529,5,2,0,0,0,0
199675,-116.279069767442,5,2,0,0,0,0
199909,-114.942528735632,5,2,0,0,0,0
200027,-113.636363636364,5,2,0,0,0,0
200085,-112.359550561798,5,2,0,0,0,0
200144,-111.111111111111,5,2,0,0,0,0
200202,-109.89010989011,5,2,0,0,0,0
200261,-108.695652173913,5,2,0,0,0,0
200319,-107.52688172043,5,2,0,0,0,0
200378,-106.382978723404,5,2,0,0,0,0
200435,-105.263157894737,5,2,0,0,0,0
200494,-104.166666666667,5,2,0,0,0,0
200553,-103.092783505155,5,2,0,0,0,0
200611,-102.040816326531,5,2,0,0,0,0
200670,-101.010101010101,5,2,0,0,0,0
200728,-100,5,2,0,0,0,0
203360,350.877192982456,4,2,0,0,1,0
203360,-45.4545454545455,4,2,0,0,0,0
203447,-166.666666666667,4,2,0,0,0,0
203710,-45.4545454545455,4,2,0,0,0,0
203798,-166.666666666667,4,2,0,0,0,0
204061,350.877192982456,4,2,0,0,1,0
213183,-45.4545454545455,4,2,0,0,0,0
213270,-166.666666666667,4,2,0,0,0,0
213534,-45.4545454545455,4,2,0,0,0,0
213622,-166.666666666667,4,2,0,0,0,0
213885,-100,4,2,0,0,0,0
236691,-45.4545454545455,4,2,0,0,0,0
236735,-166.666666666667,4,2,0,0,0,0
236867,-45.4545454545455,4,2,0,0,0,0
236911,-166.666666666667,4,2,0,0,0,0
237042,-45.4545454545455,4,2,0,0,0,0
237086,-166.666666666667,4,2,0,0,0,0
237218,-100,4,2,0,0,0,0
264411,-45.4545454545455,4,2,0,0,0,0
264499,-166.666666666667,4,2,0,0,0,0
264762,-45.4545454545455,4,2,0,0,0,0
264849,-166.666666666667,4,2,0,0,0,0
265112,-45.4545454545455,4,2,0,0,0,0
265200,-166.666666666667,4,2,0,0,0,0
265464,-45.4545454545455,4,2,0,0,0,0
265551,-166.666666666667,4,2,0,0,0,0
265814,-100,4,2,0,0,0,0
270025,-45.4545454545455,4,2,0,0,0,0
270112,-166.666666666667,4,2,0,0,0,0
270375,-45.4545454545455,4,2,0,0,0,0
270463,-166.666666666667,4,2,0,0,0,0
270726,-45.4545454545455,4,2,0,0,0,0
270813,-166.666666666667,4,2,0,0,0,0
271078,-45.4545454545455,4,2,0,0,0,0
271165,-166.666666666667,4,2,0,0,0,0
271429,-117.647058823529,4,2,0,0,0,0
272656,350.877192982456,6,2,0,0,1,0
272656,-117.647058823529,6,2,0,0,0,0
274410,350.877192982456,6,2,0,0,1,0
274410,-117.647058823529,6,2,0,0,0,0
277450,350.877192982456,6,2,0,0,1,0
277450,-121.951219512195,6,2,0,0,0,0
278970,350.877192982456,6,2,0,0,1,0
278970,-126.582278481013,6,2,0,0,0,0
280783,350.877192982456,6,2,0,0,1,0
280783,-131.578947368421,6,2,0,0,0,0
282010,350.877192982456,6,2,0,0,1,0
282010,-136.986301369863,6,2,0,0,0,0
283121,350.877192982456,6,2,0,0,1,0
283121,-142.857142857143,6,2,0,0,0,0
284407,350.877192982456,6,2,0,0,1,0
284407,-142.857142857143,6,2,0,0,0,0
285986,350.877192982456,6,2,0,0,1,0
285986,-149.253731343284,6,2,0,0,0,0

[HitObjects]
475,192,1670,128,0,1787:0:0:0:0:
182,192,1787,1,0,0:0:0:0:
329,192,1787,128,0,1904:0:0:0:0:
182,192,2021,1,0,0:0:0:0:
402,192,2021,128,0,2137:0:0:0:0:
109,192,2137,1,0,0:0:0:0:
36,192,2137,1,0,0:0:0:0:
256,192,2137,128,0,2839:0:0:0:0:
475,192,2488,1,0,0:0:0:0:
475,192,2722,1,0,0:0:0:0:
182,192,2839,1,0,0:0:0:0:
329,192,2839,1,0,0:0:0:0:
36,192,2839,128,0,3541:0:0:0:0:
329,192,3073,1,0,0:0:0:0:
475,192,3190,1,0,0:0:0:0:
109,192,3190,128,0,3541:0:0:0:0:
329,192,3424,1,0,0:0:0:0:
182,192,3424,128,0,3541:0:0:0:0:
475,192,3541,1,0,0:0:0:0:
36,192,3775,1,0,0:0:0:0:
329,192,3775,128,0,3892:0:0:0:0:
182,192,3892,1,0,0:0:0:0:
36,192,4126,1,0,0:0:0:0:
402,192,4126,128,0,4243:0:0:0:0:
182,192,4243,1,0,0:0:0:0:
329,192,4477,1,0,0:0:0:0:
475,192,4477,128,0,5295:0:0:0:0:
182,192,4594,1,0,0:0:0:0:
256,192,4711,1,0,0:0:0:0:
109,192,4828,1,0,0:0:0:0:
36,192,4945,1,0,0:0:0:0:
182,192,4945,1,0,0:0:0:0:
402,192,4945,128,0,5295:0:0:0:0:
182,192,5178,1,0,0:0:0:0:
329,192,5295,1,0,0:0:0:0:
36,192,5295,128,0,5646:0:0:0:0:
329,192,5529,1,0,0:0:0:0:
475,192,5529,128,0,5646:0:0:0:0:
256,192,5646,1,0,0:0:0:0:
109,192,5646,1,0,0:0:0:0:
182,192,5880,1,0,0:0:0:0:
402,192,5880,128,0,5997:0:0:0:0:
36,192,6231,1,0,0:0:0:0:
402,192,6231,128,0,7225:0:0:0:0:
182,192,6348,1,0,0:0:0:0:
36,192,6582,1,0,0:0:0:0:
182,192,6699,1,0,0:0:0:0:
256,192,6874,128,0,7225:0:0:0:0:
109,192,6874,128,0,7225:0:0:0:0:
329,192,7225,128,0,7401:0:0:0:0:
36,192,7225,128,0,7401:0:0:0:0:
475,192,7401,128,0,7576:0:0:0:0:
109,192,7401,128,0,7576:0:0:0:0:
329,192,7576,128,0,7752:0:0:0:0:
182,192,7576,128,0,7752:0:0:0:0:
475,192,7752,1,0,0:0:0:0:
256,192,7752,128,0,8804:0:0:0:0:
402,192,7752,1,0,0:0:0:0:
36,192,7752,1,0,0:0:0:0:
109,192,7839,1,0,0:0:0:0:
329,192,7927,1,0,0:0:0:0:
182,192,7927,1,0,0:0:0:0:
36,192,8015,1,0,0:0:0:0:
402,192,8015,1,0,0:0:0:0:
182,192,8102,1,0,0:0:0:0:
475,192,8102,1,0,0:0:0:0:
109,192,8190,1,0,0:0:0:0:
329,192,8190,1,0,0:0:0:0:
402,192,8278,1,0,0:0:0:0:
36,192,8278,1,0,0:0:0:0:
182,192,8366,1,0,0:0:0:0:
475,192,8366,1,0,0:0:0:0:
329,192,8453,1,0,0:0:0:0:
36,192,8453,1,0,0:0:0:0:
109,192,8541,1,0,0:0:0:0:
402,192,8541,1,0,0:0:0:0:
475,192,8629,1,0,0:0:0:0:
182,192,8629,1,0,0:0:0:0:
402,192,8716,1,0,0:0:0:0:
36,192,8804,1,0,0:0:0:0:
475,192,8804,1,0,0:0:0:0:
109,192,8804,1,0,0:0:0:0:
329,192,8804,1,0,0:0:0:0:
182,192,8804,1,0,0:0:0:0:
329,192,8980,1,0,0:0:0:0:
402,192,8980,1,0,0:0:0:0:
182,192,8980,1,0,0:0:0:0:
36,192,8980,128,0,10032:0:0:0:0:
109,192,8980,1,0,0:0:0:0:
475,192,8980,1,0,0:0:0:0:
256,192,9067,1,0,0:0:0:0:
475,192,9155,1,0,0:0:0:0:
182,192,9155,1,0,0:0:0:0:
402,192,9243,1,0,0:0:0:0:
109,192,9330,1,0,0:0:0:0:
329,192,9330,1,0,0:0:0:0:
182,192,9330,1,0,0:0:0:0:
402,192,9418,1,0,0:0:0:0:
475,192,9418,1,0,0:0:0:0:
256,192,9418,1,0,0:0:0:0:
329,192,9506,1,0,0:0:0:0:
109,192,9506,1,0,0:0:0:0:
475,192,9594,1,0,0:0:0:0:
182,192,9594,1,0,0:0:0:0:
402,192,9681,1,0,0:0:0:0:
256,192,9681,1,0,0:0:0:0:
182,192,9769,1,0,0:0:0:0:
109,192,9857,1,0,0:0:0:0:
329,192,9857,1,0,0:0:0:0:
475,192,9857,1,0,0:0:0:0:
182,192,9945,1,0,0:0:0:0:
256,192,9945,1,0,0:0:0:0:
402,192,9945,1,0,0:0:0:0:
109,192,10032,1,0,0:0:0:0:
475,192,10032,1,0,0:0:0:0:
329,192,10032,1,0,0:0:0:0:
256,192,10120,1,0,0:0:0:0:
475,192,10208,1,0,0:0:0:0:
109,192,10208,1,0,0:0:0:0:
329,192,10208,1,0,0:0:0:0:
182,192,10208,1,0,0:0:0:0:
36,192,10208,1,0,0:0:0:0:
402,192,10208,1,0,0:0:0:0:
256,192,10383,1,0,0:0:0:0:
402,192,10383,1,0,0:0:0:0:
109,192,10383,1,0,0:0:0:0:
475,192,10383,128,0,11874:0:0:0:0:
36,192,10383,1,0,0:0:0:0:
329,192,10471,1,0,0:0:0:0:
36,192,10559,1,0,0:0:0:0:
256,192,10559,1,0,0:0:0:0:
109,192,10646,1,0,0:0:0:0:
402,192,10734,1,0,0:0:0:0:
329,192,10734,1,0,0:0:0:0:
182,192,10734,1,0,0:0:0:0:
36,192,10822,1,0,0:0:0:0:
109,192,10822,1,0,0:0:0:0:
256,192,10822,1,0,0:0:0:0:
182,192,10909,1,0,0:0:0:0:
329,192,10909,1,0,0:0:0:0:
402,192,10909,1,0,0:0:0:0:
36,192,10997,1,0,0:0:0:0:
256,192,11085,1,0,0:0:0:0:
109,192,11085,1,0,0:0:0:0:
329,192,11173,1,0,0:0:0:0:
36,192,11260,1,0,0:0:0:0:
182,192,11260,1,0,0:0:0:0:
402,192,11260,1,0,0:0:0:0:
109,192,11348,1,0,0:0:0:0:
256,192,11348,1,0,0:0:0:0:
182,192,11436,1,0,0:0:0:0:
329,192,11436,1,0,0:0:0:0:
402,192,11523,1,0,0:0:0:0:
109,192,11523,1,0,0:0:0:0:
256,192,11611,1,0,0:0:0:0:
329,192,11611,1,0,0:0:0:0:
36,192,11611,1,0,0:0:0:0:
182,192,11699,1,0,0:0:0:0:
402,192,11787,1,0,0:0:0:0:
109,192,11787,1,0,0:0:0:0:
182,192,11874,1,0,0:0:0:0:
329,192,11874,1,0,0:0:0:0:
475,192,11962,1,0,0:0:0:0:
402,192,11962,1,0,0:0:0:0:
36,192,11962,1,0,0:0:0:0:
256,192,11962,1,0,0:0:0:0:
109,192,11962,1,0,0:0:0:0:
329,192,12137,1,0,0:0:0:0:
402,192,12137,1,0,0:0:0:0:
109,192,12137,1,0,0:0:0:0:
182,192,12137,1,0,0:0:0:0:
36,192,12225,1,0,0:0:0:0:
475,192,12225,1,0,0:0:0:0:
256,192,12225,1,0,0:0:0:0:
329,192,12313,1,0,0:0:0:0:
402,192,12313,1,0,0:0:0:0:
109,192,12313,1,0,0:0:0:0:
182,192,12313,1,0,0:0:0:0:
475,192,12488,1,0,0:0:0:0:
109,192,12488,1,0,0:0:0:0:
402,192,12488,1,0,0:0:0:0:
36,192,12488,1,0,0:0:0:0:
182,192,12488,1,0,0:0:0:0:
329,192,12488,1,0,0:0:0:0:
256,192,12576,1,0,0:0:0:0:
402,192,12664,1,0,0:0:0:0:
109,192,12664,1,0,0:0:0:0:
329,192,12752,1,0,0:0:0:0:
182,192,12752,1,0,0:0:0:0:
475,192,12839,1,0,0:0:0:0:
36,192,12839,1,0,0:0:0:0:
256,192,12839,1,0,0:0:0:0:
109,192,12839,1,0,0:0:0:0:
402,192,12839,1,0,0:0:0:0:
329,192,13015,1,0,0:0:0:0:
475,192,13015,1,0,0:0:0:0:
182,192,13015,1,0,0:0:0:0:
36,192,13015,1,0,0:0:0:0:
36,192,13189,1,0,0:0:0:0:
109,192,13189,1,0,0:0:0:0:
475,192,13189,1,0,0:0:0:0:
256,192,13189,1,0,0:0:0:0:
402,192,13189,1,0,0:0:0:0:
402,192,13364,1,0,0:0:0:0:
109,192,13364,1,0,0:0:0:0:
329,192,13452,1,0,0:0:0:0:
182,192,13452,1,0,0:0:0:0:
36,192,13539,1,0,0:0:0:0:
475,192,13539,1,0,0:0:0:0:
256,192,13539,1,0,0:0:0:0:
109,192,13627,1,0,0:0:0:0:
402,192,13627,1,0,0:0:0:0:
36,192,13715,1,0,0:0:0:0:
182,192,13715,1,0,0:0:0:0:
329,192,13715,1,0,0:0:0:0:
109,192,13803,1,0,0:0:0:0:
256,192,13803,1,0,0:0:0:0:
402,192,13890,1,0,0:0:0:0:
182,192,13890,1,0,0:0:0:0:
475,192,13890,1,0,0:0:0:0:
329,192,13978,1,0,0:0:0:0:
109,192,13978,1,0,0:0:0:0:
256,192,14066,1,0,0:0:0:0:
402,192,14066,1,0,0:0:0:0:
36,192,14066,1,0,0:0:0:0:
475,192,14066,1,0,0:0:0:0:
36,192,14241,1,0,0:0:0:0:
329,192,14241,1,0,0:0:0:0:
182,192,14241,1,0,0:0:0:0:
109,192,14329,1,0,0:0:0:0:
402,192,14329,1,0,0:0:0:0:
36,192,14417,1,0,0:0:0:0:
256,192,14417,1,0,0:0:0:0:
475,192,14417,1,0,0:0:0:0:
256,192,14592,1,0,0:0:0:0:
402,192,14592,1,0,0:0:0:0:
109,192,14592,1,0,0:0:0:0:
36,192,14592,128,0,14855:0:0:0:0:
475,192,14592,128,0,14855:0:0:0:0:
329,192,14767,1,0,0:0:0:0:
182,192,14767,1,0,0:0:0:0:
402,192,14943,1,0,0:0:0:0:
256,192,14943,1,0,0:0:0:0:
36,192,14943,1,0,0:0:0:0:
329,192,15031,1,0,0:0:0:0:
109,192,15031,1,0,0:0:0:0:
475,192,15118,1,0,0:0:0:0:
402,192,15118,1,0,0:0:0:0:
182,192,15118,1,0,0:0:0:0:
36,192,15206,1,0,0:0:0:0:
256,192,15206,1,0,0:0:0:0:
109,192,15294,1,0,0:0:0:0:
329,192,15294,1,0,0:0:0:0:
475,192,15294,1,0,0:0:0:0:
36,192,15469,1,0,0:0:0:0:
402,192,15469,1,0,0:0:0:0:
256,192,15469,1,0,0:0:0:0:
329,192,15557,1,0,0:0:0:0:
109,192,15557,1,0,0:0:0:0:
475,192,15645,1,0,0:0:0:0:
182,192,15645,1,0,0:0:0:0:
402,192,15645,1,0,0:0:0:0:
256,192,15732,1,0,0:0:0:0:
36,192,15732,1,0,0:0:0:0:
475,192,15820,1,0,0:0:0:0:
109,192,15820,1,0,0:0:0:0:
329,192,15820,1,0,0:0:0:0:
182,192,15996,128,0,16259:0:0:0:0:
36,192,15996,128,0,16259:0:0:0:0:
475,192,15996,1,0,0:0:0:0:
329,192,15996,1,0,0:0:0:0:
402,192,15996,1,0,0:0:0:0:
402,192,16171,1,0,0:0:0:0:
256,192,16171,1,0,0:0:0:0:
329,192,16346,1,0,0:0:0:0:
182,192,16346,1,0,0:0:0:0:
36,192,16346,1,0,0:0:0:0:
402,192,16434,1,0,0:0:0:0:
256,192,16434,1,0,0:0:0:0:
475,192,16522,1,0,0:0:0:0:
36,192,16522,1,0,0:0:0:0:
109,192,16522,1,0,0:0:0:0:
329,192,16522,1,0,0:0:0:0:
402,192,16697,1,0,0:0:0:0:
256,192,16697,1,0,0:0:0:0:
36,192,16697,1,0,0:0:0:0:
109,192,16697,1,0,0:0:0:0:
329,192,16873,1,0,0:0:0:0:
36,192,16873,1,0,0:0:0:0:
182,192,16873,1,0,0:0:0:0:
475,192,16873,1,0,0:0:0:0:
109,192,16960,1,0,0:0:0:0:
256,192,17048,1,0,0:0:0:0:
402,192,17048,1,0,0:0:0:0:
36,192,17048,1,0,0:0:0:0:
475,192,17136,1,0,0:0:0:0:
182,192,17136,1,0,0:0:0:0:
402,192,17224,1,0,0:0:0:0:
36,192,17224,1,0,0:0:0:0:
109,192,17224,1,0,0:0:0:0:
256,192,17224,1,0,0:0:0:0:
475,192,17399,128,0,17662:0:0:0:0:
329,192,17399,1,0,0:0:0:0:
402,192,17399,128,0,17662:0:0:0:0:
36,192,17399,1,0,0:0:0:0:
182,192,17399,1,0,0:0:0:0:
109,192,17487,1,0,0:0:0:0:
256,192,17574,1,0,0:0:0:0:
182,192,17662,1,0,0:0:0:0:
36,192,17750,1,0,0:0:0:0:
329,192,17750,1,0,0:0:0:0:
475,192,17750,1,0,0:0:0:0:
402,192,17838,1,0,0:0:0:0:
182,192,17838,1,0,0:0:0:0:
475,192,17925,1,0,0:0:0:0:
109,192,17925,1,0,0:0:0:0:
402,192,18013,1,0,0:0:0:0:
256,192,18013,1,0,0:0:0:0:
109,192,18101,1,0,0:0:0:0:
36,192,18101,1,0,0:0:0:0:
182,192,18101,1,0,0:0:0:0:
329,192,18101,1,0,0:0:0:0:
475,192,18101,1,0,0:0:0:0:
402,192,18452,1,0,0:0:0:0:
475,192,18452,1,0,0:0:0:0:
256,192,18452,1,0,0:0:0:0:
36,192,18452,1,0,0:0:0:0:
109,192,18452,1,0,0:0:0:0:
109,192,18803,128,0,19066:0:0:0:0:
36,192,18803,128,0,19066:0:0:0:0:
402,192,18803,1,0,0:0:0:0:
256,192,18803,1,0,0:0:0:0:
475,192,18803,1,0,0:0:0:0:
329,192,18978,1,0,0:0:0:0:
182,192,18978,1,0,0:0:0:0:
256,192,19153,1,0,0:0:0:0:
36,192,19153,1,0,0:0:0:0:
402,192,19153,1,0,0:0:0:0:
182,192,19241,1,0,0:0:0:0:
475,192,19241,1,0,0:0:0:0:
36,192,19329,1,0,0:0:0:0:
402,192,19329,1,0,0:0:0:0:
256,192,19329,1,0,0:0:0:0:
329,192,19417,1,0,0:0:0:0:
109,192,19417,1,0,0:0:0:0:
475,192,19504,1,0,0:0:0:0:
182,192,19504,1,0,0:0:0:0:
402,192,19592,1,0,0:0:0:0:
256,192,19592,1,0,0:0:0:0:
109,192,19592,1,0,0:0:0:0:
329,192,19680,1,0,0:0:0:0:
36,192,19680,1,0,0:0:0:0:
182,192,19680,1,0,0:0:0:0:
475,192,19680,1,0,0:0:0:0:
402,192,19855,1,0,0:0:0:0:
256,192,19855,1,0,0:0:0:0:
36,192,19855,1,0,0:0:0:0:
109,192,19914,1,0,0:0:0:0:
329,192,19943,1,0,0:0:0:0:
182,192,19972,1,0,0:0:0:0:
475,192,20031,1,0,0:0:0:0:
36,192,20031,1,0,0:0:0:0:
256,192,20031,1,0,0:0:0:0:
402,192,20031,1,0,0:0:0:0:
329,192,20206,128,0,20469:0:0:0:0:
475,192,20206,128,0,20469:0:0:0:0:
36,192,20206,1,0,0:0:0:0:
109,192,20206,1,0,0:0:0:0:
182,192,20206,1,0,0:0:0:0:
256,192,20381,1,0,0:0:0:0:
109,192,20381,1,0,0:0:0:0:
36,192,20557,1,0,0:0:0:0:
475,192,20557,1,0,0:0:0:0:
182,192,20615,1,0,0:0:0:0:
402,192,20615,1,0,0:0:0:0:
109,192,20674,1,0,0:0:0:0:
329,192,20674,1,0,0:0:0:0:
475,192,20732,1,0,0:0:0:0:
36,192,20732,1,0,0:0:0:0:
256,192,20732,1,0,0:0:0:0:
182,192,20820,1,0,0:0:0:0:
402,192,20820,1,0,0:0:0:0:
109,192,20908,1,0,0:0:0:0:
329,192,20908,1,0,0:0:0:0:
182,192,20966,1,0,0:0:0:0:
402,192,20966,1,0,0:0:0:0:
256,192,21025,1,0,0:0:0:0:
475,192,21025,1,0,0:0:0:0:
329,192,21083,1,0,0:0:0:0:
36,192,21083,1,0,0:0:0:0:
109,192,21083,1,0,0:0:0:0:
475,192,21171,1,0,0:0:0:0:
256,192,21171,1,0,0:0:0:0:
36,192,21259,1,0,0:0:0:0:
182,192,21259,1,0,0:0:0:0:
402,192,21259,1,0,0:0:0:0:
109,192,21346,1,0,0:0:0:0:
329,192,21346,1,0,0:0:0:0:
256,192,21434,1,0,0:0:0:0:
402,192,21434,1,0,0:0:0:0:
475,192,21434,1,0,0:0:0:0:
36,192,21434,1,0,0:0:0:0:
182,192,21522,1,0,0:0:0:0:
329,192,21522,1,0,0:0:0:0:
109,192,21610,1,0,0:0:0:0:
256,192,21610,128,0,21960:0:0:0:0:
402,192,21610,1,0,0:0:0:0:
475,192,21610,1,0,0:0:0:0:
36,192,21610,1,0,0:0:0:0:
329,192,21960,1,0,0:0:0:0:
475,192,21960,1,0,0:0:0:0:
36,192,21960,1,0,0:0:0:0:
182,192,21960,1,0,0:0:0:0:
402,192,22048,1,0,0:0:0:0:
109,192,22048,1,0,0:0:0:0:
329,192,22136,1,0,0:0:0:0:
475,192,22136,1,0,0:0:0:0:
182,192,22136,1,0,0:0:0:0:
36,192,22136,1,0,0:0:0:0:
402,192,22311,1,0,0:0:0:0:
475,192,22311,1,0,0:0:0:0:
256,192,22311,1,0,0:0:0:0:
36,192,22311,1,0,0:0:0:0:
109,192,22311,1,0,0:0:0:0:
182,192,22399,1,0,0:0:0:0:
329,192,22399,1,0,0:0:0:0:
109,192,22487,1,0,0:0:0:0:
36,192,22487,1,0,0:0:0:0:
475,192,22487,1,0,0:0:0:0:
256,192,22487,1,0,0:0:0:0:
402,192,22487,1,0,0:0:0:0:
329,192,22662,1,0,0:0:0:0:
182,192,22662,1,0,0:0:0:0:
475,192,22838,1,0,0:0:0:0:
36,192,22838,1,0,0:0:0:0:
182,192,22838,1,0,0:0:0:0:
329,192,22838,1,0,0:0:0:0:
36,192,23013,128,0,24504:0:0:0:0:
475,192,23013,128,0,24504:0:0:0:0:
402,192,23013,1,0,0:0:0:0:
109,192,23013,1,0,0:0:0:0:
256,192,23013,1,0,0:0:0:0:
475,192,24592,128,0,24679:0:0:0:0:
36,192,24592,128,0,24679:0:0:0:0:
256,192,24592,128,0,24679:0:0:0:0:
36,192,25556,1,0,0:0:0:0:
109,192,25600,1,0,0:0:0:0:
182,192,25644,1,0,0:0:0:0:
475,192,25644,128,0,25995:0:0:0:0:
182,192,25995,1,0,0:0:0:0:
36,192,25995,1,0,0:0:0:0:
329,192,25995,128,0,26346:0:0:0:0:
182,192,26346,1,0,0:0:0:0:
36,192,26346,1,0,0:0:0:0:
475,192,26346,128,0,26521:0:0:0:0:
402,192,26521,128,0,26697:0:0:0:0:
36,192,26697,1,0,0:0:0:0:
182,192,26697,1,0,0:0:0:0:
475,192,26872,128,0,27223:0:0:0:0:
182,192,27048,1,0,0:0:0:0:
36,192,27048,1,0,0:0:0:0:
109,192,27223,128,0,28276:0:0:0:0:
402,192,27399,1,0,0:0:0:0:
329,192,27399,1,0,0:0:0:0:
402,192,27749,1,0,0:0:0:0:
329,192,27749,1,0,0:0:0:0:
402,192,28100,1,0,0:0:0:0:
329,192,28100,1,0,0:0:0:0:
402,192,28451,1,0,0:0:0:0:
329,192,28451,1,0,0:0:0:0:
36,192,28451,128,0,28627:0:0:0:0:
256,192,28627,128,0,29153:0:0:0:0:
109,192,28802,1,0,0:0:0:0:
36,192,28802,1,0,0:0:0:0:
36,192,29153,1,0,0:0:0:0:
109,192,29153,1,0,0:0:0:0:
475,192,29153,128,0,29328:0:0:0:0:
329,192,29328,128,0,29504:0:0:0:0:
36,192,29504,1,0,0:0:0:0:
109,192,29504,1,0,0:0:0:0:
402,192,29679,128,0,29855:0:0:0:0:
109,192,29855,1,0,0:0:0:0:
36,192,29855,1,0,0:0:0:0:
182,192,30030,128,0,30381:0:0:0:0:
475,192,30206,1,0,0:0:0:0:
329,192,30206,1,0,0:0:0:0:
36,192,30381,128,0,30469:0:0:0:0:
182,192,30469,128,0,30556:0:0:0:0:
475,192,30556,1,0,0:0:0:0:
329,192,30556,1,0,0:0:0:0:
109,192,30556,128,0,30644:0:0:0:0:
36,192,30732,128,0,30907:0:0:0:0:
475,192,30907,1,0,0:0:0:0:
329,192,30907,1,0,0:0:0:0:
182,192,31083,128,0,31258:0:0:0:0:
109,192,31258,128,0,31434:0:0:0:0:
475,192,31258,1,0,0:0:0:0:
329,192,31258,1,0,0:0:0:0:
329,192,31434,128,0,31521:0:0:0:0:
402,192,31477,128,0,31565:0:0:0:0:
475,192,31521,128,0,31784:0:0:0:0:
256,192,31609,1,0,0:0:0:0:
109,192,31609,1,0,0:0:0:0:
402,192,31784,128,0,31872:0:0:0:0:
402,192,31960,128,0,32486:0:0:0:0:
109,192,31960,1,0,0:0:0:0:
256,192,31960,1,0,0:0:0:0:
256,192,32311,1,0,0:0:0:0:
109,192,32311,1,0,0:0:0:0:
329,192,32486,128,0,32574:0:0:0:0:
402,192,32662,128,0,32749:0:0:0:0:
109,192,32662,1,0,0:0:0:0:
256,192,32662,1,0,0:0:0:0:
475,192,32837,128,0,33188:0:0:0:0:
36,192,33013,1,0,0:0:0:0:
182,192,33013,1,0,0:0:0:0:
329,192,33188,128,0,33276:0:0:0:0:
329,192,33363,128,0,33714:0:0:0:0:
182,192,33363,1,0,0:0:0:0:
36,192,33363,1,0,0:0:0:0:
36,192,33714,1,0,0:0:0:0:
182,192,33714,1,0,0:0:0:0:
402,192,33890,128,0,33977:0:0:0:0:
329,192,34065,128,0,34153:0:0:0:0:
182,192,34065,1,0,0:0:0:0:
36,192,34065,1,0,0:0:0:0:
256,192,34241,128,0,34592:0:0:0:0:
475,192,34416,1,0,0:0:0:0:
402,192,34416,1,0,0:0:0:0:
109,192,34592,128,0,34679:0:0:0:0:
475,192,34767,1,0,0:0:0:0:
402,192,34767,1,0,0:0:0:0:
36,192,34767,128,0,34942:0:0:0:0:
182,192,34855,128,0,35030:0:0:0:0:
109,192,34942,128,0,35118:0:0:0:0:
36,192,35030,128,0,35206:0:0:0:0:
475,192,35118,1,0,0:0:0:0:
402,192,35118,1,0,0:0:0:0:
182,192,35118,128,0,35293:0:0:0:0:
36,192,35293,128,0,36697:0:0:0:0:
475,192,35469,1,0,0:0:0:0:
402,192,35469,1,0,0:0:0:0:
256,192,35469,128,0,35556:0:0:0:0:
475,192,35644,1,0,0:0:0:0:
402,192,35644,1,0,0:0:0:0:
256,192,35644,128,0,35995:0:0:0:0:
182,192,35995,128,0,36697:0:0:0:0:
329,192,36170,128,0,36697:0:0:0:0:
475,192,36346,128,0,36697:0:0:0:0:
109,192,36872,128,0,37223:0:0:0:0:
36,192,37223,1,0,0:0:0:0:
329,192,37223,1,0,0:0:0:0:
402,192,37223,128,0,37574:0:0:0:0:
182,192,37223,1,0,0:0:0:0:
182,192,37399,1,0,0:0:0:0:
475,192,37574,1,0,0:0:0:0:
109,192,37574,1,0,0:0:0:0:
36,192,37574,128,0,37749:0:0:0:0:
329,192,37574,1,0,0:0:0:0:
329,192,37749,1,0,0:0:0:0:
256,192,37749,128,0,38100:0:0:0:0:
36,192,37925,1,0,0:0:0:0:
109,192,37925,1,0,0:0:0:0:
402,192,37925,1,0,0:0:0:0:
109,192,38100,1,0,0:0:0:0:
475,192,38100,128,0,38451:0:0:0:0:
36,192,38276,1,0,0:0:0:0:
329,192,38276,1,0,0:0:0:0:
182,192,38276,1,0,0:0:0:0:
329,192,38451,1,0,0:0:0:0:
109,192,38451,128,0,39328:0:0:0:0:
402,192,38627,1,0,0:0:0:0:
475,192,38627,1,0,0:0:0:0:
256,192,38627,1,0,0:0:0:0:
475,192,38802,1,0,0:0:0:0:
36,192,38977,1,0,0:0:0:0:
329,192,38977,1,0,0:0:0:0:
182,192,38977,1,0,0:0:0:0:
329,192,39153,1,0,0:0:0:0:
475,192,39328,1,0,0:0:0:0:
36,192,39328,1,0,0:0:0:0:
256,192,39328,1,0,0:0:0:0:
36,192,39504,1,0,0:0:0:0:
256,192,39679,1,0,0:0:0:0:
109,192,39679,1,0,0:0:0:0:
402,192,39679,128,0,39855:0:0:0:0:
109,192,39855,1,0,0:0:0:0:
329,192,39855,128,0,40381:0:0:0:0:
36,192,40030,1,0,0:0:0:0:
475,192,40030,1,0,0:0:0:0:
182,192,40030,1,0,0:0:0:0:
475,192,40206,1,0,0:0:0:0:
109,192,40381,1,0,0:0:0:0:
402,192,40381,1,0,0:0:0:0:
36,192,40381,128,0,40556:0:0:0:0:
256,192,40381,1,0,0:0:0:0:
402,192,40556,1,0,0:0:0:0:
182,192,40556,128,0,40732:0:0:0:0:
109,192,40732,1,0,0:0:0:0:
475,192,40732,1,0,0:0:0:0:
329,192,40732,1,0,0:0:0:0:
109,192,40907,1,0,0:0:0:0:
402,192,40907,128,0,41083:0:0:0:0:
475,192,41083,1,0,0:0:0:0:
36,192,41083,1,0,0:0:0:0:
256,192,41083,1,0,0:0:0:0:
36,192,41258,1,0,0:0:0:0:
182,192,41258,128,0,41609:0:0:0:0:
475,192,41434,1,0,0:0:0:0:
402,192,41434,1,0,0:0:0:0:
329,192,41434,1,0,0:0:0:0:
329,192,41609,1,0,0:0:0:0:
36,192,41609,128,0,41697:0:0:0:0:
109,192,41697,128,0,41784:0:0:0:0:
475,192,41784,1,0,0:0:0:0:
402,192,41784,1,0,0:0:0:0:
182,192,41784,128,0,41872:0:0:0:0:
256,192,41784,1,0,0:0:0:0:
475,192,41960,1,0,0:0:0:0:
36,192,41960,128,0,42135:0:0:0:0:
402,192,42135,1,0,0:0:0:0:
109,192,42135,1,0,0:0:0:0:
256,192,42135,1,0,0:0:0:0:
109,192,42311,1,0,0:0:0:0:
36,192,42311,1,0,0:0:0:0:
475,192,42311,1,0,0:0:0:0:
256,192,42311,1,0,0:0:0:0:
402,192,42311,1,0,0:0:0:0:
329,192,42486,1,0,0:0:0:0:
402,192,42486,1,0,0:0:0:0:
475,192,42486,1,0,0:0:0:0:
182,192,42486,1,0,0:0:0:0:
109,192,42486,1,0,0:0:0:0:
36,192,42486,1,0,0:0:0:0:
109,192,42662,1,0,0:0:0:0:
36,192,42662,1,0,0:0:0:0:
475,192,42662,1,0,0:0:0:0:
182,192,42662,1,0,0:0:0:0:
256,192,42662,1,0,0:0:0:0:
402,192,42662,1,0,0:0:0:0:
329,192,43012,1,0,0:0:0:0:
475,192,43012,1,0,0:0:0:0:
36,192,43012,1,0,0:0:0:0:
182,192,43012,1,0,0:0:0:0:
109,192,43012,1,0,0:0:0:0:
402,192,43100,1,0,0:0:0:0:
256,192,43100,1,0,0:0:0:0:
109,192,43188,1,0,0:0:0:0:
36,192,43188,1,0,0:0:0:0:
182,192,43188,1,0,0:0:0:0:
329,192,43188,1,0,0:0:0:0:
475,192,43188,1,0,0:0:0:0:
256,192,43363,1,0,0:0:0:0:
402,192,43363,1,0,0:0:0:0:
475,192,43363,1,0,0:0:0:0:
36,192,43363,1,0,0:0:0:0:
109,192,43363,1,0,0:0:0:0:
182,192,43363,1,0,0:0:0:0:
475,192,43714,1,0,0:0:0:0:
36,192,43714,1,0,0:0:0:0:
402,192,43714,1,0,0:0:0:0:
109,192,43714,1,0,0:0:0:0:
256,192,43714,1,0,0:0:0:0:
329,192,43802,1,0,0:0:0:0:
182,192,43802,1,0,0:0:0:0:
109,192,43890,1,0,0:0:0:0:
36,192,43890,1,0,0:0:0:0:
475,192,43890,1,0,0:0:0:0:
256,192,43890,1,0,0:0:0:0:
402,192,43890,1,0,0:0:0:0:
329,192,44065,1,0,0:0:0:0:
402,192,44065,1,0,0:0:0:0:
475,192,44065,1,0,0:0:0:0:
109,192,44065,1,0,0:0:0:0:
182,192,44065,1,0,0:0:0:0:
36,192,44065,1,0,0:0:0:0:
182,192,44240,1,0,0:0:0:0:
329,192,44240,1,0,0:0:0:0:
109,192,44416,1,0,0:0:0:0:
36,192,44416,1,0,0:0:0:0:
475,192,44416,1,0,0:0:0:0:
256,192,44416,1,0,0:0:0:0:
402,192,44416,1,0,0:0:0:0:
402,192,44591,1,0,0:0:0:0:
109,192,44591,1,0,0:0:0:0:
36,192,44767,1,0,0:0:0:0:
475,192,44767,1,0,0:0:0:0:
182,192,44767,1,0,0:0:0:0:
329,192,44767,1,0,0:0:0:0:
256,192,44767,1,0,0:0:0:0:
475,192,44942,1,0,0:0:0:0:
36,192,44942,1,0,0:0:0:0:
329,192,45118,1,0,0:0:0:0:
402,192,45118,1,0,0:0:0:0:
256,192,45118,1,0,0:0:0:0:
109,192,45118,1,0,0:0:0:0:
182,192,45118,1,0,0:0:0:0:
109,192,45293,1,0,0:0:0:0:
402,192,45293,1,0,0:0:0:0:
329,192,45293,1,0,0:0:0:0:
182,192,45293,1,0,0:0:0:0:
475,192,45469,1,0,0:0:0:0:
109,192,45469,1,0,0:0:0:0:
182,192,45469,1,0,0:0:0:0:
36,192,45469,128,0,45819:0:0:0:0:
329,192,45469,128,0,45819:0:0:0:0:
402,192,45469,1,0,0:0:0:0:
109,192,45819,1,0,0:0:0:0:
475,192,45819,1,0,0:0:0:0:
256,192,45819,1,0,0:0:0:0:
402,192,45819,1,0,0:0:0:0:
36,192,45995,1,0,0:0:0:0:
109,192,45995,1,0,0:0:0:0:
402,192,45995,1,0,0:0:0:0:
256,192,45995,1,0,0:0:0:0:
182,192,46170,1,0,0:0:0:0:
329,192,46170,1,0,0:0:0:0:
36,192,46170,1,0,0:0:0:0:
475,192,46170,128,0,46258:0:0:0:0:
256,192,46258,1,0,0:0:0:0:
402,192,46346,1,0,0:0:0:0:
182,192,46346,1,0,0:0:0:0:
36,192,46346,1,0,0:0:0:0:
475,192,46346,128,0,46521:0:0:0:0:
402,192,46521,1,0,0:0:0:0:
109,192,46521,1,0,0:0:0:0:
36,192,46521,128,0,46872:0:0:0:0:
256,192,46521,1,0,0:0:0:0:
402,192,46697,1,0,0:0:0:0:
475,192,46697,1,0,0:0:0:0:
109,192,46697,128,0,46872:0:0:0:0:
256,192,46697,1,0,0:0:0:0:
182,192,46872,128,0,47223:0:0:0:0:
402,192,46872,1,0,0:0:0:0:
475,192,46872,1,0,0:0:0:0:
329,192,46872,128,0,47223:0:0:0:0:
109,192,47223,1,0,0:0:0:0:
36,192,47223,128,0,47398:0:0:0:0:
256,192,47223,1,0,0:0:0:0:
475,192,47223,1,0,0:0:0:0:
182,192,47398,1,0,0:0:0:0:
475,192,47398,1,0,0:0:0:0:
256,192,47398,128,0,47574:0:0:0:0:
402,192,47398,1,0,0:0:0:0:
329,192,47486,1,0,0:0:0:0:
36,192,47574,1,0,0:0:0:0:
182,192,47574,1,0,0:0:0:0:
475,192,47574,1,0,0:0:0:0:
109,192,47574,128,0,47749:0:0:0:0:
402,192,47574,1,0,0:0:0:0:
329,192,47925,1,0,0:0:0:0:
475,192,47925,1,0,0:0:0:0:
182,192,47925,1,0,0:0:0:0:
36,192,47925,1,0,0:0:0:0:
109,192,48100,1,0,0:0:0:0:
256,192,48100,1,0,0:0:0:0:
402,192,48100,1,0,0:0:0:0:
475,192,48276,1,0,0:0:0:0:
109,192,48276,128,0,48714:0:0:0:0:
36,192,48276,128,0,48714:0:0:0:0:
256,192,48276,1,0,0:0:0:0:
402,192,48276,1,0,0:0:0:0:
329,192,48363,1,0,0:0:0:0:
475,192,48451,1,0,0:0:0:0:
182,192,48451,1,0,0:0:0:0:
402,192,48539,1,0,0:0:0:0:
256,192,48626,1,0,0:0:0:0:
475,192,48714,1,0,0:0:0:0:
109,192,48802,1,0,0:0:0:0:
182,192,48802,1,0,0:0:0:0:
36,192,48802,1,0,0:0:0:0:
329,192,48802,1,0,0:0:0:0:
402,192,48890,1,0,0:0:0:0:
109,192,48977,1,0,0:0:0:0:
256,192,48977,1,0,0:0:0:0:
329,192,49065,1,0,0:0:0:0:
36,192,49153,1,0,0:0:0:0:
475,192,49153,1,0,0:0:0:0:
402,192,49153,1,0,0:0:0:0:
182,192,49153,1,0,0:0:0:0:
109,192,49240,1,0,0:0:0:0:
402,192,49328,1,0,0:0:0:0:
36,192,49328,1,0,0:0:0:0:
475,192,49328,1,0,0:0:0:0:
256,192,49328,1,0,0:0:0:0:
329,192,49416,1,0,0:0:0:0:
36,192,49504,1,0,0:0:0:0:
182,192,49504,1,0,0:0:0:0:
109,192,49504,1,0,0:0:0:0:
475,192,49504,1,0,0:0:0:0:
256,192,49591,1,0,0:0:0:0:
329,192,49679,1,0,0:0:0:0:
109,192,49679,1,0,0:0:0:0:
36,192,49679,1,0,0:0:0:0:
475,192,49679,1,0,0:0:0:0:
182,192,49767,1,0,0:0:0:0:
109,192,49854,1,0,0:0:0:0:
402,192,49854,1,0,0:0:0:0:
256,192,49942,1,0,0:0:0:0:
475,192,50030,1,0,0:0:0:0:
329,192,50030,1,0,0:0:0:0:
109,192,50030,1,0,0:0:0:0:
36,192,50030,1,0,0:0:0:0:
182,192,50118,1,0,0:0:0:0:
402,192,50205,1,0,0:0:0:0:
256,192,50205,1,0,0:0:0:0:
109,192,50293,1,0,0:0:0:0:
329,192,50381,1,0,0:0:0:0:
402,192,50381,1,0,0:0:0:0:
475,192,50381,1,0,0:0:0:0:
36,192,50381,1,0,0:0:0:0:
182,192,50469,1,0,0:0:0:0:
256,192,50556,1,0,0:0:0:0:
402,192,50556,1,0,0:0:0:0:
109,192,50644,1,0,0:0:0:0:
329,192,50732,1,0,0:0:0:0:
475,192,50732,1,0,0:0:0:0:
36,192,50732,1,0,0:0:0:0:
256,192,50732,1,0,0:0:0:0:
109,192,50819,1,0,0:0:0:0:
329,192,50907,1,0,0:0:0:0:
475,192,50907,1,0,0:0:0:0:
182,192,50907,1,0,0:0:0:0:
36,192,50907,1,0,0:0:0:0:
402,192,50995,1,0,0:0:0:0:
475,192,51083,1,0,0:0:0:0:
256,192,51083,1,0,0:0:0:0:
36,192,51083,1,0,0:0:0:0:
182,192,51083,1,0,0:0:0:0:
109,192,51170,1,0,0:0:0:0:
402,192,51258,1,0,0:0:0:0:
329,192,51258,1,0,0:0:0:0:
256,192,51346,1,0,0:0:0:0:
402,192,51433,1,0,0:0:0:0:
36,192,51433,1,0,0:0:0:0:
109,192,51433,1,0,0:0:0:0:
475,192,51433,1,0,0:0:0:0:
329,192,51521,1,0,0:0:0:0:
182,192,51609,1,0,0:0:0:0:
109,192,51609,1,0,0:0:0:0:
256,192,51697,1,0,0:0:0:0:
329,192,51784,1,0,0:0:0:0:
475,192,51784,1,0,0:0:0:0:
402,192,51784,1,0,0:0:0:0:
36,192,51784,1,0,0:0:0:0:
182,192,51872,1,0,0:0:0:0:
109,192,51960,1,0,0:0:0:0:
402,192,51960,1,0,0:0:0:0:
256,192,52047,1,0,0:0:0:0:
402,192,52135,1,0,0:0:0:0:
475,192,52135,1,0,0:0:0:0:
36,192,52135,1,0,0:0:0:0:
109,192,52135,1,0,0:0:0:0:
329,192,52223,1,0,0:0:0:0:
475,192,52311,1,0,0:0:0:0:
402,192,52311,1,0,0:0:0:0:
109,192,52311,1,0,0:0:0:0:
182,192,52311,1,0,0:0:0:0:
256,192,52398,1,0,0:0:0:0:
36,192,52486,128,0,53363:0:0:0:0:
109,192,52486,1,0,0:0:0:0:
475,192,52486,128,0,53363:0:0:0:0:
329,192,52486,1,0,0:0:0:0:
402,192,52486,1,0,0:0:0:0:
182,192,52574,1,0,0:0:0:0:
109,192,52662,1,0,0:0:0:0:
402,192,52662,1,0,0:0:0:0:
256,192,52749,1,0,0:0:0:0:
329,192,52837,128,0,52925:0:0:0:0:
109,192,52837,128,0,52925:0:0:0:0:
402,192,52925,128,0,53012:0:0:0:0:
182,192,52925,128,0,53012:0:0:0:0:
256,192,53012,128,0,53100:0:0:0:0:
402,192,53100,128,0,53188:0:0:0:0:
182,192,53100,128,0,53188:0:0:0:0:
329,192,53188,128,0,53276:0:0:0:0:
109,192,53188,128,0,53276:0:0:0:0:
256,192,53276,128,0,53363:0:0:0:0:
182,192,53363,1,0,0:0:0:0:
402,192,53363,1,0,0:0:0:0:
329,192,53451,1,0,0:0:0:0:
36,192,53539,1,0,0:0:0:0:
109,192,53539,1,0,0:0:0:0:
475,192,53539,1,0,0:0:0:0:
256,192,53539,1,0,0:0:0:0:
329,192,53626,1,0,0:0:0:0:
475,192,53714,1,0,0:0:0:0:
402,192,53714,1,0,0:0:0:0:
182,192,53714,1,0,0:0:0:0:
36,192,53714,1,0,0:0:0:0:
109,192,53802,1,0,0:0:0:0:
329,192,53890,1,0,0:0:0:0:
475,192,53890,1,0,0:0:0:0:
36,192,53890,1,0,0:0:0:0:
256,192,53890,1,0,0:0:0:0:
402,192,53977,1,0,0:0:0:0:
109,192,54065,1,0,0:0:0:0:
182,192,54065,1,0,0:0:0:0:
329,192,54153,1,0,0:0:0:0:
36,192,54240,1,0,0:0:0:0:
475,192,54240,1,0,0:0:0:0:
256,192,54240,1,0,0:0:0:0:
402,192,54240,1,0,0:0:0:0:
109,192,54328,1,0,0:0:0:0:
36,192,54416,1,0,0:0:0:0:
256,192,54416,1,0,0:0:0:0:
329,192,54416,1,0,0:0:0:0:
475,192,54416,1,0,0:0:0:0:
182,192,54504,1,0,0:0:0:0:
109,192,54591,1,0,0:0:0:0:
36,192,54591,1,0,0:0:0:0:
402,192,54591,1,0,0:0:0:0:
475,192,54591,1,0,0:0:0:0:
329,192,54679,1,0,0:0:0:0:
402,192,54767,1,0,0:0:0:0:
109,192,54767,1,0,0:0:0:0:
256,192,54854,1,0,0:0:0:0:
475,192,54942,1,0,0:0:0:0:
36,192,54942,1,0,0:0:0:0:
182,192,54942,1,0,0:0:0:0:
329,192,54942,1,0,0:0:0:0:
402,192,55030,1,0,0:0:0:0:
109,192,55030,1,0,0:0:0:0:
329,192,55118,1,0,0:0:0:0:
182,192,55118,1,0,0:0:0:0:
475,192,55205,1,0,0:0:0:0:
256,192,55205,1,0,0:0:0:0:
329,192,55293,1,0,0:0:0:0:
36,192,55293,1,0,0:0:0:0:
182,192,55293,1,0,0:0:0:0:
402,192,55293,1,0,0:0:0:0:
109,192,55381,1,0,0:0:0:0:
36,192,55469,1,0,0:0:0:0:
256,192,55469,1,0,0:0:0:0:
402,192,55556,1,0,0:0:0:0:
182,192,55644,1,0,0:0:0:0:
36,192,55644,1,0,0:0:0:0:
329,192,55644,1,0,0:0:0:0:
475,192,55644,1,0,0:0:0:0:
109,192,55732,1,0,0:0:0:0:
36,192,55819,1,0,0:0:0:0:
402,192,55819,1,0,0:0:0:0:
256,192,55819,1,0,0:0:0:0:
475,192,55819,1,0,0:0:0:0:
329,192,55907,1,0,0:0:0:0:
36,192,55995,1,0,0:0:0:0:
475,192,55995,1,0,0:0:0:0:
402,192,55995,1,0,0:0:0:0:
182,192,55995,1,0,0:0:0:0:
109,192,56083,1,0,0:0:0:0:
329,192,56170,1,0,0:0:0:0:
256,192,56170,1,0,0:0:0:0:
475,192,56258,1,0,0:0:0:0:
182,192,56346,1,0,0:0:0:0:
36,192,56346,1,0,0:0:0:0:
329,192,56346,1,0,0:0:0:0:
402,192,56346,1,0,0:0:0:0:
256,192,56433,1,0,0:0:0:0:
182,192,56521,1,0,0:0:0:0:
402,192,56521,1,0,0:0:0:0:
475,192,56521,1,0,0:0:0:0:
36,192,56521,1,0,0:0:0:0:
109,192,56609,1,0,0:0:0:0:
256,192,56697,1,0,0:0:0:0:
36,192,56697,1,0,0:0:0:0:
402,192,56697,1,0,0:0:0:0:
475,192,56697,1,0,0:0:0:0:
329,192,56784,1,0,0:0:0:0:
256,192,56872,1,0,0:0:0:0:
109,192,56872,1,0,0:0:0:0:
475,192,56960,1,0,0:0:0:0:
36,192,57047,1,0,0:0:0:0:
329,192,57047,1,0,0:0:0:0:
182,192,57047,1,0,0:0:0:0:
402,192,57135,1,0,0:0:0:0:
256,192,57135,1,0,0:0:0:0:
475,192,57223,1,0,0:0:0:0:
36,192,57223,1,0,0:0:0:0:
109,192,57223,1,0,0:0:0:0:
329,192,57223,1,0,0:0:0:0:
182,192,57311,1,0,0:0:0:0:
36,192,57398,1,0,0:0:0:0:
475,192,57398,1,0,0:0:0:0:
329,192,57398,1,0,0:0:0:0:
402,192,57486,1,0,0:0:0:0:
256,192,57486,1,0,0:0:0:0:
109,192,57486,1,0,0:0:0:0:
329,192,57574,1,0,0:0:0:0:
36,192,57574,1,0,0:0:0:0:
182,192,57574,1,0,0:0:0:0:
402,192,57661,1,0,0:0:0:0:
475,192,57749,1,0,0:0:0:0:
36,192,57749,1,0,0:0:0:0:
109,192,57749,1,0,0:0:0:0:
256,192,57749,1,0,0:0:0:0:
402,192,57837,1,0,0:0:0:0:
329,192,57837,1,0,0:0:0:0:
182,192,57837,1,0,0:0:0:0:
36,192,57925,1,0,0:0:0:0:
109,192,57925,1,0,0:0:0:0:
475,192,57925,1,0,0:0:0:0:
256,192,57925,1,0,0:0:0:0:
36,192,58100,1,0,0:0:0:0:
109,192,58100,1,0,0:0:0:0:
182,192,58100,1,0,0:0:0:0:
475,192,58100,1,0,0:0:0:0:
402,192,58100,1,0,0:0:0:0:
329,192,58100,1,0,0:0:0:0:
402,192,58451,1,0,0:0:0:0:
475,192,58451,1,0,0:0:0:0:
256,192,58451,1,0,0:0:0:0:
36,192,58451,1,0,0:0:0:0:
109,192,58451,1,0,0:0:0:0:
402,192,58802,1,0,0:0:0:0:
475,192,58802,1,0,0:0:0:0:
36,192,58802,1,0,0:0:0:0:
182,192,58802,1,0,0:0:0:0:
256,192,58802,1,0,0:0:0:0:
329,192,58802,1,0,0:0:0:0:
256,192,59153,1,0,0:0:0:0:
329,192,59153,1,0,0:0:0:0:
475,192,59153,1,0,0:0:0:0:
36,192,59153,1,0,0:0:0:0:
109,192,59153,1,0,0:0:0:0:
182,192,59153,1,0,0:0:0:0:
109,192,59504,128,0,59942:0:0:0:0:
36,192,59504,128,0,59942:0:0:0:0:
475,192,59504,128,0,59942:0:0:0:0:
256,192,59504,128,0,59942:0:0:0:0:
402,192,59504,128,0,59942:0:0:0:0:
475,192,60030,1,0,0:0:0:0:
36,192,60030,128,0,60205:0:0:0:0:
109,192,60030,1,0,0:0:0:0:
256,192,60030,1,0,0:0:0:0:
402,192,60118,1,0,0:0:0:0:
182,192,60205,1,0,0:0:0:0:
329,192,60205,1,0,0:0:0:0:
256,192,60293,1,0,0:0:0:0:
36,192,60381,1,0,0:0:0:0:
475,192,60381,128,0,60556:0:0:0:0:
109,192,60381,1,0,0:0:0:0:
329,192,60381,1,0,0:0:0:0:
182,192,60469,1,0,0:0:0:0:
402,192,60556,1,0,0:0:0:0:
329,192,60556,128,0,60732:0:0:0:0:
256,192,60556,1,0,0:0:0:0:
36,192,60556,1,0,0:0:0:0:
109,192,60644,1,0,0:0:0:0:
475,192,60732,1,0,0:0:0:0:
182,192,60732,128,0,60907:0:0:0:0:
402,192,60732,1,0,0:0:0:0:
36,192,60732,1,0,0:0:0:0:
329,192,60819,1,0,0:0:0:0:
109,192,60907,1,0,0:0:0:0:
256,192,60907,128,0,61083:0:0:0:0:
475,192,60907,1,0,0:0:0:0:
36,192,60907,1,0,0:0:0:0:
402,192,60995,1,0,0:0:0:0:
329,192,61083,1,0,0:0:0:0:
109,192,61083,1,0,0:0:0:0:
256,192,61170,1,0,0:0:0:0:
329,192,61258,1,0,0:0:0:0:
36,192,61258,128,0,61433:0:0:0:0:
182,192,61258,1,0,0:0:0:0:
475,192,61258,1,0,0:0:0:0:
402,192,61346,1,0,0:0:0:0:
475,192,61433,1,0,0:0:0:0:
182,192,61433,1,0,0:0:0:0:
256,192,61521,1,0,0:0:0:0:
36,192,61609,1,0,0:0:0:0:
402,192,61609,128,0,61784:0:0:0:0:
329,192,61609,1,0,0:0:0:0:
109,192,61609,1,0,0:0:0:0:
256,192,61697,1,0,0:0:0:0:
475,192,61784,1,0,0:0:0:0:
182,192,61784,1,0,0:0:0:0:
329,192,61872,1,0,0:0:0:0:
36,192,61960,1,0,0:0:0:0:
256,192,61960,128,0,62135:0:0:0:0:
402,192,61960,1,0,0:0:0:0:
475,192,61960,1,0,0:0:0:0:
109,192,62047,1,0,0:0:0:0:
402,192,62135,1,0,0:0:0:0:
329,192,62135,128,0,62311:0:0:0:0:
182,192,62135,1,0,0:0:0:0:
36,192,62135,1,0,0:0:0:0:
475,192,62223,1,0,0:0:0:0:
402,192,62311,1,0,0:0:0:0:
36,192,62311,128,0,62661:0:0:0:0:
109,192,62311,1,0,0:0:0:0:
256,192,62311,1,0,0:0:0:0:
182,192,62311,1,0,0:0:0:0:
329,192,62398,1,0,0:0:0:0:
182,192,62486,1,0,0:0:0:0:
402,192,62486,1,0,0:0:0:0:
256,192,62574,1,0,0:0:0:0:
329,192,62661,1,0,0:0:0:0:
109,192,62661,128,0,62837:0:0:0:0:
475,192,62661,1,0,0:0:0:0:
182,192,62661,1,0,0:0:0:0:
402,192,62749,1,0,0:0:0:0:
36,192,62837,1,0,0:0:0:0:
329,192,62837,1,0,0:0:0:0:
256,192,62925,1,0,0:0:0:0:
36,192,63012,1,0,0:0:0:0:
475,192,63012,128,0,63188:0:0:0:0:
109,192,63012,1,0,0:0:0:0:
402,192,63012,1,0,0:0:0:0:
182,192,63012,1,0,0:0:0:0:
256,192,63100,1,0,0:0:0:0:
329,192,63188,1,0,0:0:0:0:
109,192,63188,1,0,0:0:0:0:
182,192,63276,1,0,0:0:0:0:
36,192,63363,1,0,0:0:0:0:
109,192,63363,128,0,63539:0:0:0:0:
329,192,63363,1,0,0:0:0:0:
475,192,63363,1,0,0:0:0:0:
256,192,63451,1,0,0:0:0:0:
475,192,63539,1,0,0:0:0:0:
402,192,63539,128,0,63714:0:0:0:0:
182,192,63539,1,0,0:0:0:0:
36,192,63539,1,0,0:0:0:0:
109,192,63626,1,0,0:0:0:0:
475,192,63714,1,0,0:0:0:0:
256,192,63714,128,0,64065:0:0:0:0:
36,192,63714,1,0,0:0:0:0:
329,192,63714,1,0,0:0:0:0:
182,192,63802,1,0,0:0:0:0:
109,192,63890,1,0,0:0:0:0:
402,192,63890,1,0,0:0:0:0:
329,192,63977,1,0,0:0:0:0:
109,192,64065,1,0,0:0:0:0:
475,192,64065,128,0,64240:0:0:0:0:
182,192,64065,1,0,0:0:0:0:
36,192,64065,1,0,0:0:0:0:
329,192,64153,1,0,0:0:0:0:
109,192,64240,1,0,0:0:0:0:
36,192,64240,128,0,64416:0:0:0:0:
402,192,64240,1,0,0:0:0:0:
256,192,64240,1,0,0:0:0:0:
182,192,64328,1,0,0:0:0:0:
256,192,64416,1,0,0:0:0:0:
109,192,64416,128,0,64591:0:0:0:0:
402,192,64416,1,0,0:0:0:0:
475,192,64416,1,0,0:0:0:0:
329,192,64504,1,0,0:0:0:0:
402,192,64591,1,0,0:0:0:0:
182,192,64591,1,0,0:0:0:0:
36,192,64679,1,0,0:0:0:0:
109,192,64767,1,0,0:0:0:0:
256,192,64767,1,0,0:0:0:0:
402,192,64767,1,0,0:0:0:0:
475,192,64767,1,0,0:0:0:0:
182,192,64854,1,0,0:0:0:0:
329,192,64854,1,0,0:0:0:0:
109,192,64942,1,0,0:0:0:0:
475,192,64942,1,0,0:0:0:0:
256,192,65030,1,0,0:0:0:0:
402,192,65030,1,0,0:0:0:0:
36,192,65118,1,0,0:0:0:0:
329,192,65118,128,0,65469:0:0:0:0:
475,192,65118,1,0,0:0:0:0:
182,192,65118,1,0,0:0:0:0:
109,192,65205,1,0,0:0:0:0:
475,192,65293,1,0,0:0:0:0:
256,192,65293,1,0,0:0:0:0:
109,192,65381,1,0,0:0:0:0:
475,192,65469,1,0,0:0:0:0:
36,192,65469,128,0,65644:0:0:0:0:
402,192,65469,1,0,0:0:0:0:
182,192,65469,1,0,0:0:0:0:
256,192,65556,1,0,0:0:0:0:
402,192,65644,1,0,0:0:0:0:
182,192,65644,1,0,0:0:0:0:
329,192,65732,1,0,0:0:0:0:
256,192,65819,1,0,0:0:0:0:
475,192,65819,128,0,65995:0:0:0:0:
109,192,65819,1,0,0:0:0:0:
36,192,65819,1,0,0:0:0:0:
329,192,65907,1,0,0:0:0:0:
182,192,65995,1,0,0:0:0:0:
402,192,65995,1,0,0:0:0:0:
109,192,66083,1,0,0:0:0:0:
329,192,66170,1,0,0:0:0:0:
256,192,66170,128,0,66346:0:0:0:0:
36,192,66170,1,0,0:0:0:0:
475,192,66170,1,0,0:0:0:0:
402,192,66258,1,0,0:0:0:0:
36,192,66346,1,0,0:0:0:0:
109,192,66346,128,0,66521:0:0:0:0:
182,192,66346,1,0,0:0:0:0:
475,192,66346,1,0,0:0:0:0:
329,192,66433,1,0,0:0:0:0:
36,192,66521,1,0,0:0:0:0:
475,192,66521,1,0,0:0:0:0:
402,192,66521,1,0,0:0:0:0:
256,192,66521,1,0,0:0:0:0:
182,192,66609,1,0,0:0:0:0:
329,192,66697,1,0,0:0:0:0:
109,192,66697,1,0,0:0:0:0:
256,192,66784,1,0,0:0:0:0:
475,192,66784,1,0,0:0:0:0:
36,192,66872,1,0,0:0:0:0:
182,192,66872,1,0,0:0:0:0:
402,192,66872,1,0,0:0:0:0:
329,192,66960,1,0,0:0:0:0:
109,192,66960,1,0,0:0:0:0:
36,192,67047,1,0,0:0:0:0:
475,192,67047,1,0,0:0:0:0:
182,192,67047,1,0,0:0:0:0:
402,192,67047,1,0,0:0:0:0:
256,192,67135,1,0,0:0:0:0:
475,192,67223,1,0,0:0:0:0:
36,192,67223,128,0,67398:0:0:0:0:
109,192,67223,1,0,0:0:0:0:
329,192,67223,1,0,0:0:0:0:
182,192,67311,1,0,0:0:0:0:
256,192,67398,128,0,67574:0:0:0:0:
109,192,67398,1,0,0:0:0:0:
402,192,67398,1,0,0:0:0:0:
475,192,67398,1,0,0:0:0:0:
329,192,67486,1,0,0:0:0:0:
475,192,67574,1,0,0:0:0:0:
36,192,67574,128,0,67749:0:0:0:0:
109,192,67574,1,0,0:0:0:0:
182,192,67574,1,0,0:0:0:0:
402,192,67661,1,0,0:0:0:0:
182,192,67749,1,0,0:0:0:0:
329,192,67749,128,0,67925:0:0:0:0:
109,192,67749,1,0,0:0:0:0:
475,192,67749,1,0,0:0:0:0:
256,192,67837,1,0,0:0:0:0:
402,192,67925,128,0,68188:0:0:0:0:
475,192,67925,128,0,68188:0:0:0:0:
36,192,67925,128,0,68188:0:0:0:0:
182,192,67925,128,0,68188:0:0:0:0:
109,192,67925,128,0,68188:0:0:0:0:
329,192,68276,128,0,68451:0:0:0:0:
402,192,68276,128,0,68451:0:0:0:0:
475,192,68276,128,0,68451:0:0:0:0:
109,192,68276,128,0,68451:0:0:0:0:
36,192,68276,128,0,68451:0:0:0:0:
182,192,68276,1,0,0:0:0:0:
256,192,68451,1,0,0:0:0:0:
182,192,68626,128,0,68890:0:0:0:0:
36,192,68626,128,0,68890:0:0:0:0:
475,192,68626,128,0,68890:0:0:0:0:
329,192,68626,128,0,68890:0:0:0:0:
402,192,68626,128,0,68890:0:0:0:0:
36,192,68977,128,0,69240:0:0:0:0:
109,192,68977,128,0,69240:0:0:0:0:
182,192,68977,1,0,0:0:0:0:
475,192,68977,1,0,0:0:0:0:
329,192,68977,1,0,0:0:0:0:
475,192,69153,1,0,0:0:0:0:
256,192,69153,1,0,0:0:0:0:
402,192,69153,1,0,0:0:0:0:
36,192,69328,1,0,0:0:0:0:
475,192,69328,128,0,70732:0:0:0:0:
402,192,69328,1,0,0:0:0:0:
182,192,69328,1,0,0:0:0:0:
329,192,69328,1,0,0:0:0:0:
256,192,69416,1,0,0:0:0:0:
329,192,69504,1,0,0:0:0:0:
109,192,69504,1,0,0:0:0:0:
402,192,69591,1,0,0:0:0:0:
182,192,69591,1,0,0:0:0:0:
36,192,69679,1,0,0:0:0:0:
256,192,69679,1,0,0:0:0:0:
329,192,69767,1,0,0:0:0:0:
109,192,69767,1,0,0:0:0:0:
402,192,69854,1,0,0:0:0:0:
182,192,69854,1,0,0:0:0:0:
109,192,69942,1,0,0:0:0:0:
329,192,69942,1,0,0:0:0:0:
36,192,70030,1,0,0:0:0:0:
256,192,70030,1,0,0:0:0:0:
402,192,70118,1,0,0:0:0:0:
182,192,70118,1,0,0:0:0:0:
109,192,70205,1,0,0:0:0:0:
329,192,70205,1,0,0:0:0:0:
36,192,70293,1,0,0:0:0:0:
256,192,70293,1,0,0:0:0:0:
402,192,70381,1,0,0:0:0:0:
182,192,70381,1,0,0:0:0:0:
256,192,70469,1,0,0:0:0:0:
36,192,70469,1,0,0:0:0:0:
329,192,70556,1,0,0:0:0:0:
109,192,70556,1,0,0:0:0:0:
402,192,70644,1,0,0:0:0:0:
182,192,70644,1,0,0:0:0:0:
36,192,70732,1,0,0:0:0:0:
256,192,70732,1,0,0:0:0:0:
109,192,70732,1,0,0:0:0:0:
182,192,70819,1,0,0:0:0:0:
329,192,70819,1,0,0:0:0:0:
36,192,70907,1,0,0:0:0:0:
475,192,70907,1,0,0:0:0:0:
256,192,70907,1,0,0:0:0:0:
402,192,70907,1,0,0:0:0:0:
182,192,70995,1,0,0:0:0:0:
109,192,70995,1,0,0:0:0:0:
329,192,70995,1,0,0:0:0:0:
402,192,71083,1,0,0:0:0:0:
475,192,71083,1,0,0:0:0:0:
36,192,71083,1,0,0:0:0:0:
256,192,71083,1,0,0:0:0:0:
182,192,71433,1,0,0:0:0:0:
36,192,71433,1,0,0:0:0:0:
475,192,71433,1,0,0:0:0:0:
329,192,71433,1,0,0:0:0:0:
256,192,71521,1,0,0:0:0:0:
402,192,71521,1,0,0:0:0:0:
109,192,71521,1,0,0:0:0:0:
475,192,71609,1,0,0:0:0:0:
36,192,71609,1,0,0:0:0:0:
329,192,71609,1,0,0:0:0:0:
182,192,71609,1,0,0:0:0:0:
475,192,71960,1,0,0:0:0:0:
256,192,71960,1,0,0:0:0:0:
109,192,71960,1,0,0:0:0:0:
36,192,71960,1,0,0:0:0:0:
402,192,72047,1,0,0:0:0:0:
329,192,72047,1,0,0:0:0:0:
182,192,72047,1,0,0:0:0:0:
109,192,72135,1,0,0:0:0:0:
256,192,72135,1,0,0:0:0:0:
475,192,72135,1,0,0:0:0:0:
36,192,72135,1,0,0:0:0:0:
36,192,72545,128,0,72895:0:0:0:0:
109,192,72661,128,0,73246:0:0:0:0:
402,192,72661,1,0,0:0:0:0:
182,192,72778,128,0,73129:0:0:0:0:
256,192,72895,128,0,73480:0:0:0:0:
402,192,72895,1,0,0:0:0:0:
36,192,73012,128,0,73831:0:0:0:0:
475,192,73012,1,0,0:0:0:0:
329,192,73012,1,0,0:0:0:0:
329,192,73246,1,0,0:0:0:0:
182,192,73246,128,0,73948:0:0:0:0:
475,192,73363,1,0,0:0:0:0:
109,192,73363,128,0,74416:0:0:0:0:
475,192,73597,1,0,0:0:0:0:
402,192,73597,1,0,0:0:0:0:
256,192,73597,128,0,74416:0:0:0:0:
329,192,73714,1,0,0:0:0:0:
36,192,73948,128,0,74182:0:0:0:0:
475,192,73948,1,0,0:0:0:0:
402,192,73948,1,0,0:0:0:0:
182,192,74065,128,0,74416:0:0:0:0:
329,192,74065,1,0,0:0:0:0:
475,192,74182,1,0,0:0:0:0:
36,192,74299,128,0,74416:0:0:0:0:
475,192,74299,1,0,0:0:0:0:
329,192,74416,1,0,0:0:0:0:
402,192,74416,1,0,0:0:0:0:
36,192,74650,128,0,75001:0:0:0:0:
329,192,74650,1,0,0:0:0:0:
182,192,74767,128,0,75352:0:0:0:0:
475,192,74767,1,0,0:0:0:0:
109,192,74884,128,0,75585:0:0:0:0:
329,192,74884,1,0,0:0:0:0:
256,192,75001,128,0,75819:0:0:0:0:
329,192,75001,1,0,0:0:0:0:
36,192,75118,128,0,75819:0:0:0:0:
402,192,75118,1,0,0:0:0:0:
475,192,75118,1,0,0:0:0:0:
475,192,75352,1,0,0:0:0:0:
182,192,75469,128,0,75819:0:0:0:0:
329,192,75469,1,0,0:0:0:0:
402,192,75585,1,0,0:0:0:0:
109,192,75702,128,0,75819:0:0:0:0:
475,192,75702,1,0,0:0:0:0:
475,192,75819,1,0,0:0:0:0:
329,192,75819,1,0,0:0:0:0:
402,192,76053,1,0,0:0:0:0:
36,192,76053,128,0,76170:0:0:0:0:
329,192,76053,1,0,0:0:0:0:
475,192,76170,1,0,0:0:0:0:
36,192,76404,128,0,76872:0:0:0:0:
329,192,76404,1,0,0:0:0:0:
402,192,76404,1,0,0:0:0:0:
182,192,76404,128,0,76872:0:0:0:0:
475,192,76521,1,0,0:0:0:0:
329,192,76638,1,0,0:0:0:0:
329,192,76755,1,0,0:0:0:0:
475,192,76872,1,0,0:0:0:0:
109,192,76989,1,0,0:0:0:0:
329,192,77106,128,0,77691:0:0:0:0:
109,192,77106,1,0,0:0:0:0:
182,192,77223,1,0,0:0:0:0:
36,192,77223,1,0,0:0:0:0:
182,192,77457,1,0,0:0:0:0:
475,192,77457,128,0,78159:0:0:0:0:
36,192,77457,1,0,0:0:0:0:
402,192,77574,128,0,77808:0:0:0:0:
109,192,77574,1,0,0:0:0:0:
256,192,77691,128,0,78568:0:0:0:0:
329,192,77808,128,0,78042:0:0:0:0:
109,192,77808,1,0,0:0:0:0:
402,192,77925,128,0,78392:0:0:0:0:
36,192,77925,1,0,0:0:0:0:
182,192,77925,1,0,0:0:0:0:
329,192,78159,128,0,78276:0:0:0:0:
36,192,78159,1,0,0:0:0:0:
475,192,78276,128,0,78509:0:0:0:0:
182,192,78276,1,0,0:0:0:0:
329,192,78392,128,0,78626:0:0:0:0:
36,192,78392,1,0,0:0:0:0:
402,192,78509,128,0,78685:0:0:0:0:
109,192,78509,1,0,0:0:0:0:
475,192,78626,128,0,78802:0:0:0:0:
36,192,78626,1,0,0:0:0:0:
182,192,78626,1,0,0:0:0:0:
256,192,78685,128,0,80030:0:0:0:0:
329,192,78743,128,0,79094:0:0:0:0:
402,192,78802,128,0,78977:0:0:0:0:
109,192,78860,1,0,0:0:0:0:
475,192,78977,128,0,79445:0:0:0:0:
109,192,78977,1,0,0:0:0:0:
402,192,79094,128,0,79679:0:0:0:0:
329,192,79211,128,0,79562:0:0:0:0:
36,192,79211,1,0,0:0:0:0:
182,192,79211,1,0,0:0:0:0:
109,192,79328,1,0,0:0:0:0:
182,192,79445,1,0,0:0:0:0:
475,192,79562,128,0,79796:0:0:0:0:
36,192,79562,1,0,0:0:0:0:
329,192,79679,128,0,80147:0:0:0:0:
109,192,79679,1,0,0:0:0:0:
402,192,79796,128,0,80264:0:0:0:0:
182,192,79796,1,0,0:0:0:0:
475,192,79913,128,0,80381:0:0:0:0:
182,192,79913,1,0,0:0:0:0:
109,192,80030,1,0,0:0:0:0:
36,192,80030,1,0,0:0:0:0:
256,192,80147,128,0,80615:0:0:0:0:
182,192,80147,1,0,0:0:0:0:
329,192,80264,128,0,80615:0:0:0:0:
36,192,80264,1,0,0:0:0:0:
402,192,80381,128,0,80615:0:0:0:0:
109,192,80381,1,0,0:0:0:0:
182,192,80498,1,0,0:0:0:0:
475,192,80498,128,0,80615:0:0:0:0:
109,192,80615,1,0,0:0:0:0:
36,192,80615,128,0,80732:0:0:0:0:
475,192,80732,1,0,0:0:0:0:
329,192,80732,1,0,0:0:0:0:
182,192,80732,128,0,80849:0:0:0:0:
109,192,80849,128,0,80966:0:0:0:0:
402,192,80849,1,0,0:0:0:0:
256,192,80966,128,0,81083:0:0:0:0:
36,192,80966,1,0,0:0:0:0:
475,192,80966,1,0,0:0:0:0:
329,192,80966,1,0,0:0:0:0:
109,192,81083,1,0,0:0:0:0:
182,192,81083,128,0,81200:0:0:0:0:
402,192,81083,1,0,0:0:0:0:
36,192,81200,1,0,0:0:0:0:
329,192,81200,128,0,81316:0:0:0:0:
475,192,81200,1,0,0:0:0:0:
109,192,81316,1,0,0:0:0:0:
182,192,81316,1,0,0:0:0:0:
402,192,81316,1,0,0:0:0:0:
256,192,81316,128,0,81433:0:0:0:0:
36,192,81433,128,0,81521:0:0:0:0:
329,192,81433,1,0,0:0:0:0:
475,192,81433,128,0,81872:0:0:0:0:
109,192,81521,128,0,81609:0:0:0:0:
402,192,81521,128,0,81784:0:0:0:0:
182,192,81609,128,0,81697:0:0:0:0:
329,192,81609,128,0,81697:0:0:0:0:
36,192,81697,1,0,0:0:0:0:
256,192,81697,128,0,81784:0:0:0:0:
109,192,81784,1,0,0:0:0:0:
329,192,81784,128,0,81872:0:0:0:0:
182,192,81872,1,0,0:0:0:0:
402,192,81872,128,0,81960:0:0:0:0:
109,192,81960,128,0,82135:0:0:0:0:
36,192,81960,128,0,82135:0:0:0:0:
475,192,81960,128,0,82135:0:0:0:0:
256,192,81960,128,0,82135:0:0:0:0:
329,192,82661,1,0,0:0:0:0:
402,192,82661,1,0,0:0:0:0:
475,192,82661,1,0,0:0:0:0:
109,192,82661,1,0,0:0:0:0:
36,192,82661,1,0,0:0:0:0:
256,192,82661,1,0,0:0:0:0:
109,192,83012,1,0,0:0:0:0:
36,192,83012,1,0,0:0:0:0:
475,192,83012,1,0,0:0:0:0:
329,192,83012,1,0,0:0:0:0:
256,192,83012,1,0,0:0:0:0:
182,192,83012,1,0,0:0:0:0:
36,192,83363,128,0,83626:0:0:0:0:
109,192,83363,128,0,83626:0:0:0:0:
256,192,83363,128,0,83626:0:0:0:0:
329,192,83363,128,0,83626:0:0:0:0:
475,192,83363,128,0,83626:0:0:0:0:
402,192,83363,128,0,83626:0:0:0:0:
329,192,83714,1,0,0:0:0:0:
182,192,83714,1,0,0:0:0:0:
36,192,83714,1,0,0:0:0:0:
475,192,83714,1,0,0:0:0:0:
109,192,83802,1,0,0:0:0:0:
256,192,83802,1,0,0:0:0:0:
36,192,83890,1,0,0:0:0:0:
329,192,83890,1,0,0:0:0:0:
182,192,83890,1,0,0:0:0:0:
402,192,83977,1,0,0:0:0:0:
256,192,83977,1,0,0:0:0:0:
109,192,84065,1,0,0:0:0:0:
36,192,84065,1,0,0:0:0:0:
475,192,84065,1,0,0:0:0:0:
329,192,84065,1,0,0:0:0:0:
402,192,84153,1,0,0:0:0:0:
182,192,84153,1,0,0:0:0:0:
36,192,84240,1,0,0:0:0:0:
475,192,84240,1,0,0:0:0:0:
256,192,84240,1,0,0:0:0:0:
109,192,84299,1,0,0:0:0:0:
329,192,84328,1,0,0:0:0:0:
182,192,84357,1,0,0:0:0:0:
256,192,84416,1,0,0:0:0:0:
402,192,84416,1,0,0:0:0:0:
36,192,84416,1,0,0:0:0:0:
475,192,84416,1,0,0:0:0:0:
402,192,84591,1,0,0:0:0:0:
36,192,84591,1,0,0:0:0:0:
182,192,84591,1,0,0:0:0:0:
329,192,84650,1,0,0:0:0:0:
109,192,84679,1,0,0:0:0:0:
256,192,84708,1,0,0:0:0:0:
36,192,84767,128,0,85030:0:0:0:0:
475,192,84767,128,0,85030:0:0:0:0:
182,192,84767,1,0,0:0:0:0:
402,192,84767,1,0,0:0:0:0:
256,192,84942,1,0,0:0:0:0:
109,192,84942,1,0,0:0:0:0:
329,192,85118,1,0,0:0:0:0:
36,192,85118,1,0,0:0:0:0:
475,192,85118,1,0,0:0:0:0:
109,192,85118,1,0,0:0:0:0:
182,192,85205,1,0,0:0:0:0:
402,192,85205,1,0,0:0:0:0:
36,192,85293,1,0,0:0:0:0:
475,192,85293,1,0,0:0:0:0:
256,192,85293,1,0,0:0:0:0:
329,192,85381,1,0,0:0:0:0:
109,192,85381,1,0,0:0:0:0:
36,192,85469,1,0,0:0:0:0:
475,192,85469,1,0,0:0:0:0:
402,192,85469,1,0,0:0:0:0:
256,192,85469,1,0,0:0:0:0:
329,192,85556,1,0,0:0:0:0:
182,192,85556,1,0,0:0:0:0:
36,192,85644,1,0,0:0:0:0:
402,192,85644,1,0,0:0:0:0:
256,192,85644,1,0,0:0:0:0:
475,192,85732,1,0,0:0:0:0:
109,192,85732,1,0,0:0:0:0:
329,192,85732,1,0,0:0:0:0:
402,192,85819,1,0,0:0:0:0:
36,192,85819,1,0,0:0:0:0:
182,192,85819,1,0,0:0:0:0:
475,192,85907,1,0,0:0:0:0:
256,192,85907,1,0,0:0:0:0:
36,192,85995,1,0,0:0:0:0:
109,192,85995,1,0,0:0:0:0:
402,192,85995,1,0,0:0:0:0:
329,192,86083,1,0,0:0:0:0:
182,192,86083,1,0,0:0:0:0:
475,192,86170,1,0,0:0:0:0:
402,192,86170,1,0,0:0:0:0:
256,192,86170,1,0,0:0:0:0:
36,192,86170,1,0,0:0:0:0:
329,192,86258,1,0,0:0:0:0:
109,192,86258,1,0,0:0:0:0:
402,192,86346,1,0,0:0:0:0:
256,192,86346,1,0,0:0:0:0:
36,192,86346,128,0,86697:0:0:0:0:
475,192,86346,1,0,0:0:0:0:
182,192,86346,128,0,86697:0:0:0:0:
329,192,86521,1,0,0:0:0:0:
475,192,86521,1,0,0:0:0:0:
402,192,86521,1,0,0:0:0:0:
329,192,86697,1,0,0:0:0:0:
475,192,86697,128,0,87047:0:0:0:0:
256,192,86697,1,0,0:0:0:0:
109,192,86697,1,0,0:0:0:0:
402,192,86872,128,0,87047:0:0:0:0:
256,192,86960,1,0,0:0:0:0:
36,192,86960,1,0,0:0:0:0:
109,192,86960,1,0,0:0:0:0:
182,192,87047,1,0,0:0:0:0:
329,192,87047,1,0,0:0:0:0:
109,192,87223,1,0,0:0:0:0:
475,192,87223,128,0,87574:0:0:0:0:
402,192,87223,128,0,87574:0:0:0:0:
329,192,87223,1,0,0:0:0:0:
182,192,87223,1,0,0:0:0:0:
36,192,87223,1,0,0:0:0:0:
36,192,87398,1,0,0:0:0:0:
109,192,87398,1,0,0:0:0:0:
256,192,87398,1,0,0:0:0:0:
36,192,87574,128,0,87837:0:0:0:0:
329,192,87574,1,0,0:0:0:0:
256,192,87574,128,0,88100:0:0:0:0:
109,192,87574,128,0,87837:0:0:0:0:
182,192,87925,1,0,0:0:0:0:
36,192,87925,1,0,0:0:0:0:
329,192,87925,1,0,0:0:0:0:
475,192,87925,1,0,0:0:0:0:
329,192,88100,1,0,0:0:0:0:
402,192,88100,1,0,0:0:0:0:
109,192,88100,1,0,0:0:0:0:
182,192,88100,1,0,0:0:0:0:
475,192,88276,128,0,88626:0:0:0:0:
256,192,88276,1,0,0:0:0:0:
36,192,88276,1,0,0:0:0:0:
402,192,88276,1,0,0:0:0:0:
109,192,88276,1,0,0:0:0:0:
329,192,88451,1,0,0:0:0:0:
36,192,88451,1,0,0:0:0:0:
182,192,88451,1,0,0:0:0:0:
402,192,88539,1,0,0:0:0:0:
256,192,88539,1,0,0:0:0:0:
36,192,88626,128,0,88802:0:0:0:0:
182,192,88626,1,0,0:0:0:0:
329,192,88626,1,0,0:0:0:0:
475,192,88802,1,0,0:0:0:0:
256,192,88802,128,0,88977:0:0:0:0:
109,192,88802,1,0,0:0:0:0:
402,192,88802,1,0,0:0:0:0:
109,192,88977,1,0,0:0:0:0:
36,192,88977,1,0,0:0:0:0:
402,192,88977,1,0,0:0:0:0:
475,192,88977,1,0,0:0:0:0:
329,192,89065,1,0,0:0:0:0:
182,192,89065,1,0,0:0:0:0:
36,192,89153,1,0,0:0:0:0:
109,192,89153,1,0,0:0:0:0:
475,192,89153,1,0,0:0:0:0:
256,192,89153,1,0,0:0:0:0:
402,192,89153,1,0,0:0:0:0:
36,192,89328,1,0,0:0:0:0:
475,192,89328,128,0,89504:0:0:0:0:
329,192,89328,1,0,0:0:0:0:
182,192,89328,1,0,0:0:0:0:
402,192,89504,1,0,0:0:0:0:
36,192,89504,1,0,0:0:0:0:
256,192,89504,1,0,0:0:0:0:
109,192,89591,1,0,0:0:0:0:
329,192,89591,1,0,0:0:0:0:
36,192,89679,1,0,0:0:0:0:
475,192,89679,1,0,0:0:0:0:
182,192,89679,1,0,0:0:0:0:
109,192,89767,1,0,0:0:0:0:
402,192,89767,1,0,0:0:0:0:
256,192,89767,1,0,0:0:0:0:
182,192,89854,128,0,90030:0:0:0:0:
36,192,89854,128,0,90030:0:0:0:0:
329,192,89854,1,0,0:0:0:0:
475,192,89854,1,0,0:0:0:0:
475,192,90030,1,0,0:0:0:0:
109,192,90030,1,0,0:0:0:0:
402,192,90088,1,0,0:0:0:0:
182,192,90118,1,0,0:0:0:0:
329,192,90147,1,0,0:0:0:0:
109,192,90205,1,0,0:0:0:0:
475,192,90205,1,0,0:0:0:0:
256,192,90205,1,0,0:0:0:0:
36,192,90205,1,0,0:0:0:0:
402,192,90381,128,0,90556:0:0:0:0:
475,192,90381,128,0,90556:0:0:0:0:
36,192,90381,1,0,0:0:0:0:
182,192,90381,1,0,0:0:0:0:
329,192,90381,1,0,0:0:0:0:
109,192,90556,1,0,0:0:0:0:
256,192,90556,1,0,0:0:0:0:
36,192,90556,1,0,0:0:0:0:
329,192,90644,1,0,0:0:0:0:
182,192,90644,1,0,0:0:0:0:
36,192,90732,1,0,0:0:0:0:
256,192,90732,1,0,0:0:0:0:
475,192,90732,1,0,0:0:0:0:
109,192,90819,1,0,0:0:0:0:
402,192,90819,1,0,0:0:0:0:
329,192,90907,128,0,91083:0:0:0:0:
182,192,90907,128,0,91083:0:0:0:0:
475,192,90907,1,0,0:0:0:0:
36,192,90907,1,0,0:0:0:0:
36,192,91083,1,0,0:0:0:0:
475,192,91083,1,0,0:0:0:0:
256,192,91083,1,0,0:0:0:0:
109,192,91083,1,0,0:0:0:0:
402,192,91170,1,0,0:0:0:0:
329,192,91170,1,0,0:0:0:0:
182,192,91170,1,0,0:0:0:0:
475,192,91258,1,0,0:0:0:0:
36,192,91258,1,0,0:0:0:0:
256,192,91258,1,0,0:0:0:0:
402,192,91346,1,0,0:0:0:0:
329,192,91346,1,0,0:0:0:0:
109,192,91346,1,0,0:0:0:0:
36,192,91433,1,0,0:0:0:0:
475,192,91433,1,0,0:0:0:0:
182,192,91433,1,0,0:0:0:0:
402,192,91521,1,0,0:0:0:0:
256,192,91521,1,0,0:0:0:0:
109,192,91521,1,0,0:0:0:0:
182,192,91609,1,0,0:0:0:0:
36,192,91609,1,0,0:0:0:0:
329,192,91609,1,0,0:0:0:0:
256,192,91697,1,0,0:0:0:0:
402,192,91697,1,0,0:0:0:0:
109,192,91697,1,0,0:0:0:0:
182,192,91784,1,0,0:0:0:0:
475,192,91784,1,0,0:0:0:0:
329,192,91784,1,0,0:0:0:0:
256,192,91872,1,0,0:0:0:0:
36,192,91872,1,0,0:0:0:0:
109,192,91872,1,0,0:0:0:0:
402,192,91960,128,0,92135:0:0:0:0:
475,192,91960,128,0,92135:0:0:0:0:
182,192,91960,1,0,0:0:0:0:
329,192,91960,128,0,92135:0:0:0:0:
36,192,92135,1,0,0:0:0:0:
256,192,92135,1,0,0:0:0:0:
109,192,92135,1,0,0:0:0:0:
475,192,92223,1,0,0:0:0:0:
329,192,92223,1,0,0:0:0:0:
182,192,92223,1,0,0:0:0:0:
109,192,92311,128,0,92486:0:0:0:0:
36,192,92311,128,0,92486:0:0:0:0:
402,192,92311,1,0,0:0:0:0:
256,192,92311,128,0,92486:0:0:0:0:
402,192,92486,1,0,0:0:0:0:
475,192,92486,1,0,0:0:0:0:
329,192,92486,1,0,0:0:0:0:
182,192,92486,1,0,0:0:0:0:
402,192,92837,1,0,0:0:0:0:
475,192,92837,1,0,0:0:0:0:
36,192,92837,1,0,0:0:0:0:
256,192,92837,1,0,0:0:0:0:
109,192,92837,1,0,0:0:0:0:
329,192,93188,128,0,93451:0:0:0:0:
475,192,93188,128,0,93451:0:0:0:0:
402,192,93188,128,0,93451:0:0:0:0:
182,192,93188,128,0,93451:0:0:0:0:
109,192,93188,128,0,93451:0:0:0:0:
36,192,93188,128,0,93451:0:0:0:0:
36,192,93539,1,0,0:0:0:0:
182,192,93626,1,0,0:0:0:0:
402,192,93714,1,0,0:0:0:0:
36,192,93714,1,0,0:0:0:0:
329,192,93802,1,0,0:0:0:0:
36,192,93890,128,0,93977:0:0:0:0:
109,192,93890,128,0,93977:0:0:0:0:
475,192,93890,128,0,93977:0:0:0:0:
256,192,93890,128,0,93977:0:0:0:0:
402,192,93890,128,0,93977:0:0:0:0:
329,192,94065,128,0,94153:0:0:0:0:
475,192,94065,128,0,94153:0:0:0:0:
36,192,94065,128,0,94153:0:0:0:0:
182,192,94065,128,0,94153:0:0:0:0:
109,192,94065,128,0,94153:0:0:0:0:
182,192,94240,128,0,94328:0:0:0:0:
36,192,94240,128,0,94328:0:0:0:0:
256,192,94240,128,0,94328:0:0:0:0:
475,192,94240,128,0,94328:0:0:0:0:
402,192,94240,128,0,94328:0:0:0:0:
36,192,94416,128,0,94504:0:0:0:0:
475,192,94416,128,0,94504:0:0:0:0:
329,192,94416,128,0,94504:0:0:0:0:
256,192,94416,128,0,94504:0:0:0:0:
109,192,94416,128,0,94504:0:0:0:0:
182,192,94591,128,0,94854:0:0:0:0:
109,192,94591,128,0,94854:0:0:0:0:
36,192,94591,128,0,94854:0:0:0:0:
329,192,94591,128,0,94854:0:0:0:0:
402,192,94591,128,0,94854:0:0:0:0:
475,192,94591,128,0,94854:0:0:0:0:
402,192,94942,1,0,0:0:0:0:
182,192,94942,128,0,95118:0:0:0:0:
329,192,94942,1,0,0:0:0:0:
36,192,94942,1,0,0:0:0:0:
109,192,94942,1,0,0:0:0:0:
475,192,94942,1,0,0:0:0:0:
36,192,95118,128,0,95293:0:0:0:0:
256,192,95118,1,0,0:0:0:0:
475,192,95118,1,0,0:0:0:0:
402,192,95118,1,0,0:0:0:0:
475,192,95293,1,0,0:0:0:0:
182,192,95293,1,0,0:0:0:0:
329,192,95293,128,0,95469:0:0:0:0:
402,192,95293,1,0,0:0:0:0:
109,192,95293,1,0,0:0:0:0:
402,192,95469,1,0,0:0:0:0:
256,192,95469,128,0,95644:0:0:0:0:
109,192,95469,1,0,0:0:0:0:
36,192,95469,1,0,0:0:0:0:
475,192,95644,1,0,0:0:0:0:
182,192,95644,128,0,95819:0:0:0:0:
36,192,95644,1,0,0:0:0:0:
329,192,95644,1,0,0:0:0:0:
109,192,95819,1,0,0:0:0:0:
402,192,95819,128,0,95995:0:0:0:0:
256,192,95819,1,0,0:0:0:0:
36,192,95819,1,0,0:0:0:0:
36,192,95995,1,0,0:0:0:0:
475,192,95995,128,0,96521:0:0:0:0:
329,192,95995,1,0,0:0:0:0:
182,192,95995,1,0,0:0:0:0:
402,192,96170,1,0,0:0:0:0:
256,192,96170,1,0,0:0:0:0:
109,192,96170,1,0,0:0:0:0:
182,192,96346,1,0,0:0:0:0:
36,192,96346,1,0,0:0:0:0:
329,192,96346,1,0,0:0:0:0:
402,192,96521,1,0,0:0:0:0:
256,192,96521,1,0,0:0:0:0:
109,192,96521,1,0,0:0:0:0:
475,192,96697,1,0,0:0:0:0:
402,192,96697,1,0,0:0:0:0:
256,192,96697,1,0,0:0:0:0:
36,192,96697,128,0,96872:0:0:0:0:
182,192,96697,1,0,0:0:0:0:
475,192,96872,1,0,0:0:0:0:
109,192,96872,1,0,0:0:0:0:
329,192,96872,128,0,97047:0:0:0:0:
182,192,96872,1,0,0:0:0:0:
256,192,97047,1,0,0:0:0:0:
402,192,97047,1,0,0:0:0:0:
182,192,97047,128,0,97223:0:0:0:0:
36,192,97047,1,0,0:0:0:0:
109,192,97223,1,0,0:0:0:0:
475,192,97223,1,0,0:0:0:0:
402,192,97223,128,0,97398:0:0:0:0:
329,192,97223,1,0,0:0:0:0:
182,192,97398,1,0,0:0:0:0:
329,192,97398,1,0,0:0:0:0:
36,192,97398,1,0,0:0:0:0:
256,192,97398,128,0,97749:0:0:0:0:
475,192,97574,1,0,0:0:0:0:
402,192,97574,1,0,0:0:0:0:
109,192,97574,1,0,0:0:0:0:
182,192,97749,1,0,0:0:0:0:
36,192,97749,1,0,0:0:0:0:
475,192,97749,128,0,97925:0:0:0:0:
402,192,97749,1,0,0:0:0:0:
256,192,97925,1,0,0:0:0:0:
36,192,97925,1,0,0:0:0:0:
329,192,97925,128,0,98100:0:0:0:0:
182,192,97925,1,0,0:0:0:0:
402,192,98100,1,0,0:0:0:0:
475,192,98100,1,0,0:0:0:0:
109,192,98100,128,0,98276:0:0:0:0:
256,192,98100,1,0,0:0:0:0:
182,192,98276,1,0,0:0:0:0:
36,192,98276,1,0,0:0:0:0:
402,192,98276,128,0,98451:0:0:0:0:
329,192,98276,1,0,0:0:0:0:
256,192,98451,1,0,0:0:0:0:
329,192,98451,1,0,0:0:0:0:
475,192,98451,128,0,98626:0:0:0:0:
109,192,98451,1,0,0:0:0:0:
256,192,98626,1,0,0:0:0:0:
402,192,98626,1,0,0:0:0:0:
36,192,98626,128,0,98802:0:0:0:0:
182,192,98626,1,0,0:0:0:0:
329,192,98802,1,0,0:0:0:0:
475,192,98802,1,0,0:0:0:0:
182,192,98802,128,0,99328:0:0:0:0:
109,192,98802,1,0,0:0:0:0:
36,192,98977,1,0,0:0:0:0:
475,192,98977,1,0,0:0:0:0:
256,192,98977,1,0,0:0:0:0:
402,192,99153,1,0,0:0:0:0:
475,192,99153,1,0,0:0:0:0:
109,192,99153,1,0,0:0:0:0:
329,192,99153,1,0,0:0:0:0:
329,192,99328,1,0,0:0:0:0:
402,192,99328,1,0,0:0:0:0:
256,192,99328,1,0,0:0:0:0:
36,192,99328,1,0,0:0:0:0:
109,192,99504,1,0,0:0:0:0:
475,192,99504,1,0,0:0:0:0:
402,192,99504,128,0,99679:0:0:0:0:
256,192,99504,1,0,0:0:0:0:
109,192,99679,1,0,0:0:0:0:
329,192,99679,1,0,0:0:0:0:
36,192,99679,128,0,99854:0:0:0:0:
182,192,99679,1,0,0:0:0:0:
256,192,99854,1,0,0:0:0:0:
475,192,99854,1,0,0:0:0:0:
329,192,99854,128,0,100030:0:0:0:0:
182,192,99854,1,0,0:0:0:0:
109,192,99942,1,0,0:0:0:0:
36,192,99942,1,0,0:0:0:0:
475,192,100030,1,0,0:0:0:0:
256,192,100030,1,0,0:0:0:0:
182,192,100030,128,0,100205:0:0:0:0:
402,192,100118,1,0,0:0:0:0:
329,192,100118,1,0,0:0:0:0:
109,192,100205,1,0,0:0:0:0:
475,192,100205,128,0,100556:0:0:0:0:
36,192,100205,128,0,100556:0:0:0:0:
256,192,100205,1,0,0:0:0:0:
109,192,100556,1,0,0:0:0:0:
182,192,100556,1,0,0:0:0:0:
329,192,100556,128,0,100732:0:0:0:0:
402,192,100644,128,0,100819:0:0:0:0:
182,192,100732,1,0,0:0:0:0:
475,192,100732,1,0,0:0:0:0:
256,192,100732,128,0,101258:0:0:0:0:
109,192,100732,1,0,0:0:0:0:
329,192,100907,1,0,0:0:0:0:
36,192,100907,1,0,0:0:0:0:
182,192,100907,1,0,0:0:0:0:
475,192,100995,1,0,0:0:0:0:
402,192,100995,1,0,0:0:0:0:
36,192,101083,1,0,0:0:0:0:
182,192,101083,1,0,0:0:0:0:
329,192,101083,1,0,0:0:0:0:
475,192,101258,1,0,0:0:0:0:
402,192,101258,1,0,0:0:0:0:
36,192,101258,128,0,101375:0:0:0:0:
109,192,101316,128,0,101433:0:0:0:0:
329,192,101346,1,0,0:0:0:0:
182,192,101375,128,0,101492:0:0:0:0:
256,192,101433,128,0,101550:0:0:0:0:
475,192,101433,1,0,0:0:0:0:
402,192,101433,1,0,0:0:0:0:
329,192,101609,1,0,0:0:0:0:
475,192,101609,1,0,0:0:0:0:
36,192,101609,1,0,0:0:0:0:
109,192,101609,128,0,101784:0:0:0:0:
182,192,101609,1,0,0:0:0:0:
256,192,101784,1,0,0:0:0:0:
402,192,101784,1,0,0:0:0:0:
182,192,101872,1,0,0:0:0:0:
329,192,101960,1,0,0:0:0:0:
475,192,101960,1,0,0:0:0:0:
36,192,101960,1,0,0:0:0:0:
256,192,101960,128,0,102135:0:0:0:0:
109,192,101960,1,0,0:0:0:0:
402,192,102135,1,0,0:0:0:0:
475,192,102135,1,0,0:0:0:0:
36,192,102135,1,0,0:0:0:0:
109,192,102135,1,0,0:0:0:0:
182,192,102223,1,0,0:0:0:0:
256,192,102311,1,0,0:0:0:0:
475,192,102311,1,0,0:0:0:0:
36,192,102311,1,0,0:0:0:0:
402,192,102311,128,0,102486:0:0:0:0:
329,192,102311,1,0,0:0:0:0:
182,192,102486,1,0,0:0:0:0:
329,192,102486,1,0,0:0:0:0:
109,192,102486,1,0,0:0:0:0:
36,192,102574,1,0,0:0:0:0:
256,192,102574,1,0,0:0:0:0:
402,192,102661,1,0,0:0:0:0:
475,192,102661,1,0,0:0:0:0:
182,192,102661,128,0,102837:0:0:0:0:
329,192,102661,1,0,0:0:0:0:
36,192,102837,1,0,0:0:0:0:
475,192,102837,1,0,0:0:0:0:
109,192,102837,1,0,0:0:0:0:
329,192,102837,128,0,103012:0:0:0:0:
256,192,102837,1,0,0:0:0:0:
36,192,103012,1,0,0:0:0:0:
402,192,103012,128,0,103363:0:0:0:0:
182,192,103012,1,0,0:0:0:0:
109,192,103012,128,0,103363:0:0:0:0:
475,192,103012,1,0,0:0:0:0:
36,192,103363,1,0,0:0:0:0:
256,192,103363,1,0,0:0:0:0:
329,192,103363,1,0,0:0:0:0:
109,192,103451,1,0,0:0:0:0:
182,192,103451,1,0,0:0:0:0:
475,192,103451,1,0,0:0:0:0:
402,192,103539,1,0,0:0:0:0:
36,192,103539,1,0,0:0:0:0:
329,192,103539,1,0,0:0:0:0:
475,192,103626,1,0,0:0:0:0:
182,192,103626,1,0,0:0:0:0:
256,192,103626,1,0,0:0:0:0:
402,192,103714,1,0,0:0:0:0:
36,192,103714,1,0,0:0:0:0:
109,192,103714,1,0,0:0:0:0:
256,192,103802,1,0,0:0:0:0:
329,192,103802,1,0,0:0:0:0:
36,192,103890,1,0,0:0:0:0:
109,192,103890,1,0,0:0:0:0:
402,192,103890,1,0,0:0:0:0:
475,192,103890,1,0,0:0:0:0:
182,192,103890,1,0,0:0:0:0:
329,192,104065,1,0,0:0:0:0:
475,192,104065,1,0,0:0:0:0:
256,192,104065,1,0,0:0:0:0:
109,192,104065,1,0,0:0:0:0:
182,192,104065,1,0,0:0:0:0:
402,192,104240,1,0,0:0:0:0:
475,192,104240,1,0,0:0:0:0:
36,192,104240,1,0,0:0:0:0:
256,192,104240,1,0,0:0:0:0:
109,192,104240,1,0,0:0:0:0:
402,192,104416,128,0,104679:0:0:0:0:
475,192,104416,128,0,104679:0:0:0:0:
36,192,104416,128,0,104679:0:0:0:0:
329,192,104416,128,0,104679:0:0:0:0:
182,192,104416,128,0,104679:0:0:0:0:
36,192,104767,1,0,0:0:0:0:
402,192,104767,1,0,0:0:0:0:
109,192,104767,1,0,0:0:0:0:
182,192,104767,1,0,0:0:0:0:
256,192,104767,1,0,0:0:0:0:
329,192,104942,1,0,0:0:0:0:
475,192,104942,1,0,0:0:0:0:
256,192,104942,1,0,0:0:0:0:
109,192,104942,1,0,0:0:0:0:
182,192,104942,1,0,0:0:0:0:
475,192,105118,1,0,0:0:0:0:
109,192,105118,1,0,0:0:0:0:
36,192,105118,1,0,0:0:0:0:
256,192,105118,1,0,0:0:0:0:
329,192,105118,1,0,0:0:0:0:
402,192,105118,1,0,0:0:0:0:
36,192,105469,128,0,105556:0:0:0:0:
256,192,105469,128,0,105556:0:0:0:0:
475,192,105469,1,0,0:0:0:0:
109,192,105469,128,0,105556:0:0:0:0:
402,192,105527,1,0,0:0:0:0:
329,192,105585,1,0,0:0:0:0:
182,192,105644,128,0,105732:0:0:0:0:
109,192,105644,128,0,105732:0:0:0:0:
475,192,105644,1,0,0:0:0:0:
402,192,105702,1,0,0:0:0:0:
329,192,105761,1,0,0:0:0:0:
256,192,105819,128,0,106083:0:0:0:0:
402,192,105819,128,0,106083:0:0:0:0:
475,192,105819,128,0,106083:0:0:0:0:
36,192,105819,128,0,106083:0:0:0:0:
182,192,105819,128,0,106083:0:0:0:0:
109,192,105819,128,0,106083:0:0:0:0:
402,192,106170,1,0,0:0:0:0:
329,192,106170,128,0,106346:0:0:0:0:
182,192,106170,1,0,0:0:0:0:
36,192,106170,1,0,0:0:0:0:
109,192,106170,1,0,0:0:0:0:
475,192,106170,1,0,0:0:0:0:
36,192,106346,128,0,106521:0:0:0:0:
182,192,106346,1,0,0:0:0:0:
475,192,106346,1,0,0:0:0:0:
402,192,106346,1,0,0:0:0:0:
475,192,106521,1,0,0:0:0:0:
329,192,106521,1,0,0:0:0:0:
256,192,106521,128,0,106697:0:0:0:0:
402,192,106521,1,0,0:0:0:0:
109,192,106521,1,0,0:0:0:0:
402,192,106697,1,0,0:0:0:0:
182,192,106697,128,0,106872:0:0:0:0:
109,192,106697,1,0,0:0:0:0:
36,192,106697,1,0,0:0:0:0:
329,192,106872,128,0,107047:0:0:0:0:
36,192,106872,1,0,0:0:0:0:
475,192,106872,1,0,0:0:0:0:
402,192,106872,1,0,0:0:0:0:
256,192,106872,1,0,0:0:0:0:
182,192,107047,1,0,0:0:0:0:
109,192,107047,128,0,107223:0:0:0:0:
475,192,107047,1,0,0:0:0:0:
36,192,107047,1,0,0:0:0:0:
402,192,107223,1,0,0:0:0:0:
36,192,107223,128,0,107749:0:0:0:0:
475,192,107223,1,0,0:0:0:0:
256,192,107223,1,0,0:0:0:0:
329,192,107398,1,0,0:0:0:0:
182,192,107398,1,0,0:0:0:0:
109,192,107398,1,0,0:0:0:0:
256,192,107574,1,0,0:0:0:0:
475,192,107574,1,0,0:0:0:0:
402,192,107574,1,0,0:0:0:0:
329,192,107749,1,0,0:0:0:0:
182,192,107749,1,0,0:0:0:0:
109,192,107749,1,0,0:0:0:0:
475,192,107925,1,0,0:0:0:0:
36,192,107925,1,0,0:0:0:0:
256,192,107925,1,0,0:0:0:0:
402,192,107925,128,0,108100:0:0:0:0:
182,192,107925,1,0,0:0:0:0:
475,192,108100,1,0,0:0:0:0:
329,192,108100,1,0,0:0:0:0:
109,192,108100,128,0,108276:0:0:0:0:
182,192,108100,1,0,0:0:0:0:
475,192,108276,1,0,0:0:0:0:
402,192,108276,1,0,0:0:0:0:
256,192,108276,128,0,108451:0:0:0:0:
36,192,108276,1,0,0:0:0:0:
402,192,108451,1,0,0:0:0:0:
109,192,108451,1,0,0:0:0:0:
182,192,108451,128,0,108626:0:0:0:0:
329,192,108451,1,0,0:0:0:0:
36,192,108626,1,0,0:0:0:0:
329,192,108626,1,0,0:0:0:0:
256,192,108626,1,0,0:0:0:0:
475,192,108626,128,0,108977:0:0:0:0:
402,192,108802,1,0,0:0:0:0:
182,192,108802,1,0,0:0:0:0:
36,192,108802,1,0,0:0:0:0:
256,192,108977,1,0,0:0:0:0:
402,192,108977,1,0,0:0:0:0:
109,192,108977,128,0,109153:0:0:0:0:
329,192,108977,1,0,0:0:0:0:
182,192,109153,1,0,0:0:0:0:
36,192,109153,1,0,0:0:0:0:
256,192,109153,128,0,109328:0:0:0:0:
475,192,109153,1,0,0:0:0:0:
475,192,109328,1,0,0:0:0:0:
402,192,109328,1,0,0:0:0:0:
329,192,109328,1,0,0:0:0:0:
36,192,109328,128,0,109504:0:0:0:0:
182,192,109328,1,0,0:0:0:0:
109,192,109504,1,0,0:0:0:0:
256,192,109504,1,0,0:0:0:0:
475,192,109504,128,0,109679:0:0:0:0:
329,192,109504,1,0,0:0:0:0:
182,192,109679,1,0,0:0:0:0:
256,192,109679,1,0,0:0:0:0:
402,192,109679,128,0,109854:0:0:0:0:
36,192,109679,1,0,0:0:0:0:
329,192,109854,1,0,0:0:0:0:
475,192,109854,1,0,0:0:0:0:
109,192,109854,128,0,110030:0:0:0:0:
36,192,109854,1,0,0:0:0:0:
329,192,110030,1,0,0:0:0:0:
475,192,110030,1,0,0:0:0:0:
256,192,110030,128,0,110556:0:0:0:0:
182,192,110030,1,0,0:0:0:0:
36,192,110205,1,0,0:0:0:0:
402,192,110205,1,0,0:0:0:0:
182,192,110205,1,0,0:0:0:0:
402,192,110381,1,0,0:0:0:0:
475,192,110381,1,0,0:0:0:0:
109,192,110381,1,0,0:0:0:0:
36,192,110381,1,0,0:0:0:0:
329,192,110556,1,0,0:0:0:0:
402,192,110556,1,0,0:0:0:0:
182,192,110556,1,0,0:0:0:0:
109,192,110556,1,0,0:0:0:0:
109,192,110732,1,0,0:0:0:0:
475,192,110732,1,0,0:0:0:0:
36,192,110732,128,0,111083:0:0:0:0:
256,192,110732,1,0,0:0:0:0:
329,192,110907,1,0,0:0:0:0:
402,192,110907,1,0,0:0:0:0:
182,192,110907,1,0,0:0:0:0:
109,192,111083,1,0,0:0:0:0:
402,192,111083,1,0,0:0:0:0:
475,192,111083,128,0,111258:0:0:0:0:
256,192,111083,1,0,0:0:0:0:
182,192,111170,1,0,0:0:0:0:
329,192,111170,1,0,0:0:0:0:
109,192,111258,1,0,0:0:0:0:
402,192,111258,1,0,0:0:0:0:
256,192,111258,128,0,111433:0:0:0:0:
36,192,111258,1,0,0:0:0:0:
475,192,111433,1,0,0:0:0:0:
36,192,111433,1,0,0:0:0:0:
402,192,111433,1,0,0:0:0:0:
109,192,111433,1,0,0:0:0:0:
329,192,111521,1,0,0:0:0:0:
182,192,111521,1,0,0:0:0:0:
36,192,111609,128,0,111784:0:0:0:0:
256,192,111609,128,0,111784:0:0:0:0:
109,192,111609,128,0,111784:0:0:0:0:
475,192,111609,128,0,111784:0:0:0:0:
402,192,111609,128,0,111784:0:0:0:0:
109,192,111872,128,0,112047:0:0:0:0:
256,192,111872,128,0,112047:0:0:0:0:
182,192,111872,128,0,112047:0:0:0:0:
329,192,111872,128,0,112047:0:0:0:0:
402,192,111872,128,0,112047:0:0:0:0:
475,192,112135,128,0,112398:0:0:0:0:
329,192,112135,128,0,112398:0:0:0:0:
182,192,112135,128,0,112398:0:0:0:0:
402,192,112135,128,0,112398:0:0:0:0:
36,192,112135,128,0,112398:0:0:0:0:
109,192,112135,128,0,112398:0:0:0:0:
475,192,112486,1,0,0:0:0:0:
109,192,112486,1,0,0:0:0:0:
402,192,112486,1,0,0:0:0:0:
256,192,112486,1,0,0:0:0:0:
36,192,112486,1,0,0:0:0:0:
329,192,112661,1,0,0:0:0:0:
402,192,112661,1,0,0:0:0:0:
109,192,112661,1,0,0:0:0:0:
182,192,112661,1,0,0:0:0:0:
329,192,112837,1,0,0:0:0:0:
36,192,112837,128,0,113188:0:0:0:0:
109,192,112837,128,0,113188:0:0:0:0:
256,192,112837,1,0,0:0:0:0:
475,192,112837,1,0,0:0:0:0:
402,192,112837,1,0,0:0:0:0:
402,192,113188,1,0,0:0:0:0:
475,192,113188,128,0,113363:0:0:0:0:
182,192,113188,1,0,0:0:0:0:
329,192,113188,1,0,0:0:0:0:
402,192,113363,128,0,113539:0:0:0:0:
182,192,113363,1,0,0:0:0:0:
36,192,113363,1,0,0:0:0:0:
109,192,113363,1,0,0:0:0:0:
329,192,113451,1,0,0:0:0:0:
256,192,113451,1,0,0:0:0:0:
36,192,113539,128,0,113890:0:0:0:0:
475,192,113539,1,0,0:0:0:0:
182,192,113539,1,0,0:0:0:0:
109,192,113539,1,0,0:0:0:0:
402,192,113626,1,0,0:0:0:0:
329,192,113626,1,0,0:0:0:0:
182,192,113714,1,0,0:0:0:0:
256,192,113714,1,0,0:0:0:0:
109,192,113714,1,0,0:0:0:0:
475,192,113802,1,0,0:0:0:0:
402,192,113802,1,0,0:0:0:0:
256,192,113890,1,0,0:0:0:0:
329,192,113890,1,0,0:0:0:0:
182,192,113890,128,0,114065:0:0:0:0:
475,192,113977,1,0,0:0:0:0:
402,192,113977,1,0,0:0:0:0:
109,192,114065,1,0,0:0:0:0:
256,192,114065,1,0,0:0:0:0:
36,192,114065,128,0,114240:0:0:0:0:
329,192,114065,1,0,0:0:0:0:
182,192,114240,1,0,0:0:0:0:
329,192,114240,128,0,114591:0:0:0:0:
475,192,114240,128,0,114591:0:0:0:0:
109,192,114240,1,0,0:0:0:0:
402,192,114240,1,0,0:0:0:0:
109,192,114591,128,0,114767:0:0:0:0:
182,192,114591,1,0,0:0:0:0:
36,192,114591,1,0,0:0:0:0:
256,192,114591,1,0,0:0:0:0:
402,192,114591,1,0,0:0:0:0:
402,192,114767,1,0,0:0:0:0:
36,192,114767,128,0,114942:0:0:0:0:
329,192,114767,1,0,0:0:0:0:
475,192,114767,1,0,0:0:0:0:
182,192,114854,1,0,0:0:0:0:
256,192,114854,1,0,0:0:0:0:
402,192,114942,1,0,0:0:0:0:
109,192,114942,1,0,0:0:0:0:
475,192,114942,128,0,115293:0:0:0:0:
329,192,115030,1,0,0:0:0:0:
256,192,115030,1,0,0:0:0:0:
182,192,115118,1,0,0:0:0:0:
36,192,115118,1,0,0:0:0:0:
109,192,115118,1,0,0:0:0:0:
402,192,115205,1,0,0:0:0:0:
329,192,115205,1,0,0:0:0:0:
256,192,115293,128,0,115469:0:0:0:0:
109,192,115293,1,0,0:0:0:0:
36,192,115293,1,0,0:0:0:0:
182,192,115381,1,0,0:0:0:0:
329,192,115381,1,0,0:0:0:0:
109,192,115469,1,0,0:0:0:0:
402,192,115469,1,0,0:0:0:0:
475,192,115469,1,0,0:0:0:0:
36,192,115469,128,0,115644:0:0:0:0:
182,192,115644,1,0,0:0:0:0:
109,192,115644,1,0,0:0:0:0:
475,192,115644,1,0,0:0:0:0:
256,192,115644,1,0,0:0:0:0:
402,192,115644,1,0,0:0:0:0:
36,192,115995,1,0,0:0:0:0:
402,192,115995,1,0,0:0:0:0:
475,192,115995,1,0,0:0:0:0:
182,192,115995,1,0,0:0:0:0:
329,192,115995,1,0,0:0:0:0:
109,192,115995,1,0,0:0:0:0:
475,192,116170,1,0,0:0:0:0:
329,192,116170,1,0,0:0:0:0:
402,192,116170,1,0,0:0:0:0:
109,192,116170,1,0,0:0:0:0:
36,192,116170,1,0,0:0:0:0:
182,192,116170,1,0,0:0:0:0:
475,192,116346,1,0,0:0:0:0:
109,192,116346,1,0,0:0:0:0:
36,192,116346,1,0,0:0:0:0:
182,192,116346,1,0,0:0:0:0:
329,192,116346,1,0,0:0:0:0:
402,192,116346,1,0,0:0:0:0:
329,192,116521,1,0,0:0:0:0:
402,192,116521,1,0,0:0:0:0:
475,192,116521,1,0,0:0:0:0:
36,192,116521,1,0,0:0:0:0:
109,192,116521,1,0,0:0:0:0:
182,192,116521,1,0,0:0:0:0:
182,192,116871,128,0,116959:0:0:0:0:
329,192,117047,128,0,117135:0:0:0:0:
109,192,117222,1,0,0:0:0:0:
475,192,117222,128,0,117309:0:0:0:0:
182,192,117397,1,0,0:0:0:0:
256,192,117572,1,0,0:0:0:0:
329,192,117748,1,0,0:0:0:0:
109,192,117748,128,0,117836:0:0:0:0:
182,192,118274,128,0,118362:0:0:0:0:
475,192,118450,1,0,0:0:0:0:
36,192,118450,128,0,118537:0:0:0:0:
475,192,118800,1,0,0:0:0:0:
182,192,118976,1,0,0:0:0:0:
402,192,119151,1,0,0:0:0:0:
36,192,119502,128,0,119590:0:0:0:0:
182,192,119678,128,0,119765:0:0:0:0:
329,192,119853,128,0,119941:0:0:0:0:
475,192,120029,1,0,0:0:0:0:
109,192,120029,128,0,120116:0:0:0:0:
182,192,120204,1,0,0:0:0:0:
329,192,120379,1,0,0:0:0:0:
402,192,120379,128,0,120467:0:0:0:0:
36,192,120555,1,0,0:0:0:0:
256,192,120555,128,0,120643:0:0:0:0:
475,192,120906,128,0,120993:0:0:0:0:
109,192,120906,1,0,0:0:0:0:
329,192,121081,1,0,0:0:0:0:
36,192,121257,128,0,121344:0:0:0:0:
182,192,121257,1,0,0:0:0:0:
329,192,121607,1,0,0:0:0:0:
109,192,121783,128,0,121871:0:0:0:0:
475,192,121783,1,0,0:0:0:0:
182,192,121958,1,0,0:0:0:0:
256,192,122134,128,0,122222:0:0:0:0:
329,192,122134,1,0,0:0:0:0:
475,192,122309,128,0,122397:0:0:0:0:
109,192,122309,1,0,0:0:0:0:
329,192,122485,128,0,122572:0:0:0:0:
182,192,122485,1,0,0:0:0:0:
402,192,122660,128,0,122748:0:0:0:0:
109,192,122660,1,0,0:0:0:0:
256,192,122836,128,0,122923:0:0:0:0:
36,192,122836,1,0,0:0:0:0:
182,192,123011,1,0,0:0:0:0:
402,192,123186,1,0,0:0:0:0:
36,192,123362,128,0,123450:0:0:0:0:
329,192,123362,1,0,0:0:0:0:
475,192,123888,128,0,123976:0:0:0:0:
256,192,124064,128,0,124151:0:0:0:0:
109,192,124064,1,0,0:0:0:0:
329,192,124414,1,0,0:0:0:0:
36,192,124590,1,0,0:0:0:0:
256,192,124765,1,0,0:0:0:0:
109,192,124941,1,0,0:0:0:0:
402,192,124941,128,0,125029:0:0:0:0:
182,192,125116,1,0,0:0:0:0:
475,192,125116,1,0,0:0:0:0:
329,192,125116,128,0,125204:0:0:0:0:
36,192,125292,1,0,0:0:0:0:
109,192,125292,128,0,125379:0:0:0:0:
329,192,125467,1,0,0:0:0:0:
256,192,125467,128,0,125555:0:0:0:0:
182,192,125643,1,0,0:0:0:0:
402,192,125643,128,0,125730:0:0:0:0:
475,192,125993,1,0,0:0:0:0:
182,192,125993,128,0,126081:0:0:0:0:
329,192,126169,1,0,0:0:0:0:
109,192,126169,128,0,126257:0:0:0:0:
182,192,126344,1,0,0:0:0:0:
402,192,126520,128,0,126607:0:0:0:0:
475,192,126871,128,0,126958:0:0:0:0:
182,192,127222,1,0,0:0:0:0:
329,192,127397,1,0,0:0:0:0:
109,192,127397,128,0,127485:0:0:0:0:
475,192,127572,1,0,0:0:0:0:
256,192,127748,1,0,0:0:0:0:
36,192,127748,128,0,127923:0:0:0:0:
182,192,127923,128,0,128099:0:0:0:0:
109,192,128099,1,0,0:0:0:0:
329,192,128099,128,0,128274:0:0:0:0:
256,192,128274,1,0,0:0:0:0:
475,192,128274,128,0,128450:0:0:0:0:
36,192,128450,1,0,0:0:0:0:
182,192,128450,1,0,0:0:0:0:
402,192,128450,128,0,128976:0:0:0:0:
182,192,128625,1,0,0:0:0:0:
256,192,128800,1,0,0:0:0:0:
109,192,128800,1,0,0:0:0:0:
109,192,128976,1,0,0:0:0:0:
329,192,128976,128,0,129502:0:0:0:0:
36,192,129151,1,0,0:0:0:0:
182,192,129151,1,0,0:0:0:0:
182,192,129327,1,0,0:0:0:0:
36,192,129502,1,0,0:0:0:0:
256,192,129502,1,0,0:0:0:0:
475,192,129502,128,0,129678:0:0:0:0:
256,192,129678,1,0,0:0:0:0:
109,192,129678,128,0,130555:0:0:0:0:
475,192,129853,1,0,0:0:0:0:
329,192,129853,1,0,0:0:0:0:
329,192,130029,1,0,0:0:0:0:
402,192,130204,1,0,0:0:0:0:
182,192,130204,1,0,0:0:0:0:
182,192,130379,1,0,0:0:0:0:
402,192,130555,1,0,0:0:0:0:
256,192,130555,1,0,0:0:0:0:
402,192,130730,1,0,0:0:0:0:
36,192,130730,128,0,130906:0:0:0:0:
109,192,130906,1,0,0:0:0:0:
475,192,130906,1,0,0:0:0:0:
329,192,130906,128,0,131081:0:0:0:0:
475,192,131081,1,0,0:0:0:0:
182,192,131081,128,0,131257:0:0:0:0:
109,192,131257,1,0,0:0:0:0:
256,192,131257,1,0,0:0:0:0:
402,192,131257,128,0,131432:0:0:0:0:
256,192,131432,1,0,0:0:0:0:
182,192,131607,128,0,131783:0:0:0:0:
329,192,131607,1,0,0:0:0:0:
36,192,131607,1,0,0:0:0:0:
475,192,131783,128,0,132134:0:0:0:0:
36,192,131783,1,0,0:0:0:0:
329,192,131958,1,0,0:0:0:0:
109,192,131958,1,0,0:0:0:0:
329,192,132134,1,0,0:0:0:0:
256,192,132134,128,0,132485:0:0:0:0:
402,192,132309,1,0,0:0:0:0:
109,192,132309,1,0,0:0:0:0:
109,192,132485,1,0,0:0:0:0:
182,192,132485,128,0,133011:0:0:0:0:
475,192,132660,1,0,0:0:0:0:
329,192,132660,1,0,0:0:0:0:
329,192,132836,1,0,0:0:0:0:
36,192,133011,1,0,0:0:0:0:
256,192,133011,1,0,0:0:0:0:
475,192,133186,1,0,0:0:0:0:
182,192,133186,1,0,0:0:0:0:
109,192,133186,1,0,0:0:0:0:
36,192,133186,1,0,0:0:0:0:
329,192,133186,1,0,0:0:0:0:
402,192,133186,1,0,0:0:0:0:
109,192,133362,1,0,0:0:0:0:
36,192,133362,1,0,0:0:0:0:
402,192,133362,1,0,0:0:0:0:
256,192,133362,1,0,0:0:0:0:
475,192,133362,1,0,0:0:0:0:
329,192,133537,1,0,0:0:0:0:
402,192,133537,1,0,0:0:0:0:
475,192,133537,1,0,0:0:0:0:
36,192,133537,1,0,0:0:0:0:
182,192,133537,1,0,0:0:0:0:
109,192,133537,1,0,0:0:0:0:
109,192,133713,1,0,0:0:0:0:
36,192,133713,1,0,0:0:0:0:
256,192,133713,1,0,0:0:0:0:
475,192,133713,1,0,0:0:0:0:
402,192,133713,1,0,0:0:0:0:
402,192,133888,128,0,134151:0:0:0:0:
256,192,133888,128,0,134151:0:0:0:0:
36,192,133888,128,0,134151:0:0:0:0:
109,192,133888,128,0,134151:0:0:0:0:
182,192,133888,128,0,134151:0:0:0:0:
329,192,133888,128,0,134151:0:0:0:0:
182,192,134239,1,0,0:0:0:0:
109,192,134239,1,0,0:0:0:0:
329,192,134298,1,0,0:0:0:0:
402,192,134298,1,0,0:0:0:0:
109,192,134356,1,0,0:0:0:0:
182,192,134356,1,0,0:0:0:0:
329,192,134414,1,0,0:0:0:0:
402,192,134414,1,0,0:0:0:0:
109,192,134473,1,0,0:0:0:0:
182,192,134473,1,0,0:0:0:0:
475,192,134590,128,0,134853:0:0:0:0:
109,192,134590,128,0,134853:0:0:0:0:
36,192,134590,128,0,134853:0:0:0:0:
256,192,134590,128,0,134853:0:0:0:0:
329,192,134590,128,0,134853:0:0:0:0:
402,192,134590,128,0,134853:0:0:0:0:
256,192,134941,1,0,0:0:0:0:
109,192,134941,1,0,0:0:0:0:
475,192,134999,1,0,0:0:0:0:
402,192,134999,1,0,0:0:0:0:
109,192,135058,1,0,0:0:0:0:
256,192,135058,1,0,0:0:0:0:
475,192,135116,1,0,0:0:0:0:
402,192,135116,1,0,0:0:0:0:
109,192,135175,1,0,0:0:0:0:
256,192,135175,1,0,0:0:0:0:
182,192,135292,128,0,135730:0:0:0:0:
109,192,135292,128,0,135730:0:0:0:0:
36,192,135292,128,0,135730:0:0:0:0:
329,192,135292,128,0,135730:0:0:0:0:
402,192,135292,128,0,136520:0:0:0:0:
475,192,135292,128,0,136695:0:0:0:0:
329,192,135818,128,0,136344:0:0:0:0:
109,192,135818,128,0,136169:0:0:0:0:
36,192,135818,1,0,0:0:0:0:
256,192,135818,128,0,136169:0:0:0:0:
36,192,136169,128,0,136344:0:0:0:0:
182,192,136169,128,0,136344:0:0:0:0:
256,192,136344,128,0,136520:0:0:0:0:
109,192,136344,128,0,136520:0:0:0:0:
329,192,136520,128,0,136695:0:0:0:0:
182,192,136520,128,0,136695:0:0:0:0:
109,192,136695,128,0,137134:0:0:0:0:
36,192,136695,128,0,137134:0:0:0:0:
402,192,136695,128,0,138099:0:0:0:0:
256,192,136695,128,0,138099:0:0:0:0:
182,192,137222,1,0,0:0:0:0:
109,192,137222,1,0,0:0:0:0:
36,192,137222,1,0,0:0:0:0:
182,192,137572,1,0,0:0:0:0:
36,192,137572,1,0,0:0:0:0:
109,192,137572,1,0,0:0:0:0:
329,192,137748,1,0,0:0:0:0:
475,192,137748,1,0,0:0:0:0:
475,192,137836,1,0,0:0:0:0:
329,192,137836,1,0,0:0:0:0:
182,192,137923,1,0,0:0:0:0:
109,192,137923,1,0,0:0:0:0:
36,192,137923,1,0,0:0:0:0:
182,192,138099,128,0,141081:0:0:0:0:
36,192,138099,128,0,141081:0:0:0:0:
329,192,138099,128,0,141081:0:0:0:0:
475,192,138099,128,0,141081:0:0:0:0:
256,192,138976,128,0,139590:0:0:0:0:
256,192,139678,1,0,0:0:0:0:
475,192,143537,128,0,143625:0:0:0:0:
402,192,143537,128,0,143625:0:0:0:0:
109,192,143888,128,0,143976:0:0:0:0:
36,192,143888,128,0,143976:0:0:0:0:
402,192,143888,128,0,143976:0:0:0:0:
256,192,143888,128,0,143976:0:0:0:0:
109,192,144590,128,0,144678:0:0:0:0:
329,192,144590,128,0,144678:0:0:0:0:
256,192,144941,128,0,145029:0:0:0:0:
475,192,144941,128,0,145029:0:0:0:0:
182,192,145116,128,0,145204:0:0:0:0:
402,192,145116,128,0,145204:0:0:0:0:
109,192,145643,128,0,145730:0:0:0:0:
256,192,145643,128,0,145730:0:0:0:0:
182,192,145993,128,0,146081:0:0:0:0:
329,192,145993,128,0,146081:0:0:0:0:
256,192,146344,128,0,146432:0:0:0:0:
402,192,146344,128,0,146432:0:0:0:0:
109,192,146695,128,0,146783:0:0:0:0:
36,192,146695,128,0,146783:0:0:0:0:
329,192,146695,128,0,146783:0:0:0:0:
475,192,146695,128,0,146783:0:0:0:0:
36,192,147046,128,0,147134:0:0:0:0:
256,192,147046,128,0,147134:0:0:0:0:
182,192,147222,128,0,147309:0:0:0:0:
402,192,147222,128,0,147309:0:0:0:0:
475,192,147572,128,0,147660:0:0:0:0:
329,192,147572,128,0,147660:0:0:0:0:
109,192,147923,128,0,148011:0:0:0:0:
256,192,147923,128,0,148011:0:0:0:0:
402,192,149151,128,0,149239:0:0:0:0:
182,192,149151,128,0,149239:0:0:0:0:
329,192,149502,128,0,149590:0:0:0:0:
475,192,149502,128,0,149590:0:0:0:0:
182,192,149502,128,0,149590:0:0:0:0:
36,192,149502,128,0,149590:0:0:0:0:
402,192,150204,128,0,150292:0:0:0:0:
109,192,150204,128,0,150292:0:0:0:0:
402,192,150379,128,0,150467:0:0:0:0:
109,192,150379,128,0,150467:0:0:0:0:
475,192,150555,128,0,150643:0:0:0:0:
329,192,150555,128,0,150643:0:0:0:0:
182,192,150730,128,0,150818:0:0:0:0:
36,192,150730,128,0,150818:0:0:0:0:
402,192,151257,128,0,151344:0:0:0:0:
182,192,151257,128,0,151344:0:0:0:0:
256,192,151607,128,0,151695:0:0:0:0:
475,192,151607,128,0,151695:0:0:0:0:
36,192,151958,128,0,152046:0:0:0:0:
109,192,151958,128,0,152046:0:0:0:0:
256,192,152309,128,0,152397:0:0:0:0:
109,192,152309,128,0,152397:0:0:0:0:
475,192,152309,128,0,152397:0:0:0:0:
402,192,152309,128,0,152397:0:0:0:0:
329,192,152836,128,0,152923:0:0:0:0:
36,192,152836,128,0,152923:0:0:0:0:
475,192,153362,128,0,153450:0:0:0:0:
182,192,153362,128,0,153450:0:0:0:0:
402,192,153888,128,0,153976:0:0:0:0:
109,192,153888,128,0,153976:0:0:0:0:
182,192,154765,128,0,155116:0:0:0:0:
402,192,155116,1,0,0:0:0:0:
36,192,155116,1,0,0:0:0:0:
475,192,155116,128,0,155818:0:0:0:0:
256,192,155116,1,0,0:0:0:0:
109,192,155292,1,0,0:0:0:0:
329,192,155467,1,0,0:0:0:0:
182,192,155643,1,0,0:0:0:0:
329,192,155818,1,0,0:0:0:0:
36,192,155818,1,0,0:0:0:0:
109,192,155876,1,0,0:0:0:0:
182,192,155935,128,0,156169:0:0:0:0:
402,192,155993,1,0,0:0:0:0:
329,192,156169,128,0,156344:0:0:0:0:
109,192,156169,1,0,0:0:0:0:
36,192,156344,128,0,156871:0:0:0:0:
182,192,156344,1,0,0:0:0:0:
402,192,156520,1,0,0:0:0:0:
256,192,156695,1,0,0:0:0:0:
402,192,156871,128,0,157222:0:0:0:0:
109,192,156871,1,0,0:0:0:0:
182,192,156958,1,0,0:0:0:0:
329,192,157046,1,0,0:0:0:0:
256,192,157134,1,0,0:0:0:0:
36,192,157222,1,0,0:0:0:0:
475,192,157222,128,0,157572:0:0:0:0:
109,192,157309,1,0,0:0:0:0:
256,192,157397,1,0,0:0:0:0:
109,192,157572,1,0,0:0:0:0:
329,192,157572,128,0,157923:0:0:0:0:
182,192,157748,1,0,0:0:0:0:
402,192,157923,1,0,0:0:0:0:
475,192,157923,1,0,0:0:0:0:
36,192,157923,128,0,158274:0:0:0:0:
256,192,157923,1,0,0:0:0:0:
182,192,158099,1,0,0:0:0:0:
329,192,158274,1,0,0:0:0:0:
402,192,158274,128,0,158450:0:0:0:0:
475,192,158450,1,0,0:0:0:0:
109,192,158450,128,0,158800:0:0:0:0:
256,192,158625,1,0,0:0:0:0:
36,192,158800,1,0,0:0:0:0:
475,192,158800,1,0,0:0:0:0:
402,192,158859,1,0,0:0:0:0:
329,192,158917,128,0,159327:0:0:0:0:
182,192,158976,1,0,0:0:0:0:
109,192,159151,1,0,0:0:0:0:
182,192,159327,1,0,0:0:0:0:
475,192,159327,128,0,160029:0:0:0:0:
402,192,159327,1,0,0:0:0:0:
36,192,159327,1,0,0:0:0:0:
256,192,159502,1,0,0:0:0:0:
402,192,159678,1,0,0:0:0:0:
182,192,159678,1,0,0:0:0:0:
36,192,159678,1,0,0:0:0:0:
329,192,159853,1,0,0:0:0:0:
256,192,160029,1,0,0:0:0:0:
182,192,160029,1,0,0:0:0:0:
402,192,160029,1,0,0:0:0:0:
36,192,160029,1,0,0:0:0:0:
109,192,160029,1,0,0:0:0:0:
109,192,160204,1,0,0:0:0:0:
182,192,160204,1,0,0:0:0:0:
402,192,160204,1,0,0:0:0:0:
36,192,160204,1,0,0:0:0:0:
329,192,160204,1,0,0:0:0:0:
475,192,160379,1,0,0:0:0:0:
329,192,160379,1,0,0:0:0:0:
256,192,160379,1,0,0:0:0:0:
36,192,160379,1,0,0:0:0:0:
109,192,160379,1,0,0:0:0:0:
256,192,160555,1,0,0:0:0:0:
475,192,160555,1,0,0:0:0:0:
402,192,160555,1,0,0:0:0:0:
182,192,160555,1,0,0:0:0:0:
36,192,160555,1,0,0:0:0:0:
109,192,160730,128,0,161432:0:0:0:0:
182,192,160730,128,0,161432:0:0:0:0:
402,192,160730,1,0,0:0:0:0:
329,192,160730,1,0,0:0:0:0:
475,192,160730,1,0,0:0:0:0:
329,192,160906,1,0,0:0:0:0:
402,192,160906,1,0,0:0:0:0:
475,192,160993,1,0,0:0:0:0:
329,192,161081,1,0,0:0:0:0:
402,192,161081,1,0,0:0:0:0:
329,192,161257,1,0,0:0:0:0:
402,192,161257,1,0,0:0:0:0:
475,192,161344,1,0,0:0:0:0:
402,192,161432,1,0,0:0:0:0:
329,192,161432,1,0,0:0:0:0:
256,192,161607,1,0,0:0:0:0:
182,192,161607,1,0,0:0:0:0:
402,192,161607,1,0,0:0:0:0:
36,192,161607,1,0,0:0:0:0:
109,192,161607,1,0,0:0:0:0:
402,192,161783,1,0,0:0:0:0:
475,192,161783,1,0,0:0:0:0:
329,192,161783,1,0,0:0:0:0:
109,192,161783,1,0,0:0:0:0:
182,192,161783,1,0,0:0:0:0:
109,192,161958,128,0,162222:0:0:0:0:
36,192,161958,128,0,162222:0:0:0:0:
256,192,161958,128,0,162222:0:0:0:0:
402,192,161958,128,0,162923:0:0:0:0:
475,192,161958,128,0,162923:0:0:0:0:
36,192,162309,1,0,0:0:0:0:
329,192,162309,1,0,0:0:0:0:
182,192,162309,1,0,0:0:0:0:
256,192,162397,1,0,0:0:0:0:
36,192,162485,1,0,0:0:0:0:
109,192,162485,1,0,0:0:0:0:
256,192,162572,1,0,0:0:0:0:
182,192,162572,1,0,0:0:0:0:
36,192,162660,1,0,0:0:0:0:
329,192,162660,1,0,0:0:0:0:
109,192,162748,1,0,0:0:0:0:
182,192,162748,1,0,0:0:0:0:
36,192,162836,1,0,0:0:0:0:
329,192,162836,1,0,0:0:0:0:
182,192,162923,1,0,0:0:0:0:
256,192,162923,1,0,0:0:0:0:
402,192,163011,1,0,0:0:0:0:
475,192,163011,1,0,0:0:0:0:
36,192,163011,1,0,0:0:0:0:
109,192,163011,1,0,0:0:0:0:
329,192,163011,1,0,0:0:0:0:
402,192,163186,1,0,0:0:0:0:
475,192,163186,1,0,0:0:0:0:
256,192,163186,1,0,0:0:0:0:
182,192,163186,1,0,0:0:0:0:
109,192,163186,1,0,0:0:0:0:
402,192,163362,128,0,163625:0:0:0:0:
109,192,163362,128,0,163625:0:0:0:0:
256,192,163362,128,0,163625:0:0:0:0:
36,192,163362,128,0,164941:0:0:0:0:
475,192,163362,128,0,164941:0:0:0:0:
329,192,163713,1,0,0:0:0:0:
182,192,163713,1,0,0:0:0:0:
109,192,163713,1,0,0:0:0:0:
256,192,163800,1,0,0:0:0:0:
402,192,163800,1,0,0:0:0:0:
329,192,163888,1,0,0:0:0:0:
109,192,163888,1,0,0:0:0:0:
182,192,163976,1,0,0:0:0:0:
402,192,163976,1,0,0:0:0:0:
109,192,164064,1,0,0:0:0:0:
256,192,164064,1,0,0:0:0:0:
402,192,164151,1,0,0:0:0:0:
182,192,164151,1,0,0:0:0:0:
109,192,164239,1,0,0:0:0:0:
329,192,164239,1,0,0:0:0:0:
402,192,164327,1,0,0:0:0:0:
256,192,164327,1,0,0:0:0:0:
182,192,164414,1,0,0:0:0:0:
329,192,164414,1,0,0:0:0:0:
256,192,164502,1,0,0:0:0:0:
109,192,164502,1,0,0:0:0:0:
402,192,164590,1,0,0:0:0:0:
329,192,164590,1,0,0:0:0:0:
182,192,164590,1,0,0:0:0:0:
109,192,164678,1,0,0:0:0:0:
256,192,164678,1,0,0:0:0:0:
402,192,164765,1,0,0:0:0:0:
329,192,164765,1,0,0:0:0:0:
182,192,164765,1,0,0:0:0:0:
402,192,164941,1,0,0:0:0:0:
182,192,164941,1,0,0:0:0:0:
109,192,164941,1,0,0:0:0:0:
329,192,164941,1,0,0:0:0:0:
256,192,165029,1,0,0:0:0:0:
402,192,165116,1,0,0:0:0:0:
475,192,165116,1,0,0:0:0:0:
36,192,165116,1,0,0:0:0:0:
109,192,165116,1,0,0:0:0:0:
329,192,165204,1,0,0:0:0:0:
182,192,165204,1,0,0:0:0:0:
402,192,165292,1,0,0:0:0:0:
475,192,165292,1,0,0:0:0:0:
109,192,165292,1,0,0:0:0:0:
256,192,165292,1,0,0:0:0:0:
36,192,165292,1,0,0:0:0:0:
329,192,165467,1,0,0:0:0:0:
475,192,165467,1,0,0:0:0:0:
36,192,165467,1,0,0:0:0:0:
182,192,165467,1,0,0:0:0:0:
109,192,165555,1,0,0:0:0:0:
402,192,165555,1,0,0:0:0:0:
475,192,165643,1,0,0:0:0:0:
36,192,165643,1,0,0:0:0:0:
256,192,165643,1,0,0:0:0:0:
182,192,165730,1,0,0:0:0:0:
329,192,165730,1,0,0:0:0:0:
256,192,165818,1,0,0:0:0:0:
36,192,165818,1,0,0:0:0:0:
402,192,165818,1,0,0:0:0:0:
475,192,165818,1,0,0:0:0:0:
109,192,165818,1,0,0:0:0:0:
475,192,165993,1,0,0:0:0:0:
402,192,165993,1,0,0:0:0:0:
109,192,165993,1,0,0:0:0:0:
182,192,165993,1,0,0:0:0:0:
36,192,165993,1,0,0:0:0:0:
329,192,165993,1,0,0:0:0:0:
402,192,166168,128,0,166431:0:0:0:0:
475,192,166168,128,0,166431:0:0:0:0:
256,192,166168,128,0,166431:0:0:0:0:
36,192,166168,1,0,0:0:0:0:
109,192,166168,1,0,0:0:0:0:
36,192,166518,1,0,0:0:0:0:
109,192,166518,1,0,0:0:0:0:
475,192,166518,1,0,0:0:0:0:
256,192,166518,1,0,0:0:0:0:
402,192,166577,1,0,0:0:0:0:
182,192,166606,1,0,0:0:0:0:
329,192,166635,1,0,0:0:0:0:
256,192,166694,1,0,0:0:0:0:
475,192,166694,1,0,0:0:0:0:
36,192,166694,1,0,0:0:0:0:
329,192,166782,1,0,0:0:0:0:
109,192,166782,1,0,0:0:0:0:
475,192,166869,1,0,0:0:0:0:
36,192,166869,1,0,0:0:0:0:
182,192,166869,1,0,0:0:0:0:
109,192,166957,1,0,0:0:0:0:
402,192,166957,1,0,0:0:0:0:
256,192,166957,1,0,0:0:0:0:
475,192,167045,1,0,0:0:0:0:
36,192,167045,1,0,0:0:0:0:
182,192,167045,1,0,0:0:0:0:
329,192,167045,1,0,0:0:0:0:
402,192,167220,1,0,0:0:0:0:
256,192,167220,1,0,0:0:0:0:
36,192,167220,1,0,0:0:0:0:
182,192,167279,1,0,0:0:0:0:
475,192,167308,1,0,0:0:0:0:
329,192,167337,1,0,0:0:0:0:
256,192,167396,1,0,0:0:0:0:
36,192,167396,1,0,0:0:0:0:
109,192,167396,1,0,0:0:0:0:
402,192,167396,1,0,0:0:0:0:
329,192,167571,128,0,167834:0:0:0:0:
36,192,167571,128,0,167834:0:0:0:0:
182,192,167571,128,0,167834:0:0:0:0:
109,192,167571,1,0,0:0:0:0:
475,192,167571,1,0,0:0:0:0:
182,192,167922,1,0,0:0:0:0:
36,192,167922,1,0,0:0:0:0:
475,192,167922,1,0,0:0:0:0:
329,192,167922,1,0,0:0:0:0:
402,192,168010,1,0,0:0:0:0:
256,192,168010,1,0,0:0:0:0:
36,192,168097,1,0,0:0:0:0:
182,192,168097,1,0,0:0:0:0:
109,192,168097,1,0,0:0:0:0:
475,192,168097,1,0,0:0:0:0:
329,192,168097,1,0,0:0:0:0:
36,192,168273,1,0,0:0:0:0:
475,192,168273,1,0,0:0:0:0:
256,192,168273,1,0,0:0:0:0:
402,192,168273,1,0,0:0:0:0:
329,192,168360,1,0,0:0:0:0:
182,192,168360,1,0,0:0:0:0:
109,192,168360,1,0,0:0:0:0:
475,192,168448,1,0,0:0:0:0:
402,192,168448,1,0,0:0:0:0:
256,192,168448,1,0,0:0:0:0:
36,192,168448,1,0,0:0:0:0:
36,192,168624,1,0,0:0:0:0:
329,192,168624,1,0,0:0:0:0:
182,192,168624,1,0,0:0:0:0:
475,192,168682,1,0,0:0:0:0:
256,192,168711,1,0,0:0:0:0:
109,192,168711,1,0,0:0:0:0:
402,192,168741,1,0,0:0:0:0:
36,192,168799,1,0,0:0:0:0:
182,192,168799,1,0,0:0:0:0:
329,192,168799,1,0,0:0:0:0:
36,192,168975,128,0,169238:0:0:0:0:
475,192,168975,128,0,169238:0:0:0:0:
109,192,168975,128,0,169238:0:0:0:0:
256,192,168975,1,0,0:0:0:0:
402,192,168975,1,0,0:0:0:0:
402,192,169325,1,0,0:0:0:0:
36,192,169325,1,0,0:0:0:0:
256,192,169325,1,0,0:0:0:0:
475,192,169325,1,0,0:0:0:0:
329,192,169413,1,0,0:0:0:0:
109,192,169413,1,0,0:0:0:0:
36,192,169501,1,0,0:0:0:0:
402,192,169501,1,0,0:0:0:0:
182,192,169501,1,0,0:0:0:0:
256,192,169589,1,0,0:0:0:0:
475,192,169589,1,0,0:0:0:0:
36,192,169676,1,0,0:0:0:0:
402,192,169676,1,0,0:0:0:0:
329,192,169676,1,0,0:0:0:0:
182,192,169676,1,0,0:0:0:0:
402,192,169852,1,0,0:0:0:0:
475,192,169852,1,0,0:0:0:0:
36,192,169852,1,0,0:0:0:0:
256,192,169852,1,0,0:0:0:0:
109,192,169852,1,0,0:0:0:0:
329,192,169939,1,0,0:0:0:0:
36,192,170027,1,0,0:0:0:0:
402,192,170027,1,0,0:0:0:0:
182,192,170027,1,0,0:0:0:0:
109,192,170027,1,0,0:0:0:0:
329,192,170115,1,0,0:0:0:0:
109,192,170203,1,0,0:0:0:0:
36,192,170203,1,0,0:0:0:0:
256,192,170203,1,0,0:0:0:0:
475,192,170203,1,0,0:0:0:0:
402,192,170203,1,0,0:0:0:0:
475,192,170378,128,0,170641:0:0:0:0:
182,192,170378,128,0,170641:0:0:0:0:
329,192,170378,128,0,170641:0:0:0:0:
109,192,170378,1,0,0:0:0:0:
36,192,170378,1,0,0:0:0:0:
256,192,170641,1,0,0:0:0:0:
402,192,170641,1,0,0:0:0:0:
182,192,170729,1,0,0:0:0:0:
329,192,170729,1,0,0:0:0:0:
36,192,170729,1,0,0:0:0:0:
475,192,170817,1,0,0:0:0:0:
256,192,170817,1,0,0:0:0:0:
109,192,170817,1,0,0:0:0:0:
402,192,170904,128,0,170992:0:0:0:0:
329,192,170904,128,0,170992:0:0:0:0:
36,192,170904,1,0,0:0:0:0:
182,192,170904,1,0,0:0:0:0:
402,192,171080,128,0,171168:0:0:0:0:
475,192,171080,128,0,171168:0:0:0:0:
36,192,171080,1,0,0:0:0:0:
256,192,171080,1,0,0:0:0:0:
109,192,171080,1,0,0:0:0:0:
402,192,171255,128,0,171343:0:0:0:0:
329,192,171255,128,0,171343:0:0:0:0:
36,192,171431,1,0,0:0:0:0:
256,192,171431,1,0,0:0:0:0:
109,192,171431,1,0,0:0:0:0:
402,192,171431,128,0,171518:0:0:0:0:
475,192,171431,128,0,171518:0:0:0:0:
182,192,171606,128,0,171694:0:0:0:0:
329,192,171606,128,0,171694:0:0:0:0:
475,192,171782,128,0,172045:0:0:0:0:
109,192,171782,1,0,0:0:0:0:
402,192,171782,128,0,172045:0:0:0:0:
256,192,171782,1,0,0:0:0:0:
36,192,171782,128,0,173185:0:0:0:0:
475,192,172132,1,0,0:0:0:0:
402,192,172132,1,0,0:0:0:0:
256,192,172132,1,0,0:0:0:0:
109,192,172132,1,0,0:0:0:0:
329,192,172220,1,0,0:0:0:0:
402,192,172308,1,0,0:0:0:0:
475,192,172308,1,0,0:0:0:0:
182,192,172308,1,0,0:0:0:0:
109,192,172308,1,0,0:0:0:0:
475,192,172483,1,0,0:0:0:0:
109,192,172483,1,0,0:0:0:0:
329,192,172483,1,0,0:0:0:0:
402,192,172571,1,0,0:0:0:0:
182,192,172571,1,0,0:0:0:0:
109,192,172659,1,0,0:0:0:0:
475,192,172659,1,0,0:0:0:0:
256,192,172659,1,0,0:0:0:0:
402,192,172834,1,0,0:0:0:0:
475,192,172834,1,0,0:0:0:0:
109,192,172834,1,0,0:0:0:0:
256,192,172834,1,0,0:0:0:0:
475,192,173010,1,0,0:0:0:0:
402,192,173010,1,0,0:0:0:0:
109,192,173010,1,0,0:0:0:0:
329,192,173010,1,0,0:0:0:0:
182,192,173010,1,0,0:0:0:0:
475,192,173185,1,0,0:0:0:0:
109,192,173185,1,0,0:0:0:0:
256,192,173185,1,0,0:0:0:0:
182,192,173185,1,0,0:0:0:0:
402,192,173244,1,0,0:0:0:0:
329,192,173302,1,0,0:0:0:0:
36,192,173360,1,0,0:0:0:0:
182,192,173360,1,0,0:0:0:0:
402,192,173419,1,0,0:0:0:0:
256,192,173477,1,0,0:0:0:0:
109,192,173536,1,0,0:0:0:0:
36,192,173536,1,0,0:0:0:0:
329,192,173536,1,0,0:0:0:0:
475,192,173536,1,0,0:0:0:0:
402,192,173624,1,0,0:0:0:0:
182,192,173624,1,0,0:0:0:0:
36,192,173711,1,0,0:0:0:0:
109,192,173711,1,0,0:0:0:0:
256,192,173711,1,0,0:0:0:0:
475,192,173711,1,0,0:0:0:0:
182,192,173799,1,0,0:0:0:0:
402,192,173799,1,0,0:0:0:0:
475,192,173887,1,0,0:0:0:0:
36,192,173887,1,0,0:0:0:0:
256,192,173887,1,0,0:0:0:0:
329,192,173975,1,0,0:0:0:0:
182,192,173975,1,0,0:0:0:0:
109,192,173975,1,0,0:0:0:0:
256,192,174062,1,0,0:0:0:0:
36,192,174062,1,0,0:0:0:0:
475,192,174062,1,0,0:0:0:0:
402,192,174062,1,0,0:0:0:0:
109,192,174150,1,0,0:0:0:0:
329,192,174150,1,0,0:0:0:0:
475,192,174238,1,0,0:0:0:0:
36,192,174238,1,0,0:0:0:0:
182,192,174238,1,0,0:0:0:0:
402,192,174238,1,0,0:0:0:0:
256,192,174325,1,0,0:0:0:0:
109,192,174325,1,0,0:0:0:0:
475,192,174413,1,0,0:0:0:0:
329,192,174413,1,0,0:0:0:0:
182,192,174413,1,0,0:0:0:0:
109,192,174501,1,0,0:0:0:0:
402,192,174501,1,0,0:0:0:0:
256,192,174501,1,0,0:0:0:0:
475,192,174589,128,0,174852:0:0:0:0:
329,192,174589,128,0,174852:0:0:0:0:
182,192,174589,1,0,0:0:0:0:
36,192,174589,128,0,174852:0:0:0:0:
402,192,174939,1,0,0:0:0:0:
36,192,174939,1,0,0:0:0:0:
475,192,174939,1,0,0:0:0:0:
182,192,174939,1,0,0:0:0:0:
109,192,175027,1,0,0:0:0:0:
256,192,175027,1,0,0:0:0:0:
182,192,175115,1,0,0:0:0:0:
36,192,175115,1,0,0:0:0:0:
475,192,175115,1,0,0:0:0:0:
329,192,175115,1,0,0:0:0:0:
402,192,175203,1,0,0:0:0:0:
256,192,175203,1,0,0:0:0:0:
36,192,175290,128,0,175553:0:0:0:0:
475,192,175290,128,0,175553:0:0:0:0:
182,192,175290,128,0,175553:0:0:0:0:
329,192,175290,1,0,0:0:0:0:
109,192,175290,1,0,0:0:0:0:
256,192,175466,1,0,0:0:0:0:
402,192,175466,1,0,0:0:0:0:
182,192,175641,1,0,0:0:0:0:
36,192,175641,1,0,0:0:0:0:
329,192,175641,1,0,0:0:0:0:
475,192,175641,1,0,0:0:0:0:
402,192,175729,1,0,0:0:0:0:
256,192,175729,1,0,0:0:0:0:
109,192,175729,1,0,0:0:0:0:
182,192,175817,1,0,0:0:0:0:
36,192,175817,1,0,0:0:0:0:
329,192,175817,1,0,0:0:0:0:
475,192,175817,1,0,0:0:0:0:
109,192,175992,128,0,176343:0:0:0:0:
36,192,175992,128,0,176343:0:0:0:0:
256,192,175992,128,0,176343:0:0:0:0:
475,192,175992,128,0,176343:0:0:0:0:
402,192,175992,128,0,176343:0:0:0:0:
329,192,176343,1,0,0:0:0:0:
182,192,176343,1,0,0:0:0:0:
36,192,176431,1,0,0:0:0:0:
475,192,176431,1,0,0:0:0:0:
182,192,176518,1,0,0:0:0:0:
329,192,176518,1,0,0:0:0:0:
402,192,176694,1,0,0:0:0:0:
475,192,176694,1,0,0:0:0:0:
36,192,176694,1,0,0:0:0:0:
256,192,176694,1,0,0:0:0:0:
109,192,176694,1,0,0:0:0:0:
256,192,176869,1,0,0:0:0:0:
182,192,177045,1,0,0:0:0:0:
36,192,177045,1,0,0:0:0:0:
329,192,177045,1,0,0:0:0:0:
475,192,177045,1,0,0:0:0:0:
256,192,177220,1,0,0:0:0:0:
329,192,177396,128,0,177659:0:0:0:0:
402,192,177396,128,0,177659:0:0:0:0:
475,192,177396,128,0,177659:0:0:0:0:
182,192,177396,1,0,0:0:0:0:
109,192,177396,1,0,0:0:0:0:
36,192,177396,1,0,0:0:0:0:
329,192,177746,1,0,0:0:0:0:
475,192,177746,1,0,0:0:0:0:
182,192,177746,1,0,0:0:0:0:
36,192,177746,1,0,0:0:0:0:
475,192,177922,1,0,0:0:0:0:
36,192,177922,1,0,0:0:0:0:
256,192,177922,1,0,0:0:0:0:
329,192,177980,1,0,0:0:0:0:
109,192,177980,1,0,0:0:0:0:
402,192,178039,1,0,0:0:0:0:
182,192,178039,1,0,0:0:0:0:
36,192,178097,1,0,0:0:0:0:
475,192,178097,1,0,0:0:0:0:
256,192,178097,1,0,0:0:0:0:
402,192,178185,1,0,0:0:0:0:
109,192,178185,1,0,0:0:0:0:
329,192,178273,1,0,0:0:0:0:
475,192,178273,1,0,0:0:0:0:
182,192,178273,1,0,0:0:0:0:
36,192,178273,1,0,0:0:0:0:
109,192,178448,1,0,0:0:0:0:
36,192,178448,1,0,0:0:0:0:
475,192,178448,1,0,0:0:0:0:
256,192,178448,1,0,0:0:0:0:
402,192,178448,1,0,0:0:0:0:
402,192,178624,1,0,0:0:0:0:
475,192,178624,1,0,0:0:0:0:
329,192,178624,1,0,0:0:0:0:
109,192,178624,1,0,0:0:0:0:
182,192,178624,1,0,0:0:0:0:
109,192,178799,128,0,179062:0:0:0:0:
36,192,178799,128,0,179062:0:0:0:0:
256,192,178799,128,0,179062:0:0:0:0:
329,192,178799,1,0,0:0:0:0:
475,192,178799,1,0,0:0:0:0:
475,192,179150,1,0,0:0:0:0:
36,192,179150,1,0,0:0:0:0:
256,192,179150,1,0,0:0:0:0:
402,192,179150,1,0,0:0:0:0:
329,192,179238,1,0,0:0:0:0:
109,192,179238,1,0,0:0:0:0:
36,192,179325,1,0,0:0:0:0:
475,192,179325,1,0,0:0:0:0:
182,192,179325,1,0,0:0:0:0:
402,192,179325,1,0,0:0:0:0:
36,192,179501,1,0,0:0:0:0:
475,192,179501,1,0,0:0:0:0:
256,192,179501,1,0,0:0:0:0:
109,192,179501,1,0,0:0:0:0:
182,192,179589,1,0,0:0:0:0:
402,192,179589,1,0,0:0:0:0:
329,192,179589,1,0,0:0:0:0:
475,192,179676,1,0,0:0:0:0:
36,192,179676,1,0,0:0:0:0:
256,192,179676,1,0,0:0:0:0:
109,192,179764,128,0,179939:0:0:0:0:
182,192,179764,128,0,179939:0:0:0:0:
475,192,179852,1,0,0:0:0:0:
402,192,179852,1,0,0:0:0:0:
329,192,179852,1,0,0:0:0:0:
109,192,180027,1,0,0:0:0:0:
36,192,180027,1,0,0:0:0:0:
475,192,180027,1,0,0:0:0:0:
256,192,180027,1,0,0:0:0:0:
402,192,180027,1,0,0:0:0:0:
329,192,180115,1,0,0:0:0:0:
182,192,180115,1,0,0:0:0:0:
256,192,180203,128,0,180466:0:0:0:0:
36,192,180203,128,0,180466:0:0:0:0:
475,192,180203,128,0,180466:0:0:0:0:
109,192,180203,1,0,0:0:0:0:
402,192,180203,1,0,0:0:0:0:
329,192,180553,1,0,0:0:0:0:
475,192,180553,1,0,0:0:0:0:
109,192,180553,1,0,0:0:0:0:
36,192,180553,1,0,0:0:0:0:
402,192,180641,1,0,0:0:0:0:
182,192,180641,1,0,0:0:0:0:
36,192,180729,1,0,0:0:0:0:
109,192,180729,1,0,0:0:0:0:
256,192,180729,1,0,0:0:0:0:
475,192,180729,1,0,0:0:0:0:
329,192,180817,1,0,0:0:0:0:
182,192,180817,1,0,0:0:0:0:
36,192,180904,1,0,0:0:0:0:
109,192,180904,1,0,0:0:0:0:
475,192,180904,1,0,0:0:0:0:
256,192,180904,1,0,0:0:0:0:
402,192,180904,1,0,0:0:0:0:
329,192,181080,1,0,0:0:0:0:
475,192,181080,1,0,0:0:0:0:
36,192,181080,1,0,0:0:0:0:
182,192,181080,1,0,0:0:0:0:
109,192,181080,1,0,0:0:0:0:
402,192,181168,1,0,0:0:0:0:
256,192,181168,1,0,0:0:0:0:
109,192,181255,1,0,0:0:0:0:
36,192,181255,1,0,0:0:0:0:
182,192,181255,1,0,0:0:0:0:
329,192,181255,1,0,0:0:0:0:
475,192,181255,1,0,0:0:0:0:
329,192,181431,1,0,0:0:0:0:
475,192,181431,1,0,0:0:0:0:
256,192,181431,1,0,0:0:0:0:
36,192,181431,1,0,0:0:0:0:
109,192,181431,1,0,0:0:0:0:
402,192,181606,128,0,181782:0:0:0:0:
475,192,181606,128,0,181782:0:0:0:0:
256,192,181606,128,0,181782:0:0:0:0:
109,192,181606,128,0,181782:0:0:0:0:
182,192,181606,128,0,181782:0:0:0:0:
109,192,181869,128,0,182045:0:0:0:0:
36,192,181869,128,0,182045:0:0:0:0:
182,192,181869,128,0,182045:0:0:0:0:
329,192,181869,128,0,182045:0:0:0:0:
402,192,181869,128,0,182045:0:0:0:0:
475,192,181957,128,0,182045:0:0:0:0:
182,192,182132,1,0,0:0:0:0:
109,192,182132,1,0,0:0:0:0:
36,192,182132,1,0,0:0:0:0:
329,192,182132,1,0,0:0:0:0:
402,192,182132,1,0,0:0:0:0:
475,192,182132,1,0,0:0:0:0:
109,192,182308,1,0,0:0:0:0:
36,192,182308,1,0,0:0:0:0:
182,192,182308,1,0,0:0:0:0:
256,192,182308,1,0,0:0:0:0:
475,192,182308,1,0,0:0:0:0:
402,192,182308,1,0,0:0:0:0:
36,192,182659,1,0,0:0:0:0:
329,192,182659,1,0,0:0:0:0:
475,192,182659,1,0,0:0:0:0:
109,192,182659,1,0,0:0:0:0:
182,192,182659,1,0,0:0:0:0:
256,192,182659,1,0,0:0:0:0:
256,192,183010,128,0,183273:0:0:0:0:
475,192,183010,128,0,183273:0:0:0:0:
402,192,183010,128,0,183273:0:0:0:0:
329,192,183010,1,0,0:0:0:0:
36,192,183010,1,0,0:0:0:0:
182,192,183010,1,0,0:0:0:0:
109,192,183185,1,0,0:0:0:0:
36,192,183185,1,0,0:0:0:0:
329,192,183360,1,0,0:0:0:0:
475,192,183360,1,0,0:0:0:0:
36,192,183360,1,0,0:0:0:0:
182,192,183360,1,0,0:0:0:0:
109,192,183536,1,0,0:0:0:0:
36,192,183536,1,0,0:0:0:0:
475,192,183536,1,0,0:0:0:0:
256,192,183536,1,0,0:0:0:0:
402,192,183536,1,0,0:0:0:0:
475,192,183711,1,0,0:0:0:0:
36,192,183711,1,0,0:0:0:0:
329,192,183711,1,0,0:0:0:0:
109,192,183711,1,0,0:0:0:0:
182,192,183711,1,0,0:0:0:0:
402,192,183799,1,0,0:0:0:0:
182,192,183887,1,0,0:0:0:0:
36,192,183887,1,0,0:0:0:0:
329,192,183887,1,0,0:0:0:0:
475,192,183887,1,0,0:0:0:0:
475,192,184062,1,0,0:0:0:0:
36,192,184062,1,0,0:0:0:0:
402,192,184062,1,0,0:0:0:0:
109,192,184062,1,0,0:0:0:0:
256,192,184062,1,0,0:0:0:0:
402,192,184238,1,0,0:0:0:0:
475,192,184238,1,0,0:0:0:0:
329,192,184238,1,0,0:0:0:0:
109,192,184238,1,0,0:0:0:0:
182,192,184238,1,0,0:0:0:0:
109,192,184413,128,0,184676:0:0:0:0:
36,192,184413,128,0,184676:0:0:0:0:
256,192,184413,128,0,184676:0:0:0:0:
402,192,184413,1,0,0:0:0:0:
475,192,184413,1,0,0:0:0:0:
475,192,184764,1,0,0:0:0:0:
36,192,184764,1,0,0:0:0:0:
256,192,184764,1,0,0:0:0:0:
402,192,184764,1,0,0:0:0:0:
329,192,184852,1,0,0:0:0:0:
109,192,184852,1,0,0:0:0:0:
475,192,184939,1,0,0:0:0:0:
402,192,184939,1,0,0:0:0:0:
182,192,184939,1,0,0:0:0:0:
36,192,184939,1,0,0:0:0:0:
329,192,185027,1,0,0:0:0:0:
256,192,185027,1,0,0:0:0:0:
36,192,185115,1,0,0:0:0:0:
109,192,185115,1,0,0:0:0:0:
475,192,185115,1,0,0:0:0:0:
329,192,185203,1,0,0:0:0:0:
402,192,185203,1,0,0:0:0:0:
182,192,185203,1,0,0:0:0:0:
36,192,185290,1,0,0:0:0:0:
475,192,185290,1,0,0:0:0:0:
256,192,185290,1,0,0:0:0:0:
109,192,185290,1,0,0:0:0:0:
182,192,185378,1,0,0:0:0:0:
402,192,185378,1,0,0:0:0:0:
475,192,185466,1,0,0:0:0:0:
36,192,185466,1,0,0:0:0:0:
329,192,185466,1,0,0:0:0:0:
109,192,185553,1,0,0:0:0:0:
256,192,185553,1,0,0:0:0:0:
329,192,185641,1,0,0:0:0:0:
475,192,185641,1,0,0:0:0:0:
36,192,185641,1,0,0:0:0:0:
182,192,185641,1,0,0:0:0:0:
256,192,185729,1,0,0:0:0:0:
109,192,185729,1,0,0:0:0:0:
402,192,185729,1,0,0:0:0:0:
475,192,185817,128,0,186080:0:0:0:0:
329,192,185817,128,0,186080:0:0:0:0:
182,192,185817,128,0,186080:0:0:0:0:
36,192,185817,128,0,186080:0:0:0:0:
402,192,186168,1,0,0:0:0:0:
475,192,186168,1,0,0:0:0:0:
256,192,186168,1,0,0:0:0:0:
109,192,186168,1,0,0:0:0:0:
36,192,186168,1,0,0:0:0:0:
329,192,186255,1,0,0:0:0:0:
402,192,186343,1,0,0:0:0:0:
36,192,186343,1,0,0:0:0:0:
475,192,186343,1,0,0:0:0:0:
109,192,186343,1,0,0:0:0:0:
182,192,186343,1,0,0:0:0:0:
36,192,186518,1,0,0:0:0:0:
475,192,186518,128,0,186869:0:0:0:0:
329,192,186518,1,0,0:0:0:0:
182,192,186518,1,0,0:0:0:0:
256,192,186518,1,0,0:0:0:0:
329,192,186694,1,0,0:0:0:0:
402,192,186694,1,0,0:0:0:0:
109,192,186694,1,0,0:0:0:0:
256,192,186694,1,0,0:0:0:0:
36,192,186869,1,0,0:0:0:0:
329,192,186869,1,0,0:0:0:0:
402,192,186869,1,0,0:0:0:0:
182,192,186869,1,0,0:0:0:0:
109,192,186957,1,0,0:0:0:0:
256,192,186957,1,0,0:0:0:0:
36,192,187045,1,0,0:0:0:0:
475,192,187045,1,0,0:0:0:0:
329,192,187045,1,0,0:0:0:0:
182,192,187045,1,0,0:0:0:0:
109,192,187220,128,0,187483:0:0:0:0:
36,192,187220,128,0,187483:0:0:0:0:
475,192,187220,128,0,187483:0:0:0:0:
256,192,187220,128,0,187483:0:0:0:0:
402,192,187220,128,0,187483:0:0:0:0:
182,192,187571,1,0,0:0:0:0:
36,192,187571,1,0,0:0:0:0:
475,192,187571,1,0,0:0:0:0:
329,192,187571,1,0,0:0:0:0:
402,192,187571,1,0,0:0:0:0:
109,192,187659,1,0,0:0:0:0:
402,192,187746,1,0,0:0:0:0:
475,192,187746,1,0,0:0:0:0:
329,192,187746,1,0,0:0:0:0:
182,192,187746,1,0,0:0:0:0:
36,192,187746,1,0,0:0:0:0:
475,192,187922,1,0,0:0:0:0:
36,192,187922,128,0,188273:0:0:0:0:
402,192,187922,1,0,0:0:0:0:
256,192,187922,1,0,0:0:0:0:
182,192,187922,1,0,0:0:0:0:
475,192,188097,1,0,0:0:0:0:
109,192,188097,1,0,0:0:0:0:
329,192,188097,1,0,0:0:0:0:
256,192,188097,1,0,0:0:0:0:
329,192,188273,1,0,0:0:0:0:
475,192,188273,1,0,0:0:0:0:
182,192,188273,1,0,0:0:0:0:
109,192,188273,1,0,0:0:0:0:
402,192,188360,1,0,0:0:0:0:
256,192,188360,1,0,0:0:0:0:
182,192,188448,1,0,0:0:0:0:
36,192,188448,1,0,0:0:0:0:
329,192,188448,1,0,0:0:0:0:
475,192,188448,1,0,0:0:0:0:
182,192,188624,128,0,188887:0:0:0:0:
109,192,188624,128,0,188887:0:0:0:0:
36,192,188624,128,0,188887:0:0:0:0:
329,192,188624,128,0,188887:0:0:0:0:
402,192,188624,128,0,188887:0:0:0:0:
475,192,188624,128,0,188887:0:0:0:0:
36,192,188975,1,0,0:0:0:0:
402,192,188975,1,0,0:0:0:0:
475,192,188975,1,0,0:0:0:0:
109,192,188975,1,0,0:0:0:0:
256,192,188975,1,0,0:0:0:0:
329,192,189062,1,0,0:0:0:0:
182,192,189062,1,0,0:0:0:0:
402,192,189150,1,0,0:0:0:0:
36,192,189150,1,0,0:0:0:0:
256,192,189150,1,0,0:0:0:0:
475,192,189150,1,0,0:0:0:0:
329,192,189238,1,0,0:0:0:0:
109,192,189238,1,0,0:0:0:0:
36,192,189325,1,0,0:0:0:0:
475,192,189325,1,0,0:0:0:0:
256,192,189325,1,0,0:0:0:0:
402,192,189325,1,0,0:0:0:0:
329,192,189413,1,0,0:0:0:0:
182,192,189413,1,0,0:0:0:0:
475,192,189501,1,0,0:0:0:0:
402,192,189501,1,0,0:0:0:0:
256,192,189501,1,0,0:0:0:0:
36,192,189501,1,0,0:0:0:0:
182,192,189589,1,0,0:0:0:0:
109,192,189589,1,0,0:0:0:0:
402,192,189676,1,0,0:0:0:0:
475,192,189676,1,0,0:0:0:0:
36,192,189676,1,0,0:0:0:0:
329,192,189676,1,0,0:0:0:0:
182,192,189764,1,0,0:0:0:0:
256,192,189764,1,0,0:0:0:0:
329,192,189852,1,0,0:0:0:0:
475,192,189852,1,0,0:0:0:0:
109,192,189852,1,0,0:0:0:0:
36,192,189852,1,0,0:0:0:0:
256,192,189939,1,0,0:0:0:0:
402,192,189939,1,0,0:0:0:0:
475,192,190027,128,0,191606:0:0:0:0:
182,192,190027,128,0,191606:0:0:0:0:
329,192,190027,128,0,191606:0:0:0:0:
109,192,190027,1,0,0:0:0:0:
36,192,190027,1,0,0:0:0:0:
402,192,191606,1,0,0:0:0:0:
109,192,191606,1,0,0:0:0:0:
36,192,191606,1,0,0:0:0:0:
256,192,191606,1,0,0:0:0:0:
36,192,191956,1,0,0:0:0:0:
475,192,191956,1,0,0:0:0:0:
182,192,192073,1,0,0:0:0:0:
329,192,192073,1,0,0:0:0:0:
36,192,192190,1,0,0:0:0:0:
475,192,192190,1,0,0:0:0:0:
329,192,192307,1,0,0:0:0:0:
475,192,192307,1,0,0:0:0:0:
182,192,192307,1,0,0:0:0:0:
36,192,192307,1,0,0:0:0:0:
109,192,192658,1,0,0:0:0:0:
256,192,192658,1,0,0:0:0:0:
36,192,192892,1,0,0:0:0:0:
475,192,192892,1,0,0:0:0:0:
329,192,192892,1,0,0:0:0:0:
109,192,193009,1,0,0:0:0:0:
256,192,193009,1,0,0:0:0:0:
36,192,193243,1,0,0:0:0:0:
329,192,193243,1,0,0:0:0:0:
475,192,193243,1,0,0:0:0:0:
109,192,193360,1,0,0:0:0:0:
256,192,193360,1,0,0:0:0:0:
256,192,193477,1,0,0:0:0:0:
109,192,193477,1,0,0:0:0:0:
329,192,193594,1,0,0:0:0:0:
475,192,193594,1,0,0:0:0:0:
36,192,193711,1,0,0:0:0:0:
475,192,193711,1,0,0:0:0:0:
329,192,193711,1,0,0:0:0:0:
182,192,193711,1,0,0:0:0:0:
402,192,194062,1,0,0:0:0:0:
256,192,194062,1,0,0:0:0:0:
402,192,194296,1,0,0:0:0:0:
256,192,194296,1,0,0:0:0:0:
182,192,194413,1,0,0:0:0:0:
475,192,194413,1,0,0:0:0:0:
36,192,194413,1,0,0:0:0:0:
329,192,194413,1,0,0:0:0:0:
402,192,194763,1,0,0:0:0:0:
109,192,194763,1,0,0:0:0:0:
329,192,194880,1,0,0:0:0:0:
182,192,194880,1,0,0:0:0:0:
402,192,194997,1,0,0:0:0:0:
109,192,194997,1,0,0:0:0:0:
475,192,195114,1,0,0:0:0:0:
36,192,195114,1,0,0:0:0:0:
109,192,195114,1,0,0:0:0:0:
402,192,195114,1,0,0:0:0:0:
256,192,195114,1,0,0:0:0:0:
475,192,195465,1,0,0:0:0:0:
182,192,195465,1,0,0:0:0:0:
402,192,195699,1,0,0:0:0:0:
256,192,195699,1,0,0:0:0:0:
109,192,195699,1,0,0:0:0:0:
475,192,195816,1,0,0:0:0:0:
182,192,195816,1,0,0:0:0:0:
402,192,196050,1,0,0:0:0:0:
256,192,196050,1,0,0:0:0:0:
109,192,196050,1,0,0:0:0:0:
182,192,196167,1,0,0:0:0:0:
475,192,196167,1,0,0:0:0:0:
475,192,196284,1,0,0:0:0:0:
182,192,196284,1,0,0:0:0:0:
402,192,196401,1,0,0:0:0:0:
256,192,196401,1,0,0:0:0:0:
402,192,196518,1,0,0:0:0:0:
36,192,196518,1,0,0:0:0:0:
256,192,196518,1,0,0:0:0:0:
109,192,196518,1,0,0:0:0:0:
475,192,196752,1,0,0:0:0:0:
182,192,196752,1,0,0:0:0:0:
402,192,196869,1,0,0:0:0:0:
256,192,196869,1,0,0:0:0:0:
182,192,197103,1,0,0:0:0:0:
475,192,197103,1,0,0:0:0:0:
109,192,197220,1,0,0:0:0:0:
36,192,197220,1,0,0:0:0:0:
256,192,197220,1,0,0:0:0:0:
402,192,197220,1,0,0:0:0:0:
256,192,197570,1,0,0:0:0:0:
109,192,197570,1,0,0:0:0:0:
402,192,197687,1,0,0:0:0:0:
182,192,197687,1,0,0:0:0:0:
329,192,197804,1,0,0:0:0:0:
36,192,197804,1,0,0:0:0:0:
475,192,197921,1,0,0:0:0:0:
36,192,197921,1,0,0:0:0:0:
182,192,197921,1,0,0:0:0:0:
329,192,197921,1,0,0:0:0:0:
256,192,198272,1,0,0:0:0:0:
36,192,198272,1,0,0:0:0:0:
182,192,198506,1,0,0:0:0:0:
329,192,198506,1,0,0:0:0:0:
475,192,198506,1,0,0:0:0:0:
36,192,198623,1,0,0:0:0:0:
256,192,198623,1,0,0:0:0:0:
329,192,198857,1,0,0:0:0:0:
475,192,198857,1,0,0:0:0:0:
182,192,198857,1,0,0:0:0:0:
256,192,198974,1,0,0:0:0:0:
36,192,198974,1,0,0:0:0:0:
256,192,199091,1,0,0:0:0:0:
36,192,199091,1,0,0:0:0:0:
329,192,199208,1,0,0:0:0:0:
475,192,199208,1,0,0:0:0:0:
182,192,199325,1,0,0:0:0:0:
36,192,199325,1,0,0:0:0:0:
475,192,199325,1,0,0:0:0:0:
329,192,199325,1,0,0:0:0:0:
36,192,199676,1,0,0:0:0:0:
182,192,199676,1,0,0:0:0:0:
182,192,199910,1,0,0:0:0:0:
36,192,199910,1,0,0:0:0:0:
402,192,200027,1,0,0:0:0:0:
329,192,200027,1,0,0:0:0:0:
475,192,200027,1,0,0:0:0:0:
402,192,200144,1,0,0:0:0:0:
329,192,200144,1,0,0:0:0:0:
475,192,200144,1,0,0:0:0:0:
475,192,200260,1,0,0:0:0:0:
402,192,200260,1,0,0:0:0:0:
329,192,200260,1,0,0:0:0:0:
36,192,200377,1,0,0:0:0:0:
109,192,200377,1,0,0:0:0:0:
182,192,200377,1,0,0:0:0:0:
182,192,200494,1,0,0:0:0:0:
109,192,200494,1,0,0:0:0:0:
36,192,200494,1,0,0:0:0:0:
182,192,200611,1,0,0:0:0:0:
109,192,200611,1,0,0:0:0:0:
36,192,200611,1,0,0:0:0:0:
329,192,200728,1,0,0:0:0:0:
256,192,200728,1,0,0:0:0:0:
475,192,200728,1,0,0:0:0:0:
402,192,200728,1,0,0:0:0:0:
36,192,200816,1,0,0:0:0:0:
109,192,200816,1,0,0:0:0:0:
182,192,200816,1,0,0:0:0:0:
475,192,200904,1,0,0:0:0:0:
402,192,200904,1,0,0:0:0:0:
329,192,200904,1,0,0:0:0:0:
36,192,200991,1,0,0:0:0:0:
109,192,200991,1,0,0:0:0:0:
182,192,200991,1,0,0:0:0:0:
402,192,201079,1,0,0:0:0:0:
475,192,201079,1,0,0:0:0:0:
256,192,201079,1,0,0:0:0:0:
329,192,201079,1,0,0:0:0:0:
329,192,201255,1,0,0:0:0:0:
402,192,201255,1,0,0:0:0:0:
475,192,201255,1,0,0:0:0:0:
182,192,201255,1,0,0:0:0:0:
109,192,201255,1,0,0:0:0:0:
36,192,201255,1,0,0:0:0:0:
182,192,201430,128,0,201547:0:0:0:0:
256,192,201489,128,0,201606:0:0:0:0:
329,192,201547,128,0,201664:0:0:0:0:
402,192,201606,128,0,201722:0:0:0:0:
109,192,201664,128,0,201781:0:0:0:0:
475,192,201664,128,0,201781:0:0:0:0:
182,192,201722,128,0,201839:0:0:0:0:
256,192,201781,128,0,201898:0:0:0:0:
329,192,201839,128,0,201956:0:0:0:0:
36,192,201898,128,0,202015:0:0:0:0:
402,192,201898,128,0,202015:0:0:0:0:
109,192,201956,128,0,202073:0:0:0:0:
182,192,202015,128,0,202132:0:0:0:0:
256,192,202073,128,0,202190:0:0:0:0:
329,192,202132,128,0,202249:0:0:0:0:
402,192,202190,128,0,202307:0:0:0:0:
182,192,202249,128,0,202366:0:0:0:0:
475,192,202249,128,0,202366:0:0:0:0:
109,192,202307,128,0,202424:0:0:0:0:
329,192,202366,128,0,202483:0:0:0:0:
36,192,202366,128,0,202483:0:0:0:0:
256,192,202424,128,0,202541:0:0:0:0:
475,192,202483,128,0,202600:0:0:0:0:
182,192,202483,128,0,202600:0:0:0:0:
402,192,202541,128,0,202658:0:0:0:0:
109,192,202541,128,0,202658:0:0:0:0:
329,192,202600,128,0,202717:0:0:0:0:
256,192,202658,128,0,202775:0:0:0:0:
36,192,202717,128,0,202834:0:0:0:0:
475,192,202717,128,0,202834:0:0:0:0:
182,192,202717,128,0,202834:0:0:0:0:
402,192,202775,128,0,202892:0:0:0:0:
329,192,202834,128,0,202951:0:0:0:0:
109,192,202892,128,0,203009:0:0:0:0:
256,192,202892,128,0,203009:0:0:0:0:
475,192,202951,128,0,203067:0:0:0:0:
36,192,202951,128,0,203067:0:0:0:0:
402,192,203009,128,0,203126:0:0:0:0:
329,192,203067,128,0,203184:0:0:0:0:
182,192,203067,128,0,203184:0:0:0:0:
109,192,203126,128,0,203243:0:0:0:0:
475,192,203184,128,0,203360:0:0:0:0:
36,192,203184,128,0,203301:0:0:0:0:
256,192,203243,128,0,203360:0:0:0:0:
402,192,203243,128,0,203360:0:0:0:0:
109,192,203360,1,0,0:0:0:0:
36,192,203360,1,0,0:0:0:0:
329,192,203360,1,0,0:0:0:0:
182,192,203360,1,0,0:0:0:0:
402,192,203710,1,0,0:0:0:0:
475,192,203710,1,0,0:0:0:0:
36,192,203710,1,0,0:0:0:0:
109,192,203710,1,0,0:0:0:0:
256,192,203710,1,0,0:0:0:0:
182,192,204061,128,0,204324:0:0:0:0:
109,192,204061,128,0,204324:0:0:0:0:
36,192,204061,128,0,204324:0:0:0:0:
329,192,204061,128,0,204324:0:0:0:0:
402,192,204061,128,0,204324:0:0:0:0:
475,192,204061,128,0,204324:0:0:0:0:
402,192,204411,1,0,0:0:0:0:
256,192,204411,1,0,0:0:0:0:
36,192,204411,1,0,0:0:0:0:
475,192,204411,1,0,0:0:0:0:
109,192,204499,1,0,0:0:0:0:
329,192,204499,1,0,0:0:0:0:
36,192,204587,1,0,0:0:0:0:
182,192,204587,1,0,0:0:0:0:
402,192,204587,1,0,0:0:0:0:
475,192,204587,1,0,0:0:0:0:
109,192,204675,1,0,0:0:0:0:
329,192,204675,1,0,0:0:0:0:
36,192,204762,1,0,0:0:0:0:
256,192,204762,1,0,0:0:0:0:
475,192,204762,1,0,0:0:0:0:
402,192,204850,1,0,0:0:0:0:
182,192,204850,1,0,0:0:0:0:
36,192,204938,1,0,0:0:0:0:
109,192,204938,1,0,0:0:0:0:
256,192,204938,1,0,0:0:0:0:
475,192,204938,1,0,0:0:0:0:
402,192,204996,1,0,0:0:0:0:
182,192,205025,1,0,0:0:0:0:
329,192,205055,1,0,0:0:0:0:
256,192,205113,1,0,0:0:0:0:
109,192,205113,1,0,0:0:0:0:
475,192,205113,1,0,0:0:0:0:
36,192,205113,1,0,0:0:0:0:
402,192,205289,1,0,0:0:0:0:
256,192,205289,1,0,0:0:0:0:
36,192,205289,1,0,0:0:0:0:
109,192,205347,1,0,0:0:0:0:
329,192,205376,1,0,0:0:0:0:
182,192,205406,1,0,0:0:0:0:
475,192,205464,128,0,205727:0:0:0:0:
36,192,205464,128,0,205727:0:0:0:0:
402,192,205464,1,0,0:0:0:0:
256,192,205464,1,0,0:0:0:0:
182,192,205639,1,0,0:0:0:0:
329,192,205639,1,0,0:0:0:0:
256,192,205815,1,0,0:0:0:0:
36,192,205815,1,0,0:0:0:0:
402,192,205815,1,0,0:0:0:0:
109,192,205815,1,0,0:0:0:0:
182,192,205903,1,0,0:0:0:0:
475,192,205903,1,0,0:0:0:0:
36,192,205990,1,0,0:0:0:0:
402,192,205990,1,0,0:0:0:0:
256,192,205990,1,0,0:0:0:0:
475,192,206078,1,0,0:0:0:0:
329,192,206078,1,0,0:0:0:0:
109,192,206078,1,0,0:0:0:0:
402,192,206166,1,0,0:0:0:0:
36,192,206166,1,0,0:0:0:0:
182,192,206166,1,0,0:0:0:0:
256,192,206253,1,0,0:0:0:0:
109,192,206253,1,0,0:0:0:0:
36,192,206341,1,0,0:0:0:0:
475,192,206341,1,0,0:0:0:0:
182,192,206341,1,0,0:0:0:0:
329,192,206341,1,0,0:0:0:0:
402,192,206429,1,0,0:0:0:0:
256,192,206429,1,0,0:0:0:0:
329,192,206517,1,0,0:0:0:0:
36,192,206517,1,0,0:0:0:0:
109,192,206517,1,0,0:0:0:0:
402,192,206604,1,0,0:0:0:0:
182,192,206604,1,0,0:0:0:0:
36,192,206692,1,0,0:0:0:0:
109,192,206692,1,0,0:0:0:0:
475,192,206692,1,0,0:0:0:0:
256,192,206692,1,0,0:0:0:0:
329,192,206780,1,0,0:0:0:0:
182,192,206780,1,0,0:0:0:0:
475,192,206868,1,0,0:0:0:0:
402,192,206868,1,0,0:0:0:0:
256,192,206868,1,0,0:0:0:0:
36,192,206868,1,0,0:0:0:0:
182,192,206955,1,0,0:0:0:0:
109,192,206955,1,0,0:0:0:0:
329,192,207043,1,0,0:0:0:0:
402,192,207043,1,0,0:0:0:0:
475,192,207043,128,0,207394:0:0:0:0:
36,192,207043,1,0,0:0:0:0:
256,192,207043,128,0,207394:0:0:0:0:
109,192,207218,1,0,0:0:0:0:
36,192,207218,1,0,0:0:0:0:
182,192,207218,1,0,0:0:0:0:
182,192,207394,1,0,0:0:0:0:
36,192,207394,128,0,207745:0:0:0:0:
329,192,207394,1,0,0:0:0:0:
402,192,207394,1,0,0:0:0:0:
256,192,207569,128,0,207745:0:0:0:0:
109,192,207657,1,0,0:0:0:0:
475,192,207657,1,0,0:0:0:0:
402,192,207657,1,0,0:0:0:0:
329,192,207745,1,0,0:0:0:0:
182,192,207745,1,0,0:0:0:0:
109,192,207920,1,0,0:0:0:0:
475,192,207920,128,0,208271:0:0:0:0:
329,192,207920,128,0,208271:0:0:0:0:
402,192,207920,1,0,0:0:0:0:
256,192,207920,1,0,0:0:0:0:
36,192,207920,1,0,0:0:0:0:
36,192,208096,1,0,0:0:0:0:
109,192,208096,1,0,0:0:0:0:
182,192,208096,1,0,0:0:0:0:
256,192,208271,128,0,208534:0:0:0:0:
402,192,208271,1,0,0:0:0:0:
36,192,208271,128,0,208797:0:0:0:0:
109,192,208271,128,0,208534:0:0:0:0:
256,192,208622,1,0,0:0:0:0:
402,192,208622,1,0,0:0:0:0:
109,192,208622,1,0,0:0:0:0:
475,192,208622,1,0,0:0:0:0:
475,192,208797,1,0,0:0:0:0:
402,192,208797,1,0,0:0:0:0:
182,192,208797,1,0,0:0:0:0:
329,192,208797,1,0,0:0:0:0:
475,192,208973,128,0,209324:0:0:0:0:
256,192,208973,1,0,0:0:0:0:
36,192,208973,1,0,0:0:0:0:
402,192,208973,1,0,0:0:0:0:
109,192,208973,1,0,0:0:0:0:
256,192,209148,1,0,0:0:0:0:
36,192,209148,1,0,0:0:0:0:
109,192,209148,1,0,0:0:0:0:
329,192,209236,1,0,0:0:0:0:
182,192,209236,1,0,0:0:0:0:
256,192,209324,128,0,209499:0:0:0:0:
109,192,209324,1,0,0:0:0:0:
402,192,209324,1,0,0:0:0:0:
36,192,209324,1,0,0:0:0:0:
475,192,209499,1,0,0:0:0:0:
109,192,209499,128,0,209675:0:0:0:0:
182,192,209499,1,0,0:0:0:0:
329,192,209499,1,0,0:0:0:0:
256,192,209675,1,0,0:0:0:0:
36,192,209675,1,0,0:0:0:0:
402,192,209675,1,0,0:0:0:0:
475,192,209675,1,0,0:0:0:0:
109,192,209762,1,0,0:0:0:0:
329,192,209762,1,0,0:0:0:0:
182,192,209762,1,0,0:0:0:0:
475,192,209850,1,0,0:0:0:0:
36,192,209850,1,0,0:0:0:0:
256,192,209850,1,0,0:0:0:0:
402,192,209850,1,0,0:0:0:0:
475,192,210025,128,0,210201:0:0:0:0:
109,192,210025,1,0,0:0:0:0:
36,192,210025,1,0,0:0:0:0:
329,192,210025,1,0,0:0:0:0:
182,192,210025,1,0,0:0:0:0:
329,192,210201,1,0,0:0:0:0:
36,192,210201,1,0,0:0:0:0:
182,192,210201,1,0,0:0:0:0:
109,192,210289,1,0,0:0:0:0:
402,192,210289,1,0,0:0:0:0:
36,192,210376,1,0,0:0:0:0:
475,192,210376,1,0,0:0:0:0:
256,192,210376,1,0,0:0:0:0:
109,192,210464,1,0,0:0:0:0:
329,192,210464,1,0,0:0:0:0:
182,192,210464,1,0,0:0:0:0:
256,192,210552,128,0,210727:0:0:0:0:
36,192,210552,128,0,210727:0:0:0:0:
402,192,210552,1,0,0:0:0:0:
475,192,210552,1,0,0:0:0:0:
109,192,210727,1,0,0:0:0:0:
329,192,210727,1,0,0:0:0:0:
182,192,210786,1,0,0:0:0:0:
402,192,210815,1,0,0:0:0:0:
256,192,210844,1,0,0:0:0:0:
329,192,210903,1,0,0:0:0:0:
36,192,210903,1,0,0:0:0:0:
109,192,210903,1,0,0:0:0:0:
475,192,210903,1,0,0:0:0:0:
256,192,211078,128,0,211253:0:0:0:0:
402,192,211078,128,0,211253:0:0:0:0:
36,192,211078,1,0,0:0:0:0:
109,192,211078,1,0,0:0:0:0:
475,192,211078,1,0,0:0:0:0:
109,192,211253,1,0,0:0:0:0:
329,192,211253,1,0,0:0:0:0:
36,192,211253,1,0,0:0:0:0:
475,192,211341,1,0,0:0:0:0:
182,192,211341,1,0,0:0:0:0:
36,192,211429,1,0,0:0:0:0:
256,192,211429,1,0,0:0:0:0:
402,192,211429,1,0,0:0:0:0:
182,192,211517,1,0,0:0:0:0:
329,192,211517,1,0,0:0:0:0:
475,192,211604,128,0,211780:0:0:0:0:
36,192,211604,1,0,0:0:0:0:
402,192,211604,128,0,211780:0:0:0:0:
256,192,211604,1,0,0:0:0:0:
109,192,211604,1,0,0:0:0:0:
36,192,211780,1,0,0:0:0:0:
329,192,211780,1,0,0:0:0:0:
182,192,211780,1,0,0:0:0:0:
109,192,211780,1,0,0:0:0:0:
402,192,211868,1,0,0:0:0:0:
475,192,211868,1,0,0:0:0:0:
256,192,211868,1,0,0:0:0:0:
329,192,211955,1,0,0:0:0:0:
36,192,211955,1,0,0:0:0:0:
109,192,211955,1,0,0:0:0:0:
475,192,212043,1,0,0:0:0:0:
402,192,212043,1,0,0:0:0:0:
182,192,212043,1,0,0:0:0:0:
36,192,212131,1,0,0:0:0:0:
109,192,212131,1,0,0:0:0:0:
256,192,212131,1,0,0:0:0:0:
475,192,212218,1,0,0:0:0:0:
329,192,212218,1,0,0:0:0:0:
182,192,212218,1,0,0:0:0:0:
402,192,212306,1,0,0:0:0:0:
109,192,212306,1,0,0:0:0:0:
256,192,212306,1,0,0:0:0:0:
182,192,212394,1,0,0:0:0:0:
329,192,212394,1,0,0:0:0:0:
36,192,212394,1,0,0:0:0:0:
256,192,212482,1,0,0:0:0:0:
475,192,212482,1,0,0:0:0:0:
402,192,212482,1,0,0:0:0:0:
329,192,212569,1,0,0:0:0:0:
36,192,212569,1,0,0:0:0:0:
182,192,212569,1,0,0:0:0:0:
256,192,212657,128,0,212832:0:0:0:0:
475,192,212657,1,0,0:0:0:0:
109,192,212657,128,0,212832:0:0:0:0:
402,192,212657,128,0,212832:0:0:0:0:
36,192,212832,1,0,0:0:0:0:
182,192,212832,1,0,0:0:0:0:
329,192,212832,1,0,0:0:0:0:
402,192,212920,1,0,0:0:0:0:
256,192,212920,1,0,0:0:0:0:
109,192,212920,1,0,0:0:0:0:
182,192,213008,128,0,213183:0:0:0:0:
329,192,213008,128,0,213183:0:0:0:0:
475,192,213008,128,0,213183:0:0:0:0:
256,192,213183,1,0,0:0:0:0:
36,192,213183,1,0,0:0:0:0:
109,192,213183,1,0,0:0:0:0:
402,192,213183,1,0,0:0:0:0:
402,192,213534,1,0,0:0:0:0:
475,192,213534,1,0,0:0:0:0:
256,192,213534,1,0,0:0:0:0:
329,192,213534,1,0,0:0:0:0:
109,192,213534,1,0,0:0:0:0:
36,192,213534,1,0,0:0:0:0:
329,192,213885,128,0,214148:0:0:0:0:
475,192,213885,128,0,214148:0:0:0:0:
402,192,213885,128,0,214148:0:0:0:0:
182,192,213885,128,0,214148:0:0:0:0:
109,192,213885,128,0,214148:0:0:0:0:
36,192,213885,128,0,214148:0:0:0:0:
329,192,214236,1,0,0:0:0:0:
182,192,214236,1,0,0:0:0:0:
475,192,214324,1,0,0:0:0:0:
109,192,214324,1,0,0:0:0:0:
329,192,214411,1,0,0:0:0:0:
36,192,214411,1,0,0:0:0:0:
182,192,214499,1,0,0:0:0:0:
475,192,214499,1,0,0:0:0:0:
36,192,214587,128,0,214675:0:0:0:0:
109,192,214587,128,0,214675:0:0:0:0:
329,192,214587,128,0,214675:0:0:0:0:
256,192,214587,128,0,214675:0:0:0:0:
402,192,214587,128,0,214675:0:0:0:0:
402,192,214762,128,0,214850:0:0:0:0:
475,192,214762,128,0,214850:0:0:0:0:
36,192,214762,128,0,214850:0:0:0:0:
256,192,214762,128,0,214850:0:0:0:0:
182,192,214762,128,0,214850:0:0:0:0:
109,192,214938,128,0,215025:0:0:0:0:
36,192,214938,128,0,215025:0:0:0:0:
256,192,214938,128,0,215025:0:0:0:0:
475,192,214938,128,0,215025:0:0:0:0:
329,192,214938,128,0,215025:0:0:0:0:
36,192,215113,128,0,215201:0:0:0:0:
475,192,215113,128,0,215201:0:0:0:0:
329,192,215113,128,0,215201:0:0:0:0:
402,192,215113,128,0,215201:0:0:0:0:
182,192,215113,128,0,215201:0:0:0:0:
182,192,215289,128,0,215552:0:0:0:0:
109,192,215289,128,0,215552:0:0:0:0:
36,192,215289,128,0,215552:0:0:0:0:
256,192,215289,128,0,215552:0:0:0:0:
402,192,215289,128,0,215552:0:0:0:0:
475,192,215289,128,0,215552:0:0:0:0:
329,192,215639,1,0,0:0:0:0:
182,192,215639,128,0,215815:0:0:0:0:
402,192,215639,1,0,0:0:0:0:
36,192,215639,1,0,0:0:0:0:
475,192,215639,1,0,0:0:0:0:
109,192,215815,1,0,0:0:0:0:
475,192,215815,128,0,215990:0:0:0:0:
36,192,215815,1,0,0:0:0:0:
256,192,215815,1,0,0:0:0:0:
402,192,215815,1,0,0:0:0:0:
36,192,215990,1,0,0:0:0:0:
256,192,215990,1,0,0:0:0:0:
329,192,215990,128,0,216166:0:0:0:0:
402,192,215990,1,0,0:0:0:0:
109,192,215990,1,0,0:0:0:0:
402,192,216166,1,0,0:0:0:0:
182,192,216166,128,0,216341:0:0:0:0:
109,192,216166,1,0,0:0:0:0:
36,192,216166,1,0,0:0:0:0:
256,192,216341,1,0,0:0:0:0:
475,192,216341,128,0,216517:0:0:0:0:
36,192,216341,1,0,0:0:0:0:
329,192,216341,1,0,0:0:0:0:
109,192,216517,1,0,0:0:0:0:
402,192,216517,128,0,216692:0:0:0:0:
182,192,216517,1,0,0:0:0:0:
36,192,216517,1,0,0:0:0:0:
256,192,216692,128,0,217218:0:0:0:0:
475,192,216692,1,0,0:0:0:0:
36,192,216692,1,0,0:0:0:0:
329,192,216692,1,0,0:0:0:0:
182,192,216692,1,0,0:0:0:0:
402,192,216868,1,0,0:0:0:0:
475,192,216868,1,0,0:0:0:0:
109,192,216868,1,0,0:0:0:0:
182,192,217043,1,0,0:0:0:0:
402,192,217043,1,0,0:0:0:0:
329,192,217043,1,0,0:0:0:0:
36,192,217043,1,0,0:0:0:0:
402,192,217218,1,0,0:0:0:0:
475,192,217218,1,0,0:0:0:0:
109,192,217218,1,0,0:0:0:0:
329,192,217394,1,0,0:0:0:0:
402,192,217394,1,0,0:0:0:0:
109,192,217394,1,0,0:0:0:0:
36,192,217394,128,0,217569:0:0:0:0:
182,192,217394,1,0,0:0:0:0:
475,192,217569,1,0,0:0:0:0:
402,192,217569,1,0,0:0:0:0:
256,192,217569,128,0,217745:0:0:0:0:
109,192,217569,1,0,0:0:0:0:
329,192,217745,1,0,0:0:0:0:
402,192,217745,1,0,0:0:0:0:
182,192,217745,128,0,217920:0:0:0:0:
36,192,217745,1,0,0:0:0:0:
109,192,217920,1,0,0:0:0:0:
475,192,217920,1,0,0:0:0:0:
402,192,217920,128,0,218096:0:0:0:0:
329,192,217920,1,0,0:0:0:0:
182,192,218096,1,0,0:0:0:0:
329,192,218096,1,0,0:0:0:0:
256,192,218096,1,0,0:0:0:0:
36,192,218096,128,0,218446:0:0:0:0:
475,192,218271,1,0,0:0:0:0:
402,192,218271,1,0,0:0:0:0:
109,192,218271,1,0,0:0:0:0:
256,192,218271,1,0,0:0:0:0:
109,192,218446,1,0,0:0:0:0:
182,192,218446,1,0,0:0:0:0:
329,192,218446,128,0,218622:0:0:0:0:
402,192,218446,1,0,0:0:0:0:
256,192,218622,1,0,0:0:0:0:
36,192,218622,1,0,0:0:0:0:
475,192,218622,128,0,218797:0:0:0:0:
182,192,218622,1,0,0:0:0:0:
402,192,218797,1,0,0:0:0:0:
329,192,218797,1,0,0:0:0:0:
109,192,218797,128,0,218973:0:0:0:0:
182,192,218797,1,0,0:0:0:0:
36,192,218973,1,0,0:0:0:0:
475,192,218973,1,0,0:0:0:0:
182,192,218973,1,0,0:0:0:0:
256,192,218973,128,0,219148:0:0:0:0:
329,192,218973,1,0,0:0:0:0:
329,192,219148,1,0,0:0:0:0:
36,192,219148,1,0,0:0:0:0:
402,192,219148,128,0,219324:0:0:0:0:
109,192,219148,1,0,0:0:0:0:
256,192,219324,1,0,0:0:0:0:
475,192,219324,1,0,0:0:0:0:
36,192,219324,128,0,219499:0:0:0:0:
182,192,219324,1,0,0:0:0:0:
475,192,219499,1,0,0:0:0:0:
182,192,219499,1,0,0:0:0:0:
329,192,219499,128,0,220025:0:0:0:0:
109,192,219499,1,0,0:0:0:0:
109,192,219675,1,0,0:0:0:0:
36,192,219675,1,0,0:0:0:0:
256,192,219675,1,0,0:0:0:0:
402,192,219675,1,0,0:0:0:0:
182,192,219850,1,0,0:0:0:0:
475,192,219850,1,0,0:0:0:0:
109,192,219850,1,0,0:0:0:0:
402,192,220025,1,0,0:0:0:0:
109,192,220025,1,0,0:0:0:0:
475,192,220025,1,0,0:0:0:0:
256,192,220025,1,0,0:0:0:0:
36,192,220025,1,0,0:0:0:0:
109,192,220201,1,0,0:0:0:0:
329,192,220201,1,0,0:0:0:0:
182,192,220201,128,0,220376:0:0:0:0:
475,192,220201,1,0,0:0:0:0:
109,192,220376,1,0,0:0:0:0:
402,192,220376,1,0,0:0:0:0:
36,192,220376,128,0,220552:0:0:0:0:
256,192,220376,1,0,0:0:0:0:
182,192,220552,1,0,0:0:0:0:
402,192,220552,1,0,0:0:0:0:
329,192,220552,128,0,220727:0:0:0:0:
475,192,220552,1,0,0:0:0:0:
109,192,220639,1,0,0:0:0:0:
36,192,220639,1,0,0:0:0:0:
475,192,220727,1,0,0:0:0:0:
182,192,220727,1,0,0:0:0:0:
256,192,220727,128,0,220903:0:0:0:0:
402,192,220815,1,0,0:0:0:0:
329,192,220815,1,0,0:0:0:0:
109,192,220903,1,0,0:0:0:0:
475,192,220903,128,0,221253:0:0:0:0:
36,192,220903,128,0,221429:0:0:0:0:
182,192,220903,1,0,0:0:0:0:
329,192,221253,1,0,0:0:0:0:
402,192,221253,1,0,0:0:0:0:
109,192,221253,128,0,221429:0:0:0:0:
182,192,221341,128,0,221517:0:0:0:0:
402,192,221429,1,0,0:0:0:0:
475,192,221429,1,0,0:0:0:0:
256,192,221429,128,0,221955:0:0:0:0:
329,192,221429,1,0,0:0:0:0:
109,192,221604,1,0,0:0:0:0:
36,192,221604,1,0,0:0:0:0:
475,192,221604,1,0,0:0:0:0:
329,192,221604,1,0,0:0:0:0:
329,192,221780,1,0,0:0:0:0:
182,192,221780,1,0,0:0:0:0:
109,192,221780,1,0,0:0:0:0:
402,192,221780,1,0,0:0:0:0:
475,192,221780,1,0,0:0:0:0:
36,192,221955,1,0,0:0:0:0:
109,192,221955,1,0,0:0:0:0:
475,192,221955,128,0,222072:0:0:0:0:
329,192,222014,128,0,222131:0:0:0:0:
182,192,222043,1,0,0:0:0:0:
402,192,222072,128,0,222189:0:0:0:0:
256,192,222131,128,0,222248:0:0:0:0:
36,192,222131,1,0,0:0:0:0:
109,192,222131,1,0,0:0:0:0:
329,192,222306,1,0,0:0:0:0:
475,192,222306,1,0,0:0:0:0:
109,192,222306,1,0,0:0:0:0:
36,192,222306,128,0,222482:0:0:0:0:
182,192,222306,1,0,0:0:0:0:
256,192,222482,1,0,0:0:0:0:
402,192,222482,1,0,0:0:0:0:
329,192,222569,1,0,0:0:0:0:
182,192,222569,1,0,0:0:0:0:
475,192,222657,1,0,0:0:0:0:
402,192,222657,1,0,0:0:0:0:
36,192,222657,1,0,0:0:0:0:
256,192,222657,128,0,222832:0:0:0:0:
109,192,222657,1,0,0:0:0:0:
475,192,222832,1,0,0:0:0:0:
402,192,222832,1,0,0:0:0:0:
36,192,222832,1,0,0:0:0:0:
109,192,222832,1,0,0:0:0:0:
329,192,222920,1,0,0:0:0:0:
182,192,222920,1,0,0:0:0:0:
475,192,223008,1,0,0:0:0:0:
256,192,223008,1,0,0:0:0:0:
36,192,223008,1,0,0:0:0:0:
402,192,223008,128,0,223183:0:0:0:0:
109,192,223008,1,0,0:0:0:0:
329,192,223183,1,0,0:0:0:0:
475,192,223183,1,0,0:0:0:0:
36,192,223183,1,0,0:0:0:0:
182,192,223183,1,0,0:0:0:0:
109,192,223271,1,0,0:0:0:0:
256,192,223271,1,0,0:0:0:0:
475,192,223359,1,0,0:0:0:0:
402,192,223359,1,0,0:0:0:0:
329,192,223359,1,0,0:0:0:0:
182,192,223359,1,0,0:0:0:0:
36,192,223359,128,0,223534:0:0:0:0:
182,192,223534,1,0,0:0:0:0:
475,192,223534,1,0,0:0:0:0:
109,192,223534,1,0,0:0:0:0:
256,192,223534,128,0,223710:0:0:0:0:
402,192,223534,1,0,0:0:0:0:
36,192,223710,1,0,0:0:0:0:
402,192,223710,128,0,224061:0:0:0:0:
329,192,223710,1,0,0:0:0:0:
182,192,223710,128,0,224061:0:0:0:0:
475,192,223710,1,0,0:0:0:0:
109,192,223710,1,0,0:0:0:0:
36,192,224061,1,0,0:0:0:0:
475,192,224061,1,0,0:0:0:0:
329,192,224061,1,0,0:0:0:0:
256,192,224061,1,0,0:0:0:0:
402,192,224148,1,0,0:0:0:0:
109,192,224148,1,0,0:0:0:0:
182,192,224148,1,0,0:0:0:0:
475,192,224236,1,0,0:0:0:0:
36,192,224236,1,0,0:0:0:0:
329,192,224236,1,0,0:0:0:0:
402,192,224324,1,0,0:0:0:0:
109,192,224324,1,0,0:0:0:0:
256,192,224324,1,0,0:0:0:0:
329,192,224411,1,0,0:0:0:0:
36,192,224411,1,0,0:0:0:0:
182,192,224411,1,0,0:0:0:0:
402,192,224499,1,0,0:0:0:0:
475,192,224499,1,0,0:0:0:0:
256,192,224499,1,0,0:0:0:0:
109,192,224587,1,0,0:0:0:0:
329,192,224587,1,0,0:0:0:0:
182,192,224587,1,0,0:0:0:0:
36,192,224587,1,0,0:0:0:0:
329,192,224762,1,0,0:0:0:0:
475,192,224762,1,0,0:0:0:0:
402,192,224762,1,0,0:0:0:0:
109,192,224762,1,0,0:0:0:0:
182,192,224762,1,0,0:0:0:0:
402,192,224938,1,0,0:0:0:0:
475,192,224938,1,0,0:0:0:0:
36,192,224938,1,0,0:0:0:0:
256,192,224938,1,0,0:0:0:0:
109,192,224938,1,0,0:0:0:0:
402,192,225113,128,0,225376:0:0:0:0:
475,192,225113,128,0,225376:0:0:0:0:
109,192,225113,128,0,225376:0:0:0:0:
329,192,225113,128,0,225376:0:0:0:0:
182,192,225113,128,0,225376:0:0:0:0:
36,192,225113,128,0,225376:0:0:0:0:
36,192,225464,1,0,0:0:0:0:
402,192,225464,1,0,0:0:0:0:
109,192,225464,1,0,0:0:0:0:
329,192,225464,1,0,0:0:0:0:
256,192,225464,1,0,0:0:0:0:
329,192,225639,1,0,0:0:0:0:
475,192,225639,1,0,0:0:0:0:
36,192,225639,1,0,0:0:0:0:
109,192,225639,1,0,0:0:0:0:
182,192,225639,1,0,0:0:0:0:
475,192,225815,1,0,0:0:0:0:
109,192,225815,1,0,0:0:0:0:
36,192,225815,1,0,0:0:0:0:
256,192,225815,1,0,0:0:0:0:
329,192,225815,1,0,0:0:0:0:
402,192,225815,1,0,0:0:0:0:
475,192,226166,128,0,226253:0:0:0:0:
402,192,226166,128,0,226253:0:0:0:0:
109,192,226166,1,0,0:0:0:0:
329,192,226166,128,0,226253:0:0:0:0:
182,192,226224,1,0,0:0:0:0:
256,192,226283,1,0,0:0:0:0:
36,192,226341,128,0,226429:0:0:0:0:
109,192,226341,128,0,226429:0:0:0:0:
402,192,226341,1,0,0:0:0:0:
329,192,226400,1,0,0:0:0:0:
256,192,226458,1,0,0:0:0:0:
182,192,226517,128,0,226780:0:0:0:0:
109,192,226517,128,0,226780:0:0:0:0:
36,192,226517,128,0,226780:0:0:0:0:
475,192,226517,128,0,226780:0:0:0:0:
329,192,226517,128,0,226780:0:0:0:0:
402,192,226517,128,0,226780:0:0:0:0:
402,192,226868,1,0,0:0:0:0:
256,192,226868,128,0,227043:0:0:0:0:
182,192,226868,1,0,0:0:0:0:
36,192,226868,1,0,0:0:0:0:
109,192,226868,1,0,0:0:0:0:
475,192,226868,1,0,0:0:0:0:
36,192,227043,128,0,227218:0:0:0:0:
109,192,227043,1,0,0:0:0:0:
475,192,227043,1,0,0:0:0:0:
329,192,227043,1,0,0:0:0:0:
475,192,227218,1,0,0:0:0:0:
329,192,227218,1,0,0:0:0:0:
256,192,227218,128,0,227394:0:0:0:0:
402,192,227218,1,0,0:0:0:0:
182,192,227218,1,0,0:0:0:0:
182,192,227394,1,0,0:0:0:0:
402,192,227394,128,0,227569:0:0:0:0:
109,192,227394,1,0,0:0:0:0:
36,192,227394,1,0,0:0:0:0:
109,192,227569,128,0,227745:0:0:0:0:
36,192,227569,1,0,0:0:0:0:
475,192,227569,1,0,0:0:0:0:
329,192,227569,1,0,0:0:0:0:
256,192,227569,1,0,0:0:0:0:
182,192,227745,1,0,0:0:0:0:
256,192,227745,128,0,227920:0:0:0:0:
475,192,227745,1,0,0:0:0:0:
402,192,227745,1,0,0:0:0:0:
36,192,227920,128,0,228446:0:0:0:0:
109,192,227920,1,0,0:0:0:0:
182,192,227920,1,0,0:0:0:0:
475,192,227920,1,0,0:0:0:0:
329,192,227920,1,0,0:0:0:0:
475,192,228096,1,0,0:0:0:0:
402,192,228096,1,0,0:0:0:0:
256,192,228096,1,0,0:0:0:0:
109,192,228096,1,0,0:0:0:0:
182,192,228271,1,0,0:0:0:0:
109,192,228271,1,0,0:0:0:0:
329,192,228271,1,0,0:0:0:0:
475,192,228271,1,0,0:0:0:0:
402,192,228446,1,0,0:0:0:0:
109,192,228446,1,0,0:0:0:0:
256,192,228446,1,0,0:0:0:0:
475,192,228446,1,0,0:0:0:0:
475,192,228622,1,0,0:0:0:0:
36,192,228622,1,0,0:0:0:0:
329,192,228622,1,0,0:0:0:0:
402,192,228622,128,0,228797:0:0:0:0:
182,192,228622,1,0,0:0:0:0:
475,192,228797,1,0,0:0:0:0:
329,192,228797,1,0,0:0:0:0:
109,192,228797,128,0,228973:0:0:0:0:
182,192,228797,1,0,0:0:0:0:
475,192,228973,1,0,0:0:0:0:
402,192,228973,1,0,0:0:0:0:
256,192,228973,128,0,229148:0:0:0:0:
36,192,228973,1,0,0:0:0:0:
182,192,229148,1,0,0:0:0:0:
109,192,229148,1,0,0:0:0:0:
475,192,229148,128,0,229324:0:0:0:0:
329,192,229148,1,0,0:0:0:0:
36,192,229324,1,0,0:0:0:0:
402,192,229324,1,0,0:0:0:0:
256,192,229324,1,0,0:0:0:0:
182,192,229324,128,0,229675:0:0:0:0:
475,192,229499,1,0,0:0:0:0:
329,192,229499,1,0,0:0:0:0:
36,192,229499,1,0,0:0:0:0:
256,192,229675,1,0,0:0:0:0:
402,192,229675,1,0,0:0:0:0:
109,192,229675,128,0,229850:0:0:0:0:
329,192,229675,1,0,0:0:0:0:
182,192,229850,1,0,0:0:0:0:
36,192,229850,1,0,0:0:0:0:
256,192,229850,128,0,230025:0:0:0:0:
402,192,229850,1,0,0:0:0:0:
475,192,230025,1,0,0:0:0:0:
36,192,230025,1,0,0:0:0:0:
329,192,230025,1,0,0:0:0:0:
402,192,230025,128,0,230201:0:0:0:0:
109,192,230025,1,0,0:0:0:0:
109,192,230201,1,0,0:0:0:0:
182,192,230201,1,0,0:0:0:0:
475,192,230201,128,0,230376:0:0:0:0:
329,192,230201,1,0,0:0:0:0:
182,192,230376,1,0,0:0:0:0:
402,192,230376,1,0,0:0:0:0:
256,192,230376,128,0,230552:0:0:0:0:
36,192,230376,1,0,0:0:0:0:
329,192,230552,1,0,0:0:0:0:
475,192,230552,1,0,0:0:0:0:
109,192,230552,128,0,230727:0:0:0:0:
36,192,230552,1,0,0:0:0:0:
475,192,230727,1,0,0:0:0:0:
36,192,230727,1,0,0:0:0:0:
329,192,230727,1,0,0:0:0:0:
182,192,230727,128,0,231253:0:0:0:0:
402,192,230727,1,0,0:0:0:0:
109,192,230903,1,0,0:0:0:0:
329,192,230903,1,0,0:0:0:0:
256,192,230903,1,0,0:0:0:0:
402,192,230903,1,0,0:0:0:0:
329,192,231078,1,0,0:0:0:0:
475,192,231078,1,0,0:0:0:0:
402,192,231078,1,0,0:0:0:0:
36,192,231078,1,0,0:0:0:0:
329,192,231253,1,0,0:0:0:0:
402,192,231253,1,0,0:0:0:0:
256,192,231253,1,0,0:0:0:0:
109,192,231253,1,0,0:0:0:0:
109,192,231429,1,0,0:0:0:0:
36,192,231429,1,0,0:0:0:0:
475,192,231429,128,0,231780:0:0:0:0:
256,192,231429,1,0,0:0:0:0:
329,192,231604,1,0,0:0:0:0:
402,192,231604,1,0,0:0:0:0:
182,192,231604,1,0,0:0:0:0:
109,192,231780,1,0,0:0:0:0:
329,192,231780,1,0,0:0:0:0:
36,192,231780,128,0,231955:0:0:0:0:
182,192,231780,1,0,0:0:0:0:
256,192,231868,1,0,0:0:0:0:
402,192,231868,1,0,0:0:0:0:
109,192,231955,1,0,0:0:0:0:
329,192,231955,1,0,0:0:0:0:
182,192,231955,128,0,232131:0:0:0:0:
475,192,231955,1,0,0:0:0:0:
475,192,232131,1,0,0:0:0:0:
36,192,232131,1,0,0:0:0:0:
402,192,232131,1,0,0:0:0:0:
256,192,232131,1,0,0:0:0:0:
329,192,232218,1,0,0:0:0:0:
109,192,232218,1,0,0:0:0:0:
36,192,232306,128,0,232482:0:0:0:0:
182,192,232306,128,0,232482:0:0:0:0:
256,192,232306,128,0,232482:0:0:0:0:
475,192,232306,128,0,232482:0:0:0:0:
402,192,232306,128,0,232482:0:0:0:0:
109,192,232569,128,0,232745:0:0:0:0:
475,192,232569,128,0,232745:0:0:0:0:
182,192,232569,128,0,232745:0:0:0:0:
329,192,232569,128,0,232745:0:0:0:0:
402,192,232569,128,0,232745:0:0:0:0:
475,192,232832,128,0,233096:0:0:0:0:
256,192,232832,128,0,233096:0:0:0:0:
182,192,232832,128,0,233096:0:0:0:0:
402,192,232832,128,0,233096:0:0:0:0:
36,192,232832,128,0,233096:0:0:0:0:
109,192,232832,128,0,233096:0:0:0:0:
475,192,233183,1,0,0:0:0:0:
109,192,233183,1,0,0:0:0:0:
402,192,233183,1,0,0:0:0:0:
256,192,233183,1,0,0:0:0:0:
36,192,233183,1,0,0:0:0:0:
109,192,233359,1,0,0:0:0:0:
36,192,233359,1,0,0:0:0:0:
402,192,233359,1,0,0:0:0:0:
182,192,233359,1,0,0:0:0:0:
329,192,233359,1,0,0:0:0:0:
329,192,233534,1,0,0:0:0:0:
256,192,233534,128,0,233885:0:0:0:0:
109,192,233534,128,0,233885:0:0:0:0:
36,192,233534,1,0,0:0:0:0:
475,192,233534,1,0,0:0:0:0:
402,192,233534,1,0,0:0:0:0:
475,192,233885,128,0,234061:0:0:0:0:
36,192,233885,1,0,0:0:0:0:
402,192,233885,1,0,0:0:0:0:
182,192,233885,1,0,0:0:0:0:
329,192,233885,1,0,0:0:0:0:
256,192,234061,128,0,234236:0:0:0:0:
329,192,234061,1,0,0:0:0:0:
36,192,234061,1,0,0:0:0:0:
109,192,234061,1,0,0:0:0:0:
402,192,234148,1,0,0:0:0:0:
475,192,234148,1,0,0:0:0:0:
36,192,234236,128,0,234587:0:0:0:0:
329,192,234236,1,0,0:0:0:0:
182,192,234236,1,0,0:0:0:0:
109,192,234236,1,0,0:0:0:0:
402,192,234324,1,0,0:0:0:0:
256,192,234324,1,0,0:0:0:0:
475,192,234411,1,0,0:0:0:0:
329,192,234411,1,0,0:0:0:0:
109,192,234411,1,0,0:0:0:0:
182,192,234499,1,0,0:0:0:0:
256,192,234499,1,0,0:0:0:0:
329,192,234587,1,0,0:0:0:0:
402,192,234587,1,0,0:0:0:0:
475,192,234587,128,0,234762:0:0:0:0:
109,192,234675,1,0,0:0:0:0:
182,192,234675,1,0,0:0:0:0:
402,192,234762,1,0,0:0:0:0:
36,192,234762,1,0,0:0:0:0:
256,192,234762,128,0,234938:0:0:0:0:
329,192,234762,1,0,0:0:0:0:
36,192,234938,1,0,0:0:0:0:
182,192,234938,128,0,235289:0:0:0:0:
402,192,234938,1,0,0:0:0:0:
109,192,234938,1,0,0:0:0:0:
329,192,234938,1,0,0:0:0:0:
475,192,234938,128,0,235289:0:0:0:0:
36,192,235289,128,0,235464:0:0:0:0:
402,192,235289,1,0,0:0:0:0:
109,192,235289,1,0,0:0:0:0:
256,192,235289,1,0,0:0:0:0:
329,192,235289,1,0,0:0:0:0:
109,192,235464,1,0,0:0:0:0:
475,192,235464,128,0,235639:0:0:0:0:
256,192,235464,1,0,0:0:0:0:
402,192,235464,1,0,0:0:0:0:
182,192,235552,1,0,0:0:0:0:
329,192,235552,1,0,0:0:0:0:
402,192,235639,1,0,0:0:0:0:
36,192,235639,1,0,0:0:0:0:
256,192,235639,128,0,235990:0:0:0:0:
329,192,235727,1,0,0:0:0:0:
109,192,235727,1,0,0:0:0:0:
182,192,235815,1,0,0:0:0:0:
36,192,235815,1,0,0:0:0:0:
475,192,235815,1,0,0:0:0:0:
402,192,235903,1,0,0:0:0:0:
329,192,235903,1,0,0:0:0:0:
109,192,235990,128,0,236166:0:0:0:0:
475,192,235990,1,0,0:0:0:0:
36,192,235990,1,0,0:0:0:0:
402,192,236078,1,0,0:0:0:0:
182,192,236078,1,0,0:0:0:0:
329,192,236078,1,0,0:0:0:0:
475,192,236166,1,0,0:0:0:0:
36,192,236166,1,0,0:0:0:0:
256,192,236166,128,0,236341:0:0:0:0:
182,192,236341,1,0,0:0:0:0:
109,192,236341,1,0,0:0:0:0:
329,192,236341,1,0,0:0:0:0:
36,192,236341,1,0,0:0:0:0:
402,192,236341,1,0,0:0:0:0:
475,192,236341,1,0,0:0:0:0:
36,192,236692,1,0,0:0:0:0:
402,192,236692,1,0,0:0:0:0:
475,192,236692,1,0,0:0:0:0:
256,192,236692,1,0,0:0:0:0:
329,192,236692,1,0,0:0:0:0:
109,192,236692,1,0,0:0:0:0:
475,192,236868,1,0,0:0:0:0:
329,192,236868,1,0,0:0:0:0:
402,192,236868,1,0,0:0:0:0:
109,192,236868,1,0,0:0:0:0:
36,192,236868,1,0,0:0:0:0:
182,192,236868,1,0,0:0:0:0:
475,192,237043,1,0,0:0:0:0:
109,192,237043,1,0,0:0:0:0:
36,192,237043,1,0,0:0:0:0:
182,192,237043,1,0,0:0:0:0:
256,192,237043,1,0,0:0:0:0:
402,192,237043,1,0,0:0:0:0:
256,192,237218,1,0,0:0:0:0:
329,192,237218,1,0,0:0:0:0:
475,192,237218,128,0,237306:0:0:0:0:
36,192,237218,1,0,0:0:0:0:
109,192,237218,1,0,0:0:0:0:
182,192,237218,1,0,0:0:0:0:
329,192,237394,128,0,237482:0:0:0:0:
182,192,237569,128,0,237657:0:0:0:0:
329,192,237745,1,0,0:0:0:0:
402,192,237745,128,0,238008:0:0:0:0:
475,192,237745,128,0,238008:0:0:0:0:
256,192,237745,1,0,0:0:0:0:
109,192,237745,1,0,0:0:0:0:
36,192,237745,1,0,0:0:0:0:
182,192,237920,1,0,0:0:0:0:
109,192,237920,1,0,0:0:0:0:
402,192,238096,1,0,0:0:0:0:
475,192,238096,1,0,0:0:0:0:
329,192,238096,1,0,0:0:0:0:
182,192,238096,1,0,0:0:0:0:
256,192,238096,1,0,0:0:0:0:
36,192,238096,1,0,0:0:0:0:
402,192,238271,1,0,0:0:0:0:
329,192,238271,1,0,0:0:0:0:
256,192,238271,1,0,0:0:0:0:
109,192,238271,1,0,0:0:0:0:
182,192,238271,1,0,0:0:0:0:
329,192,238446,1,0,0:0:0:0:
475,192,238446,1,0,0:0:0:0:
402,192,238446,1,0,0:0:0:0:
109,192,238446,1,0,0:0:0:0:
182,192,238446,1,0,0:0:0:0:
36,192,238446,1,0,0:0:0:0:
36,192,238622,1,0,0:0:0:0:
402,192,238622,1,0,0:0:0:0:
109,192,238622,1,0,0:0:0:0:
182,192,238622,1,0,0:0:0:0:
256,192,238622,1,0,0:0:0:0:
329,192,238797,1,0,0:0:0:0:
402,192,238797,1,0,0:0:0:0:
475,192,238797,1,0,0:0:0:0:
256,192,238797,1,0,0:0:0:0:
109,192,238797,1,0,0:0:0:0:
182,192,238797,1,0,0:0:0:0:
36,192,238973,1,0,0:0:0:0:
475,192,238973,1,0,0:0:0:0:
109,192,238973,1,0,0:0:0:0:
329,192,238973,1,0,0:0:0:0:
182,192,238973,1,0,0:0:0:0:
329,192,239148,1,0,0:0:0:0:
36,192,239148,128,0,239675:0:0:0:0:
109,192,239148,128,0,239675:0:0:0:0:
402,192,239148,1,0,0:0:0:0:
475,192,239148,1,0,0:0:0:0:
256,192,239148,1,0,0:0:0:0:
402,192,239324,1,0,0:0:0:0:
182,192,239324,1,0,0:0:0:0:
475,192,239499,1,0,0:0:0:0:
329,192,239499,1,0,0:0:0:0:
256,192,239499,1,0,0:0:0:0:
329,192,239675,1,0,0:0:0:0:
182,192,239675,1,0,0:0:0:0:
109,192,239850,1,0,0:0:0:0:
182,192,239850,1,0,0:0:0:0:
36,192,239850,1,0,0:0:0:0:
256,192,239850,1,0,0:0:0:0:
402,192,239850,1,0,0:0:0:0:
475,192,239850,1,0,0:0:0:0:
329,192,240025,1,0,0:0:0:0:
402,192,240025,1,0,0:0:0:0:
36,192,240025,1,0,0:0:0:0:
109,192,240025,1,0,0:0:0:0:
256,192,240025,1,0,0:0:0:0:
475,192,240201,1,0,0:0:0:0:
36,192,240201,1,0,0:0:0:0:
402,192,240201,1,0,0:0:0:0:
182,192,240201,1,0,0:0:0:0:
256,192,240201,1,0,0:0:0:0:
329,192,240201,1,0,0:0:0:0:
402,192,240376,1,0,0:0:0:0:
475,192,240376,1,0,0:0:0:0:
329,192,240376,1,0,0:0:0:0:
109,192,240376,1,0,0:0:0:0:
182,192,240376,1,0,0:0:0:0:
402,192,240552,1,0,0:0:0:0:
329,192,240552,128,0,240815:0:0:0:0:
475,192,240552,128,0,240815:0:0:0:0:
256,192,240552,1,0,0:0:0:0:
109,192,240552,1,0,0:0:0:0:
36,192,240552,1,0,0:0:0:0:
109,192,240727,1,0,0:0:0:0:
182,192,240727,1,0,0:0:0:0:
475,192,240903,1,0,0:0:0:0:
182,192,240903,1,0,0:0:0:0:
329,192,240903,1,0,0:0:0:0:
36,192,240903,1,0,0:0:0:0:
256,192,240903,1,0,0:0:0:0:
402,192,240903,1,0,0:0:0:0:
475,192,241078,1,0,0:0:0:0:
182,192,241078,1,0,0:0:0:0:
402,192,241078,1,0,0:0:0:0:
109,192,241078,1,0,0:0:0:0:
256,192,241078,1,0,0:0:0:0:
329,192,241253,1,0,0:0:0:0:
475,192,241253,1,0,0:0:0:0:
402,192,241253,1,0,0:0:0:0:
109,192,241253,1,0,0:0:0:0:
36,192,241253,1,0,0:0:0:0:
256,192,241253,1,0,0:0:0:0:
36,192,241429,1,0,0:0:0:0:
182,192,241429,1,0,0:0:0:0:
109,192,241429,1,0,0:0:0:0:
475,192,241429,1,0,0:0:0:0:
329,192,241429,1,0,0:0:0:0:
475,192,241604,1,0,0:0:0:0:
36,192,241604,1,0,0:0:0:0:
109,192,241604,1,0,0:0:0:0:
182,192,241604,1,0,0:0:0:0:
256,192,241604,1,0,0:0:0:0:
402,192,241604,1,0,0:0:0:0:
402,192,241780,1,0,0:0:0:0:
475,192,241780,1,0,0:0:0:0:
329,192,241780,1,0,0:0:0:0:
109,192,241780,1,0,0:0:0:0:
256,192,241780,1,0,0:0:0:0:
402,192,241955,1,0,0:0:0:0:
36,192,241955,128,0,242482:0:0:0:0:
475,192,241955,128,0,242482:0:0:0:0:
256,192,241955,1,0,0:0:0:0:
182,192,241955,1,0,0:0:0:0:
109,192,241955,1,0,0:0:0:0:
329,192,242131,1,0,0:0:0:0:
182,192,242131,1,0,0:0:0:0:
402,192,242306,1,0,0:0:0:0:
256,192,242306,1,0,0:0:0:0:
109,192,242306,1,0,0:0:0:0:
402,192,242482,1,0,0:0:0:0:
182,192,242482,1,0,0:0:0:0:
109,192,242657,1,0,0:0:0:0:
36,192,242657,1,0,0:0:0:0:
402,192,242657,1,0,0:0:0:0:
256,192,242657,1,0,0:0:0:0:
329,192,242657,1,0,0:0:0:0:
475,192,242657,1,0,0:0:0:0:
329,192,242832,1,0,0:0:0:0:
475,192,242832,1,0,0:0:0:0:
36,192,242832,1,0,0:0:0:0:
256,192,242832,1,0,0:0:0:0:
182,192,242832,1,0,0:0:0:0:
475,192,243008,1,0,0:0:0:0:
109,192,243008,1,0,0:0:0:0:
36,192,243008,1,0,0:0:0:0:
256,192,243008,1,0,0:0:0:0:
329,192,243008,1,0,0:0:0:0:
402,192,243008,1,0,0:0:0:0:
402,192,243183,1,0,0:0:0:0:
475,192,243183,1,0,0:0:0:0:
256,192,243183,1,0,0:0:0:0:
109,192,243183,1,0,0:0:0:0:
182,192,243183,1,0,0:0:0:0:
402,192,243359,1,0,0:0:0:0:
182,192,243359,128,0,243622:0:0:0:0:
36,192,243359,128,0,243622:0:0:0:0:
329,192,243359,1,0,0:0:0:0:
256,192,243359,1,0,0:0:0:0:
475,192,243359,1,0,0:0:0:0:
475,192,243534,1,0,0:0:0:0:
329,192,243534,1,0,0:0:0:0:
109,192,243710,1,0,0:0:0:0:
36,192,243710,1,0,0:0:0:0:
182,192,243710,1,0,0:0:0:0:
256,192,243710,1,0,0:0:0:0:
402,192,243710,1,0,0:0:0:0:
475,192,243710,1,0,0:0:0:0:
329,192,243885,1,0,0:0:0:0:
402,192,243885,1,0,0:0:0:0:
256,192,243885,1,0,0:0:0:0:
109,192,243885,1,0,0:0:0:0:
182,192,243885,1,0,0:0:0:0:
109,192,244061,1,0,0:0:0:0:
256,192,244061,128,0,244324:0:0:0:0:
475,192,244061,128,0,244324:0:0:0:0:
182,192,244061,1,0,0:0:0:0:
36,192,244061,1,0,0:0:0:0:
402,192,244061,1,0,0:0:0:0:
36,192,244236,1,0,0:0:0:0:
329,192,244236,1,0,0:0:0:0:
329,192,244411,1,0,0:0:0:0:
475,192,244411,1,0,0:0:0:0:
402,192,244411,1,0,0:0:0:0:
182,192,244411,1,0,0:0:0:0:
109,192,244411,1,0,0:0:0:0:
36,192,244411,1,0,0:0:0:0:
402,192,244587,1,0,0:0:0:0:
475,192,244587,1,0,0:0:0:0:
256,192,244587,1,0,0:0:0:0:
109,192,244587,1,0,0:0:0:0:
182,192,244587,1,0,0:0:0:0:
182,192,244762,1,0,0:0:0:0:
109,192,244762,128,0,245025:0:0:0:0:
36,192,244762,128,0,245025:0:0:0:0:
329,192,244762,1,0,0:0:0:0:
402,192,244762,1,0,0:0:0:0:
475,192,244762,1,0,0:0:0:0:
475,192,244938,1,0,0:0:0:0:
402,192,244938,1,0,0:0:0:0:
256,192,244938,1,0,0:0:0:0:
182,192,245025,1,0,0:0:0:0:
329,192,245025,1,0,0:0:0:0:
402,192,245113,128,0,245289:0:0:0:0:
475,192,245113,128,0,245289:0:0:0:0:
109,192,245113,1,0,0:0:0:0:
256,192,245113,1,0,0:0:0:0:
36,192,245113,1,0,0:0:0:0:
36,192,245289,1,0,0:0:0:0:
182,192,245289,1,0,0:0:0:0:
329,192,245289,1,0,0:0:0:0:
402,192,245376,1,0,0:0:0:0:
256,192,245376,1,0,0:0:0:0:
182,192,245464,128,0,245639:0:0:0:0:
109,192,245464,128,0,245639:0:0:0:0:
36,192,245464,1,0,0:0:0:0:
329,192,245464,1,0,0:0:0:0:
475,192,245464,1,0,0:0:0:0:
475,192,245639,1,0,0:0:0:0:
402,192,245639,1,0,0:0:0:0:
256,192,245639,1,0,0:0:0:0:
36,192,245815,1,0,0:0:0:0:
475,192,245815,1,0,0:0:0:0:
402,192,245815,1,0,0:0:0:0:
329,192,245815,1,0,0:0:0:0:
182,192,245815,1,0,0:0:0:0:
109,192,245815,1,0,0:0:0:0:
475,192,245990,1,0,0:0:0:0:
402,192,245990,1,0,0:0:0:0:
36,192,245990,1,0,0:0:0:0:
256,192,245990,1,0,0:0:0:0:
182,192,245990,1,0,0:0:0:0:
329,192,246166,128,0,246429:0:0:0:0:
402,192,246166,128,0,246429:0:0:0:0:
475,192,246166,128,0,246429:0:0:0:0:
182,192,246166,128,0,246429:0:0:0:0:
109,192,246166,128,0,246429:0:0:0:0:
36,192,246166,128,0,246429:0:0:0:0:
475,192,246517,1,0,0:0:0:0:
36,192,246517,1,0,0:0:0:0:
256,192,246517,1,0,0:0:0:0:
402,192,246517,1,0,0:0:0:0:
329,192,246604,1,0,0:0:0:0:
182,192,246604,1,0,0:0:0:0:
109,192,246604,1,0,0:0:0:0:
36,192,246692,1,0,0:0:0:0:
402,192,246692,1,0,0:0:0:0:
475,192,246692,1,0,0:0:0:0:
256,192,246692,1,0,0:0:0:0:
109,192,246780,1,0,0:0:0:0:
329,192,246780,1,0,0:0:0:0:
36,192,246868,1,0,0:0:0:0:
402,192,246868,1,0,0:0:0:0:
475,192,246868,1,0,0:0:0:0:
182,192,246868,1,0,0:0:0:0:
329,192,246955,1,0,0:0:0:0:
109,192,246955,1,0,0:0:0:0:
256,192,246955,1,0,0:0:0:0:
36,192,247043,1,0,0:0:0:0:
182,192,247043,1,0,0:0:0:0:
402,192,247043,1,0,0:0:0:0:
475,192,247043,1,0,0:0:0:0:
182,192,247218,1,0,0:0:0:0:
109,192,247218,1,0,0:0:0:0:
36,192,247218,1,0,0:0:0:0:
256,192,247218,1,0,0:0:0:0:
402,192,247218,1,0,0:0:0:0:
475,192,247218,1,0,0:0:0:0:
402,192,247394,1,0,0:0:0:0:
475,192,247394,1,0,0:0:0:0:
36,192,247394,1,0,0:0:0:0:
109,192,247394,1,0,0:0:0:0:
256,192,247394,1,0,0:0:0:0:
329,192,247394,1,0,0:0:0:0:
36,192,247569,128,0,247832:0:0:0:0:
109,192,247569,128,0,247832:0:0:0:0:
402,192,247569,128,0,247832:0:0:0:0:
475,192,247569,128,0,247832:0:0:0:0:
256,192,247569,128,0,247832:0:0:0:0:
182,192,247569,128,0,247832:0:0:0:0:
256,192,247920,1,0,0:0:0:0:
475,192,247920,1,0,0:0:0:0:
402,192,247920,1,0,0:0:0:0:
36,192,247920,1,0,0:0:0:0:
182,192,247920,1,0,0:0:0:0:
329,192,247920,1,0,0:0:0:0:
329,192,248096,1,0,0:0:0:0:
475,192,248096,1,0,0:0:0:0:
256,192,248096,1,0,0:0:0:0:
109,192,248096,1,0,0:0:0:0:
182,192,248096,1,0,0:0:0:0:
329,192,248271,1,0,0:0:0:0:
402,192,248271,1,0,0:0:0:0:
475,192,248271,1,0,0:0:0:0:
36,192,248271,1,0,0:0:0:0:
109,192,248271,1,0,0:0:0:0:
182,192,248271,1,0,0:0:0:0:
475,192,248446,1,0,0:0:0:0:
36,192,248446,1,0,0:0:0:0:
329,192,248446,1,0,0:0:0:0:
182,192,248446,1,0,0:0:0:0:
109,192,248534,1,0,0:0:0:0:
256,192,248534,1,0,0:0:0:0:
182,192,248622,1,0,0:0:0:0:
475,192,248622,1,0,0:0:0:0:
329,192,248622,1,0,0:0:0:0:
256,192,248710,1,0,0:0:0:0:
36,192,248710,1,0,0:0:0:0:
402,192,248710,1,0,0:0:0:0:
329,192,248797,1,0,0:0:0:0:
109,192,248797,1,0,0:0:0:0:
475,192,248797,1,0,0:0:0:0:
402,192,248885,1,0,0:0:0:0:
182,192,248885,1,0,0:0:0:0:
475,192,248973,128,0,249499:0:0:0:0:
329,192,248973,128,0,249499:0:0:0:0:
109,192,248973,1,0,0:0:0:0:
36,192,248973,1,0,0:0:0:0:
256,192,248973,1,0,0:0:0:0:
256,192,249148,1,0,0:0:0:0:
109,192,249148,1,0,0:0:0:0:
36,192,249324,1,0,0:0:0:0:
109,192,249324,1,0,0:0:0:0:
182,192,249324,1,0,0:0:0:0:
402,192,249324,1,0,0:0:0:0:
36,192,249499,1,0,0:0:0:0:
402,192,249499,1,0,0:0:0:0:
182,192,249499,1,0,0:0:0:0:
256,192,249499,1,0,0:0:0:0:
256,192,249675,1,0,0:0:0:0:
475,192,249675,1,0,0:0:0:0:
109,192,249675,1,0,0:0:0:0:
36,192,249675,1,0,0:0:0:0:
329,192,249762,1,0,0:0:0:0:
182,192,249762,1,0,0:0:0:0:
402,192,249762,1,0,0:0:0:0:
36,192,249850,1,0,0:0:0:0:
109,192,249850,1,0,0:0:0:0:
475,192,249850,1,0,0:0:0:0:
256,192,249850,1,0,0:0:0:0:
402,192,250025,1,0,0:0:0:0:
475,192,250025,1,0,0:0:0:0:
36,192,250025,1,0,0:0:0:0:
109,192,250025,1,0,0:0:0:0:
182,192,250025,1,0,0:0:0:0:
329,192,250025,1,0,0:0:0:0:
402,192,250201,1,0,0:0:0:0:
475,192,250201,1,0,0:0:0:0:
329,192,250201,1,0,0:0:0:0:
256,192,250201,1,0,0:0:0:0:
109,192,250201,1,0,0:0:0:0:
256,192,250376,1,0,0:0:0:0:
182,192,250376,128,0,250903:0:0:0:0:
36,192,250376,128,0,250903:0:0:0:0:
109,192,250376,1,0,0:0:0:0:
475,192,250376,1,0,0:0:0:0:
402,192,250376,1,0,0:0:0:0:
402,192,250552,1,0,0:0:0:0:
329,192,250552,1,0,0:0:0:0:
109,192,250727,1,0,0:0:0:0:
475,192,250727,1,0,0:0:0:0:
256,192,250727,1,0,0:0:0:0:
329,192,250727,1,0,0:0:0:0:
402,192,250903,1,0,0:0:0:0:
475,192,250903,1,0,0:0:0:0:
109,192,250903,1,0,0:0:0:0:
256,192,250903,1,0,0:0:0:0:
329,192,251078,1,0,0:0:0:0:
36,192,251078,1,0,0:0:0:0:
182,192,251078,1,0,0:0:0:0:
402,192,251166,1,0,0:0:0:0:
256,192,251166,1,0,0:0:0:0:
475,192,251166,1,0,0:0:0:0:
36,192,251253,1,0,0:0:0:0:
329,192,251253,1,0,0:0:0:0:
109,192,251253,1,0,0:0:0:0:
182,192,251341,1,0,0:0:0:0:
475,192,251341,1,0,0:0:0:0:
402,192,251341,1,0,0:0:0:0:
36,192,251429,1,0,0:0:0:0:
109,192,251429,1,0,0:0:0:0:
256,192,251429,1,0,0:0:0:0:
329,192,251517,1,0,0:0:0:0:
182,192,251517,1,0,0:0:0:0:
475,192,251517,1,0,0:0:0:0:
402,192,251604,1,0,0:0:0:0:
256,192,251604,1,0,0:0:0:0:
109,192,251604,1,0,0:0:0:0:
36,192,251692,1,0,0:0:0:0:
182,192,251692,1,0,0:0:0:0:
329,192,251692,1,0,0:0:0:0:
402,192,251780,128,0,252043:0:0:0:0:
475,192,251780,128,0,252043:0:0:0:0:
109,192,251780,1,0,0:0:0:0:
256,192,251780,1,0,0:0:0:0:
36,192,251955,1,0,0:0:0:0:
329,192,251955,1,0,0:0:0:0:
182,192,251955,1,0,0:0:0:0:
402,192,252131,1,0,0:0:0:0:
475,192,252131,1,0,0:0:0:0:
36,192,252131,1,0,0:0:0:0:
256,192,252131,1,0,0:0:0:0:
109,192,252131,1,0,0:0:0:0:
329,192,252131,1,0,0:0:0:0:
329,192,252306,1,0,0:0:0:0:
475,192,252306,1,0,0:0:0:0:
36,192,252306,1,0,0:0:0:0:
182,192,252306,1,0,0:0:0:0:
109,192,252394,1,0,0:0:0:0:
402,192,252394,1,0,0:0:0:0:
256,192,252394,1,0,0:0:0:0:
329,192,252482,1,0,0:0:0:0:
182,192,252482,1,0,0:0:0:0:
475,192,252482,1,0,0:0:0:0:
109,192,252569,1,0,0:0:0:0:
36,192,252569,1,0,0:0:0:0:
256,192,252569,1,0,0:0:0:0:
329,192,252657,128,0,252745:0:0:0:0:
475,192,252657,128,0,252745:0:0:0:0:
182,192,252657,128,0,252745:0:0:0:0:
109,192,252745,128,0,252832:0:0:0:0:
402,192,252745,128,0,252832:0:0:0:0:
256,192,252745,128,0,252832:0:0:0:0:
329,192,252832,128,0,253096:0:0:0:0:
36,192,252832,128,0,253096:0:0:0:0:
182,192,252832,128,0,253096:0:0:0:0:
475,192,253008,1,0,0:0:0:0:
402,192,253008,1,0,0:0:0:0:
182,192,253183,1,0,0:0:0:0:
109,192,253183,128,0,253446:0:0:0:0:
36,192,253183,128,0,253446:0:0:0:0:
256,192,253183,1,0,0:0:0:0:
402,192,253183,1,0,0:0:0:0:
475,192,253183,1,0,0:0:0:0:
329,192,253359,1,0,0:0:0:0:
182,192,253359,1,0,0:0:0:0:
402,192,253534,1,0,0:0:0:0:
36,192,253534,1,0,0:0:0:0:
256,192,253534,1,0,0:0:0:0:
475,192,253534,1,0,0:0:0:0:
109,192,253622,1,0,0:0:0:0:
182,192,253622,1,0,0:0:0:0:
329,192,253622,1,0,0:0:0:0:
475,192,253710,1,0,0:0:0:0:
256,192,253710,1,0,0:0:0:0:
36,192,253710,1,0,0:0:0:0:
402,192,253797,1,0,0:0:0:0:
329,192,253797,1,0,0:0:0:0:
182,192,253797,1,0,0:0:0:0:
475,192,253885,128,0,254148:0:0:0:0:
256,192,253885,128,0,254148:0:0:0:0:
36,192,253885,1,0,0:0:0:0:
109,192,253885,1,0,0:0:0:0:
329,192,254060,1,0,0:0:0:0:
182,192,254060,1,0,0:0:0:0:
329,192,254236,1,0,0:0:0:0:
475,192,254236,1,0,0:0:0:0:
402,192,254236,1,0,0:0:0:0:
109,192,254236,1,0,0:0:0:0:
182,192,254236,1,0,0:0:0:0:
36,192,254236,1,0,0:0:0:0:
402,192,254411,1,0,0:0:0:0:
475,192,254411,1,0,0:0:0:0:
329,192,254411,1,0,0:0:0:0:
109,192,254411,1,0,0:0:0:0:
256,192,254411,1,0,0:0:0:0:
256,192,254587,1,0,0:0:0:0:
329,192,254587,1,0,0:0:0:0:
475,192,254587,1,0,0:0:0:0:
182,192,254587,1,0,0:0:0:0:
36,192,254587,1,0,0:0:0:0:
109,192,254587,1,0,0:0:0:0:
329,192,254762,128,0,254938:0:0:0:0:
402,192,254762,128,0,254938:0:0:0:0:
475,192,254762,128,0,254938:0:0:0:0:
182,192,254762,1,0,0:0:0:0:
109,192,254762,1,0,0:0:0:0:
36,192,254762,1,0,0:0:0:0:
182,192,254938,1,0,0:0:0:0:
109,192,255025,128,0,255201:0:0:0:0:
36,192,255025,128,0,255201:0:0:0:0:
475,192,255025,128,0,255201:0:0:0:0:
256,192,255025,128,0,255201:0:0:0:0:
402,192,255025,128,0,255201:0:0:0:0:
36,192,255289,128,0,255464:0:0:0:0:
402,192,255289,128,0,255464:0:0:0:0:
475,192,255289,128,0,255464:0:0:0:0:
329,192,255289,128,0,255464:0:0:0:0:
182,192,255289,128,0,255464:0:0:0:0:
109,192,255289,128,0,255464:0:0:0:0:
109,192,255639,1,0,0:0:0:0:
36,192,255639,1,0,0:0:0:0:
182,192,255639,1,0,0:0:0:0:
329,192,255639,1,0,0:0:0:0:
475,192,255639,1,0,0:0:0:0:
402,192,255815,1,0,0:0:0:0:
36,192,255815,1,0,0:0:0:0:
475,192,255815,1,0,0:0:0:0:
329,192,255815,1,0,0:0:0:0:
182,192,255815,1,0,0:0:0:0:
182,192,255990,128,0,256253:0:0:0:0:
109,192,255990,128,0,256253:0:0:0:0:
36,192,255990,128,0,256253:0:0:0:0:
402,192,255990,128,0,256253:0:0:0:0:
475,192,255990,128,0,256253:0:0:0:0:
256,192,255990,128,0,256253:0:0:0:0:
329,192,256341,1,0,0:0:0:0:
402,192,256341,1,0,0:0:0:0:
475,192,256341,1,0,0:0:0:0:
182,192,256341,1,0,0:0:0:0:
109,192,256341,1,0,0:0:0:0:
36,192,256341,1,0,0:0:0:0:
36,192,256517,1,0,0:0:0:0:
402,192,256517,1,0,0:0:0:0:
109,192,256517,1,0,0:0:0:0:
256,192,256517,1,0,0:0:0:0:
182,192,256517,1,0,0:0:0:0:
36,192,256692,1,0,0:0:0:0:
475,192,256692,1,0,0:0:0:0:
402,192,256692,1,0,0:0:0:0:
109,192,256692,1,0,0:0:0:0:
182,192,256692,1,0,0:0:0:0:
256,192,256780,1,0,0:0:0:0:
329,192,256780,1,0,0:0:0:0:
475,192,256868,1,0,0:0:0:0:
402,192,256868,1,0,0:0:0:0:
182,192,256868,1,0,0:0:0:0:
36,192,256868,1,0,0:0:0:0:
256,192,256955,1,0,0:0:0:0:
109,192,256955,1,0,0:0:0:0:
475,192,257043,1,0,0:0:0:0:
182,192,257043,1,0,0:0:0:0:
402,192,257043,1,0,0:0:0:0:
36,192,257043,1,0,0:0:0:0:
329,192,257043,1,0,0:0:0:0:
475,192,257218,1,0,0:0:0:0:
402,192,257218,1,0,0:0:0:0:
256,192,257218,1,0,0:0:0:0:
109,192,257218,1,0,0:0:0:0:
182,192,257218,1,0,0:0:0:0:
329,192,257394,128,0,257657:0:0:0:0:
402,192,257394,128,0,257657:0:0:0:0:
475,192,257394,128,0,257657:0:0:0:0:
256,192,257394,128,0,257657:0:0:0:0:
109,192,257394,128,0,257657:0:0:0:0:
36,192,257394,128,0,257657:0:0:0:0:
402,192,257745,1,0,0:0:0:0:
475,192,257745,1,0,0:0:0:0:
36,192,257745,1,0,0:0:0:0:
109,192,257745,1,0,0:0:0:0:
182,192,257745,1,0,0:0:0:0:
329,192,257745,1,0,0:0:0:0:
329,192,257920,1,0,0:0:0:0:
475,192,257920,1,0,0:0:0:0:
182,192,257920,1,0,0:0:0:0:
109,192,257920,1,0,0:0:0:0:
256,192,257920,1,0,0:0:0:0:
109,192,258096,1,0,0:0:0:0:
36,192,258096,1,0,0:0:0:0:
182,192,258096,1,0,0:0:0:0:
402,192,258096,1,0,0:0:0:0:
256,192,258096,1,0,0:0:0:0:
475,192,258183,1,0,0:0:0:0:
329,192,258183,1,0,0:0:0:0:
36,192,258271,1,0,0:0:0:0:
256,192,258271,1,0,0:0:0:0:
402,192,258271,1,0,0:0:0:0:
182,192,258271,1,0,0:0:0:0:
329,192,258359,1,0,0:0:0:0:
109,192,258359,1,0,0:0:0:0:
402,192,258446,1,0,0:0:0:0:
475,192,258446,1,0,0:0:0:0:
36,192,258446,1,0,0:0:0:0:
256,192,258446,1,0,0:0:0:0:
182,192,258446,1,0,0:0:0:0:
329,192,258622,1,0,0:0:0:0:
475,192,258622,1,0,0:0:0:0:
36,192,258622,1,0,0:0:0:0:
109,192,258622,1,0,0:0:0:0:
182,192,258622,1,0,0:0:0:0:
475,192,258797,128,0,259060:0:0:0:0:
109,192,258797,128,0,259411:0:0:0:0:
36,192,258797,128,0,259060:0:0:0:0:
182,192,258797,128,0,259236:0:0:0:0:
329,192,258797,128,0,259060:0:0:0:0:
402,192,258797,128,0,259060:0:0:0:0:
402,192,259148,128,0,259411:0:0:0:0:
475,192,259148,128,0,259411:0:0:0:0:
36,192,259148,128,0,259762:0:0:0:0:
329,192,259148,128,0,259411:0:0:0:0:
182,192,259324,128,0,259938:0:0:0:0:
475,192,259499,128,0,259762:0:0:0:0:
109,192,259499,128,0,260201:0:0:0:0:
402,192,259499,128,0,259762:0:0:0:0:
329,192,259499,128,0,259762:0:0:0:0:
402,192,259850,128,0,260113:0:0:0:0:
475,192,259850,128,0,260113:0:0:0:0:
36,192,259850,128,0,260201:0:0:0:0:
329,192,259850,128,0,260113:0:0:0:0:
182,192,260025,128,0,260201:0:0:0:0:
475,192,260201,1,0,0:0:0:0:
402,192,260201,1,0,0:0:0:0:
256,192,260201,1,0,0:0:0:0:
329,192,260289,1,0,0:0:0:0:
402,192,260376,1,0,0:0:0:0:
182,192,260376,1,0,0:0:0:0:
36,192,260376,1,0,0:0:0:0:
256,192,260464,1,0,0:0:0:0:
36,192,260552,1,0,0:0:0:0:
109,192,260552,1,0,0:0:0:0:
402,192,260552,1,0,0:0:0:0:
475,192,260552,1,0,0:0:0:0:
329,192,260552,1,0,0:0:0:0:
256,192,260639,1,0,0:0:0:0:
182,192,260639,1,0,0:0:0:0:
329,192,260727,1,0,0:0:0:0:
475,192,260727,1,0,0:0:0:0:
109,192,260727,1,0,0:0:0:0:
36,192,260727,1,0,0:0:0:0:
402,192,260815,1,0,0:0:0:0:
329,192,260903,1,0,0:0:0:0:
475,192,260903,1,0,0:0:0:0:
109,192,260903,1,0,0:0:0:0:
36,192,260903,1,0,0:0:0:0:
256,192,260990,1,0,0:0:0:0:
182,192,260990,1,0,0:0:0:0:
329,192,261078,1,0,0:0:0:0:
475,192,261078,1,0,0:0:0:0:
109,192,261078,1,0,0:0:0:0:
36,192,261078,1,0,0:0:0:0:
402,192,261166,1,0,0:0:0:0:
109,192,261253,1,0,0:0:0:0:
182,192,261253,1,0,0:0:0:0:
36,192,261253,1,0,0:0:0:0:
329,192,261253,1,0,0:0:0:0:
475,192,261253,1,0,0:0:0:0:
256,192,261341,1,0,0:0:0:0:
475,192,261429,1,0,0:0:0:0:
402,192,261429,1,0,0:0:0:0:
109,192,261429,1,0,0:0:0:0:
36,192,261429,1,0,0:0:0:0:
329,192,261517,1,0,0:0:0:0:
182,192,261517,1,0,0:0:0:0:
256,192,261604,1,0,0:0:0:0:
402,192,261604,1,0,0:0:0:0:
475,192,261604,1,0,0:0:0:0:
36,192,261604,1,0,0:0:0:0:
109,192,261692,1,0,0:0:0:0:
402,192,261780,1,0,0:0:0:0:
182,192,261780,1,0,0:0:0:0:
36,192,261780,1,0,0:0:0:0:
329,192,261868,1,0,0:0:0:0:
36,192,261955,1,0,0:0:0:0:
109,192,261955,1,0,0:0:0:0:
256,192,261955,1,0,0:0:0:0:
475,192,261955,1,0,0:0:0:0:
402,192,261955,1,0,0:0:0:0:
182,192,262043,1,0,0:0:0:0:
329,192,262043,1,0,0:0:0:0:
402,192,262131,1,0,0:0:0:0:
475,192,262131,1,0,0:0:0:0:
36,192,262131,1,0,0:0:0:0:
109,192,262218,1,0,0:0:0:0:
182,192,262218,1,0,0:0:0:0:
36,192,262306,1,0,0:0:0:0:
402,192,262306,1,0,0:0:0:0:
256,192,262306,1,0,0:0:0:0:
475,192,262306,1,0,0:0:0:0:
182,192,262394,1,0,0:0:0:0:
329,192,262394,1,0,0:0:0:0:
402,192,262482,1,0,0:0:0:0:
36,192,262482,1,0,0:0:0:0:
475,192,262482,1,0,0:0:0:0:
182,192,262569,1,0,0:0:0:0:
109,192,262569,1,0,0:0:0:0:
256,192,262657,1,0,0:0:0:0:
402,192,262657,1,0,0:0:0:0:
36,192,262657,1,0,0:0:0:0:
475,192,262657,1,0,0:0:0:0:
329,192,262745,1,0,0:0:0:0:
402,192,262832,1,0,0:0:0:0:
475,192,262832,1,0,0:0:0:0:
36,192,262832,1,0,0:0:0:0:
182,192,262832,1,0,0:0:0:0:
109,192,262920,1,0,0:0:0:0:
256,192,262920,1,0,0:0:0:0:
475,192,263008,1,0,0:0:0:0:
329,192,263008,1,0,0:0:0:0:
36,192,263008,1,0,0:0:0:0:
182,192,263008,1,0,0:0:0:0:
402,192,263096,1,0,0:0:0:0:
109,192,263183,1,0,0:0:0:0:
36,192,263183,1,0,0:0:0:0:
329,192,263183,1,0,0:0:0:0:
182,192,263271,1,0,0:0:0:0:
475,192,263359,1,0,0:0:0:0:
402,192,263359,1,0,0:0:0:0:
329,192,263359,1,0,0:0:0:0:
256,192,263359,1,0,0:0:0:0:
36,192,263359,1,0,0:0:0:0:
182,192,263446,1,0,0:0:0:0:
109,192,263446,1,0,0:0:0:0:
36,192,263534,1,0,0:0:0:0:
402,192,263534,1,0,0:0:0:0:
256,192,263534,1,0,0:0:0:0:
329,192,263622,1,0,0:0:0:0:
402,192,263710,1,0,0:0:0:0:
475,192,263710,1,0,0:0:0:0:
256,192,263710,1,0,0:0:0:0:
36,192,263710,1,0,0:0:0:0:
109,192,263797,1,0,0:0:0:0:
182,192,263797,1,0,0:0:0:0:
402,192,263885,1,0,0:0:0:0:
256,192,263885,1,0,0:0:0:0:
36,192,263885,1,0,0:0:0:0:
329,192,263973,1,0,0:0:0:0:
36,192,264061,1,0,0:0:0:0:
109,192,264061,1,0,0:0:0:0:
182,192,264061,1,0,0:0:0:0:
402,192,264061,1,0,0:0:0:0:
475,192,264061,1,0,0:0:0:0:
256,192,264148,1,0,0:0:0:0:
402,192,264236,1,0,0:0:0:0:
475,192,264236,1,0,0:0:0:0:
36,192,264236,1,0,0:0:0:0:
109,192,264236,1,0,0:0:0:0:
182,192,264324,1,0,0:0:0:0:
329,192,264324,1,0,0:0:0:0:
475,192,264411,1,0,0:0:0:0:
256,192,264411,1,0,0:0:0:0:
36,192,264411,1,0,0:0:0:0:
402,192,264411,1,0,0:0:0:0:
109,192,264411,1,0,0:0:0:0:
402,192,264762,1,0,0:0:0:0:
475,192,264762,1,0,0:0:0:0:
329,192,264762,1,0,0:0:0:0:
109,192,264762,1,0,0:0:0:0:
182,192,264762,1,0,0:0:0:0:
256,192,264762,1,0,0:0:0:0:
109,192,265113,1,0,0:0:0:0:
36,192,265113,1,0,0:0:0:0:
329,192,265113,1,0,0:0:0:0:
402,192,265113,1,0,0:0:0:0:
256,192,265113,1,0,0:0:0:0:
182,192,265113,1,0,0:0:0:0:
329,192,265464,1,0,0:0:0:0:
402,192,265464,1,0,0:0:0:0:
475,192,265464,1,0,0:0:0:0:
109,192,265464,1,0,0:0:0:0:
182,192,265464,1,0,0:0:0:0:
256,192,265464,1,0,0:0:0:0:
475,192,265815,1,0,0:0:0:0:
109,192,265815,1,0,0:0:0:0:
402,192,265815,1,0,0:0:0:0:
36,192,265815,1,0,0:0:0:0:
256,192,265815,1,0,0:0:0:0:
182,192,265903,1,0,0:0:0:0:
109,192,265990,1,0,0:0:0:0:
36,192,265990,1,0,0:0:0:0:
475,192,265990,1,0,0:0:0:0:
329,192,265990,1,0,0:0:0:0:
402,192,266078,1,0,0:0:0:0:
109,192,266166,1,0,0:0:0:0:
475,192,266166,1,0,0:0:0:0:
182,192,266166,1,0,0:0:0:0:
256,192,266166,1,0,0:0:0:0:
36,192,266166,1,0,0:0:0:0:
402,192,266253,1,0,0:0:0:0:
329,192,266253,1,0,0:0:0:0:
109,192,266341,1,0,0:0:0:0:
36,192,266341,1,0,0:0:0:0:
256,192,266341,1,0,0:0:0:0:
475,192,266341,1,0,0:0:0:0:
182,192,266429,1,0,0:0:0:0:
256,192,266517,1,0,0:0:0:0:
475,192,266517,1,0,0:0:0:0:
109,192,266517,1,0,0:0:0:0:
36,192,266517,1,0,0:0:0:0:
329,192,266604,1,0,0:0:0:0:
402,192,266604,1,0,0:0:0:0:
256,192,266692,1,0,0:0:0:0:
475,192,266692,1,0,0:0:0:0:
109,192,266692,1,0,0:0:0:0:
36,192,266692,1,0,0:0:0:0:
182,192,266780,1,0,0:0:0:0:
109,192,266868,1,0,0:0:0:0:
256,192,266868,1,0,0:0:0:0:
36,192,266868,1,0,0:0:0:0:
402,192,266868,1,0,0:0:0:0:
475,192,266868,1,0,0:0:0:0:
329,192,266955,1,0,0:0:0:0:
475,192,267043,1,0,0:0:0:0:
402,192,267043,1,0,0:0:0:0:
182,192,267043,1,0,0:0:0:0:
36,192,267043,1,0,0:0:0:0:
256,192,267131,1,0,0:0:0:0:
109,192,267131,1,0,0:0:0:0:
182,192,267218,1,0,0:0:0:0:
329,192,267218,1,0,0:0:0:0:
475,192,267218,1,0,0:0:0:0:
36,192,267218,1,0,0:0:0:0:
402,192,267306,1,0,0:0:0:0:
475,192,267394,1,0,0:0:0:0:
36,192,267394,1,0,0:0:0:0:
109,192,267394,1,0,0:0:0:0:
256,192,267394,1,0,0:0:0:0:
182,192,267482,1,0,0:0:0:0:
36,192,267569,1,0,0:0:0:0:
109,192,267569,1,0,0:0:0:0:
329,192,267569,1,0,0:0:0:0:
475,192,267569,1,0,0:0:0:0:
402,192,267569,1,0,0:0:0:0:
182,192,267657,1,0,0:0:0:0:
256,192,267657,1,0,0:0:0:0:
402,192,267745,1,0,0:0:0:0:
475,192,267745,1,0,0:0:0:0:
36,192,267745,1,0,0:0:0:0:
329,192,267832,1,0,0:0:0:0:
256,192,267832,1,0,0:0:0:0:
36,192,267920,1,0,0:0:0:0:
402,192,267920,1,0,0:0:0:0:
109,192,267920,1,0,0:0:0:0:
475,192,267920,1,0,0:0:0:0:
182,192,268008,1,0,0:0:0:0:
256,192,268008,1,0,0:0:0:0:
402,192,268096,1,0,0:0:0:0:
36,192,268096,1,0,0:0:0:0:
475,192,268096,1,0,0:0:0:0:
256,192,268183,1,0,0:0:0:0:
329,192,268183,1,0,0:0:0:0:
182,192,268271,1,0,0:0:0:0:
402,192,268271,1,0,0:0:0:0:
109,192,268271,1,0,0:0:0:0:
36,192,268271,1,0,0:0:0:0:
475,192,268271,1,0,0:0:0:0:
329,192,268359,1,0,0:0:0:0:
256,192,268446,1,0,0:0:0:0:
475,192,268446,1,0,0:0:0:0:
36,192,268446,1,0,0:0:0:0:
109,192,268446,1,0,0:0:0:0:
182,192,268534,1,0,0:0:0:0:
329,192,268534,1,0,0:0:0:0:
475,192,268622,1,0,0:0:0:0:
402,192,268622,1,0,0:0:0:0:
36,192,268622,1,0,0:0:0:0:
256,192,268622,1,0,0:0:0:0:
109,192,268710,1,0,0:0:0:0:
182,192,268797,1,0,0:0:0:0:
329,192,268797,1,0,0:0:0:0:
475,192,268797,1,0,0:0:0:0:
36,192,268797,1,0,0:0:0:0:
256,192,268885,1,0,0:0:0:0:
475,192,268973,1,0,0:0:0:0:
402,192,268973,1,0,0:0:0:0:
36,192,268973,1,0,0:0:0:0:
182,192,268973,1,0,0:0:0:0:
256,192,269061,1,0,0:0:0:0:
329,192,269061,1,0,0:0:0:0:
36,192,269148,1,0,0:0:0:0:
475,192,269148,1,0,0:0:0:0:
109,192,269148,1,0,0:0:0:0:
402,192,269148,1,0,0:0:0:0:
182,192,269236,1,0,0:0:0:0:
329,192,269324,1,0,0:0:0:0:
475,192,269324,1,0,0:0:0:0:
109,192,269324,1,0,0:0:0:0:
36,192,269324,1,0,0:0:0:0:
402,192,269411,1,0,0:0:0:0:
256,192,269411,1,0,0:0:0:0:
329,192,269499,1,0,0:0:0:0:
475,192,269499,1,0,0:0:0:0:
36,192,269499,1,0,0:0:0:0:
109,192,269499,1,0,0:0:0:0:
182,192,269587,1,0,0:0:0:0:
36,192,269675,1,0,0:0:0:0:
109,192,269675,1,0,0:0:0:0:
256,192,269675,1,0,0:0:0:0:
402,192,269675,1,0,0:0:0:0:
475,192,269675,1,0,0:0:0:0:
329,192,269762,1,0,0:0:0:0:
256,192,269850,1,0,0:0:0:0:
475,192,269850,1,0,0:0:0:0:
36,192,269850,1,0,0:0:0:0:
109,192,269850,1,0,0:0:0:0:
182,192,269938,1,0,0:0:0:0:
329,192,269938,1,0,0:0:0:0:
475,192,270025,1,0,0:0:0:0:
256,192,270025,1,0,0:0:0:0:
36,192,270025,1,0,0:0:0:0:
402,192,270025,1,0,0:0:0:0:
109,192,270025,1,0,0:0:0:0:
402,192,270376,1,0,0:0:0:0:
475,192,270376,1,0,0:0:0:0:
36,192,270376,1,0,0:0:0:0:
109,192,270376,1,0,0:0:0:0:
182,192,270376,1,0,0:0:0:0:
256,192,270376,1,0,0:0:0:0:
109,192,270727,1,0,0:0:0:0:
36,192,270727,1,0,0:0:0:0:
329,192,270727,1,0,0:0:0:0:
402,192,270727,1,0,0:0:0:0:
256,192,270727,1,0,0:0:0:0:
475,192,270727,1,0,0:0:0:0:
329,192,271078,1,0,0:0:0:0:
402,192,271078,1,0,0:0:0:0:
475,192,271078,1,0,0:0:0:0:
109,192,271078,1,0,0:0:0:0:
182,192,271078,1,0,0:0:0:0:
36,192,271078,1,0,0:0:0:0:
109,192,271429,128,0,272656:0:0:0:0:
36,192,271429,128,0,272656:0:0:0:0:
256,192,271429,128,0,272656:0:0:0:0:
402,192,271429,128,0,272656:0:0:0:0:
475,192,271429,128,0,272656:0:0:0:0:
182,192,272656,128,0,272889:0:0:0:0:
36,192,272889,1,0,0:0:0:0:
109,192,272889,1,0,0:0:0:0:
402,192,272889,128,0,273240:0:0:0:0:
475,192,273240,1,0,0:0:0:0:
256,192,273240,128,0,273357:0:0:0:0:
109,192,273240,1,0,0:0:0:0:
36,192,273591,1,0,0:0:0:0:
329,192,273591,128,0,273708:0:0:0:0:
182,192,273708,1,0,0:0:0:0:
256,192,273942,128,0,274410:0:0:0:0:
475,192,274410,1,0,0:0:0:0:
329,192,274410,1,0,0:0:0:0:
109,192,274410,128,0,274760:0:0:0:0:
402,192,274760,1,0,0:0:0:0:
182,192,274760,128,0,274994:0:0:0:0:
402,192,274994,1,0,0:0:0:0:
36,192,274994,128,0,275111:0:0:0:0:
182,192,275111,1,0,0:0:0:0:
329,192,275111,1,0,0:0:0:0:
256,192,275345,128,0,275462:0:0:0:0:
182,192,275755,1,0,0:0:0:0:
36,192,275755,1,0,0:0:0:0:
402,192,275755,128,0,276515:0:0:0:0:
329,192,275871,1,0,0:0:0:0:
109,192,276105,1,0,0:0:0:0:
182,192,276222,1,0,0:0:0:0:
36,192,276515,128,0,276924:0:0:0:0:
256,192,276515,1,0,0:0:0:0:
475,192,276632,1,0,0:0:0:0:
329,192,276632,1,0,0:0:0:0:
182,192,276924,128,0,277041:0:0:0:0:
329,192,277041,128,0,277275:0:0:0:0:
402,192,277275,128,0,277450:0:0:0:0:
36,192,277450,1,0,0:0:0:0:
182,192,277450,1,0,0:0:0:0:
109,192,277450,1,0,0:0:0:0:
475,192,277450,128,0,278327:0:0:0:0:
256,192,277450,1,0,0:0:0:0:
182,192,278502,128,0,278736:0:0:0:0:
256,192,278736,128,0,278970:0:0:0:0:
36,192,278970,1,0,0:0:0:0:
475,192,278970,1,0,0:0:0:0:
402,192,278970,1,0,0:0:0:0:
109,192,278970,1,0,0:0:0:0:
329,192,278970,128,0,279905:0:0:0:0:
36,192,280315,128,0,280548:0:0:0:0:
182,192,280548,128,0,280783:0:0:0:0:
402,192,280783,1,0,0:0:0:0:
475,192,280783,1,0,0:0:0:0:
36,192,280783,1,0,0:0:0:0:
256,192,280783,128,0,282010:0:0:0:0:
109,192,280783,1,0,0:0:0:0:
402,192,282010,128,0,282536:0:0:0:0:
109,192,282536,128,0,283121:0:0:0:0:
36,192,283121,1,0,0:0:0:0:
475,192,283121,1,0,0:0:0:0:
329,192,283121,128,0,283764:0:0:0:0:
256,192,283121,1,0,0:0:0:0:
182,192,283764,128,0,285167:0:0:0:0:
36,192,284407,128,0,285167:0:0:0:0:
475,192,284407,128,0,289377:0:0:0:0:
329,192,285167,128,0,289436:0:0:0:0:
36,192,285810,1,0,0:0:0:0:
109,192,285898,1,0,0:0:0:0:
182,192,285986,128,0,289494:0:0:0:0:
109,192,287740,128,0,287857:0:0:0:0:
256,192,287798,128,0,287915:0:0:0:0:
475,192,289494,128,0,289626:0:0:0:0:
36,192,289538,128,0,289626:0:0:0:0:
329,192,289538,128,0,289670:0:0:0:0:
109,192,289582,128,0,289670:0:0:0:0:
182,192,289626,128,0,289714:0:0:0:0:
256,192,289670,128,0,289757:0:0:0:0:
