osu file format v14

[General]
AudioFilename: audio.mp3
AudioLeadIn: 0
PreviewTime: 203898
Countdown: 0
SampleSet: None
StackLeniency: 0.7
Mode: 3
LetterboxInBreaks: 0
SpecialStyle: 0
WidescreenStoryboard: 0

[Editor]
Bookmarks: 23403,35402,45902,68568,111235,157902,168566,193898,194177,247231,252564
DistanceSpacing: 1.1
BeatDivisor: 8
GridSize: 4
TimelineZoom: 1.4

[Metadata]
Title:Shironaga Star Jet
TitleUnicode:シロナガスタージェット
Artist:ponkichi
ArtistUnicode:ぽんきち
Creator:Kawawa
Version:Chiptune M4STER!!(180)
Source:
Tags:
BeatmapID:1902650
BeatmapSetID:911493

[Difficulty]
HPDrainRate:8
CircleSize:7
OverallDifficulty:8
ApproachRate:5
SliderMultiplier:1.4
SliderTickRate:1

[Events]
//Background and Video events
0,0,"2131.jpg",0,0
//Break Periods
//Storyboard Layer 0 (Background)
//Storyboard Layer 1 (Fail)
//Storyboard Layer 2 (Pass)
//Storyboard Layer 3 (Foreground)
//Storyboard Sound Samples

[TimingPoints]
2071,333.333333333333,4,2,0,0,1,0
12570,333.333333333333,4,2,0,0,1,0
17236,-45.4545454545455,4,2,0,0,0,0
17319,-166.666666666667,4,2,0,0,0,0
17569,-45.4545454545455,4,2,0,0,0,0
17652,-166.666666666667,4,2,0,0,0,0
17903,-100,4,2,0,0,0,0
21903,333.333333333333,5,2,0,0,1,0
23403,333.333333333333,4,2,0,0,1,0
40569,333.333333333333,4,2,0,0,1,0
55235,-45.4545454545455,4,2,0,0,0,0
55318,-166.666666666667,4,2,0,0,0,0
55568,-45.4545454545455,4,2,0,0,0,0
55652,-166.666666666667,4,2,0,0,0,0
55902,-45.4545454545455,4,2,0,0,0,0
55985,-166.666666666667,4,2,0,0,0,0
56235,-45.4545454545455,4,2,0,0,0,0
56318,-166.666666666667,4,2,0,0,0,0
56568,-100,4,2,0,0,0,0
67568,-105.263157894737,4,2,0,0,0,0
68068,-111.111111111111,4,2,0,0,0,0
68568,-117.647058823529,4,2,0,0,0,0
76180,-113.636363636364,4,2,0,0,0,0
76291,-108.695652173913,4,2,0,0,0,0
76402,-105.263157894737,4,2,0,0,0,0
76513,-102.040816326531,4,2,0,0,0,0
76624,-100,4,2,0,0,0,0
78568,-45.4545454545455,4,2,0,0,0,0
78651,-166.666666666667,4,2,0,0,0,0
78902,-45.4545454545455,4,2,0,0,0,0
78985,-166.666666666667,4,2,0,0,0,0
79235,-100,4,2,0,0,0,0
87902,-45.4545454545455,4,2,0,0,0,0
87985,-166.666666666667,4,2,0,0,0,0
88235,-45.4545454545455,4,2,0,0,0,0
88318,-166.666666666667,4,2,0,0,0,0
88568,-100,4,2,0,0,0,0
110235,-45.4545454545455,4,2,0,0,0,0
110277,-166.666666666667,4,2,0,0,0,0
110402,-45.4545454545455,4,2,0,0,0,0
110444,-166.666666666667,4,2,0,0,0,0
110568,-45.4545454545455,4,2,0,0,0,0
110610,-166.666666666667,4,2,0,0,0,0
110735,333.333333333333,4,2,0,0,1,0
110735,-102.040816326531,4,2,0,0,0,0
110818,-104.166666666667,4,2,0,0,0,0
110901,-106.382978723404,4,2,0,0,0,0
110985,-108.695652173913,4,2,0,0,0,0
111068,-111.111111111111,4,2,0,0,0,0
111123,-112.359550561798,4,2,0,0,0,0
111179,-113.636363636364,4,2,0,0,0,0
111235,-114.942528735632,4,2,0,0,0,0
111290,-116.279069767442,4,2,0,0,0,0
111346,-117.647058823529,4,2,0,0,0,0
111401,333.333333333333,4,2,0,0,1,0
111401,-119.047619047619,4,2,0,0,0,0
121400,-119.047619047619,4,2,0,0,0,0
121484,-116.279069767442,4,2,0,0,0,0
121567,-113.636363636364,4,2,0,0,0,0
121650,-111.111111111111,4,2,0,0,0,0
121734,-108.695652173913,4,2,0,0,0,0
121817,-106.382978723404,4,2,0,0,0,0
121900,-104.166666666667,4,2,0,0,0,0
121984,-102.040816326531,4,2,0,0,0,0
122067,-100,4,2,0,0,0,0
126567,-45.4545454545455,4,2,0,0,0,0
126609,-166.666666666667,4,2,0,0,0,0
126733,-45.4545454545455,4,2,0,0,0,0
126775,-166.666666666667,4,2,0,0,0,0
126900,-45.4545454545455,4,2,0,0,0,0
126942,-166.666666666667,4,2,0,0,0,0
127067,-45.4545454545455,4,2,0,0,0,0
127109,-166.666666666667,4,2,0,0,0,0
127234,-100,4,2,0,0,0,0
134067,-142.857142857143,4,2,0,0,0,0
147067,-119.047619047619,4,2,0,0,0,0
152067,-45.4545454545455,4,2,0,0,0,0
152109,-166.666666666667,4,2,0,0,0,0
152234,-45.4545454545455,4,2,0,0,0,0
152276,-166.666666666667,4,2,0,0,0,0
152400,-45.4545454545455,4,2,0,0,0,0
152442,-166.666666666667,4,2,0,0,0,0
152567,-45.4545454545455,4,2,0,0,0,0
152609,-166.666666666667,4,2,0,0,0,0
152734,-100,4,2,0,0,0,0
157900,333.333333333333,4,2,0,0,1,0
173233,-45.4545454545455,4,2,0,0,0,0
173316,-166.666666666667,4,2,0,0,0,0
173566,-45.4545454545455,4,2,0,0,0,0
173649,-166.666666666667,4,2,0,0,0,0
173899,-100,4,2,0,0,0,0
180566,333.333333333333,5,2,0,0,1,0
180566,-117.647058823529,5,2,0,0,0,0
182066,333.333333333333,5,2,0,0,1,0
182066,-117.647058823529,5,2,0,0,0,0
189732,-116.279069767442,5,2,0,0,0,0
189954,-114.942528735632,5,2,0,0,0,0
190066,-113.636363636364,5,2,0,0,0,0
190121,-112.359550561798,5,2,0,0,0,0
190177,-111.111111111111,5,2,0,0,0,0
190232,-109.89010989011,5,2,0,0,0,0
190288,-108.695652173913,5,2,0,0,0,0
190343,-107.52688172043,5,2,0,0,0,0
190399,-106.382978723404,5,2,0,0,0,0
190454,-105.263157894737,5,2,0,0,0,0
190510,-104.166666666667,5,2,0,0,0,0
190566,-103.092783505155,5,2,0,0,0,0
190621,-102.040816326531,5,2,0,0,0,0
190677,-101.010101010101,5,2,0,0,0,0
190732,-100,5,2,0,0,0,0
193232,333.333333333333,4,2,0,0,1,0
193232,-45.4545454545455,4,2,0,0,0,0
193315,-166.666666666667,4,2,0,0,0,0
193565,-45.4545454545455,4,2,0,0,0,0
193648,-166.666666666667,4,2,0,0,0,0
193898,333.333333333333,4,2,0,0,1,0
202564,-45.4545454545455,4,2,0,0,0,0
202647,-166.666666666667,4,2,0,0,0,0
202898,-45.4545454545455,4,2,0,0,0,0
202981,-166.666666666667,4,2,0,0,0,0
203231,-100,4,2,0,0,0,0
224897,-45.4545454545455,4,2,0,0,0,0
224939,-166.666666666667,4,2,0,0,0,0
225064,-45.4545454545455,4,2,0,0,0,0
225106,-166.666666666667,4,2,0,0,0,0
225230,-45.4545454545455,4,2,0,0,0,0
225272,-166.666666666667,4,2,0,0,0,0
225397,-100,4,2,0,0,0,0
251231,-45.4545454545455,4,2,0,0,0,0
251314,-166.666666666667,4,2,0,0,0,0
251564,-45.4545454545455,4,2,0,0,0,0
251647,-166.666666666667,4,2,0,0,0,0
251897,-45.4545454545455,4,2,0,0,0,0
251980,-166.666666666667,4,2,0,0,0,0
252231,-45.4545454545455,4,2,0,0,0,0
252314,-166.666666666667,4,2,0,0,0,0
252564,-100,4,2,0,0,0,0
256564,-45.4545454545455,4,2,0,0,0,0
256647,-166.666666666667,4,2,0,0,0,0
256897,-45.4545454545455,4,2,0,0,0,0
256980,-166.666666666667,4,2,0,0,0,0
257230,-45.4545454545455,4,2,0,0,0,0
257313,-166.666666666667,4,2,0,0,0,0
257564,-45.4545454545455,4,2,0,0,0,0
257647,-166.666666666667,4,2,0,0,0,0
257897,-117.647058823529,4,2,0,0,0,0
259064,333.333333333333,6,2,0,0,1,0
259064,-117.647058823529,6,2,0,0,0,0
260730,333.333333333333,6,2,0,0,1,0
260730,-117.647058823529,6,2,0,0,0,0
263618,333.333333333333,6,2,0,0,1,0
263618,-121.951219512195,6,2,0,0,0,0
265062,333.333333333333,6,2,0,0,1,0
265062,-126.582278481013,6,2,0,0,0,0
266784,333.333333333333,6,2,0,0,1,0
266784,-131.578947368421,6,2,0,0,0,0
267950,333.333333333333,6,2,0,0,1,0
267950,-136.986301369863,6,2,0,0,0,0
269005,333.333333333333,6,2,0,0,1,0
269005,-142.857142857143,6,2,0,0,0,0
270227,333.333333333333,6,2,0,0,1,0
270227,-142.857142857143,6,2,0,0,0,0
271727,333.333333333333,6,2,0,0,1,0
271727,-149.253731343284,6,2,0,0,0,0

[HitObjects]
475,192,1626,128,0,1737:0:0:0:0:
329,192,1737,128,0,1848:0:0:0:0:
182,192,1737,1,0,0:0:0:0:
402,192,1959,128,0,2070:0:0:0:0:
182,192,1959,1,0,0:0:0:0:
256,192,2070,128,0,2737:0:0:0:0:
36,192,2070,1,0,0:0:0:0:
109,192,2070,1,0,0:0:0:0:
475,192,2404,1,0,0:0:0:0:
475,192,2626,1,0,0:0:0:0:
36,192,2737,128,0,3404:0:0:0:0:
329,192,2737,1,0,0:0:0:0:
182,192,2737,1,0,0:0:0:0:
329,192,2959,1,0,0:0:0:0:
109,192,3070,128,0,3404:0:0:0:0:
475,192,3070,1,0,0:0:0:0:
182,192,3293,128,0,3404:0:0:0:0:
329,192,3293,1,0,0:0:0:0:
475,192,3404,1,0,0:0:0:0:
329,192,3626,128,0,3737:0:0:0:0:
36,192,3626,1,0,0:0:0:0:
182,192,3737,1,0,0:0:0:0:
402,192,3959,128,0,4070:0:0:0:0:
36,192,3959,1,0,0:0:0:0:
182,192,4070,1,0,0:0:0:0:
475,192,4293,128,0,5070:0:0:0:0:
329,192,4293,1,0,0:0:0:0:
182,192,4404,1,0,0:0:0:0:
256,192,4515,1,0,0:0:0:0:
109,192,4626,1,0,0:0:0:0:
402,192,4737,128,0,5070:0:0:0:0:
182,192,4737,1,0,0:0:0:0:
36,192,4737,1,0,0:0:0:0:
182,192,4959,1,0,0:0:0:0:
36,192,5070,128,0,5404:0:0:0:0:
329,192,5070,1,0,0:0:0:0:
475,192,5293,128,0,5404:0:0:0:0:
329,192,5293,1,0,0:0:0:0:
109,192,5404,1,0,0:0:0:0:
256,192,5404,1,0,0:0:0:0:
402,192,5626,128,0,5737:0:0:0:0:
182,192,5626,1,0,0:0:0:0:
402,192,5959,128,0,6904:0:0:0:0:
36,192,5959,1,0,0:0:0:0:
182,192,6070,1,0,0:0:0:0:
36,192,6293,1,0,0:0:0:0:
182,192,6404,1,0,0:0:0:0:
109,192,6570,128,0,6904:0:0:0:0:
256,192,6570,128,0,6904:0:0:0:0:
36,192,6904,128,0,7070:0:0:0:0:
329,192,6904,128,0,7070:0:0:0:0:
109,192,7070,128,0,7237:0:0:0:0:
475,192,7070,128,0,7237:0:0:0:0:
182,192,7237,128,0,7404:0:0:0:0:
329,192,7237,128,0,7404:0:0:0:0:
402,192,7404,1,0,0:0:0:0:
36,192,7404,1,0,0:0:0:0:
475,192,7404,1,0,0:0:0:0:
256,192,7404,128,0,8404:0:0:0:0:
109,192,7487,1,0,0:0:0:0:
182,192,7570,1,0,0:0:0:0:
329,192,7570,1,0,0:0:0:0:
402,192,7654,1,0,0:0:0:0:
36,192,7654,1,0,0:0:0:0:
475,192,7737,1,0,0:0:0:0:
182,192,7737,1,0,0:0:0:0:
329,192,7820,1,0,0:0:0:0:
109,192,7820,1,0,0:0:0:0:
36,192,7904,1,0,0:0:0:0:
402,192,7904,1,0,0:0:0:0:
475,192,7987,1,0,0:0:0:0:
182,192,7987,1,0,0:0:0:0:
36,192,8070,1,0,0:0:0:0:
329,192,8070,1,0,0:0:0:0:
402,192,8154,1,0,0:0:0:0:
109,192,8154,1,0,0:0:0:0:
182,192,8237,1,0,0:0:0:0:
475,192,8237,1,0,0:0:0:0:
402,192,8320,1,0,0:0:0:0:
329,192,8404,1,0,0:0:0:0:
182,192,8404,1,0,0:0:0:0:
109,192,8404,1,0,0:0:0:0:
36,192,8404,1,0,0:0:0:0:
475,192,8404,1,0,0:0:0:0:
36,192,8570,128,0,9570:0:0:0:0:
109,192,8570,1,0,0:0:0:0:
475,192,8570,1,0,0:0:0:0:
329,192,8570,1,0,0:0:0:0:
402,192,8570,1,0,0:0:0:0:
182,192,8570,1,0,0:0:0:0:
256,192,8654,1,0,0:0:0:0:
182,192,8737,1,0,0:0:0:0:
475,192,8737,1,0,0:0:0:0:
402,192,8820,1,0,0:0:0:0:
182,192,8904,1,0,0:0:0:0:
329,192,8904,1,0,0:0:0:0:
109,192,8904,1,0,0:0:0:0:
256,192,8987,1,0,0:0:0:0:
475,192,8987,1,0,0:0:0:0:
402,192,8987,1,0,0:0:0:0:
109,192,9070,1,0,0:0:0:0:
329,192,9070,1,0,0:0:0:0:
182,192,9154,1,0,0:0:0:0:
475,192,9154,1,0,0:0:0:0:
256,192,9237,1,0,0:0:0:0:
402,192,9237,1,0,0:0:0:0:
182,192,9320,1,0,0:0:0:0:
475,192,9404,1,0,0:0:0:0:
329,192,9404,1,0,0:0:0:0:
109,192,9404,1,0,0:0:0:0:
402,192,9487,1,0,0:0:0:0:
256,192,9487,1,0,0:0:0:0:
182,192,9487,1,0,0:0:0:0:
329,192,9570,1,0,0:0:0:0:
475,192,9570,1,0,0:0:0:0:
109,192,9570,1,0,0:0:0:0:
256,192,9654,1,0,0:0:0:0:
182,192,9737,1,0,0:0:0:0:
36,192,9737,1,0,0:0:0:0:
402,192,9737,1,0,0:0:0:0:
475,192,9737,1,0,0:0:0:0:
109,192,9737,1,0,0:0:0:0:
329,192,9737,1,0,0:0:0:0:
475,192,9904,128,0,11320:0:0:0:0:
36,192,9904,1,0,0:0:0:0:
109,192,9904,1,0,0:0:0:0:
256,192,9904,1,0,0:0:0:0:
402,192,9904,1,0,0:0:0:0:
329,192,9987,1,0,0:0:0:0:
256,192,10070,1,0,0:0:0:0:
36,192,10070,1,0,0:0:0:0:
109,192,10154,1,0,0:0:0:0:
182,192,10237,1,0,0:0:0:0:
329,192,10237,1,0,0:0:0:0:
402,192,10237,1,0,0:0:0:0:
256,192,10320,1,0,0:0:0:0:
109,192,10320,1,0,0:0:0:0:
36,192,10320,1,0,0:0:0:0:
402,192,10404,1,0,0:0:0:0:
329,192,10404,1,0,0:0:0:0:
182,192,10404,1,0,0:0:0:0:
36,192,10487,1,0,0:0:0:0:
109,192,10570,1,0,0:0:0:0:
256,192,10570,1,0,0:0:0:0:
329,192,10654,1,0,0:0:0:0:
402,192,10737,1,0,0:0:0:0:
182,192,10737,1,0,0:0:0:0:
36,192,10737,1,0,0:0:0:0:
256,192,10820,1,0,0:0:0:0:
109,192,10820,1,0,0:0:0:0:
329,192,10904,1,0,0:0:0:0:
182,192,10904,1,0,0:0:0:0:
109,192,10987,1,0,0:0:0:0:
402,192,10987,1,0,0:0:0:0:
36,192,11070,1,0,0:0:0:0:
329,192,11070,1,0,0:0:0:0:
256,192,11070,1,0,0:0:0:0:
182,192,11154,1,0,0:0:0:0:
109,192,11237,1,0,0:0:0:0:
402,192,11237,1,0,0:0:0:0:
329,192,11320,1,0,0:0:0:0:
182,192,11320,1,0,0:0:0:0:
256,192,11404,1,0,0:0:0:0:
109,192,11404,1,0,0:0:0:0:
36,192,11404,1,0,0:0:0:0:
475,192,11404,1,0,0:0:0:0:
402,192,11404,1,0,0:0:0:0:
109,192,11570,1,0,0:0:0:0:
182,192,11570,1,0,0:0:0:0:
329,192,11570,1,0,0:0:0:0:
402,192,11570,1,0,0:0:0:0:
256,192,11654,1,0,0:0:0:0:
475,192,11654,1,0,0:0:0:0:
36,192,11654,1,0,0:0:0:0:
109,192,11737,1,0,0:0:0:0:
182,192,11737,1,0,0:0:0:0:
329,192,11737,1,0,0:0:0:0:
402,192,11737,1,0,0:0:0:0:
36,192,11904,1,0,0:0:0:0:
182,192,11904,1,0,0:0:0:0:
329,192,11904,1,0,0:0:0:0:
475,192,11904,1,0,0:0:0:0:
109,192,11904,1,0,0:0:0:0:
402,192,11904,1,0,0:0:0:0:
256,192,11987,1,0,0:0:0:0:
109,192,12070,1,0,0:0:0:0:
402,192,12070,1,0,0:0:0:0:
182,192,12154,1,0,0:0:0:0:
329,192,12154,1,0,0:0:0:0:
109,192,12237,1,0,0:0:0:0:
402,192,12237,1,0,0:0:0:0:
256,192,12237,1,0,0:0:0:0:
475,192,12237,1,0,0:0:0:0:
36,192,12237,1,0,0:0:0:0:
182,192,12404,1,0,0:0:0:0:
36,192,12404,1,0,0:0:0:0:
329,192,12404,1,0,0:0:0:0:
475,192,12404,1,0,0:0:0:0:
256,192,12570,1,0,0:0:0:0:
402,192,12570,1,0,0:0:0:0:
475,192,12570,1,0,0:0:0:0:
36,192,12570,1,0,0:0:0:0:
109,192,12570,1,0,0:0:0:0:
109,192,12736,1,0,0:0:0:0:
402,192,12736,1,0,0:0:0:0:
182,192,12820,1,0,0:0:0:0:
329,192,12820,1,0,0:0:0:0:
256,192,12903,1,0,0:0:0:0:
475,192,12903,1,0,0:0:0:0:
36,192,12903,1,0,0:0:0:0:
402,192,12986,1,0,0:0:0:0:
109,192,12986,1,0,0:0:0:0:
329,192,13070,1,0,0:0:0:0:
182,192,13070,1,0,0:0:0:0:
36,192,13070,1,0,0:0:0:0:
256,192,13153,1,0,0:0:0:0:
109,192,13153,1,0,0:0:0:0:
475,192,13236,1,0,0:0:0:0:
182,192,13236,1,0,0:0:0:0:
402,192,13236,1,0,0:0:0:0:
109,192,13320,1,0,0:0:0:0:
329,192,13320,1,0,0:0:0:0:
36,192,13403,1,0,0:0:0:0:
475,192,13403,1,0,0:0:0:0:
256,192,13403,1,0,0:0:0:0:
402,192,13403,1,0,0:0:0:0:
182,192,13569,1,0,0:0:0:0:
329,192,13569,1,0,0:0:0:0:
36,192,13569,1,0,0:0:0:0:
402,192,13653,1,0,0:0:0:0:
109,192,13653,1,0,0:0:0:0:
475,192,13736,1,0,0:0:0:0:
256,192,13736,1,0,0:0:0:0:
36,192,13736,1,0,0:0:0:0:
36,192,13903,128,0,14153:0:0:0:0:
475,192,13903,128,0,14153:0:0:0:0:
109,192,13903,1,0,0:0:0:0:
256,192,13903,1,0,0:0:0:0:
402,192,13903,1,0,0:0:0:0:
182,192,14069,1,0,0:0:0:0:
329,192,14069,1,0,0:0:0:0:
36,192,14236,1,0,0:0:0:0:
256,192,14236,1,0,0:0:0:0:
402,192,14236,1,0,0:0:0:0:
109,192,14319,1,0,0:0:0:0:
329,192,14319,1,0,0:0:0:0:
182,192,14403,1,0,0:0:0:0:
402,192,14403,1,0,0:0:0:0:
475,192,14403,1,0,0:0:0:0:
256,192,14486,1,0,0:0:0:0:
36,192,14486,1,0,0:0:0:0:
475,192,14569,1,0,0:0:0:0:
329,192,14569,1,0,0:0:0:0:
109,192,14569,1,0,0:0:0:0:
256,192,14736,1,0,0:0:0:0:
402,192,14736,1,0,0:0:0:0:
36,192,14736,1,0,0:0:0:0:
109,192,14819,1,0,0:0:0:0:
329,192,14819,1,0,0:0:0:0:
402,192,14903,1,0,0:0:0:0:
182,192,14903,1,0,0:0:0:0:
475,192,14903,1,0,0:0:0:0:
36,192,14986,1,0,0:0:0:0:
256,192,14986,1,0,0:0:0:0:
329,192,15069,1,0,0:0:0:0:
109,192,15069,1,0,0:0:0:0:
475,192,15069,1,0,0:0:0:0:
329,192,15236,1,0,0:0:0:0:
402,192,15236,1,0,0:0:0:0:
475,192,15236,1,0,0:0:0:0:
182,192,15236,128,0,15486:0:0:0:0:
36,192,15236,128,0,15486:0:0:0:0:
256,192,15403,1,0,0:0:0:0:
402,192,15403,1,0,0:0:0:0:
36,192,15569,1,0,0:0:0:0:
182,192,15569,1,0,0:0:0:0:
329,192,15569,1,0,0:0:0:0:
256,192,15653,1,0,0:0:0:0:
402,192,15653,1,0,0:0:0:0:
109,192,15736,1,0,0:0:0:0:
329,192,15736,1,0,0:0:0:0:
475,192,15736,1,0,0:0:0:0:
36,192,15736,1,0,0:0:0:0:
36,192,15903,1,0,0:0:0:0:
109,192,15903,1,0,0:0:0:0:
402,192,15903,1,0,0:0:0:0:
256,192,15903,1,0,0:0:0:0:
182,192,16069,1,0,0:0:0:0:
475,192,16069,1,0,0:0:0:0:
329,192,16069,1,0,0:0:0:0:
36,192,16069,1,0,0:0:0:0:
109,192,16153,1,0,0:0:0:0:
36,192,16236,1,0,0:0:0:0:
402,192,16236,1,0,0:0:0:0:
256,192,16236,1,0,0:0:0:0:
182,192,16319,1,0,0:0:0:0:
475,192,16319,1,0,0:0:0:0:
109,192,16403,1,0,0:0:0:0:
256,192,16403,1,0,0:0:0:0:
402,192,16403,1,0,0:0:0:0:
36,192,16403,1,0,0:0:0:0:
36,192,16569,1,0,0:0:0:0:
182,192,16569,1,0,0:0:0:0:
402,192,16569,128,0,16819:0:0:0:0:
475,192,16569,128,0,16819:0:0:0:0:
329,192,16569,1,0,0:0:0:0:
109,192,16653,1,0,0:0:0:0:
256,192,16736,1,0,0:0:0:0:
182,192,16819,1,0,0:0:0:0:
475,192,16903,1,0,0:0:0:0:
329,192,16903,1,0,0:0:0:0:
36,192,16903,1,0,0:0:0:0:
182,192,16986,1,0,0:0:0:0:
402,192,16986,1,0,0:0:0:0:
109,192,17069,1,0,0:0:0:0:
475,192,17069,1,0,0:0:0:0:
256,192,17153,1,0,0:0:0:0:
402,192,17153,1,0,0:0:0:0:
329,192,17236,1,0,0:0:0:0:
475,192,17236,1,0,0:0:0:0:
182,192,17236,1,0,0:0:0:0:
109,192,17236,1,0,0:0:0:0:
36,192,17236,1,0,0:0:0:0:
36,192,17569,1,0,0:0:0:0:
109,192,17569,1,0,0:0:0:0:
256,192,17569,1,0,0:0:0:0:
402,192,17569,1,0,0:0:0:0:
475,192,17569,1,0,0:0:0:0:
256,192,17903,1,0,0:0:0:0:
475,192,17903,1,0,0:0:0:0:
402,192,17903,1,0,0:0:0:0:
109,192,17903,128,0,18153:0:0:0:0:
36,192,17903,128,0,18153:0:0:0:0:
182,192,18069,1,0,0:0:0:0:
329,192,18069,1,0,0:0:0:0:
402,192,18236,1,0,0:0:0:0:
36,192,18236,1,0,0:0:0:0:
256,192,18236,1,0,0:0:0:0:
475,192,18319,1,0,0:0:0:0:
182,192,18319,1,0,0:0:0:0:
256,192,18403,1,0,0:0:0:0:
402,192,18403,1,0,0:0:0:0:
36,192,18403,1,0,0:0:0:0:
109,192,18486,1,0,0:0:0:0:
329,192,18486,1,0,0:0:0:0:
182,192,18569,1,0,0:0:0:0:
475,192,18569,1,0,0:0:0:0:
109,192,18653,1,0,0:0:0:0:
256,192,18653,1,0,0:0:0:0:
402,192,18653,1,0,0:0:0:0:
182,192,18736,1,0,0:0:0:0:
475,192,18736,1,0,0:0:0:0:
329,192,18736,1,0,0:0:0:0:
36,192,18736,1,0,0:0:0:0:
36,192,18903,1,0,0:0:0:0:
256,192,18903,1,0,0:0:0:0:
402,192,18903,1,0,0:0:0:0:
109,192,18958,1,0,0:0:0:0:
329,192,18986,1,0,0:0:0:0:
182,192,19014,1,0,0:0:0:0:
256,192,19069,1,0,0:0:0:0:
402,192,19069,1,0,0:0:0:0:
475,192,19069,1,0,0:0:0:0:
36,192,19069,1,0,0:0:0:0:
109,192,19236,1,0,0:0:0:0:
182,192,19236,1,0,0:0:0:0:
36,192,19236,1,0,0:0:0:0:
329,192,19236,128,0,19486:0:0:0:0:
475,192,19236,128,0,19486:0:0:0:0:
109,192,19403,1,0,0:0:0:0:
256,192,19403,1,0,0:0:0:0:
475,192,19569,1,0,0:0:0:0:
36,192,19569,1,0,0:0:0:0:
402,192,19625,1,0,0:0:0:0:
182,192,19625,1,0,0:0:0:0:
329,192,19681,1,0,0:0:0:0:
109,192,19681,1,0,0:0:0:0:
256,192,19736,1,0,0:0:0:0:
36,192,19736,1,0,0:0:0:0:
475,192,19736,1,0,0:0:0:0:
402,192,19819,1,0,0:0:0:0:
182,192,19819,1,0,0:0:0:0:
329,192,19903,1,0,0:0:0:0:
109,192,19903,1,0,0:0:0:0:
402,192,19958,1,0,0:0:0:0:
182,192,19958,1,0,0:0:0:0:
475,192,20014,1,0,0:0:0:0:
256,192,20014,1,0,0:0:0:0:
109,192,20069,1,0,0:0:0:0:
36,192,20069,1,0,0:0:0:0:
329,192,20069,1,0,0:0:0:0:
256,192,20153,1,0,0:0:0:0:
475,192,20153,1,0,0:0:0:0:
402,192,20236,1,0,0:0:0:0:
182,192,20236,1,0,0:0:0:0:
36,192,20236,1,0,0:0:0:0:
329,192,20319,1,0,0:0:0:0:
109,192,20319,1,0,0:0:0:0:
475,192,20403,1,0,0:0:0:0:
36,192,20403,1,0,0:0:0:0:
256,192,20403,1,0,0:0:0:0:
402,192,20403,1,0,0:0:0:0:
329,192,20486,1,0,0:0:0:0:
182,192,20486,1,0,0:0:0:0:
475,192,20569,1,0,0:0:0:0:
36,192,20569,1,0,0:0:0:0:
402,192,20569,1,0,0:0:0:0:
109,192,20569,1,0,0:0:0:0:
256,192,20569,128,0,20903:0:0:0:0:
36,192,20903,1,0,0:0:0:0:
182,192,20903,1,0,0:0:0:0:
329,192,20903,1,0,0:0:0:0:
475,192,20903,1,0,0:0:0:0:
109,192,20986,1,0,0:0:0:0:
402,192,20986,1,0,0:0:0:0:
182,192,21069,1,0,0:0:0:0:
36,192,21069,1,0,0:0:0:0:
329,192,21069,1,0,0:0:0:0:
475,192,21069,1,0,0:0:0:0:
36,192,21236,1,0,0:0:0:0:
109,192,21236,1,0,0:0:0:0:
256,192,21236,1,0,0:0:0:0:
402,192,21236,1,0,0:0:0:0:
475,192,21236,1,0,0:0:0:0:
329,192,21319,1,0,0:0:0:0:
182,192,21319,1,0,0:0:0:0:
256,192,21403,1,0,0:0:0:0:
402,192,21403,1,0,0:0:0:0:
475,192,21403,1,0,0:0:0:0:
109,192,21403,1,0,0:0:0:0:
36,192,21403,1,0,0:0:0:0:
182,192,21569,1,0,0:0:0:0:
329,192,21569,1,0,0:0:0:0:
182,192,21736,1,0,0:0:0:0:
329,192,21736,1,0,0:0:0:0:
475,192,21736,1,0,0:0:0:0:
36,192,21736,1,0,0:0:0:0:
109,192,21903,1,0,0:0:0:0:
256,192,21903,1,0,0:0:0:0:
402,192,21903,1,0,0:0:0:0:
36,192,21903,128,0,23319:0:0:0:0:
475,192,21903,128,0,23319:0:0:0:0:
256,192,23403,128,0,23486:0:0:0:0:
36,192,23403,128,0,23486:0:0:0:0:
475,192,23403,128,0,23486:0:0:0:0:
36,192,24319,1,0,0:0:0:0:
109,192,24361,1,0,0:0:0:0:
475,192,24403,128,0,24736:0:0:0:0:
182,192,24403,1,0,0:0:0:0:
329,192,24736,128,0,25069:0:0:0:0:
36,192,24736,1,0,0:0:0:0:
182,192,24736,1,0,0:0:0:0:
475,192,25069,128,0,25236:0:0:0:0:
36,192,25069,1,0,0:0:0:0:
182,192,25069,1,0,0:0:0:0:
402,192,25236,128,0,25402:0:0:0:0:
182,192,25402,1,0,0:0:0:0:
36,192,25402,1,0,0:0:0:0:
475,192,25569,128,0,25902:0:0:0:0:
36,192,25736,1,0,0:0:0:0:
182,192,25736,1,0,0:0:0:0:
109,192,25902,128,0,26902:0:0:0:0:
329,192,26069,1,0,0:0:0:0:
402,192,26069,1,0,0:0:0:0:
329,192,26402,1,0,0:0:0:0:
402,192,26402,1,0,0:0:0:0:
329,192,26736,1,0,0:0:0:0:
402,192,26736,1,0,0:0:0:0:
36,192,27069,128,0,27236:0:0:0:0:
329,192,27069,1,0,0:0:0:0:
402,192,27069,1,0,0:0:0:0:
256,192,27236,128,0,27736:0:0:0:0:
36,192,27402,1,0,0:0:0:0:
109,192,27402,1,0,0:0:0:0:
475,192,27736,128,0,27902:0:0:0:0:
109,192,27736,1,0,0:0:0:0:
36,192,27736,1,0,0:0:0:0:
329,192,27902,128,0,28069:0:0:0:0:
109,192,28069,1,0,0:0:0:0:
36,192,28069,1,0,0:0:0:0:
402,192,28236,128,0,28402:0:0:0:0:
36,192,28402,1,0,0:0:0:0:
109,192,28402,1,0,0:0:0:0:
182,192,28569,128,0,28902:0:0:0:0:
329,192,28736,1,0,0:0:0:0:
475,192,28736,1,0,0:0:0:0:
36,192,28902,128,0,28986:0:0:0:0:
182,192,28986,128,0,29069:0:0:0:0:
109,192,29069,128,0,29152:0:0:0:0:
329,192,29069,1,0,0:0:0:0:
475,192,29069,1,0,0:0:0:0:
36,192,29236,128,0,29402:0:0:0:0:
329,192,29402,1,0,0:0:0:0:
475,192,29402,1,0,0:0:0:0:
182,192,29569,128,0,29736:0:0:0:0:
329,192,29736,1,0,0:0:0:0:
475,192,29736,1,0,0:0:0:0:
109,192,29736,128,0,29902:0:0:0:0:
329,192,29902,128,0,29986:0:0:0:0:
402,192,29944,128,0,30027:0:0:0:0:
475,192,29986,128,0,30236:0:0:0:0:
109,192,30069,1,0,0:0:0:0:
256,192,30069,1,0,0:0:0:0:
402,192,30236,128,0,30319:0:0:0:0:
256,192,30402,1,0,0:0:0:0:
109,192,30402,1,0,0:0:0:0:
402,192,30402,128,0,30902:0:0:0:0:
109,192,30736,1,0,0:0:0:0:
256,192,30736,1,0,0:0:0:0:
329,192,30902,128,0,30986:0:0:0:0:
256,192,31069,1,0,0:0:0:0:
109,192,31069,1,0,0:0:0:0:
402,192,31069,128,0,31152:0:0:0:0:
475,192,31236,128,0,31569:0:0:0:0:
182,192,31402,1,0,0:0:0:0:
36,192,31402,1,0,0:0:0:0:
329,192,31569,128,0,31652:0:0:0:0:
36,192,31736,1,0,0:0:0:0:
182,192,31736,1,0,0:0:0:0:
329,192,31736,128,0,32069:0:0:0:0:
182,192,32069,1,0,0:0:0:0:
36,192,32069,1,0,0:0:0:0:
402,192,32236,128,0,32319:0:0:0:0:
36,192,32402,1,0,0:0:0:0:
182,192,32402,1,0,0:0:0:0:
329,192,32402,128,0,32486:0:0:0:0:
256,192,32569,128,0,32902:0:0:0:0:
402,192,32736,1,0,0:0:0:0:
475,192,32736,1,0,0:0:0:0:
109,192,32902,128,0,32986:0:0:0:0:
36,192,33069,128,0,33236:0:0:0:0:
402,192,33069,1,0,0:0:0:0:
475,192,33069,1,0,0:0:0:0:
182,192,33152,128,0,33319:0:0:0:0:
109,192,33236,128,0,33402:0:0:0:0:
36,192,33319,128,0,33486:0:0:0:0:
182,192,33402,128,0,33569:0:0:0:0:
402,192,33402,1,0,0:0:0:0:
475,192,33402,1,0,0:0:0:0:
36,192,33569,128,0,34902:0:0:0:0:
256,192,33736,128,0,33819:0:0:0:0:
402,192,33736,1,0,0:0:0:0:
475,192,33736,1,0,0:0:0:0:
256,192,33902,128,0,34236:0:0:0:0:
402,192,33902,1,0,0:0:0:0:
475,192,33902,1,0,0:0:0:0:
182,192,34236,128,0,34902:0:0:0:0:
329,192,34402,128,0,34902:0:0:0:0:
475,192,34569,128,0,34902:0:0:0:0:
109,192,35069,128,0,35402:0:0:0:0:
402,192,35402,128,0,35736:0:0:0:0:
182,192,35402,1,0,0:0:0:0:
36,192,35402,1,0,0:0:0:0:
329,192,35402,1,0,0:0:0:0:
182,192,35569,1,0,0:0:0:0:
36,192,35736,128,0,35902:0:0:0:0:
329,192,35736,1,0,0:0:0:0:
475,192,35736,1,0,0:0:0:0:
109,192,35736,1,0,0:0:0:0:
256,192,35902,128,0,36236:0:0:0:0:
329,192,35902,1,0,0:0:0:0:
402,192,36069,1,0,0:0:0:0:
109,192,36069,1,0,0:0:0:0:
36,192,36069,1,0,0:0:0:0:
475,192,36236,128,0,36569:0:0:0:0:
109,192,36236,1,0,0:0:0:0:
182,192,36402,1,0,0:0:0:0:
329,192,36402,1,0,0:0:0:0:
36,192,36402,1,0,0:0:0:0:
109,192,36569,128,0,37402:0:0:0:0:
329,192,36569,1,0,0:0:0:0:
256,192,36736,1,0,0:0:0:0:
475,192,36736,1,0,0:0:0:0:
402,192,36736,1,0,0:0:0:0:
475,192,36902,1,0,0:0:0:0:
182,192,37069,1,0,0:0:0:0:
329,192,37069,1,0,0:0:0:0:
36,192,37069,1,0,0:0:0:0:
329,192,37236,1,0,0:0:0:0:
256,192,37402,1,0,0:0:0:0:
36,192,37402,1,0,0:0:0:0:
475,192,37402,1,0,0:0:0:0:
36,192,37569,1,0,0:0:0:0:
402,192,37736,128,0,37902:0:0:0:0:
109,192,37736,1,0,0:0:0:0:
256,192,37736,1,0,0:0:0:0:
329,192,37902,128,0,38402:0:0:0:0:
109,192,37902,1,0,0:0:0:0:
182,192,38069,1,0,0:0:0:0:
475,192,38069,1,0,0:0:0:0:
36,192,38069,1,0,0:0:0:0:
475,192,38236,1,0,0:0:0:0:
36,192,38402,128,0,38569:0:0:0:0:
256,192,38402,1,0,0:0:0:0:
109,192,38402,1,0,0:0:0:0:
402,192,38402,1,0,0:0:0:0:
182,192,38569,128,0,38736:0:0:0:0:
402,192,38569,1,0,0:0:0:0:
329,192,38736,1,0,0:0:0:0:
475,192,38736,1,0,0:0:0:0:
109,192,38736,1,0,0:0:0:0:
402,192,38902,128,0,39069:0:0:0:0:
109,192,38902,1,0,0:0:0:0:
256,192,39069,1,0,0:0:0:0:
36,192,39069,1,0,0:0:0:0:
475,192,39069,1,0,0:0:0:0:
182,192,39236,128,0,39569:0:0:0:0:
36,192,39236,1,0,0:0:0:0:
329,192,39402,1,0,0:0:0:0:
402,192,39402,1,0,0:0:0:0:
475,192,39402,1,0,0:0:0:0:
36,192,39569,128,0,39652:0:0:0:0:
329,192,39569,1,0,0:0:0:0:
109,192,39652,128,0,39736:0:0:0:0:
182,192,39736,128,0,39819:0:0:0:0:
256,192,39736,1,0,0:0:0:0:
475,192,39736,1,0,0:0:0:0:
402,192,39736,1,0,0:0:0:0:
36,192,39902,128,0,40069:0:0:0:0:
475,192,39902,1,0,0:0:0:0:
256,192,40069,1,0,0:0:0:0:
109,192,40069,1,0,0:0:0:0:
402,192,40069,1,0,0:0:0:0:
256,192,40236,1,0,0:0:0:0:
402,192,40236,1,0,0:0:0:0:
475,192,40236,1,0,0:0:0:0:
109,192,40236,1,0,0:0:0:0:
36,192,40236,1,0,0:0:0:0:
182,192,40402,1,0,0:0:0:0:
109,192,40402,1,0,0:0:0:0:
36,192,40402,1,0,0:0:0:0:
329,192,40402,1,0,0:0:0:0:
402,192,40402,1,0,0:0:0:0:
475,192,40402,1,0,0:0:0:0:
182,192,40569,1,0,0:0:0:0:
256,192,40569,1,0,0:0:0:0:
402,192,40569,1,0,0:0:0:0:
109,192,40569,1,0,0:0:0:0:
36,192,40569,1,0,0:0:0:0:
475,192,40569,1,0,0:0:0:0:
182,192,40902,1,0,0:0:0:0:
109,192,40902,1,0,0:0:0:0:
36,192,40902,1,0,0:0:0:0:
329,192,40902,1,0,0:0:0:0:
475,192,40902,1,0,0:0:0:0:
256,192,40985,1,0,0:0:0:0:
402,192,40985,1,0,0:0:0:0:
329,192,41069,1,0,0:0:0:0:
475,192,41069,1,0,0:0:0:0:
182,192,41069,1,0,0:0:0:0:
109,192,41069,1,0,0:0:0:0:
36,192,41069,1,0,0:0:0:0:
36,192,41235,1,0,0:0:0:0:
109,192,41235,1,0,0:0:0:0:
182,192,41235,1,0,0:0:0:0:
256,192,41235,1,0,0:0:0:0:
402,192,41235,1,0,0:0:0:0:
475,192,41235,1,0,0:0:0:0:
109,192,41569,1,0,0:0:0:0:
256,192,41569,1,0,0:0:0:0:
402,192,41569,1,0,0:0:0:0:
475,192,41569,1,0,0:0:0:0:
36,192,41569,1,0,0:0:0:0:
182,192,41652,1,0,0:0:0:0:
329,192,41652,1,0,0:0:0:0:
256,192,41735,1,0,0:0:0:0:
402,192,41735,1,0,0:0:0:0:
475,192,41735,1,0,0:0:0:0:
109,192,41735,1,0,0:0:0:0:
36,192,41735,1,0,0:0:0:0:
109,192,41902,1,0,0:0:0:0:
182,192,41902,1,0,0:0:0:0:
36,192,41902,1,0,0:0:0:0:
329,192,41902,1,0,0:0:0:0:
402,192,41902,1,0,0:0:0:0:
475,192,41902,1,0,0:0:0:0:
329,192,42069,1,0,0:0:0:0:
182,192,42069,1,0,0:0:0:0:
256,192,42235,1,0,0:0:0:0:
402,192,42235,1,0,0:0:0:0:
475,192,42235,1,0,0:0:0:0:
109,192,42235,1,0,0:0:0:0:
36,192,42235,1,0,0:0:0:0:
109,192,42402,1,0,0:0:0:0:
402,192,42402,1,0,0:0:0:0:
329,192,42569,1,0,0:0:0:0:
256,192,42569,1,0,0:0:0:0:
182,192,42569,1,0,0:0:0:0:
36,192,42569,1,0,0:0:0:0:
475,192,42569,1,0,0:0:0:0:
36,192,42735,1,0,0:0:0:0:
475,192,42735,1,0,0:0:0:0:
109,192,42902,1,0,0:0:0:0:
182,192,42902,1,0,0:0:0:0:
256,192,42902,1,0,0:0:0:0:
329,192,42902,1,0,0:0:0:0:
402,192,42902,1,0,0:0:0:0:
329,192,43069,1,0,0:0:0:0:
182,192,43069,1,0,0:0:0:0:
109,192,43069,1,0,0:0:0:0:
402,192,43069,1,0,0:0:0:0:
36,192,43235,128,0,43569:0:0:0:0:
329,192,43235,128,0,43569:0:0:0:0:
402,192,43235,1,0,0:0:0:0:
475,192,43235,1,0,0:0:0:0:
109,192,43235,1,0,0:0:0:0:
182,192,43235,1,0,0:0:0:0:
256,192,43569,1,0,0:0:0:0:
402,192,43569,1,0,0:0:0:0:
109,192,43569,1,0,0:0:0:0:
475,192,43569,1,0,0:0:0:0:
402,192,43735,1,0,0:0:0:0:
256,192,43735,1,0,0:0:0:0:
36,192,43735,1,0,0:0:0:0:
109,192,43735,1,0,0:0:0:0:
36,192,43902,1,0,0:0:0:0:
475,192,43902,128,0,43985:0:0:0:0:
182,192,43902,1,0,0:0:0:0:
329,192,43902,1,0,0:0:0:0:
256,192,43985,1,0,0:0:0:0:
36,192,44069,1,0,0:0:0:0:
475,192,44069,128,0,44235:0:0:0:0:
402,192,44069,1,0,0:0:0:0:
182,192,44069,1,0,0:0:0:0:
36,192,44235,128,0,44568:0:0:0:0:
256,192,44235,1,0,0:0:0:0:
402,192,44235,1,0,0:0:0:0:
109,192,44235,1,0,0:0:0:0:
109,192,44402,128,0,44568:0:0:0:0:
256,192,44402,1,0,0:0:0:0:
402,192,44402,1,0,0:0:0:0:
475,192,44402,1,0,0:0:0:0:
475,192,44568,1,0,0:0:0:0:
329,192,44568,128,0,44902:0:0:0:0:
182,192,44568,128,0,44902:0:0:0:0:
402,192,44568,1,0,0:0:0:0:
256,192,44902,1,0,0:0:0:0:
475,192,44902,1,0,0:0:0:0:
109,192,44902,1,0,0:0:0:0:
36,192,44902,128,0,45068:0:0:0:0:
256,192,45068,128,0,45235:0:0:0:0:
402,192,45068,1,0,0:0:0:0:
182,192,45068,1,0,0:0:0:0:
475,192,45068,1,0,0:0:0:0:
329,192,45152,1,0,0:0:0:0:
109,192,45235,128,0,45402:0:0:0:0:
402,192,45235,1,0,0:0:0:0:
475,192,45235,1,0,0:0:0:0:
36,192,45235,1,0,0:0:0:0:
182,192,45235,1,0,0:0:0:0:
182,192,45568,1,0,0:0:0:0:
36,192,45568,1,0,0:0:0:0:
329,192,45568,1,0,0:0:0:0:
475,192,45568,1,0,0:0:0:0:
402,192,45735,1,0,0:0:0:0:
256,192,45735,1,0,0:0:0:0:
109,192,45735,1,0,0:0:0:0:
256,192,45902,1,0,0:0:0:0:
402,192,45902,1,0,0:0:0:0:
36,192,45902,128,0,46318:0:0:0:0:
475,192,45902,1,0,0:0:0:0:
109,192,45902,128,0,46318:0:0:0:0:
329,192,45985,1,0,0:0:0:0:
182,192,46068,1,0,0:0:0:0:
475,192,46068,1,0,0:0:0:0:
402,192,46152,1,0,0:0:0:0:
256,192,46235,1,0,0:0:0:0:
475,192,46318,1,0,0:0:0:0:
36,192,46402,1,0,0:0:0:0:
329,192,46402,1,0,0:0:0:0:
109,192,46402,1,0,0:0:0:0:
182,192,46402,1,0,0:0:0:0:
402,192,46485,1,0,0:0:0:0:
256,192,46568,1,0,0:0:0:0:
109,192,46568,1,0,0:0:0:0:
329,192,46652,1,0,0:0:0:0:
402,192,46735,1,0,0:0:0:0:
182,192,46735,1,0,0:0:0:0:
36,192,46735,1,0,0:0:0:0:
475,192,46735,1,0,0:0:0:0:
109,192,46818,1,0,0:0:0:0:
475,192,46902,1,0,0:0:0:0:
256,192,46902,1,0,0:0:0:0:
402,192,46902,1,0,0:0:0:0:
36,192,46902,1,0,0:0:0:0:
329,192,46985,1,0,0:0:0:0:
109,192,47068,1,0,0:0:0:0:
475,192,47068,1,0,0:0:0:0:
36,192,47068,1,0,0:0:0:0:
182,192,47068,1,0,0:0:0:0:
256,192,47152,1,0,0:0:0:0:
36,192,47235,1,0,0:0:0:0:
475,192,47235,1,0,0:0:0:0:
329,192,47235,1,0,0:0:0:0:
109,192,47235,1,0,0:0:0:0:
182,192,47318,1,0,0:0:0:0:
402,192,47402,1,0,0:0:0:0:
109,192,47402,1,0,0:0:0:0:
256,192,47485,1,0,0:0:0:0:
109,192,47568,1,0,0:0:0:0:
36,192,47568,1,0,0:0:0:0:
475,192,47568,1,0,0:0:0:0:
329,192,47568,1,0,0:0:0:0:
182,192,47652,1,0,0:0:0:0:
256,192,47735,1,0,0:0:0:0:
402,192,47735,1,0,0:0:0:0:
109,192,47818,1,0,0:0:0:0:
475,192,47902,1,0,0:0:0:0:
36,192,47902,1,0,0:0:0:0:
329,192,47902,1,0,0:0:0:0:
402,192,47902,1,0,0:0:0:0:
182,192,47985,1,0,0:0:0:0:
402,192,48068,1,0,0:0:0:0:
256,192,48068,1,0,0:0:0:0:
109,192,48152,1,0,0:0:0:0:
36,192,48235,1,0,0:0:0:0:
256,192,48235,1,0,0:0:0:0:
329,192,48235,1,0,0:0:0:0:
475,192,48235,1,0,0:0:0:0:
109,192,48318,1,0,0:0:0:0:
182,192,48402,1,0,0:0:0:0:
36,192,48402,1,0,0:0:0:0:
329,192,48402,1,0,0:0:0:0:
475,192,48402,1,0,0:0:0:0:
402,192,48485,1,0,0:0:0:0:
36,192,48568,1,0,0:0:0:0:
182,192,48568,1,0,0:0:0:0:
475,192,48568,1,0,0:0:0:0:
256,192,48568,1,0,0:0:0:0:
109,192,48652,1,0,0:0:0:0:
329,192,48735,1,0,0:0:0:0:
402,192,48735,1,0,0:0:0:0:
256,192,48818,1,0,0:0:0:0:
109,192,48902,1,0,0:0:0:0:
475,192,48902,1,0,0:0:0:0:
402,192,48902,1,0,0:0:0:0:
36,192,48902,1,0,0:0:0:0:
329,192,48985,1,0,0:0:0:0:
109,192,49068,1,0,0:0:0:0:
182,192,49068,1,0,0:0:0:0:
256,192,49152,1,0,0:0:0:0:
402,192,49235,1,0,0:0:0:0:
36,192,49235,1,0,0:0:0:0:
329,192,49235,1,0,0:0:0:0:
475,192,49235,1,0,0:0:0:0:
182,192,49318,1,0,0:0:0:0:
402,192,49402,1,0,0:0:0:0:
109,192,49402,1,0,0:0:0:0:
256,192,49485,1,0,0:0:0:0:
36,192,49568,1,0,0:0:0:0:
109,192,49568,1,0,0:0:0:0:
402,192,49568,1,0,0:0:0:0:
475,192,49568,1,0,0:0:0:0:
329,192,49652,1,0,0:0:0:0:
109,192,49735,1,0,0:0:0:0:
182,192,49735,1,0,0:0:0:0:
475,192,49735,1,0,0:0:0:0:
402,192,49735,1,0,0:0:0:0:
256,192,49818,1,0,0:0:0:0:
329,192,49902,1,0,0:0:0:0:
402,192,49902,1,0,0:0:0:0:
475,192,49902,128,0,50735:0:0:0:0:
36,192,49902,128,0,50735:0:0:0:0:
109,192,49902,1,0,0:0:0:0:
182,192,49985,1,0,0:0:0:0:
402,192,50068,1,0,0:0:0:0:
109,192,50068,1,0,0:0:0:0:
256,192,50152,1,0,0:0:0:0:
109,192,50235,128,0,50318:0:0:0:0:
329,192,50235,128,0,50318:0:0:0:0:
182,192,50318,128,0,50402:0:0:0:0:
402,192,50318,128,0,50402:0:0:0:0:
256,192,50402,128,0,50485:0:0:0:0:
182,192,50485,128,0,50568:0:0:0:0:
402,192,50485,128,0,50568:0:0:0:0:
109,192,50568,128,0,50652:0:0:0:0:
329,192,50568,128,0,50652:0:0:0:0:
256,192,50652,128,0,50735:0:0:0:0:
402,192,50735,1,0,0:0:0:0:
182,192,50735,1,0,0:0:0:0:
329,192,50818,1,0,0:0:0:0:
475,192,50902,1,0,0:0:0:0:
256,192,50902,1,0,0:0:0:0:
36,192,50902,1,0,0:0:0:0:
109,192,50902,1,0,0:0:0:0:
329,192,50985,1,0,0:0:0:0:
182,192,51068,1,0,0:0:0:0:
36,192,51068,1,0,0:0:0:0:
475,192,51068,1,0,0:0:0:0:
402,192,51068,1,0,0:0:0:0:
109,192,51152,1,0,0:0:0:0:
36,192,51235,1,0,0:0:0:0:
256,192,51235,1,0,0:0:0:0:
329,192,51235,1,0,0:0:0:0:
475,192,51235,1,0,0:0:0:0:
402,192,51318,1,0,0:0:0:0:
182,192,51402,1,0,0:0:0:0:
109,192,51402,1,0,0:0:0:0:
329,192,51485,1,0,0:0:0:0:
256,192,51568,1,0,0:0:0:0:
402,192,51568,1,0,0:0:0:0:
36,192,51568,1,0,0:0:0:0:
475,192,51568,1,0,0:0:0:0:
109,192,51652,1,0,0:0:0:0:
329,192,51735,1,0,0:0:0:0:
475,192,51735,1,0,0:0:0:0:
36,192,51735,1,0,0:0:0:0:
256,192,51735,1,0,0:0:0:0:
182,192,51818,1,0,0:0:0:0:
402,192,51902,1,0,0:0:0:0:
475,192,51902,1,0,0:0:0:0:
109,192,51902,1,0,0:0:0:0:
36,192,51902,1,0,0:0:0:0:
329,192,51985,1,0,0:0:0:0:
109,192,52068,1,0,0:0:0:0:
402,192,52068,1,0,0:0:0:0:
256,192,52152,1,0,0:0:0:0:
182,192,52235,1,0,0:0:0:0:
329,192,52235,1,0,0:0:0:0:
475,192,52235,1,0,0:0:0:0:
36,192,52235,1,0,0:0:0:0:
109,192,52318,1,0,0:0:0:0:
402,192,52318,1,0,0:0:0:0:
182,192,52402,1,0,0:0:0:0:
329,192,52402,1,0,0:0:0:0:
256,192,52485,1,0,0:0:0:0:
475,192,52485,1,0,0:0:0:0:
182,192,52568,1,0,0:0:0:0:
402,192,52568,1,0,0:0:0:0:
329,192,52568,1,0,0:0:0:0:
36,192,52568,1,0,0:0:0:0:
109,192,52652,1,0,0:0:0:0:
256,192,52735,1,0,0:0:0:0:
36,192,52735,1,0,0:0:0:0:
402,192,52818,1,0,0:0:0:0:
329,192,52902,1,0,0:0:0:0:
475,192,52902,1,0,0:0:0:0:
182,192,52902,1,0,0:0:0:0:
36,192,52902,1,0,0:0:0:0:
109,192,52985,1,0,0:0:0:0:
256,192,53068,1,0,0:0:0:0:
475,192,53068,1,0,0:0:0:0:
36,192,53068,1,0,0:0:0:0:
402,192,53068,1,0,0:0:0:0:
329,192,53152,1,0,0:0:0:0:
402,192,53235,1,0,0:0:0:0:
182,192,53235,1,0,0:0:0:0:
36,192,53235,1,0,0:0:0:0:
475,192,53235,1,0,0:0:0:0:
109,192,53318,1,0,0:0:0:0:
256,192,53402,1,0,0:0:0:0:
329,192,53402,1,0,0:0:0:0:
475,192,53485,1,0,0:0:0:0:
329,192,53568,1,0,0:0:0:0:
402,192,53568,1,0,0:0:0:0:
182,192,53568,1,0,0:0:0:0:
36,192,53568,1,0,0:0:0:0:
256,192,53652,1,0,0:0:0:0:
475,192,53735,1,0,0:0:0:0:
36,192,53735,1,0,0:0:0:0:
182,192,53735,1,0,0:0:0:0:
402,192,53735,1,0,0:0:0:0:
109,192,53818,1,0,0:0:0:0:
402,192,53902,1,0,0:0:0:0:
475,192,53902,1,0,0:0:0:0:
256,192,53902,1,0,0:0:0:0:
36,192,53902,1,0,0:0:0:0:
329,192,53985,1,0,0:0:0:0:
109,192,54068,1,0,0:0:0:0:
256,192,54068,1,0,0:0:0:0:
475,192,54152,1,0,0:0:0:0:
182,192,54235,1,0,0:0:0:0:
329,192,54235,1,0,0:0:0:0:
36,192,54235,1,0,0:0:0:0:
256,192,54318,1,0,0:0:0:0:
402,192,54318,1,0,0:0:0:0:
109,192,54402,1,0,0:0:0:0:
329,192,54402,1,0,0:0:0:0:
475,192,54402,1,0,0:0:0:0:
36,192,54402,1,0,0:0:0:0:
182,192,54485,1,0,0:0:0:0:
329,192,54568,1,0,0:0:0:0:
475,192,54568,1,0,0:0:0:0:
36,192,54568,1,0,0:0:0:0:
109,192,54652,1,0,0:0:0:0:
256,192,54652,1,0,0:0:0:0:
402,192,54652,1,0,0:0:0:0:
182,192,54735,1,0,0:0:0:0:
36,192,54735,1,0,0:0:0:0:
329,192,54735,1,0,0:0:0:0:
402,192,54818,1,0,0:0:0:0:
109,192,54902,1,0,0:0:0:0:
256,192,54902,1,0,0:0:0:0:
475,192,54902,1,0,0:0:0:0:
36,192,54902,1,0,0:0:0:0:
182,192,54985,1,0,0:0:0:0:
329,192,54985,1,0,0:0:0:0:
402,192,54985,1,0,0:0:0:0:
475,192,55068,1,0,0:0:0:0:
256,192,55068,1,0,0:0:0:0:
36,192,55068,1,0,0:0:0:0:
109,192,55068,1,0,0:0:0:0:
475,192,55235,1,0,0:0:0:0:
402,192,55235,1,0,0:0:0:0:
329,192,55235,1,0,0:0:0:0:
36,192,55235,1,0,0:0:0:0:
109,192,55235,1,0,0:0:0:0:
182,192,55235,1,0,0:0:0:0:
36,192,55568,1,0,0:0:0:0:
109,192,55568,1,0,0:0:0:0:
256,192,55568,1,0,0:0:0:0:
402,192,55568,1,0,0:0:0:0:
475,192,55568,1,0,0:0:0:0:
182,192,55902,1,0,0:0:0:0:
256,192,55902,1,0,0:0:0:0:
329,192,55902,1,0,0:0:0:0:
402,192,55902,1,0,0:0:0:0:
475,192,55902,1,0,0:0:0:0:
36,192,55902,1,0,0:0:0:0:
36,192,56235,1,0,0:0:0:0:
109,192,56235,1,0,0:0:0:0:
182,192,56235,1,0,0:0:0:0:
256,192,56235,1,0,0:0:0:0:
329,192,56235,1,0,0:0:0:0:
475,192,56235,1,0,0:0:0:0:
256,192,56568,128,0,56985:0:0:0:0:
402,192,56568,128,0,56985:0:0:0:0:
475,192,56568,128,0,56985:0:0:0:0:
109,192,56568,128,0,56985:0:0:0:0:
36,192,56568,128,0,56985:0:0:0:0:
109,192,57068,1,0,0:0:0:0:
256,192,57068,1,0,0:0:0:0:
475,192,57068,1,0,0:0:0:0:
36,192,57068,128,0,57235:0:0:0:0:
402,192,57152,1,0,0:0:0:0:
329,192,57235,1,0,0:0:0:0:
182,192,57235,1,0,0:0:0:0:
256,192,57318,1,0,0:0:0:0:
109,192,57402,1,0,0:0:0:0:
329,192,57402,1,0,0:0:0:0:
36,192,57402,1,0,0:0:0:0:
475,192,57402,128,0,57568:0:0:0:0:
182,192,57485,1,0,0:0:0:0:
256,192,57568,1,0,0:0:0:0:
36,192,57568,1,0,0:0:0:0:
402,192,57568,1,0,0:0:0:0:
329,192,57568,128,0,57735:0:0:0:0:
109,192,57652,1,0,0:0:0:0:
402,192,57735,1,0,0:0:0:0:
36,192,57735,1,0,0:0:0:0:
475,192,57735,1,0,0:0:0:0:
182,192,57735,128,0,57902:0:0:0:0:
329,192,57818,1,0,0:0:0:0:
475,192,57902,1,0,0:0:0:0:
36,192,57902,1,0,0:0:0:0:
109,192,57902,1,0,0:0:0:0:
256,192,57902,128,0,58068:0:0:0:0:
402,192,57985,1,0,0:0:0:0:
109,192,58068,1,0,0:0:0:0:
329,192,58068,1,0,0:0:0:0:
256,192,58152,1,0,0:0:0:0:
182,192,58235,1,0,0:0:0:0:
475,192,58235,1,0,0:0:0:0:
329,192,58235,1,0,0:0:0:0:
36,192,58235,128,0,58402:0:0:0:0:
402,192,58318,1,0,0:0:0:0:
182,192,58402,1,0,0:0:0:0:
475,192,58402,1,0,0:0:0:0:
256,192,58485,1,0,0:0:0:0:
329,192,58568,1,0,0:0:0:0:
109,192,58568,1,0,0:0:0:0:
36,192,58568,1,0,0:0:0:0:
402,192,58568,128,0,58735:0:0:0:0:
256,192,58652,1,0,0:0:0:0:
182,192,58735,1,0,0:0:0:0:
475,192,58735,1,0,0:0:0:0:
329,192,58818,1,0,0:0:0:0:
402,192,58902,1,0,0:0:0:0:
475,192,58902,1,0,0:0:0:0:
36,192,58902,1,0,0:0:0:0:
256,192,58902,128,0,59068:0:0:0:0:
109,192,58985,1,0,0:0:0:0:
182,192,59068,1,0,0:0:0:0:
36,192,59068,1,0,0:0:0:0:
402,192,59068,1,0,0:0:0:0:
329,192,59068,128,0,59235:0:0:0:0:
475,192,59152,1,0,0:0:0:0:
256,192,59235,1,0,0:0:0:0:
182,192,59235,1,0,0:0:0:0:
109,192,59235,1,0,0:0:0:0:
402,192,59235,1,0,0:0:0:0:
36,192,59235,128,0,59568:0:0:0:0:
329,192,59318,1,0,0:0:0:0:
402,192,59402,1,0,0:0:0:0:
182,192,59402,1,0,0:0:0:0:
256,192,59485,1,0,0:0:0:0:
475,192,59568,1,0,0:0:0:0:
182,192,59568,1,0,0:0:0:0:
329,192,59568,1,0,0:0:0:0:
109,192,59568,128,0,59735:0:0:0:0:
402,192,59652,1,0,0:0:0:0:
329,192,59735,1,0,0:0:0:0:
36,192,59735,1,0,0:0:0:0:
256,192,59818,1,0,0:0:0:0:
402,192,59902,1,0,0:0:0:0:
182,192,59902,1,0,0:0:0:0:
109,192,59902,1,0,0:0:0:0:
36,192,59902,1,0,0:0:0:0:
475,192,59902,128,0,60068:0:0:0:0:
256,192,59985,1,0,0:0:0:0:
109,192,60068,1,0,0:0:0:0:
329,192,60068,1,0,0:0:0:0:
182,192,60152,1,0,0:0:0:0:
329,192,60235,1,0,0:0:0:0:
475,192,60235,1,0,0:0:0:0:
36,192,60235,1,0,0:0:0:0:
109,192,60235,128,0,60402:0:0:0:0:
256,192,60318,1,0,0:0:0:0:
182,192,60402,1,0,0:0:0:0:
36,192,60402,1,0,0:0:0:0:
475,192,60402,1,0,0:0:0:0:
402,192,60402,128,0,60568:0:0:0:0:
109,192,60485,1,0,0:0:0:0:
36,192,60568,1,0,0:0:0:0:
329,192,60568,1,0,0:0:0:0:
475,192,60568,1,0,0:0:0:0:
256,192,60568,128,0,60902:0:0:0:0:
182,192,60652,1,0,0:0:0:0:
402,192,60735,1,0,0:0:0:0:
109,192,60735,1,0,0:0:0:0:
329,192,60818,1,0,0:0:0:0:
182,192,60902,1,0,0:0:0:0:
36,192,60902,1,0,0:0:0:0:
109,192,60902,1,0,0:0:0:0:
475,192,60902,128,0,61068:0:0:0:0:
329,192,60985,1,0,0:0:0:0:
402,192,61068,1,0,0:0:0:0:
256,192,61068,1,0,0:0:0:0:
109,192,61068,1,0,0:0:0:0:
36,192,61068,128,0,61235:0:0:0:0:
182,192,61152,1,0,0:0:0:0:
402,192,61235,1,0,0:0:0:0:
475,192,61235,1,0,0:0:0:0:
256,192,61235,1,0,0:0:0:0:
109,192,61235,128,0,61402:0:0:0:0:
329,192,61318,1,0,0:0:0:0:
182,192,61402,1,0,0:0:0:0:
402,192,61402,1,0,0:0:0:0:
36,192,61485,1,0,0:0:0:0:
402,192,61568,1,0,0:0:0:0:
475,192,61568,1,0,0:0:0:0:
109,192,61568,1,0,0:0:0:0:
256,192,61568,1,0,0:0:0:0:
329,192,61652,1,0,0:0:0:0:
182,192,61652,1,0,0:0:0:0:
475,192,61735,1,0,0:0:0:0:
109,192,61735,1,0,0:0:0:0:
402,192,61818,1,0,0:0:0:0:
256,192,61818,1,0,0:0:0:0:
475,192,61902,1,0,0:0:0:0:
182,192,61902,1,0,0:0:0:0:
36,192,61902,1,0,0:0:0:0:
329,192,61902,128,0,62235:0:0:0:0:
109,192,61985,1,0,0:0:0:0:
256,192,62068,1,0,0:0:0:0:
475,192,62068,1,0,0:0:0:0:
109,192,62152,1,0,0:0:0:0:
402,192,62235,1,0,0:0:0:0:
182,192,62235,1,0,0:0:0:0:
475,192,62235,1,0,0:0:0:0:
36,192,62235,128,0,62402:0:0:0:0:
256,192,62318,1,0,0:0:0:0:
182,192,62402,1,0,0:0:0:0:
402,192,62402,1,0,0:0:0:0:
329,192,62485,1,0,0:0:0:0:
109,192,62568,1,0,0:0:0:0:
36,192,62568,1,0,0:0:0:0:
256,192,62568,1,0,0:0:0:0:
475,192,62568,128,0,62735:0:0:0:0:
329,192,62652,1,0,0:0:0:0:
402,192,62735,1,0,0:0:0:0:
182,192,62735,1,0,0:0:0:0:
109,192,62818,1,0,0:0:0:0:
36,192,62902,1,0,0:0:0:0:
475,192,62902,1,0,0:0:0:0:
329,192,62902,1,0,0:0:0:0:
256,192,62902,128,0,63068:0:0:0:0:
402,192,62985,1,0,0:0:0:0:
182,192,63068,1,0,0:0:0:0:
475,192,63068,1,0,0:0:0:0:
36,192,63068,1,0,0:0:0:0:
109,192,63068,128,0,63235:0:0:0:0:
329,192,63152,1,0,0:0:0:0:
402,192,63235,1,0,0:0:0:0:
256,192,63235,1,0,0:0:0:0:
36,192,63235,1,0,0:0:0:0:
475,192,63235,1,0,0:0:0:0:
182,192,63318,1,0,0:0:0:0:
109,192,63402,1,0,0:0:0:0:
329,192,63402,1,0,0:0:0:0:
475,192,63485,1,0,0:0:0:0:
256,192,63485,1,0,0:0:0:0:
402,192,63568,1,0,0:0:0:0:
182,192,63568,1,0,0:0:0:0:
36,192,63568,1,0,0:0:0:0:
109,192,63652,1,0,0:0:0:0:
329,192,63652,1,0,0:0:0:0:
182,192,63735,1,0,0:0:0:0:
402,192,63735,1,0,0:0:0:0:
36,192,63735,1,0,0:0:0:0:
475,192,63735,1,0,0:0:0:0:
256,192,63818,1,0,0:0:0:0:
109,192,63902,1,0,0:0:0:0:
329,192,63902,1,0,0:0:0:0:
475,192,63902,1,0,0:0:0:0:
36,192,63902,128,0,64068:0:0:0:0:
182,192,63985,1,0,0:0:0:0:
402,192,64068,1,0,0:0:0:0:
475,192,64068,1,0,0:0:0:0:
256,192,64068,128,0,64235:0:0:0:0:
109,192,64068,1,0,0:0:0:0:
329,192,64152,1,0,0:0:0:0:
109,192,64235,1,0,0:0:0:0:
182,192,64235,1,0,0:0:0:0:
475,192,64235,1,0,0:0:0:0:
36,192,64235,128,0,64402:0:0:0:0:
402,192,64318,1,0,0:0:0:0:
109,192,64402,1,0,0:0:0:0:
475,192,64402,1,0,0:0:0:0:
182,192,64402,1,0,0:0:0:0:
329,192,64402,128,0,64568:0:0:0:0:
256,192,64485,1,0,0:0:0:0:
182,192,64568,128,0,64818:0:0:0:0:
109,192,64568,128,0,64818:0:0:0:0:
36,192,64568,128,0,64818:0:0:0:0:
402,192,64568,128,0,64818:0:0:0:0:
475,192,64568,128,0,64818:0:0:0:0:
109,192,64902,128,0,65068:0:0:0:0:
36,192,64902,128,0,65068:0:0:0:0:
182,192,64902,1,0,0:0:0:0:
329,192,64902,128,0,65068:0:0:0:0:
402,192,64902,128,0,65068:0:0:0:0:
475,192,64902,128,0,65068:0:0:0:0:
256,192,65068,1,0,0:0:0:0:
329,192,65235,128,0,65485:0:0:0:0:
402,192,65235,128,0,65485:0:0:0:0:
475,192,65235,128,0,65485:0:0:0:0:
182,192,65235,128,0,65485:0:0:0:0:
36,192,65235,128,0,65485:0:0:0:0:
475,192,65568,1,0,0:0:0:0:
329,192,65568,1,0,0:0:0:0:
182,192,65568,1,0,0:0:0:0:
36,192,65568,128,0,65818:0:0:0:0:
109,192,65568,128,0,65818:0:0:0:0:
402,192,65735,1,0,0:0:0:0:
256,192,65735,1,0,0:0:0:0:
475,192,65735,1,0,0:0:0:0:
182,192,65902,1,0,0:0:0:0:
329,192,65902,1,0,0:0:0:0:
402,192,65902,1,0,0:0:0:0:
36,192,65902,1,0,0:0:0:0:
475,192,65902,128,0,67235:0:0:0:0:
256,192,65985,1,0,0:0:0:0:
109,192,66068,1,0,0:0:0:0:
329,192,66068,1,0,0:0:0:0:
182,192,66152,1,0,0:0:0:0:
402,192,66152,1,0,0:0:0:0:
256,192,66235,1,0,0:0:0:0:
36,192,66235,1,0,0:0:0:0:
109,192,66318,1,0,0:0:0:0:
329,192,66318,1,0,0:0:0:0:
182,192,66402,1,0,0:0:0:0:
402,192,66402,1,0,0:0:0:0:
329,192,66485,1,0,0:0:0:0:
109,192,66485,1,0,0:0:0:0:
256,192,66568,1,0,0:0:0:0:
36,192,66568,1,0,0:0:0:0:
182,192,66652,1,0,0:0:0:0:
402,192,66652,1,0,0:0:0:0:
329,192,66735,1,0,0:0:0:0:
109,192,66735,1,0,0:0:0:0:
256,192,66818,1,0,0:0:0:0:
36,192,66818,1,0,0:0:0:0:
182,192,66902,1,0,0:0:0:0:
402,192,66902,1,0,0:0:0:0:
36,192,66985,1,0,0:0:0:0:
256,192,66985,1,0,0:0:0:0:
109,192,67068,1,0,0:0:0:0:
329,192,67068,1,0,0:0:0:0:
182,192,67152,1,0,0:0:0:0:
402,192,67152,1,0,0:0:0:0:
109,192,67235,1,0,0:0:0:0:
256,192,67235,1,0,0:0:0:0:
36,192,67235,1,0,0:0:0:0:
329,192,67318,1,0,0:0:0:0:
182,192,67318,1,0,0:0:0:0:
256,192,67402,1,0,0:0:0:0:
402,192,67402,1,0,0:0:0:0:
36,192,67402,1,0,0:0:0:0:
475,192,67402,1,0,0:0:0:0:
329,192,67485,1,0,0:0:0:0:
109,192,67485,1,0,0:0:0:0:
182,192,67485,1,0,0:0:0:0:
36,192,67568,1,0,0:0:0:0:
256,192,67568,1,0,0:0:0:0:
402,192,67568,1,0,0:0:0:0:
475,192,67568,1,0,0:0:0:0:
475,192,67902,1,0,0:0:0:0:
329,192,67902,1,0,0:0:0:0:
182,192,67902,1,0,0:0:0:0:
36,192,67902,1,0,0:0:0:0:
109,192,67985,1,0,0:0:0:0:
402,192,67985,1,0,0:0:0:0:
256,192,67985,1,0,0:0:0:0:
329,192,68068,1,0,0:0:0:0:
182,192,68068,1,0,0:0:0:0:
475,192,68068,1,0,0:0:0:0:
36,192,68068,1,0,0:0:0:0:
109,192,68402,1,0,0:0:0:0:
36,192,68402,1,0,0:0:0:0:
475,192,68402,1,0,0:0:0:0:
256,192,68402,1,0,0:0:0:0:
182,192,68485,1,0,0:0:0:0:
329,192,68485,1,0,0:0:0:0:
402,192,68485,1,0,0:0:0:0:
475,192,68568,1,0,0:0:0:0:
36,192,68568,1,0,0:0:0:0:
109,192,68568,1,0,0:0:0:0:
256,192,68568,1,0,0:0:0:0:
36,192,68957,128,0,69291:0:0:0:0:
402,192,69068,1,0,0:0:0:0:
109,192,69068,128,0,69624:0:0:0:0:
182,192,69180,128,0,69513:0:0:0:0:
402,192,69291,1,0,0:0:0:0:
256,192,69291,128,0,69846:0:0:0:0:
329,192,69402,1,0,0:0:0:0:
475,192,69402,1,0,0:0:0:0:
36,192,69402,128,0,70180:0:0:0:0:
182,192,69624,128,0,70291:0:0:0:0:
329,192,69624,1,0,0:0:0:0:
109,192,69735,128,0,70735:0:0:0:0:
475,192,69735,1,0,0:0:0:0:
256,192,69957,128,0,70735:0:0:0:0:
402,192,69957,1,0,0:0:0:0:
475,192,69957,1,0,0:0:0:0:
329,192,70068,1,0,0:0:0:0:
402,192,70291,1,0,0:0:0:0:
475,192,70291,1,0,0:0:0:0:
36,192,70291,128,0,70513:0:0:0:0:
329,192,70402,1,0,0:0:0:0:
182,192,70402,128,0,70735:0:0:0:0:
475,192,70513,1,0,0:0:0:0:
475,192,70624,1,0,0:0:0:0:
36,192,70624,128,0,70735:0:0:0:0:
402,192,70735,1,0,0:0:0:0:
329,192,70735,1,0,0:0:0:0:
329,192,70957,1,0,0:0:0:0:
36,192,70957,128,0,71291:0:0:0:0:
475,192,71068,1,0,0:0:0:0:
182,192,71068,128,0,71624:0:0:0:0:
329,192,71180,1,0,0:0:0:0:
109,192,71180,128,0,71846:0:0:0:0:
329,192,71291,1,0,0:0:0:0:
256,192,71291,128,0,72068:0:0:0:0:
475,192,71402,1,0,0:0:0:0:
402,192,71402,1,0,0:0:0:0:
36,192,71402,128,0,72068:0:0:0:0:
475,192,71624,1,0,0:0:0:0:
329,192,71735,1,0,0:0:0:0:
182,192,71735,128,0,72068:0:0:0:0:
402,192,71846,1,0,0:0:0:0:
475,192,71957,1,0,0:0:0:0:
109,192,71957,128,0,72068:0:0:0:0:
329,192,72068,1,0,0:0:0:0:
475,192,72068,1,0,0:0:0:0:
329,192,72291,1,0,0:0:0:0:
36,192,72291,128,0,72402:0:0:0:0:
402,192,72291,1,0,0:0:0:0:
475,192,72402,1,0,0:0:0:0:
402,192,72624,1,0,0:0:0:0:
182,192,72624,128,0,73068:0:0:0:0:
36,192,72624,128,0,73068:0:0:0:0:
329,192,72624,1,0,0:0:0:0:
475,192,72735,1,0,0:0:0:0:
329,192,72846,1,0,0:0:0:0:
329,192,72957,1,0,0:0:0:0:
475,192,73068,1,0,0:0:0:0:
109,192,73180,1,0,0:0:0:0:
109,192,73291,1,0,0:0:0:0:
329,192,73291,128,0,73846:0:0:0:0:
36,192,73402,1,0,0:0:0:0:
182,192,73402,1,0,0:0:0:0:
36,192,73624,1,0,0:0:0:0:
475,192,73624,128,0,74291:0:0:0:0:
182,192,73624,1,0,0:0:0:0:
109,192,73735,1,0,0:0:0:0:
402,192,73735,128,0,73957:0:0:0:0:
256,192,73846,128,0,74680:0:0:0:0:
109,192,73957,1,0,0:0:0:0:
329,192,73957,128,0,74180:0:0:0:0:
182,192,74068,1,0,0:0:0:0:
36,192,74068,1,0,0:0:0:0:
402,192,74068,128,0,74513:0:0:0:0:
36,192,74291,1,0,0:0:0:0:
329,192,74291,128,0,74402:0:0:0:0:
182,192,74402,1,0,0:0:0:0:
475,192,74402,128,0,74624:0:0:0:0:
36,192,74513,1,0,0:0:0:0:
329,192,74513,128,0,74735:0:0:0:0:
109,192,74624,1,0,0:0:0:0:
402,192,74624,128,0,74791:0:0:0:0:
182,192,74735,1,0,0:0:0:0:
36,192,74735,1,0,0:0:0:0:
475,192,74735,128,0,74902:0:0:0:0:
256,192,74791,128,0,76068:0:0:0:0:
329,192,74846,128,0,75180:0:0:0:0:
402,192,74902,128,0,75068:0:0:0:0:
109,192,74957,1,0,0:0:0:0:
109,192,75068,1,0,0:0:0:0:
475,192,75068,128,0,75513:0:0:0:0:
402,192,75180,128,0,75735:0:0:0:0:
182,192,75291,1,0,0:0:0:0:
36,192,75291,1,0,0:0:0:0:
329,192,75291,128,0,75624:0:0:0:0:
109,192,75402,1,0,0:0:0:0:
182,192,75513,1,0,0:0:0:0:
36,192,75624,1,0,0:0:0:0:
475,192,75624,128,0,75846:0:0:0:0:
109,192,75735,1,0,0:0:0:0:
329,192,75735,128,0,76180:0:0:0:0:
182,192,75846,1,0,0:0:0:0:
402,192,75846,128,0,76291:0:0:0:0:
182,192,75957,1,0,0:0:0:0:
475,192,75957,128,0,76402:0:0:0:0:
36,192,76068,1,0,0:0:0:0:
109,192,76068,1,0,0:0:0:0:
182,192,76180,1,0,0:0:0:0:
256,192,76180,128,0,76624:0:0:0:0:
36,192,76291,1,0,0:0:0:0:
329,192,76291,128,0,76624:0:0:0:0:
109,192,76402,1,0,0:0:0:0:
402,192,76402,128,0,76624:0:0:0:0:
475,192,76513,128,0,76624:0:0:0:0:
182,192,76513,1,0,0:0:0:0:
36,192,76624,128,0,76735:0:0:0:0:
109,192,76624,1,0,0:0:0:0:
182,192,76735,128,0,76846:0:0:0:0:
329,192,76735,1,0,0:0:0:0:
475,192,76735,1,0,0:0:0:0:
402,192,76846,1,0,0:0:0:0:
109,192,76846,128,0,76957:0:0:0:0:
475,192,76957,1,0,0:0:0:0:
329,192,76957,1,0,0:0:0:0:
256,192,76957,128,0,77068:0:0:0:0:
36,192,76957,1,0,0:0:0:0:
402,192,77068,1,0,0:0:0:0:
182,192,77068,128,0,77180:0:0:0:0:
109,192,77068,1,0,0:0:0:0:
475,192,77180,1,0,0:0:0:0:
329,192,77180,128,0,77291:0:0:0:0:
36,192,77180,1,0,0:0:0:0:
402,192,77291,1,0,0:0:0:0:
256,192,77291,128,0,77402:0:0:0:0:
109,192,77291,1,0,0:0:0:0:
182,192,77291,1,0,0:0:0:0:
475,192,77402,128,0,77818:0:0:0:0:
329,192,77402,1,0,0:0:0:0:
36,192,77402,128,0,77485:0:0:0:0:
402,192,77485,128,0,77735:0:0:0:0:
109,192,77485,128,0,77568:0:0:0:0:
329,192,77568,128,0,77652:0:0:0:0:
182,192,77568,128,0,77652:0:0:0:0:
256,192,77652,128,0,77735:0:0:0:0:
36,192,77652,1,0,0:0:0:0:
329,192,77735,128,0,77818:0:0:0:0:
109,192,77735,1,0,0:0:0:0:
402,192,77818,128,0,77902:0:0:0:0:
182,192,77818,1,0,0:0:0:0:
475,192,77902,128,0,78068:0:0:0:0:
256,192,77902,128,0,78068:0:0:0:0:
109,192,77902,128,0,78068:0:0:0:0:
36,192,77902,128,0,78068:0:0:0:0:
109,192,78568,1,0,0:0:0:0:
36,192,78568,1,0,0:0:0:0:
256,192,78568,1,0,0:0:0:0:
329,192,78568,1,0,0:0:0:0:
402,192,78568,1,0,0:0:0:0:
475,192,78568,1,0,0:0:0:0:
329,192,78902,1,0,0:0:0:0:
256,192,78902,1,0,0:0:0:0:
182,192,78902,1,0,0:0:0:0:
109,192,78902,1,0,0:0:0:0:
36,192,78902,1,0,0:0:0:0:
475,192,78902,1,0,0:0:0:0:
329,192,79235,128,0,79485:0:0:0:0:
475,192,79235,128,0,79485:0:0:0:0:
402,192,79235,128,0,79485:0:0:0:0:
36,192,79235,128,0,79485:0:0:0:0:
109,192,79235,128,0,79485:0:0:0:0:
256,192,79235,128,0,79485:0:0:0:0:
36,192,79568,1,0,0:0:0:0:
475,192,79568,1,0,0:0:0:0:
329,192,79568,1,0,0:0:0:0:
182,192,79568,1,0,0:0:0:0:
256,192,79652,1,0,0:0:0:0:
109,192,79652,1,0,0:0:0:0:
182,192,79735,1,0,0:0:0:0:
329,192,79735,1,0,0:0:0:0:
36,192,79735,1,0,0:0:0:0:
256,192,79818,1,0,0:0:0:0:
402,192,79818,1,0,0:0:0:0:
475,192,79902,1,0,0:0:0:0:
329,192,79902,1,0,0:0:0:0:
109,192,79902,1,0,0:0:0:0:
36,192,79902,1,0,0:0:0:0:
182,192,79985,1,0,0:0:0:0:
402,192,79985,1,0,0:0:0:0:
256,192,80068,1,0,0:0:0:0:
475,192,80068,1,0,0:0:0:0:
36,192,80068,1,0,0:0:0:0:
109,192,80124,1,0,0:0:0:0:
329,192,80152,1,0,0:0:0:0:
182,192,80180,1,0,0:0:0:0:
36,192,80235,1,0,0:0:0:0:
475,192,80235,1,0,0:0:0:0:
256,192,80235,1,0,0:0:0:0:
402,192,80235,1,0,0:0:0:0:
182,192,80402,1,0,0:0:0:0:
36,192,80402,1,0,0:0:0:0:
402,192,80402,1,0,0:0:0:0:
329,192,80457,1,0,0:0:0:0:
109,192,80485,1,0,0:0:0:0:
256,192,80513,1,0,0:0:0:0:
182,192,80568,1,0,0:0:0:0:
402,192,80568,1,0,0:0:0:0:
36,192,80568,128,0,80818:0:0:0:0:
475,192,80568,128,0,80818:0:0:0:0:
109,192,80735,1,0,0:0:0:0:
256,192,80735,1,0,0:0:0:0:
475,192,80902,1,0,0:0:0:0:
109,192,80902,1,0,0:0:0:0:
329,192,80902,1,0,0:0:0:0:
36,192,80902,1,0,0:0:0:0:
402,192,80985,1,0,0:0:0:0:
182,192,80985,1,0,0:0:0:0:
256,192,81068,1,0,0:0:0:0:
475,192,81068,1,0,0:0:0:0:
36,192,81068,1,0,0:0:0:0:
109,192,81152,1,0,0:0:0:0:
329,192,81152,1,0,0:0:0:0:
402,192,81235,1,0,0:0:0:0:
256,192,81235,1,0,0:0:0:0:
36,192,81235,1,0,0:0:0:0:
475,192,81235,1,0,0:0:0:0:
182,192,81318,1,0,0:0:0:0:
329,192,81318,1,0,0:0:0:0:
256,192,81402,1,0,0:0:0:0:
402,192,81402,1,0,0:0:0:0:
36,192,81402,1,0,0:0:0:0:
329,192,81485,1,0,0:0:0:0:
109,192,81485,1,0,0:0:0:0:
475,192,81485,1,0,0:0:0:0:
182,192,81568,1,0,0:0:0:0:
36,192,81568,1,0,0:0:0:0:
402,192,81568,1,0,0:0:0:0:
256,192,81652,1,0,0:0:0:0:
475,192,81652,1,0,0:0:0:0:
402,192,81735,1,0,0:0:0:0:
109,192,81735,1,0,0:0:0:0:
36,192,81735,1,0,0:0:0:0:
182,192,81818,1,0,0:0:0:0:
329,192,81818,1,0,0:0:0:0:
256,192,81902,1,0,0:0:0:0:
36,192,81902,1,0,0:0:0:0:
475,192,81902,1,0,0:0:0:0:
402,192,81902,1,0,0:0:0:0:
109,192,81985,1,0,0:0:0:0:
329,192,81985,1,0,0:0:0:0:
475,192,82068,1,0,0:0:0:0:
182,192,82068,128,0,82402:0:0:0:0:
36,192,82068,128,0,82402:0:0:0:0:
402,192,82068,1,0,0:0:0:0:
256,192,82068,1,0,0:0:0:0:
402,192,82235,1,0,0:0:0:0:
475,192,82235,1,0,0:0:0:0:
329,192,82235,1,0,0:0:0:0:
256,192,82402,1,0,0:0:0:0:
109,192,82402,1,0,0:0:0:0:
329,192,82402,1,0,0:0:0:0:
475,192,82402,128,0,82735:0:0:0:0:
402,192,82568,128,0,82735:0:0:0:0:
109,192,82652,1,0,0:0:0:0:
36,192,82652,1,0,0:0:0:0:
256,192,82652,1,0,0:0:0:0:
329,192,82735,1,0,0:0:0:0:
182,192,82735,1,0,0:0:0:0:
329,192,82902,1,0,0:0:0:0:
182,192,82902,1,0,0:0:0:0:
36,192,82902,1,0,0:0:0:0:
109,192,82902,1,0,0:0:0:0:
475,192,82902,128,0,83235:0:0:0:0:
402,192,82902,128,0,83235:0:0:0:0:
256,192,83068,1,0,0:0:0:0:
109,192,83068,1,0,0:0:0:0:
36,192,83068,1,0,0:0:0:0:
256,192,83235,128,0,83735:0:0:0:0:
109,192,83235,128,0,83485:0:0:0:0:
36,192,83235,128,0,83485:0:0:0:0:
329,192,83235,1,0,0:0:0:0:
329,192,83568,1,0,0:0:0:0:
475,192,83568,1,0,0:0:0:0:
182,192,83568,1,0,0:0:0:0:
36,192,83568,1,0,0:0:0:0:
109,192,83735,1,0,0:0:0:0:
182,192,83735,1,0,0:0:0:0:
329,192,83735,1,0,0:0:0:0:
402,192,83735,1,0,0:0:0:0:
402,192,83902,1,0,0:0:0:0:
109,192,83902,1,0,0:0:0:0:
36,192,83902,1,0,0:0:0:0:
475,192,83902,128,0,84235:0:0:0:0:
256,192,83902,1,0,0:0:0:0:
182,192,84068,1,0,0:0:0:0:
36,192,84068,1,0,0:0:0:0:
329,192,84068,1,0,0:0:0:0:
256,192,84152,1,0,0:0:0:0:
402,192,84152,1,0,0:0:0:0:
329,192,84235,1,0,0:0:0:0:
182,192,84235,1,0,0:0:0:0:
36,192,84235,128,0,84402:0:0:0:0:
109,192,84402,1,0,0:0:0:0:
402,192,84402,1,0,0:0:0:0:
475,192,84402,1,0,0:0:0:0:
256,192,84402,128,0,84568:0:0:0:0:
402,192,84568,1,0,0:0:0:0:
475,192,84568,1,0,0:0:0:0:
109,192,84568,1,0,0:0:0:0:
36,192,84568,1,0,0:0:0:0:
182,192,84652,1,0,0:0:0:0:
329,192,84652,1,0,0:0:0:0:
256,192,84735,1,0,0:0:0:0:
402,192,84735,1,0,0:0:0:0:
475,192,84735,1,0,0:0:0:0:
36,192,84735,1,0,0:0:0:0:
109,192,84735,1,0,0:0:0:0:
329,192,84902,1,0,0:0:0:0:
182,192,84902,1,0,0:0:0:0:
36,192,84902,1,0,0:0:0:0:
475,192,84902,128,0,85068:0:0:0:0:
256,192,85068,1,0,0:0:0:0:
36,192,85068,1,0,0:0:0:0:
402,192,85068,1,0,0:0:0:0:
329,192,85152,1,0,0:0:0:0:
109,192,85152,1,0,0:0:0:0:
182,192,85235,1,0,0:0:0:0:
475,192,85235,1,0,0:0:0:0:
36,192,85235,1,0,0:0:0:0:
256,192,85318,1,0,0:0:0:0:
402,192,85318,1,0,0:0:0:0:
109,192,85318,1,0,0:0:0:0:
329,192,85402,1,0,0:0:0:0:
475,192,85402,1,0,0:0:0:0:
182,192,85402,128,0,85568:0:0:0:0:
36,192,85402,128,0,85568:0:0:0:0:
109,192,85568,1,0,0:0:0:0:
475,192,85568,1,0,0:0:0:0:
402,192,85624,1,0,0:0:0:0:
182,192,85652,1,0,0:0:0:0:
329,192,85680,1,0,0:0:0:0:
256,192,85735,1,0,0:0:0:0:
36,192,85735,1,0,0:0:0:0:
109,192,85735,1,0,0:0:0:0:
475,192,85735,1,0,0:0:0:0:
182,192,85902,1,0,0:0:0:0:
329,192,85902,1,0,0:0:0:0:
36,192,85902,1,0,0:0:0:0:
402,192,85902,128,0,86068:0:0:0:0:
475,192,85902,128,0,86068:0:0:0:0:
36,192,86068,1,0,0:0:0:0:
256,192,86068,1,0,0:0:0:0:
109,192,86068,1,0,0:0:0:0:
182,192,86152,1,0,0:0:0:0:
329,192,86152,1,0,0:0:0:0:
475,192,86235,1,0,0:0:0:0:
256,192,86235,1,0,0:0:0:0:
36,192,86235,1,0,0:0:0:0:
402,192,86318,1,0,0:0:0:0:
109,192,86318,1,0,0:0:0:0:
475,192,86402,1,0,0:0:0:0:
36,192,86402,1,0,0:0:0:0:
329,192,86402,128,0,86568:0:0:0:0:
182,192,86402,128,0,86568:0:0:0:0:
256,192,86568,1,0,0:0:0:0:
109,192,86568,1,0,0:0:0:0:
36,192,86568,1,0,0:0:0:0:
475,192,86568,1,0,0:0:0:0:
182,192,86652,1,0,0:0:0:0:
329,192,86652,1,0,0:0:0:0:
402,192,86652,1,0,0:0:0:0:
256,192,86735,1,0,0:0:0:0:
36,192,86735,1,0,0:0:0:0:
475,192,86735,1,0,0:0:0:0:
109,192,86818,1,0,0:0:0:0:
329,192,86818,1,0,0:0:0:0:
402,192,86818,1,0,0:0:0:0:
182,192,86902,1,0,0:0:0:0:
475,192,86902,1,0,0:0:0:0:
36,192,86902,1,0,0:0:0:0:
109,192,86985,1,0,0:0:0:0:
256,192,86985,1,0,0:0:0:0:
402,192,86985,1,0,0:0:0:0:
329,192,87068,1,0,0:0:0:0:
36,192,87068,1,0,0:0:0:0:
182,192,87068,1,0,0:0:0:0:
109,192,87152,1,0,0:0:0:0:
402,192,87152,1,0,0:0:0:0:
256,192,87152,1,0,0:0:0:0:
329,192,87235,1,0,0:0:0:0:
475,192,87235,1,0,0:0:0:0:
182,192,87235,1,0,0:0:0:0:
109,192,87318,1,0,0:0:0:0:
36,192,87318,1,0,0:0:0:0:
256,192,87318,1,0,0:0:0:0:
182,192,87402,1,0,0:0:0:0:
329,192,87402,128,0,87568:0:0:0:0:
402,192,87402,128,0,87568:0:0:0:0:
475,192,87402,128,0,87568:0:0:0:0:
109,192,87568,1,0,0:0:0:0:
256,192,87568,1,0,0:0:0:0:
36,192,87568,1,0,0:0:0:0:
182,192,87652,1,0,0:0:0:0:
329,192,87652,1,0,0:0:0:0:
475,192,87652,1,0,0:0:0:0:
402,192,87735,1,0,0:0:0:0:
256,192,87735,128,0,87902:0:0:0:0:
109,192,87735,128,0,87902:0:0:0:0:
36,192,87735,128,0,87902:0:0:0:0:
329,192,87902,1,0,0:0:0:0:
182,192,87902,1,0,0:0:0:0:
402,192,87902,1,0,0:0:0:0:
475,192,87902,1,0,0:0:0:0:
256,192,88235,1,0,0:0:0:0:
109,192,88235,1,0,0:0:0:0:
36,192,88235,1,0,0:0:0:0:
402,192,88235,1,0,0:0:0:0:
475,192,88235,1,0,0:0:0:0:
182,192,88568,128,0,88818:0:0:0:0:
109,192,88568,128,0,88818:0:0:0:0:
36,192,88568,128,0,88818:0:0:0:0:
329,192,88568,128,0,88818:0:0:0:0:
475,192,88568,128,0,88818:0:0:0:0:
402,192,88568,128,0,88818:0:0:0:0:
36,192,88902,1,0,0:0:0:0:
182,192,88985,1,0,0:0:0:0:
36,192,89068,1,0,0:0:0:0:
402,192,89068,1,0,0:0:0:0:
329,192,89152,1,0,0:0:0:0:
256,192,89235,128,0,89318:0:0:0:0:
402,192,89235,128,0,89318:0:0:0:0:
475,192,89235,128,0,89318:0:0:0:0:
36,192,89235,128,0,89318:0:0:0:0:
109,192,89235,128,0,89318:0:0:0:0:
182,192,89402,128,0,89485:0:0:0:0:
109,192,89402,128,0,89485:0:0:0:0:
36,192,89402,128,0,89485:0:0:0:0:
329,192,89402,128,0,89485:0:0:0:0:
475,192,89402,128,0,89485:0:0:0:0:
475,192,89568,128,0,89652:0:0:0:0:
402,192,89568,128,0,89652:0:0:0:0:
256,192,89568,128,0,89652:0:0:0:0:
182,192,89568,128,0,89652:0:0:0:0:
36,192,89568,128,0,89652:0:0:0:0:
256,192,89735,128,0,89818:0:0:0:0:
109,192,89735,128,0,89818:0:0:0:0:
329,192,89735,128,0,89818:0:0:0:0:
36,192,89735,128,0,89818:0:0:0:0:
475,192,89735,128,0,89818:0:0:0:0:
329,192,89902,128,0,90152:0:0:0:0:
402,192,89902,128,0,90152:0:0:0:0:
475,192,89902,128,0,90152:0:0:0:0:
182,192,89902,128,0,90152:0:0:0:0:
109,192,89902,128,0,90152:0:0:0:0:
36,192,89902,128,0,90152:0:0:0:0:
36,192,90235,1,0,0:0:0:0:
109,192,90235,1,0,0:0:0:0:
475,192,90235,1,0,0:0:0:0:
402,192,90235,1,0,0:0:0:0:
182,192,90235,128,0,90402:0:0:0:0:
329,192,90235,1,0,0:0:0:0:
475,192,90402,1,0,0:0:0:0:
402,192,90402,1,0,0:0:0:0:
36,192,90402,128,0,90568:0:0:0:0:
256,192,90402,1,0,0:0:0:0:
402,192,90568,1,0,0:0:0:0:
109,192,90568,1,0,0:0:0:0:
329,192,90568,128,0,90735:0:0:0:0:
475,192,90568,1,0,0:0:0:0:
182,192,90568,1,0,0:0:0:0:
109,192,90735,1,0,0:0:0:0:
36,192,90735,1,0,0:0:0:0:
402,192,90735,1,0,0:0:0:0:
256,192,90735,128,0,90902:0:0:0:0:
36,192,90902,1,0,0:0:0:0:
329,192,90902,1,0,0:0:0:0:
475,192,90902,1,0,0:0:0:0:
182,192,90902,128,0,91068:0:0:0:0:
256,192,91068,1,0,0:0:0:0:
36,192,91068,1,0,0:0:0:0:
109,192,91068,1,0,0:0:0:0:
402,192,91068,128,0,91235:0:0:0:0:
329,192,91235,1,0,0:0:0:0:
182,192,91235,1,0,0:0:0:0:
36,192,91235,1,0,0:0:0:0:
475,192,91235,128,0,91735:0:0:0:0:
109,192,91402,1,0,0:0:0:0:
256,192,91402,1,0,0:0:0:0:
402,192,91402,1,0,0:0:0:0:
329,192,91568,1,0,0:0:0:0:
36,192,91568,1,0,0:0:0:0:
182,192,91568,1,0,0:0:0:0:
109,192,91735,1,0,0:0:0:0:
256,192,91735,1,0,0:0:0:0:
402,192,91735,1,0,0:0:0:0:
36,192,91902,128,0,92068:0:0:0:0:
182,192,91902,1,0,0:0:0:0:
256,192,91902,1,0,0:0:0:0:
475,192,91902,1,0,0:0:0:0:
402,192,91902,1,0,0:0:0:0:
329,192,92068,128,0,92235:0:0:0:0:
182,192,92068,1,0,0:0:0:0:
475,192,92068,1,0,0:0:0:0:
109,192,92068,1,0,0:0:0:0:
182,192,92235,128,0,92402:0:0:0:0:
36,192,92235,1,0,0:0:0:0:
256,192,92235,1,0,0:0:0:0:
402,192,92235,1,0,0:0:0:0:
402,192,92402,128,0,92568:0:0:0:0:
329,192,92402,1,0,0:0:0:0:
109,192,92402,1,0,0:0:0:0:
475,192,92402,1,0,0:0:0:0:
36,192,92568,1,0,0:0:0:0:
256,192,92568,128,0,92902:0:0:0:0:
182,192,92568,1,0,0:0:0:0:
329,192,92568,1,0,0:0:0:0:
109,192,92735,1,0,0:0:0:0:
402,192,92735,1,0,0:0:0:0:
475,192,92735,1,0,0:0:0:0:
475,192,92902,128,0,93068:0:0:0:0:
402,192,92902,1,0,0:0:0:0:
182,192,92902,1,0,0:0:0:0:
36,192,92902,1,0,0:0:0:0:
329,192,93068,128,0,93235:0:0:0:0:
182,192,93068,1,0,0:0:0:0:
256,192,93068,1,0,0:0:0:0:
36,192,93068,1,0,0:0:0:0:
109,192,93235,128,0,93402:0:0:0:0:
256,192,93235,1,0,0:0:0:0:
402,192,93235,1,0,0:0:0:0:
475,192,93235,1,0,0:0:0:0:
402,192,93402,128,0,93568:0:0:0:0:
329,192,93402,1,0,0:0:0:0:
182,192,93402,1,0,0:0:0:0:
36,192,93402,1,0,0:0:0:0:
475,192,93568,128,0,93735:0:0:0:0:
109,192,93568,1,0,0:0:0:0:
256,192,93568,1,0,0:0:0:0:
329,192,93568,1,0,0:0:0:0:
36,192,93735,128,0,93902:0:0:0:0:
182,192,93735,1,0,0:0:0:0:
256,192,93735,1,0,0:0:0:0:
402,192,93735,1,0,0:0:0:0:
182,192,93902,128,0,94402:0:0:0:0:
109,192,93902,1,0,0:0:0:0:
329,192,93902,1,0,0:0:0:0:
475,192,93902,1,0,0:0:0:0:
256,192,94068,1,0,0:0:0:0:
475,192,94068,1,0,0:0:0:0:
36,192,94068,1,0,0:0:0:0:
109,192,94235,1,0,0:0:0:0:
329,192,94235,1,0,0:0:0:0:
402,192,94235,1,0,0:0:0:0:
475,192,94235,1,0,0:0:0:0:
256,192,94402,1,0,0:0:0:0:
36,192,94402,1,0,0:0:0:0:
329,192,94402,1,0,0:0:0:0:
402,192,94402,1,0,0:0:0:0:
402,192,94568,128,0,94735:0:0:0:0:
256,192,94568,1,0,0:0:0:0:
109,192,94568,1,0,0:0:0:0:
475,192,94568,1,0,0:0:0:0:
36,192,94735,128,0,94902:0:0:0:0:
182,192,94735,1,0,0:0:0:0:
109,192,94735,1,0,0:0:0:0:
329,192,94735,1,0,0:0:0:0:
329,192,94902,128,0,95068:0:0:0:0:
182,192,94902,1,0,0:0:0:0:
256,192,94902,1,0,0:0:0:0:
475,192,94902,1,0,0:0:0:0:
36,192,94985,1,0,0:0:0:0:
109,192,94985,1,0,0:0:0:0:
182,192,95068,128,0,95235:0:0:0:0:
256,192,95068,1,0,0:0:0:0:
475,192,95068,1,0,0:0:0:0:
329,192,95152,1,0,0:0:0:0:
402,192,95152,1,0,0:0:0:0:
36,192,95235,128,0,95568:0:0:0:0:
256,192,95235,1,0,0:0:0:0:
109,192,95235,1,0,0:0:0:0:
475,192,95235,128,0,95568:0:0:0:0:
329,192,95568,128,0,95735:0:0:0:0:
182,192,95568,1,0,0:0:0:0:
109,192,95568,1,0,0:0:0:0:
402,192,95652,128,0,95818:0:0:0:0:
256,192,95735,128,0,96235:0:0:0:0:
109,192,95735,1,0,0:0:0:0:
182,192,95735,1,0,0:0:0:0:
475,192,95735,1,0,0:0:0:0:
182,192,95902,1,0,0:0:0:0:
36,192,95902,1,0,0:0:0:0:
329,192,95902,1,0,0:0:0:0:
402,192,95985,1,0,0:0:0:0:
475,192,95985,1,0,0:0:0:0:
329,192,96068,1,0,0:0:0:0:
182,192,96068,1,0,0:0:0:0:
36,192,96068,1,0,0:0:0:0:
36,192,96235,128,0,96346:0:0:0:0:
402,192,96235,1,0,0:0:0:0:
475,192,96235,1,0,0:0:0:0:
109,192,96291,128,0,96402:0:0:0:0:
329,192,96318,1,0,0:0:0:0:
182,192,96346,128,0,96457:0:0:0:0:
402,192,96402,1,0,0:0:0:0:
475,192,96402,1,0,0:0:0:0:
256,192,96402,128,0,96513:0:0:0:0:
109,192,96568,128,0,96735:0:0:0:0:
182,192,96568,1,0,0:0:0:0:
36,192,96568,1,0,0:0:0:0:
329,192,96568,1,0,0:0:0:0:
475,192,96568,1,0,0:0:0:0:
402,192,96735,1,0,0:0:0:0:
256,192,96735,1,0,0:0:0:0:
182,192,96818,1,0,0:0:0:0:
256,192,96902,128,0,97068:0:0:0:0:
109,192,96902,1,0,0:0:0:0:
36,192,96902,1,0,0:0:0:0:
329,192,96902,1,0,0:0:0:0:
475,192,96902,1,0,0:0:0:0:
36,192,97068,1,0,0:0:0:0:
109,192,97068,1,0,0:0:0:0:
402,192,97068,1,0,0:0:0:0:
475,192,97068,1,0,0:0:0:0:
182,192,97152,1,0,0:0:0:0:
402,192,97235,128,0,97402:0:0:0:0:
329,192,97235,1,0,0:0:0:0:
36,192,97235,1,0,0:0:0:0:
256,192,97235,1,0,0:0:0:0:
475,192,97235,1,0,0:0:0:0:
109,192,97402,1,0,0:0:0:0:
329,192,97402,1,0,0:0:0:0:
182,192,97402,1,0,0:0:0:0:
256,192,97485,1,0,0:0:0:0:
36,192,97485,1,0,0:0:0:0:
182,192,97568,128,0,97735:0:0:0:0:
329,192,97568,1,0,0:0:0:0:
402,192,97568,1,0,0:0:0:0:
475,192,97568,1,0,0:0:0:0:
329,192,97735,128,0,97902:0:0:0:0:
256,192,97735,1,0,0:0:0:0:
109,192,97735,1,0,0:0:0:0:
36,192,97735,1,0,0:0:0:0:
475,192,97735,1,0,0:0:0:0:
109,192,97902,128,0,98235:0:0:0:0:
475,192,97902,1,0,0:0:0:0:
182,192,97902,1,0,0:0:0:0:
36,192,97902,1,0,0:0:0:0:
402,192,97902,128,0,98235:0:0:0:0:
329,192,98235,1,0,0:0:0:0:
256,192,98235,1,0,0:0:0:0:
36,192,98235,1,0,0:0:0:0:
475,192,98318,1,0,0:0:0:0:
182,192,98318,1,0,0:0:0:0:
109,192,98318,1,0,0:0:0:0:
329,192,98402,1,0,0:0:0:0:
36,192,98402,1,0,0:0:0:0:
402,192,98402,1,0,0:0:0:0:
256,192,98485,1,0,0:0:0:0:
182,192,98485,1,0,0:0:0:0:
475,192,98485,1,0,0:0:0:0:
109,192,98568,1,0,0:0:0:0:
36,192,98568,1,0,0:0:0:0:
402,192,98568,1,0,0:0:0:0:
329,192,98652,1,0,0:0:0:0:
256,192,98652,1,0,0:0:0:0:
475,192,98735,1,0,0:0:0:0:
182,192,98735,1,0,0:0:0:0:
402,192,98735,1,0,0:0:0:0:
36,192,98735,1,0,0:0:0:0:
109,192,98735,1,0,0:0:0:0:
109,192,98902,1,0,0:0:0:0:
182,192,98902,1,0,0:0:0:0:
256,192,98902,1,0,0:0:0:0:
329,192,98902,1,0,0:0:0:0:
475,192,98902,1,0,0:0:0:0:
256,192,99068,1,0,0:0:0:0:
109,192,99068,1,0,0:0:0:0:
36,192,99068,1,0,0:0:0:0:
402,192,99068,1,0,0:0:0:0:
475,192,99068,1,0,0:0:0:0:
329,192,99235,128,0,99485:0:0:0:0:
182,192,99235,128,0,99485:0:0:0:0:
36,192,99235,128,0,99485:0:0:0:0:
402,192,99235,128,0,99485:0:0:0:0:
475,192,99235,128,0,99485:0:0:0:0:
182,192,99568,1,0,0:0:0:0:
256,192,99568,1,0,0:0:0:0:
109,192,99568,1,0,0:0:0:0:
36,192,99568,1,0,0:0:0:0:
402,192,99568,1,0,0:0:0:0:
109,192,99735,1,0,0:0:0:0:
182,192,99735,1,0,0:0:0:0:
256,192,99735,1,0,0:0:0:0:
329,192,99735,1,0,0:0:0:0:
475,192,99735,1,0,0:0:0:0:
256,192,99902,1,0,0:0:0:0:
329,192,99902,1,0,0:0:0:0:
402,192,99902,1,0,0:0:0:0:
475,192,99902,1,0,0:0:0:0:
109,192,99902,1,0,0:0:0:0:
36,192,99902,1,0,0:0:0:0:
475,192,100235,1,0,0:0:0:0:
109,192,100235,128,0,100318:0:0:0:0:
36,192,100235,128,0,100318:0:0:0:0:
256,192,100235,128,0,100318:0:0:0:0:
402,192,100291,1,0,0:0:0:0:
329,192,100346,1,0,0:0:0:0:
475,192,100402,1,0,0:0:0:0:
109,192,100402,128,0,100485:0:0:0:0:
182,192,100402,128,0,100485:0:0:0:0:
402,192,100457,1,0,0:0:0:0:
329,192,100513,1,0,0:0:0:0:
36,192,100568,128,0,100818:0:0:0:0:
182,192,100568,128,0,100818:0:0:0:0:
109,192,100568,128,0,100818:0:0:0:0:
256,192,100568,128,0,100818:0:0:0:0:
402,192,100568,128,0,100818:0:0:0:0:
475,192,100568,128,0,100818:0:0:0:0:
36,192,100902,1,0,0:0:0:0:
109,192,100902,1,0,0:0:0:0:
475,192,100902,1,0,0:0:0:0:
402,192,100902,1,0,0:0:0:0:
329,192,100902,128,0,101068:0:0:0:0:
182,192,100902,1,0,0:0:0:0:
475,192,101068,1,0,0:0:0:0:
402,192,101068,1,0,0:0:0:0:
36,192,101068,128,0,101235:0:0:0:0:
182,192,101068,1,0,0:0:0:0:
402,192,101235,1,0,0:0:0:0:
109,192,101235,1,0,0:0:0:0:
256,192,101235,128,0,101402:0:0:0:0:
475,192,101235,1,0,0:0:0:0:
329,192,101235,1,0,0:0:0:0:
109,192,101402,1,0,0:0:0:0:
36,192,101402,1,0,0:0:0:0:
402,192,101402,1,0,0:0:0:0:
182,192,101402,128,0,101568:0:0:0:0:
402,192,101568,1,0,0:0:0:0:
256,192,101568,1,0,0:0:0:0:
475,192,101568,1,0,0:0:0:0:
329,192,101568,128,0,101735:0:0:0:0:
36,192,101568,1,0,0:0:0:0:
475,192,101735,1,0,0:0:0:0:
36,192,101735,1,0,0:0:0:0:
182,192,101735,1,0,0:0:0:0:
109,192,101735,128,0,101902:0:0:0:0:
475,192,101902,1,0,0:0:0:0:
256,192,101902,1,0,0:0:0:0:
402,192,101902,1,0,0:0:0:0:
36,192,101902,128,0,102402:0:0:0:0:
109,192,102068,1,0,0:0:0:0:
182,192,102068,1,0,0:0:0:0:
329,192,102068,1,0,0:0:0:0:
402,192,102235,1,0,0:0:0:0:
475,192,102235,1,0,0:0:0:0:
256,192,102235,1,0,0:0:0:0:
109,192,102402,1,0,0:0:0:0:
182,192,102402,1,0,0:0:0:0:
329,192,102402,1,0,0:0:0:0:
402,192,102568,128,0,102735:0:0:0:0:
182,192,102568,1,0,0:0:0:0:
256,192,102568,1,0,0:0:0:0:
475,192,102568,1,0,0:0:0:0:
36,192,102568,1,0,0:0:0:0:
109,192,102735,128,0,102902:0:0:0:0:
182,192,102735,1,0,0:0:0:0:
475,192,102735,1,0,0:0:0:0:
329,192,102735,1,0,0:0:0:0:
256,192,102902,128,0,103068:0:0:0:0:
36,192,102902,1,0,0:0:0:0:
475,192,102902,1,0,0:0:0:0:
402,192,102902,1,0,0:0:0:0:
182,192,103068,128,0,103235:0:0:0:0:
329,192,103068,1,0,0:0:0:0:
402,192,103068,1,0,0:0:0:0:
109,192,103068,1,0,0:0:0:0:
256,192,103235,1,0,0:0:0:0:
475,192,103235,128,0,103568:0:0:0:0:
36,192,103235,1,0,0:0:0:0:
329,192,103235,1,0,0:0:0:0:
36,192,103402,1,0,0:0:0:0:
182,192,103402,1,0,0:0:0:0:
402,192,103402,1,0,0:0:0:0:
109,192,103568,128,0,103735:0:0:0:0:
329,192,103568,1,0,0:0:0:0:
256,192,103568,1,0,0:0:0:0:
402,192,103568,1,0,0:0:0:0:
256,192,103735,128,0,103902:0:0:0:0:
475,192,103735,1,0,0:0:0:0:
182,192,103735,1,0,0:0:0:0:
36,192,103735,1,0,0:0:0:0:
36,192,103902,128,0,104068:0:0:0:0:
182,192,103902,1,0,0:0:0:0:
329,192,103902,1,0,0:0:0:0:
475,192,103902,1,0,0:0:0:0:
402,192,103902,1,0,0:0:0:0:
475,192,104068,128,0,104235:0:0:0:0:
329,192,104068,1,0,0:0:0:0:
109,192,104068,1,0,0:0:0:0:
256,192,104068,1,0,0:0:0:0:
402,192,104235,128,0,104402:0:0:0:0:
36,192,104235,1,0,0:0:0:0:
182,192,104235,1,0,0:0:0:0:
256,192,104235,1,0,0:0:0:0:
109,192,104402,128,0,104568:0:0:0:0:
36,192,104402,1,0,0:0:0:0:
329,192,104402,1,0,0:0:0:0:
475,192,104402,1,0,0:0:0:0:
256,192,104568,128,0,105068:0:0:0:0:
182,192,104568,1,0,0:0:0:0:
329,192,104568,1,0,0:0:0:0:
475,192,104568,1,0,0:0:0:0:
182,192,104735,1,0,0:0:0:0:
402,192,104735,1,0,0:0:0:0:
36,192,104735,1,0,0:0:0:0:
109,192,104902,1,0,0:0:0:0:
36,192,104902,1,0,0:0:0:0:
402,192,104902,1,0,0:0:0:0:
475,192,104902,1,0,0:0:0:0:
182,192,105068,1,0,0:0:0:0:
109,192,105068,1,0,0:0:0:0:
329,192,105068,1,0,0:0:0:0:
402,192,105068,1,0,0:0:0:0:
36,192,105235,128,0,105568:0:0:0:0:
256,192,105235,1,0,0:0:0:0:
109,192,105235,1,0,0:0:0:0:
475,192,105235,1,0,0:0:0:0:
182,192,105402,1,0,0:0:0:0:
402,192,105402,1,0,0:0:0:0:
329,192,105402,1,0,0:0:0:0:
475,192,105568,128,0,105735:0:0:0:0:
256,192,105568,1,0,0:0:0:0:
109,192,105568,1,0,0:0:0:0:
402,192,105568,1,0,0:0:0:0:
329,192,105652,1,0,0:0:0:0:
182,192,105652,1,0,0:0:0:0:
256,192,105735,128,0,105902:0:0:0:0:
36,192,105735,1,0,0:0:0:0:
109,192,105735,1,0,0:0:0:0:
402,192,105735,1,0,0:0:0:0:
402,192,105902,1,0,0:0:0:0:
109,192,105902,1,0,0:0:0:0:
475,192,105902,1,0,0:0:0:0:
36,192,105902,1,0,0:0:0:0:
182,192,105985,1,0,0:0:0:0:
329,192,105985,1,0,0:0:0:0:
475,192,106068,128,0,106235:0:0:0:0:
402,192,106068,128,0,106235:0:0:0:0:
109,192,106068,128,0,106235:0:0:0:0:
36,192,106068,128,0,106235:0:0:0:0:
256,192,106068,128,0,106235:0:0:0:0:
329,192,106318,128,0,106485:0:0:0:0:
402,192,106318,128,0,106485:0:0:0:0:
182,192,106318,128,0,106485:0:0:0:0:
109,192,106318,128,0,106485:0:0:0:0:
256,192,106318,128,0,106485:0:0:0:0:
402,192,106568,128,0,106818:0:0:0:0:
36,192,106568,128,0,106818:0:0:0:0:
109,192,106568,128,0,106818:0:0:0:0:
475,192,106568,128,0,106818:0:0:0:0:
329,192,106568,128,0,106818:0:0:0:0:
182,192,106568,128,0,106818:0:0:0:0:
256,192,106902,1,0,0:0:0:0:
36,192,106902,1,0,0:0:0:0:
402,192,106902,1,0,0:0:0:0:
475,192,106902,1,0,0:0:0:0:
109,192,106902,1,0,0:0:0:0:
109,192,107068,1,0,0:0:0:0:
182,192,107068,1,0,0:0:0:0:
329,192,107068,1,0,0:0:0:0:
402,192,107068,1,0,0:0:0:0:
256,192,107235,1,0,0:0:0:0:
475,192,107235,1,0,0:0:0:0:
402,192,107235,1,0,0:0:0:0:
329,192,107235,1,0,0:0:0:0:
36,192,107235,128,0,107568:0:0:0:0:
109,192,107235,128,0,107568:0:0:0:0:
182,192,107568,1,0,0:0:0:0:
329,192,107568,1,0,0:0:0:0:
402,192,107568,1,0,0:0:0:0:
475,192,107568,128,0,107735:0:0:0:0:
36,192,107735,1,0,0:0:0:0:
109,192,107735,1,0,0:0:0:0:
402,192,107735,128,0,107902:0:0:0:0:
182,192,107735,1,0,0:0:0:0:
256,192,107818,1,0,0:0:0:0:
329,192,107818,1,0,0:0:0:0:
182,192,107902,1,0,0:0:0:0:
109,192,107902,1,0,0:0:0:0:
36,192,107902,128,0,108235:0:0:0:0:
475,192,107902,1,0,0:0:0:0:
329,192,107985,1,0,0:0:0:0:
402,192,107985,1,0,0:0:0:0:
109,192,108068,1,0,0:0:0:0:
256,192,108068,1,0,0:0:0:0:
182,192,108068,1,0,0:0:0:0:
402,192,108152,1,0,0:0:0:0:
475,192,108152,1,0,0:0:0:0:
182,192,108235,128,0,108402:0:0:0:0:
329,192,108235,1,0,0:0:0:0:
256,192,108235,1,0,0:0:0:0:
402,192,108318,1,0,0:0:0:0:
475,192,108318,1,0,0:0:0:0:
36,192,108402,128,0,108568:0:0:0:0:
329,192,108402,1,0,0:0:0:0:
109,192,108402,1,0,0:0:0:0:
256,192,108402,1,0,0:0:0:0:
109,192,108568,1,0,0:0:0:0:
402,192,108568,1,0,0:0:0:0:
475,192,108568,128,0,108902:0:0:0:0:
182,192,108568,1,0,0:0:0:0:
329,192,108568,128,0,108902:0:0:0:0:
256,192,108902,1,0,0:0:0:0:
402,192,108902,1,0,0:0:0:0:
36,192,108902,1,0,0:0:0:0:
109,192,108902,128,0,109068:0:0:0:0:
182,192,108902,1,0,0:0:0:0:
329,192,109068,1,0,0:0:0:0:
475,192,109068,1,0,0:0:0:0:
402,192,109068,1,0,0:0:0:0:
36,192,109068,128,0,109235:0:0:0:0:
256,192,109152,1,0,0:0:0:0:
182,192,109152,1,0,0:0:0:0:
475,192,109235,128,0,109568:0:0:0:0:
109,192,109235,1,0,0:0:0:0:
402,192,109235,1,0,0:0:0:0:
256,192,109318,1,0,0:0:0:0:
329,192,109318,1,0,0:0:0:0:
109,192,109402,1,0,0:0:0:0:
36,192,109402,1,0,0:0:0:0:
182,192,109402,1,0,0:0:0:0:
329,192,109485,1,0,0:0:0:0:
402,192,109485,1,0,0:0:0:0:
36,192,109568,1,0,0:0:0:0:
109,192,109568,1,0,0:0:0:0:
256,192,109568,128,0,109735:0:0:0:0:
329,192,109652,1,0,0:0:0:0:
182,192,109652,1,0,0:0:0:0:
475,192,109735,1,0,0:0:0:0:
36,192,109735,128,0,109902:0:0:0:0:
109,192,109735,1,0,0:0:0:0:
402,192,109735,1,0,0:0:0:0:
256,192,109902,1,0,0:0:0:0:
402,192,109902,1,0,0:0:0:0:
475,192,109902,1,0,0:0:0:0:
182,192,109902,1,0,0:0:0:0:
109,192,109902,1,0,0:0:0:0:
182,192,110235,1,0,0:0:0:0:
329,192,110235,1,0,0:0:0:0:
109,192,110235,1,0,0:0:0:0:
36,192,110235,1,0,0:0:0:0:
402,192,110235,1,0,0:0:0:0:
475,192,110235,1,0,0:0:0:0:
109,192,110402,1,0,0:0:0:0:
36,192,110402,1,0,0:0:0:0:
182,192,110402,1,0,0:0:0:0:
475,192,110402,1,0,0:0:0:0:
329,192,110402,1,0,0:0:0:0:
402,192,110402,1,0,0:0:0:0:
182,192,110568,1,0,0:0:0:0:
329,192,110568,1,0,0:0:0:0:
402,192,110568,1,0,0:0:0:0:
475,192,110568,1,0,0:0:0:0:
109,192,110568,1,0,0:0:0:0:
36,192,110568,1,0,0:0:0:0:
36,192,110735,1,0,0:0:0:0:
109,192,110735,1,0,0:0:0:0:
182,192,110735,1,0,0:0:0:0:
329,192,110735,1,0,0:0:0:0:
402,192,110735,1,0,0:0:0:0:
475,192,110735,1,0,0:0:0:0:
182,192,111068,128,0,111151:0:0:0:0:
329,192,111235,128,0,111318:0:0:0:0:
475,192,111401,128,0,111484:0:0:0:0:
109,192,111401,1,0,0:0:0:0:
182,192,111567,1,0,0:0:0:0:
256,192,111734,1,0,0:0:0:0:
109,192,111901,128,0,111984:0:0:0:0:
329,192,111901,1,0,0:0:0:0:
182,192,112401,128,0,112484:0:0:0:0:
36,192,112567,128,0,112651:0:0:0:0:
475,192,112567,1,0,0:0:0:0:
475,192,112901,1,0,0:0:0:0:
182,192,113067,1,0,0:0:0:0:
402,192,113234,1,0,0:0:0:0:
36,192,113567,128,0,113651:0:0:0:0:
182,192,113734,128,0,113817:0:0:0:0:
329,192,113901,128,0,113984:0:0:0:0:
109,192,114067,128,0,114151:0:0:0:0:
475,192,114067,1,0,0:0:0:0:
182,192,114234,1,0,0:0:0:0:
402,192,114401,128,0,114484:0:0:0:0:
329,192,114401,1,0,0:0:0:0:
256,192,114567,128,0,114651:0:0:0:0:
36,192,114567,1,0,0:0:0:0:
109,192,114901,1,0,0:0:0:0:
475,192,114901,128,0,114984:0:0:0:0:
329,192,115067,1,0,0:0:0:0:
182,192,115234,1,0,0:0:0:0:
36,192,115234,128,0,115317:0:0:0:0:
329,192,115567,1,0,0:0:0:0:
475,192,115734,1,0,0:0:0:0:
109,192,115734,128,0,115817:0:0:0:0:
182,192,115901,1,0,0:0:0:0:
329,192,116067,1,0,0:0:0:0:
256,192,116067,128,0,116151:0:0:0:0:
109,192,116234,1,0,0:0:0:0:
475,192,116234,128,0,116317:0:0:0:0:
182,192,116401,1,0,0:0:0:0:
329,192,116401,128,0,116484:0:0:0:0:
109,192,116567,1,0,0:0:0:0:
402,192,116567,128,0,116651:0:0:0:0:
36,192,116734,1,0,0:0:0:0:
256,192,116734,128,0,116817:0:0:0:0:
182,192,116901,1,0,0:0:0:0:
402,192,117067,1,0,0:0:0:0:
329,192,117234,1,0,0:0:0:0:
36,192,117234,128,0,117317:0:0:0:0:
475,192,117734,128,0,117817:0:0:0:0:
109,192,117901,1,0,0:0:0:0:
256,192,117901,128,0,117984:0:0:0:0:
329,192,118234,1,0,0:0:0:0:
36,192,118401,1,0,0:0:0:0:
256,192,118567,1,0,0:0:0:0:
402,192,118734,128,0,118817:0:0:0:0:
109,192,118734,1,0,0:0:0:0:
329,192,118900,128,0,118984:0:0:0:0:
475,192,118900,1,0,0:0:0:0:
182,192,118900,1,0,0:0:0:0:
109,192,119067,128,0,119150:0:0:0:0:
36,192,119067,1,0,0:0:0:0:
256,192,119234,128,0,119317:0:0:0:0:
329,192,119234,1,0,0:0:0:0:
402,192,119400,128,0,119484:0:0:0:0:
182,192,119400,1,0,0:0:0:0:
182,192,119734,128,0,119817:0:0:0:0:
475,192,119734,1,0,0:0:0:0:
109,192,119900,128,0,119984:0:0:0:0:
329,192,119900,1,0,0:0:0:0:
182,192,120067,1,0,0:0:0:0:
402,192,120234,128,0,120317:0:0:0:0:
475,192,120567,128,0,120650:0:0:0:0:
182,192,120900,1,0,0:0:0:0:
109,192,121067,128,0,121150:0:0:0:0:
329,192,121067,1,0,0:0:0:0:
475,192,121234,1,0,0:0:0:0:
36,192,121400,128,0,121567:0:0:0:0:
256,192,121400,1,0,0:0:0:0:
182,192,121567,128,0,121734:0:0:0:0:
329,192,121734,128,0,121900:0:0:0:0:
109,192,121734,1,0,0:0:0:0:
475,192,121900,128,0,122067:0:0:0:0:
256,192,121900,1,0,0:0:0:0:
402,192,122067,128,0,122567:0:0:0:0:
182,192,122067,1,0,0:0:0:0:
36,192,122067,1,0,0:0:0:0:
182,192,122234,1,0,0:0:0:0:
109,192,122400,1,0,0:0:0:0:
256,192,122400,1,0,0:0:0:0:
329,192,122567,128,0,123067:0:0:0:0:
109,192,122567,1,0,0:0:0:0:
182,192,122734,1,0,0:0:0:0:
36,192,122734,1,0,0:0:0:0:
182,192,122900,1,0,0:0:0:0:
475,192,123067,128,0,123234:0:0:0:0:
256,192,123067,1,0,0:0:0:0:
36,192,123067,1,0,0:0:0:0:
109,192,123234,128,0,124067:0:0:0:0:
256,192,123234,1,0,0:0:0:0:
329,192,123400,1,0,0:0:0:0:
475,192,123400,1,0,0:0:0:0:
329,192,123567,1,0,0:0:0:0:
182,192,123734,1,0,0:0:0:0:
402,192,123734,1,0,0:0:0:0:
182,192,123900,1,0,0:0:0:0:
256,192,124067,1,0,0:0:0:0:
402,192,124067,1,0,0:0:0:0:
36,192,124234,128,0,124400:0:0:0:0:
402,192,124234,1,0,0:0:0:0:
329,192,124400,128,0,124567:0:0:0:0:
475,192,124400,1,0,0:0:0:0:
109,192,124400,1,0,0:0:0:0:
182,192,124567,128,0,124734:0:0:0:0:
475,192,124567,1,0,0:0:0:0:
402,192,124734,128,0,124900:0:0:0:0:
256,192,124734,1,0,0:0:0:0:
109,192,124734,1,0,0:0:0:0:
256,192,124900,1,0,0:0:0:0:
36,192,125067,1,0,0:0:0:0:
329,192,125067,1,0,0:0:0:0:
182,192,125067,128,0,125234:0:0:0:0:
36,192,125234,1,0,0:0:0:0:
475,192,125234,128,0,125567:0:0:0:0:
109,192,125400,1,0,0:0:0:0:
329,192,125400,1,0,0:0:0:0:
256,192,125567,128,0,125900:0:0:0:0:
329,192,125567,1,0,0:0:0:0:
109,192,125734,1,0,0:0:0:0:
402,192,125734,1,0,0:0:0:0:
182,192,125900,128,0,126400:0:0:0:0:
109,192,125900,1,0,0:0:0:0:
329,192,126067,1,0,0:0:0:0:
475,192,126067,1,0,0:0:0:0:
329,192,126234,1,0,0:0:0:0:
256,192,126400,1,0,0:0:0:0:
36,192,126400,1,0,0:0:0:0:
36,192,126567,1,0,0:0:0:0:
329,192,126567,1,0,0:0:0:0:
402,192,126567,1,0,0:0:0:0:
475,192,126567,1,0,0:0:0:0:
182,192,126567,1,0,0:0:0:0:
109,192,126567,1,0,0:0:0:0:
256,192,126734,1,0,0:0:0:0:
475,192,126734,1,0,0:0:0:0:
402,192,126734,1,0,0:0:0:0:
109,192,126734,1,0,0:0:0:0:
36,192,126734,1,0,0:0:0:0:
36,192,126900,1,0,0:0:0:0:
182,192,126900,1,0,0:0:0:0:
109,192,126900,1,0,0:0:0:0:
329,192,126900,1,0,0:0:0:0:
402,192,126900,1,0,0:0:0:0:
475,192,126900,1,0,0:0:0:0:
475,192,127067,1,0,0:0:0:0:
402,192,127067,1,0,0:0:0:0:
256,192,127067,1,0,0:0:0:0:
109,192,127067,1,0,0:0:0:0:
36,192,127067,1,0,0:0:0:0:
109,192,127234,128,0,127484:0:0:0:0:
182,192,127234,128,0,127484:0:0:0:0:
329,192,127234,128,0,127484:0:0:0:0:
402,192,127234,128,0,127484:0:0:0:0:
256,192,127234,128,0,127484:0:0:0:0:
36,192,127234,128,0,127484:0:0:0:0:
109,192,127567,1,0,0:0:0:0:
182,192,127567,1,0,0:0:0:0:
402,192,127623,1,0,0:0:0:0:
329,192,127623,1,0,0:0:0:0:
182,192,127678,1,0,0:0:0:0:
109,192,127678,1,0,0:0:0:0:
402,192,127734,1,0,0:0:0:0:
329,192,127734,1,0,0:0:0:0:
182,192,127789,1,0,0:0:0:0:
109,192,127789,1,0,0:0:0:0:
256,192,127900,128,0,128150:0:0:0:0:
329,192,127900,128,0,128150:0:0:0:0:
402,192,127900,128,0,128150:0:0:0:0:
475,192,127900,128,0,128150:0:0:0:0:
109,192,127900,128,0,128150:0:0:0:0:
36,192,127900,128,0,128150:0:0:0:0:
109,192,128234,1,0,0:0:0:0:
256,192,128234,1,0,0:0:0:0:
402,192,128289,1,0,0:0:0:0:
475,192,128289,1,0,0:0:0:0:
256,192,128345,1,0,0:0:0:0:
109,192,128345,1,0,0:0:0:0:
402,192,128400,1,0,0:0:0:0:
475,192,128400,1,0,0:0:0:0:
256,192,128456,1,0,0:0:0:0:
109,192,128456,1,0,0:0:0:0:
329,192,128567,128,0,128984:0:0:0:0:
402,192,128567,128,0,129734:0:0:0:0:
475,192,128567,128,0,129900:0:0:0:0:
182,192,128567,128,0,128984:0:0:0:0:
109,192,128567,128,0,128984:0:0:0:0:
36,192,128567,128,0,128984:0:0:0:0:
36,192,129067,1,0,0:0:0:0:
256,192,129067,128,0,129400:0:0:0:0:
329,192,129067,128,0,129567:0:0:0:0:
109,192,129067,128,0,129400:0:0:0:0:
182,192,129400,128,0,129567:0:0:0:0:
36,192,129400,128,0,129567:0:0:0:0:
109,192,129567,128,0,129734:0:0:0:0:
256,192,129567,128,0,129734:0:0:0:0:
182,192,129734,128,0,129900:0:0:0:0:
329,192,129734,128,0,129900:0:0:0:0:
402,192,129900,128,0,131234:0:0:0:0:
256,192,129900,128,0,131234:0:0:0:0:
109,192,129900,128,0,130317:0:0:0:0:
36,192,129900,128,0,130317:0:0:0:0:
36,192,130400,1,0,0:0:0:0:
109,192,130400,1,0,0:0:0:0:
182,192,130400,1,0,0:0:0:0:
109,192,130734,1,0,0:0:0:0:
36,192,130734,1,0,0:0:0:0:
182,192,130734,1,0,0:0:0:0:
475,192,130900,1,0,0:0:0:0:
329,192,130900,1,0,0:0:0:0:
329,192,130984,1,0,0:0:0:0:
475,192,130984,1,0,0:0:0:0:
36,192,131067,1,0,0:0:0:0:
109,192,131067,1,0,0:0:0:0:
182,192,131067,1,0,0:0:0:0:
329,192,131234,128,0,134067:0:0:0:0:
475,192,131234,128,0,134067:0:0:0:0:
182,192,131234,128,0,134067:0:0:0:0:
36,192,131234,128,0,134067:0:0:0:0:
256,192,132067,128,0,132650:0:0:0:0:
256,192,132734,1,0,0:0:0:0:
402,192,136400,128,0,136484:0:0:0:0:
475,192,136400,128,0,136484:0:0:0:0:
402,192,136734,128,0,136817:0:0:0:0:
256,192,136734,128,0,136817:0:0:0:0:
109,192,136734,128,0,136817:0:0:0:0:
36,192,136734,128,0,136817:0:0:0:0:
329,192,137400,128,0,137484:0:0:0:0:
109,192,137400,128,0,137484:0:0:0:0:
475,192,137734,128,0,137817:0:0:0:0:
256,192,137734,128,0,137817:0:0:0:0:
402,192,137900,128,0,137984:0:0:0:0:
182,192,137900,128,0,137984:0:0:0:0:
256,192,138400,128,0,138484:0:0:0:0:
109,192,138400,128,0,138484:0:0:0:0:
329,192,138734,128,0,138817:0:0:0:0:
182,192,138734,128,0,138817:0:0:0:0:
402,192,139067,128,0,139150:0:0:0:0:
256,192,139067,128,0,139150:0:0:0:0:
329,192,139400,128,0,139484:0:0:0:0:
475,192,139400,128,0,139484:0:0:0:0:
109,192,139400,128,0,139484:0:0:0:0:
36,192,139400,128,0,139484:0:0:0:0:
256,192,139734,128,0,139817:0:0:0:0:
36,192,139734,128,0,139817:0:0:0:0:
402,192,139900,128,0,139984:0:0:0:0:
182,192,139900,128,0,139984:0:0:0:0:
329,192,140234,128,0,140317:0:0:0:0:
475,192,140234,128,0,140317:0:0:0:0:
256,192,140567,128,0,140650:0:0:0:0:
109,192,140567,128,0,140650:0:0:0:0:
182,192,141734,128,0,141817:0:0:0:0:
402,192,141734,128,0,141817:0:0:0:0:
182,192,142067,128,0,142150:0:0:0:0:
36,192,142067,128,0,142150:0:0:0:0:
329,192,142067,128,0,142150:0:0:0:0:
475,192,142067,128,0,142150:0:0:0:0:
109,192,142734,128,0,142817:0:0:0:0:
402,192,142734,128,0,142817:0:0:0:0:
109,192,142900,128,0,142984:0:0:0:0:
402,192,142900,128,0,142984:0:0:0:0:
329,192,143067,128,0,143150:0:0:0:0:
475,192,143067,128,0,143150:0:0:0:0:
36,192,143234,128,0,143317:0:0:0:0:
182,192,143234,128,0,143317:0:0:0:0:
182,192,143734,128,0,143817:0:0:0:0:
402,192,143734,128,0,143817:0:0:0:0:
475,192,144067,128,0,144150:0:0:0:0:
256,192,144067,128,0,144150:0:0:0:0:
109,192,144400,128,0,144484:0:0:0:0:
36,192,144400,128,0,144484:0:0:0:0:
475,192,144734,128,0,144817:0:0:0:0:
402,192,144734,128,0,144817:0:0:0:0:
256,192,144734,128,0,144817:0:0:0:0:
109,192,144734,128,0,144817:0:0:0:0:
36,192,145234,128,0,145317:0:0:0:0:
329,192,145234,128,0,145317:0:0:0:0:
182,192,145734,128,0,145817:0:0:0:0:
475,192,145734,128,0,145817:0:0:0:0:
109,192,146234,128,0,146317:0:0:0:0:
402,192,146234,128,0,146317:0:0:0:0:
182,192,147067,128,0,147400:0:0:0:0:
475,192,147400,128,0,148067:0:0:0:0:
256,192,147400,1,0,0:0:0:0:
402,192,147400,1,0,0:0:0:0:
36,192,147400,1,0,0:0:0:0:
109,192,147567,1,0,0:0:0:0:
329,192,147734,1,0,0:0:0:0:
182,192,147900,1,0,0:0:0:0:
36,192,148067,1,0,0:0:0:0:
329,192,148067,1,0,0:0:0:0:
109,192,148123,1,0,0:0:0:0:
182,192,148178,128,0,148400:0:0:0:0:
402,192,148234,1,0,0:0:0:0:
109,192,148400,1,0,0:0:0:0:
329,192,148400,128,0,148567:0:0:0:0:
182,192,148567,1,0,0:0:0:0:
36,192,148567,128,0,149067:0:0:0:0:
402,192,148734,1,0,0:0:0:0:
256,192,148900,1,0,0:0:0:0:
109,192,149067,1,0,0:0:0:0:
402,192,149067,128,0,149400:0:0:0:0:
182,192,149150,1,0,0:0:0:0:
329,192,149234,1,0,0:0:0:0:
256,192,149317,1,0,0:0:0:0:
475,192,149400,128,0,149734:0:0:0:0:
36,192,149400,1,0,0:0:0:0:
109,192,149484,1,0,0:0:0:0:
256,192,149567,1,0,0:0:0:0:
329,192,149734,128,0,150067:0:0:0:0:
109,192,149734,1,0,0:0:0:0:
182,192,149900,1,0,0:0:0:0:
36,192,150067,128,0,150400:0:0:0:0:
256,192,150067,1,0,0:0:0:0:
402,192,150067,1,0,0:0:0:0:
475,192,150067,1,0,0:0:0:0:
182,192,150234,1,0,0:0:0:0:
402,192,150400,128,0,150567:0:0:0:0:
329,192,150400,1,0,0:0:0:0:
109,192,150567,128,0,150900:0:0:0:0:
475,192,150567,1,0,0:0:0:0:
256,192,150734,1,0,0:0:0:0:
475,192,150900,1,0,0:0:0:0:
36,192,150900,1,0,0:0:0:0:
402,192,150956,1,0,0:0:0:0:
329,192,151012,128,0,151400:0:0:0:0:
182,192,151067,1,0,0:0:0:0:
109,192,151234,1,0,0:0:0:0:
402,192,151400,1,0,0:0:0:0:
36,192,151400,1,0,0:0:0:0:
182,192,151400,1,0,0:0:0:0:
475,192,151400,128,0,152067:0:0:0:0:
256,192,151567,1,0,0:0:0:0:
36,192,151734,1,0,0:0:0:0:
182,192,151734,1,0,0:0:0:0:
402,192,151734,1,0,0:0:0:0:
329,192,151900,1,0,0:0:0:0:
36,192,152067,1,0,0:0:0:0:
109,192,152067,1,0,0:0:0:0:
402,192,152067,1,0,0:0:0:0:
256,192,152067,1,0,0:0:0:0:
182,192,152067,1,0,0:0:0:0:
36,192,152234,1,0,0:0:0:0:
329,192,152234,1,0,0:0:0:0:
402,192,152234,1,0,0:0:0:0:
109,192,152234,1,0,0:0:0:0:
182,192,152234,1,0,0:0:0:0:
36,192,152400,1,0,0:0:0:0:
109,192,152400,1,0,0:0:0:0:
256,192,152400,1,0,0:0:0:0:
475,192,152400,1,0,0:0:0:0:
329,192,152400,1,0,0:0:0:0:
182,192,152567,1,0,0:0:0:0:
36,192,152567,1,0,0:0:0:0:
402,192,152567,1,0,0:0:0:0:
256,192,152567,1,0,0:0:0:0:
475,192,152567,1,0,0:0:0:0:
329,192,152734,1,0,0:0:0:0:
475,192,152734,1,0,0:0:0:0:
402,192,152734,1,0,0:0:0:0:
109,192,152734,128,0,153400:0:0:0:0:
182,192,152734,128,0,153400:0:0:0:0:
402,192,152900,1,0,0:0:0:0:
329,192,152900,1,0,0:0:0:0:
475,192,152984,1,0,0:0:0:0:
402,192,153067,1,0,0:0:0:0:
329,192,153067,1,0,0:0:0:0:
402,192,153234,1,0,0:0:0:0:
329,192,153234,1,0,0:0:0:0:
475,192,153317,1,0,0:0:0:0:
329,192,153400,1,0,0:0:0:0:
402,192,153400,1,0,0:0:0:0:
36,192,153567,1,0,0:0:0:0:
109,192,153567,1,0,0:0:0:0:
402,192,153567,1,0,0:0:0:0:
256,192,153567,1,0,0:0:0:0:
182,192,153567,1,0,0:0:0:0:
109,192,153734,1,0,0:0:0:0:
182,192,153734,1,0,0:0:0:0:
329,192,153734,1,0,0:0:0:0:
402,192,153734,1,0,0:0:0:0:
475,192,153734,1,0,0:0:0:0:
402,192,153900,128,0,154817:0:0:0:0:
475,192,153900,128,0,154817:0:0:0:0:
256,192,153900,128,0,154150:0:0:0:0:
109,192,153900,128,0,154150:0:0:0:0:
36,192,153900,128,0,154150:0:0:0:0:
182,192,154234,1,0,0:0:0:0:
329,192,154234,1,0,0:0:0:0:
36,192,154234,1,0,0:0:0:0:
256,192,154317,1,0,0:0:0:0:
109,192,154400,1,0,0:0:0:0:
36,192,154400,1,0,0:0:0:0:
182,192,154484,1,0,0:0:0:0:
256,192,154484,1,0,0:0:0:0:
329,192,154567,1,0,0:0:0:0:
36,192,154567,1,0,0:0:0:0:
182,192,154650,1,0,0:0:0:0:
109,192,154650,1,0,0:0:0:0:
329,192,154734,1,0,0:0:0:0:
36,192,154734,1,0,0:0:0:0:
256,192,154817,1,0,0:0:0:0:
182,192,154817,1,0,0:0:0:0:
109,192,154900,1,0,0:0:0:0:
329,192,154900,1,0,0:0:0:0:
36,192,154900,1,0,0:0:0:0:
402,192,154900,1,0,0:0:0:0:
475,192,154900,1,0,0:0:0:0:
182,192,155067,1,0,0:0:0:0:
109,192,155067,1,0,0:0:0:0:
256,192,155067,1,0,0:0:0:0:
402,192,155067,1,0,0:0:0:0:
475,192,155067,1,0,0:0:0:0:
36,192,155234,128,0,156734:0:0:0:0:
475,192,155234,128,0,156734:0:0:0:0:
256,192,155234,128,0,155484:0:0:0:0:
402,192,155234,128,0,155484:0:0:0:0:
109,192,155234,128,0,155484:0:0:0:0:
109,192,155567,1,0,0:0:0:0:
182,192,155567,1,0,0:0:0:0:
329,192,155567,1,0,0:0:0:0:
402,192,155650,1,0,0:0:0:0:
256,192,155650,1,0,0:0:0:0:
109,192,155734,1,0,0:0:0:0:
329,192,155734,1,0,0:0:0:0:
402,192,155817,1,0,0:0:0:0:
182,192,155817,1,0,0:0:0:0:
256,192,155900,1,0,0:0:0:0:
109,192,155900,1,0,0:0:0:0:
182,192,155984,1,0,0:0:0:0:
402,192,155984,1,0,0:0:0:0:
329,192,156067,1,0,0:0:0:0:
109,192,156067,1,0,0:0:0:0:
256,192,156150,1,0,0:0:0:0:
402,192,156150,1,0,0:0:0:0:
329,192,156234,1,0,0:0:0:0:
182,192,156234,1,0,0:0:0:0:
109,192,156317,1,0,0:0:0:0:
256,192,156317,1,0,0:0:0:0:
182,192,156400,1,0,0:0:0:0:
329,192,156400,1,0,0:0:0:0:
402,192,156400,1,0,0:0:0:0:
256,192,156484,1,0,0:0:0:0:
109,192,156484,1,0,0:0:0:0:
182,192,156567,1,0,0:0:0:0:
329,192,156567,1,0,0:0:0:0:
402,192,156567,1,0,0:0:0:0:
109,192,156734,1,0,0:0:0:0:
329,192,156734,1,0,0:0:0:0:
402,192,156734,1,0,0:0:0:0:
182,192,156734,1,0,0:0:0:0:
256,192,156817,1,0,0:0:0:0:
36,192,156900,1,0,0:0:0:0:
109,192,156900,1,0,0:0:0:0:
402,192,156900,1,0,0:0:0:0:
475,192,156900,1,0,0:0:0:0:
182,192,156984,1,0,0:0:0:0:
329,192,156984,1,0,0:0:0:0:
256,192,157067,1,0,0:0:0:0:
36,192,157067,1,0,0:0:0:0:
109,192,157067,1,0,0:0:0:0:
402,192,157067,1,0,0:0:0:0:
475,192,157067,1,0,0:0:0:0:
36,192,157234,1,0,0:0:0:0:
182,192,157234,1,0,0:0:0:0:
329,192,157234,1,0,0:0:0:0:
475,192,157234,1,0,0:0:0:0:
402,192,157317,1,0,0:0:0:0:
109,192,157317,1,0,0:0:0:0:
256,192,157400,1,0,0:0:0:0:
36,192,157400,1,0,0:0:0:0:
475,192,157400,1,0,0:0:0:0:
329,192,157484,1,0,0:0:0:0:
182,192,157484,1,0,0:0:0:0:
475,192,157567,1,0,0:0:0:0:
109,192,157567,1,0,0:0:0:0:
402,192,157567,1,0,0:0:0:0:
256,192,157567,1,0,0:0:0:0:
36,192,157567,1,0,0:0:0:0:
182,192,157734,1,0,0:0:0:0:
36,192,157734,1,0,0:0:0:0:
329,192,157734,1,0,0:0:0:0:
475,192,157734,1,0,0:0:0:0:
402,192,157734,1,0,0:0:0:0:
109,192,157734,1,0,0:0:0:0:
36,192,157900,1,0,0:0:0:0:
109,192,157900,1,0,0:0:0:0:
256,192,157900,128,0,158150:0:0:0:0:
402,192,157900,128,0,158150:0:0:0:0:
475,192,157900,128,0,158150:0:0:0:0:
475,192,158233,1,0,0:0:0:0:
256,192,158233,1,0,0:0:0:0:
36,192,158233,1,0,0:0:0:0:
109,192,158233,1,0,0:0:0:0:
402,192,158288,1,0,0:0:0:0:
182,192,158316,1,0,0:0:0:0:
329,192,158344,1,0,0:0:0:0:
36,192,158400,1,0,0:0:0:0:
475,192,158400,1,0,0:0:0:0:
256,192,158400,1,0,0:0:0:0:
109,192,158483,1,0,0:0:0:0:
329,192,158483,1,0,0:0:0:0:
182,192,158566,1,0,0:0:0:0:
36,192,158566,1,0,0:0:0:0:
475,192,158566,1,0,0:0:0:0:
256,192,158650,1,0,0:0:0:0:
402,192,158650,1,0,0:0:0:0:
109,192,158650,1,0,0:0:0:0:
182,192,158733,1,0,0:0:0:0:
329,192,158733,1,0,0:0:0:0:
475,192,158733,1,0,0:0:0:0:
36,192,158733,1,0,0:0:0:0:
36,192,158900,1,0,0:0:0:0:
256,192,158900,1,0,0:0:0:0:
402,192,158900,1,0,0:0:0:0:
182,192,158955,1,0,0:0:0:0:
475,192,158983,1,0,0:0:0:0:
329,192,159011,1,0,0:0:0:0:
109,192,159066,1,0,0:0:0:0:
402,192,159066,1,0,0:0:0:0:
256,192,159066,1,0,0:0:0:0:
36,192,159066,1,0,0:0:0:0:
109,192,159233,1,0,0:0:0:0:
475,192,159233,1,0,0:0:0:0:
182,192,159233,128,0,159483:0:0:0:0:
329,192,159233,128,0,159483:0:0:0:0:
36,192,159233,128,0,159483:0:0:0:0:
475,192,159566,1,0,0:0:0:0:
329,192,159566,1,0,0:0:0:0:
182,192,159566,1,0,0:0:0:0:
36,192,159566,1,0,0:0:0:0:
256,192,159650,1,0,0:0:0:0:
402,192,159650,1,0,0:0:0:0:
475,192,159733,1,0,0:0:0:0:
329,192,159733,1,0,0:0:0:0:
109,192,159733,1,0,0:0:0:0:
36,192,159733,1,0,0:0:0:0:
182,192,159733,1,0,0:0:0:0:
256,192,159900,1,0,0:0:0:0:
402,192,159900,1,0,0:0:0:0:
36,192,159900,1,0,0:0:0:0:
475,192,159900,1,0,0:0:0:0:
109,192,159983,1,0,0:0:0:0:
182,192,159983,1,0,0:0:0:0:
329,192,159983,1,0,0:0:0:0:
256,192,160066,1,0,0:0:0:0:
36,192,160066,1,0,0:0:0:0:
475,192,160066,1,0,0:0:0:0:
402,192,160066,1,0,0:0:0:0:
182,192,160233,1,0,0:0:0:0:
329,192,160233,1,0,0:0:0:0:
36,192,160233,1,0,0:0:0:0:
475,192,160288,1,0,0:0:0:0:
109,192,160316,1,0,0:0:0:0:
256,192,160316,1,0,0:0:0:0:
402,192,160344,1,0,0:0:0:0:
329,192,160400,1,0,0:0:0:0:
182,192,160400,1,0,0:0:0:0:
36,192,160400,1,0,0:0:0:0:
256,192,160566,1,0,0:0:0:0:
402,192,160566,1,0,0:0:0:0:
109,192,160566,128,0,160816:0:0:0:0:
36,192,160566,128,0,160816:0:0:0:0:
475,192,160566,128,0,160816:0:0:0:0:
256,192,160900,1,0,0:0:0:0:
475,192,160900,1,0,0:0:0:0:
402,192,160900,1,0,0:0:0:0:
36,192,160900,1,0,0:0:0:0:
109,192,160983,1,0,0:0:0:0:
329,192,160983,1,0,0:0:0:0:
182,192,161066,1,0,0:0:0:0:
402,192,161066,1,0,0:0:0:0:
36,192,161066,1,0,0:0:0:0:
475,192,161150,1,0,0:0:0:0:
256,192,161150,1,0,0:0:0:0:
329,192,161233,1,0,0:0:0:0:
182,192,161233,1,0,0:0:0:0:
36,192,161233,1,0,0:0:0:0:
402,192,161233,1,0,0:0:0:0:
256,192,161400,1,0,0:0:0:0:
109,192,161400,1,0,0:0:0:0:
36,192,161400,1,0,0:0:0:0:
402,192,161400,1,0,0:0:0:0:
475,192,161400,1,0,0:0:0:0:
329,192,161483,1,0,0:0:0:0:
182,192,161566,1,0,0:0:0:0:
109,192,161566,1,0,0:0:0:0:
36,192,161566,1,0,0:0:0:0:
402,192,161566,1,0,0:0:0:0:
329,192,161650,1,0,0:0:0:0:
475,192,161733,1,0,0:0:0:0:
402,192,161733,1,0,0:0:0:0:
256,192,161733,1,0,0:0:0:0:
109,192,161733,1,0,0:0:0:0:
36,192,161733,1,0,0:0:0:0:
109,192,161900,1,0,0:0:0:0:
36,192,161900,1,0,0:0:0:0:
329,192,161900,128,0,162150:0:0:0:0:
475,192,161900,128,0,162150:0:0:0:0:
182,192,161900,128,0,162150:0:0:0:0:
402,192,162150,1,0,0:0:0:0:
256,192,162150,1,0,0:0:0:0:
36,192,162233,1,0,0:0:0:0:
329,192,162233,1,0,0:0:0:0:
182,192,162233,1,0,0:0:0:0:
109,192,162316,1,0,0:0:0:0:
256,192,162316,1,0,0:0:0:0:
475,192,162316,1,0,0:0:0:0:
36,192,162400,1,0,0:0:0:0:
182,192,162400,1,0,0:0:0:0:
402,192,162400,128,0,162483:0:0:0:0:
329,192,162400,128,0,162483:0:0:0:0:
256,192,162566,1,0,0:0:0:0:
109,192,162566,1,0,0:0:0:0:
36,192,162566,1,0,0:0:0:0:
402,192,162566,128,0,162650:0:0:0:0:
475,192,162566,128,0,162650:0:0:0:0:
329,192,162733,128,0,162816:0:0:0:0:
402,192,162733,128,0,162816:0:0:0:0:
402,192,162900,128,0,162983:0:0:0:0:
475,192,162900,128,0,162983:0:0:0:0:
109,192,162900,1,0,0:0:0:0:
36,192,162900,1,0,0:0:0:0:
256,192,162900,1,0,0:0:0:0:
329,192,163066,128,0,163150:0:0:0:0:
182,192,163066,128,0,163150:0:0:0:0:
256,192,163233,1,0,0:0:0:0:
36,192,163233,128,0,164566:0:0:0:0:
402,192,163233,128,0,163483:0:0:0:0:
475,192,163233,128,0,163483:0:0:0:0:
109,192,163233,1,0,0:0:0:0:
256,192,163566,1,0,0:0:0:0:
109,192,163566,1,0,0:0:0:0:
475,192,163566,1,0,0:0:0:0:
402,192,163566,1,0,0:0:0:0:
329,192,163650,1,0,0:0:0:0:
182,192,163733,1,0,0:0:0:0:
109,192,163733,1,0,0:0:0:0:
402,192,163733,1,0,0:0:0:0:
475,192,163733,1,0,0:0:0:0:
329,192,163900,1,0,0:0:0:0:
109,192,163900,1,0,0:0:0:0:
475,192,163900,1,0,0:0:0:0:
182,192,163983,1,0,0:0:0:0:
402,192,163983,1,0,0:0:0:0:
256,192,164066,1,0,0:0:0:0:
475,192,164066,1,0,0:0:0:0:
109,192,164066,1,0,0:0:0:0:
109,192,164233,1,0,0:0:0:0:
256,192,164233,1,0,0:0:0:0:
402,192,164233,1,0,0:0:0:0:
475,192,164233,1,0,0:0:0:0:
329,192,164400,1,0,0:0:0:0:
182,192,164400,1,0,0:0:0:0:
109,192,164400,1,0,0:0:0:0:
475,192,164400,1,0,0:0:0:0:
402,192,164400,1,0,0:0:0:0:
256,192,164566,1,0,0:0:0:0:
182,192,164566,1,0,0:0:0:0:
475,192,164566,1,0,0:0:0:0:
109,192,164566,1,0,0:0:0:0:
402,192,164622,1,0,0:0:0:0:
329,192,164677,1,0,0:0:0:0:
182,192,164733,1,0,0:0:0:0:
36,192,164733,1,0,0:0:0:0:
402,192,164788,1,0,0:0:0:0:
256,192,164844,1,0,0:0:0:0:
329,192,164900,1,0,0:0:0:0:
475,192,164900,1,0,0:0:0:0:
109,192,164900,1,0,0:0:0:0:
36,192,164900,1,0,0:0:0:0:
182,192,164983,1,0,0:0:0:0:
402,192,164983,1,0,0:0:0:0:
256,192,165066,1,0,0:0:0:0:
475,192,165066,1,0,0:0:0:0:
36,192,165066,1,0,0:0:0:0:
109,192,165066,1,0,0:0:0:0:
402,192,165150,1,0,0:0:0:0:
182,192,165150,1,0,0:0:0:0:
256,192,165233,1,0,0:0:0:0:
36,192,165233,1,0,0:0:0:0:
475,192,165233,1,0,0:0:0:0:
109,192,165316,1,0,0:0:0:0:
182,192,165316,1,0,0:0:0:0:
329,192,165316,1,0,0:0:0:0:
475,192,165400,1,0,0:0:0:0:
402,192,165400,1,0,0:0:0:0:
256,192,165400,1,0,0:0:0:0:
36,192,165400,1,0,0:0:0:0:
329,192,165483,1,0,0:0:0:0:
109,192,165483,1,0,0:0:0:0:
182,192,165566,1,0,0:0:0:0:
402,192,165566,1,0,0:0:0:0:
475,192,165566,1,0,0:0:0:0:
36,192,165566,1,0,0:0:0:0:
109,192,165650,1,0,0:0:0:0:
256,192,165650,1,0,0:0:0:0:
182,192,165733,1,0,0:0:0:0:
329,192,165733,1,0,0:0:0:0:
475,192,165733,1,0,0:0:0:0:
256,192,165816,1,0,0:0:0:0:
402,192,165816,1,0,0:0:0:0:
109,192,165816,1,0,0:0:0:0:
182,192,165900,1,0,0:0:0:0:
36,192,165900,128,0,166150:0:0:0:0:
475,192,165900,128,0,166150:0:0:0:0:
329,192,165900,128,0,166150:0:0:0:0:
475,192,166233,1,0,0:0:0:0:
182,192,166233,1,0,0:0:0:0:
402,192,166233,1,0,0:0:0:0:
36,192,166233,1,0,0:0:0:0:
256,192,166316,1,0,0:0:0:0:
109,192,166316,1,0,0:0:0:0:
475,192,166400,1,0,0:0:0:0:
329,192,166400,1,0,0:0:0:0:
182,192,166400,1,0,0:0:0:0:
36,192,166400,1,0,0:0:0:0:
256,192,166483,1,0,0:0:0:0:
402,192,166483,1,0,0:0:0:0:
329,192,166566,1,0,0:0:0:0:
109,192,166566,1,0,0:0:0:0:
182,192,166566,128,0,166816:0:0:0:0:
36,192,166566,128,0,166816:0:0:0:0:
475,192,166566,128,0,166816:0:0:0:0:
402,192,166733,1,0,0:0:0:0:
256,192,166733,1,0,0:0:0:0:
329,192,166900,1,0,0:0:0:0:
475,192,166900,1,0,0:0:0:0:
182,192,166900,1,0,0:0:0:0:
36,192,166900,1,0,0:0:0:0:
109,192,166983,1,0,0:0:0:0:
256,192,166983,1,0,0:0:0:0:
402,192,166983,1,0,0:0:0:0:
329,192,167066,1,0,0:0:0:0:
475,192,167066,1,0,0:0:0:0:
182,192,167066,1,0,0:0:0:0:
36,192,167066,1,0,0:0:0:0:
475,192,167233,128,0,167566:0:0:0:0:
402,192,167233,128,0,167566:0:0:0:0:
256,192,167233,128,0,167566:0:0:0:0:
109,192,167233,128,0,167566:0:0:0:0:
36,192,167233,128,0,167566:0:0:0:0:
182,192,167566,1,0,0:0:0:0:
329,192,167566,1,0,0:0:0:0:
475,192,167650,1,0,0:0:0:0:
36,192,167650,1,0,0:0:0:0:
329,192,167733,1,0,0:0:0:0:
182,192,167733,1,0,0:0:0:0:
256,192,167900,1,0,0:0:0:0:
109,192,167900,1,0,0:0:0:0:
36,192,167900,1,0,0:0:0:0:
402,192,167900,1,0,0:0:0:0:
475,192,167900,1,0,0:0:0:0:
256,192,168066,1,0,0:0:0:0:
329,192,168233,1,0,0:0:0:0:
475,192,168233,1,0,0:0:0:0:
182,192,168233,1,0,0:0:0:0:
36,192,168233,1,0,0:0:0:0:
256,192,168400,1,0,0:0:0:0:
182,192,168566,1,0,0:0:0:0:
109,192,168566,1,0,0:0:0:0:
36,192,168566,1,0,0:0:0:0:
329,192,168566,128,0,168816:0:0:0:0:
402,192,168566,128,0,168816:0:0:0:0:
475,192,168566,128,0,168816:0:0:0:0:
182,192,168900,1,0,0:0:0:0:
36,192,168900,1,0,0:0:0:0:
329,192,168900,1,0,0:0:0:0:
475,192,168900,1,0,0:0:0:0:
256,192,169066,1,0,0:0:0:0:
36,192,169066,1,0,0:0:0:0:
475,192,169066,1,0,0:0:0:0:
109,192,169122,1,0,0:0:0:0:
329,192,169122,1,0,0:0:0:0:
182,192,169177,1,0,0:0:0:0:
402,192,169177,1,0,0:0:0:0:
256,192,169233,1,0,0:0:0:0:
475,192,169233,1,0,0:0:0:0:
36,192,169233,1,0,0:0:0:0:
109,192,169316,1,0,0:0:0:0:
402,192,169316,1,0,0:0:0:0:
182,192,169400,1,0,0:0:0:0:
36,192,169400,1,0,0:0:0:0:
329,192,169400,1,0,0:0:0:0:
475,192,169400,1,0,0:0:0:0:
256,192,169566,1,0,0:0:0:0:
402,192,169566,1,0,0:0:0:0:
475,192,169566,1,0,0:0:0:0:
109,192,169566,1,0,0:0:0:0:
36,192,169566,1,0,0:0:0:0:
109,192,169733,1,0,0:0:0:0:
182,192,169733,1,0,0:0:0:0:
329,192,169733,1,0,0:0:0:0:
402,192,169733,1,0,0:0:0:0:
475,192,169733,1,0,0:0:0:0:
329,192,169900,1,0,0:0:0:0:
475,192,169900,1,0,0:0:0:0:
256,192,169900,128,0,170150:0:0:0:0:
109,192,169900,128,0,170150:0:0:0:0:
36,192,169900,128,0,170150:0:0:0:0:
256,192,170233,1,0,0:0:0:0:
402,192,170233,1,0,0:0:0:0:
475,192,170233,1,0,0:0:0:0:
36,192,170233,1,0,0:0:0:0:
109,192,170316,1,0,0:0:0:0:
329,192,170316,1,0,0:0:0:0:
182,192,170400,1,0,0:0:0:0:
402,192,170400,1,0,0:0:0:0:
36,192,170400,1,0,0:0:0:0:
475,192,170400,1,0,0:0:0:0:
256,192,170566,1,0,0:0:0:0:
109,192,170566,1,0,0:0:0:0:
36,192,170566,1,0,0:0:0:0:
475,192,170566,1,0,0:0:0:0:
329,192,170650,1,0,0:0:0:0:
402,192,170650,1,0,0:0:0:0:
182,192,170650,1,0,0:0:0:0:
256,192,170733,1,0,0:0:0:0:
36,192,170733,1,0,0:0:0:0:
475,192,170733,1,0,0:0:0:0:
182,192,170816,128,0,170983:0:0:0:0:
109,192,170816,128,0,170983:0:0:0:0:
329,192,170900,1,0,0:0:0:0:
402,192,170900,1,0,0:0:0:0:
475,192,170900,1,0,0:0:0:0:
256,192,171066,1,0,0:0:0:0:
402,192,171066,1,0,0:0:0:0:
475,192,171066,1,0,0:0:0:0:
109,192,171066,1,0,0:0:0:0:
36,192,171066,1,0,0:0:0:0:
182,192,171150,1,0,0:0:0:0:
329,192,171150,1,0,0:0:0:0:
109,192,171233,1,0,0:0:0:0:
402,192,171233,1,0,0:0:0:0:
475,192,171233,128,0,171483:0:0:0:0:
256,192,171233,128,0,171483:0:0:0:0:
36,192,171233,128,0,171483:0:0:0:0:
109,192,171566,1,0,0:0:0:0:
36,192,171566,1,0,0:0:0:0:
329,192,171566,1,0,0:0:0:0:
475,192,171566,1,0,0:0:0:0:
182,192,171650,1,0,0:0:0:0:
402,192,171650,1,0,0:0:0:0:
256,192,171733,1,0,0:0:0:0:
475,192,171733,1,0,0:0:0:0:
36,192,171733,1,0,0:0:0:0:
109,192,171733,1,0,0:0:0:0:
182,192,171816,1,0,0:0:0:0:
329,192,171816,1,0,0:0:0:0:
256,192,171900,1,0,0:0:0:0:
402,192,171900,1,0,0:0:0:0:
475,192,171900,1,0,0:0:0:0:
36,192,171900,1,0,0:0:0:0:
109,192,171900,1,0,0:0:0:0:
182,192,172066,1,0,0:0:0:0:
109,192,172066,1,0,0:0:0:0:
36,192,172066,1,0,0:0:0:0:
329,192,172066,1,0,0:0:0:0:
475,192,172066,1,0,0:0:0:0:
256,192,172150,1,0,0:0:0:0:
402,192,172150,1,0,0:0:0:0:
329,192,172233,1,0,0:0:0:0:
475,192,172233,1,0,0:0:0:0:
182,192,172233,1,0,0:0:0:0:
109,192,172233,1,0,0:0:0:0:
36,192,172233,1,0,0:0:0:0:
36,192,172399,1,0,0:0:0:0:
109,192,172399,1,0,0:0:0:0:
256,192,172399,1,0,0:0:0:0:
329,192,172399,1,0,0:0:0:0:
475,192,172399,1,0,0:0:0:0:
109,192,172566,128,0,172733:0:0:0:0:
182,192,172566,128,0,172733:0:0:0:0:
256,192,172566,128,0,172733:0:0:0:0:
402,192,172566,128,0,172733:0:0:0:0:
475,192,172566,128,0,172733:0:0:0:0:
329,192,172816,128,0,172983:0:0:0:0:
402,192,172816,128,0,172983:0:0:0:0:
182,192,172816,128,0,172983:0:0:0:0:
109,192,172816,128,0,172983:0:0:0:0:
36,192,172816,128,0,172983:0:0:0:0:
475,192,172899,128,0,172983:0:0:0:0:
329,192,173066,1,0,0:0:0:0:
402,192,173066,1,0,0:0:0:0:
475,192,173066,1,0,0:0:0:0:
182,192,173066,1,0,0:0:0:0:
109,192,173066,1,0,0:0:0:0:
36,192,173066,1,0,0:0:0:0:
256,192,173233,1,0,0:0:0:0:
475,192,173233,1,0,0:0:0:0:
402,192,173233,1,0,0:0:0:0:
109,192,173233,1,0,0:0:0:0:
36,192,173233,1,0,0:0:0:0:
182,192,173233,1,0,0:0:0:0:
109,192,173566,1,0,0:0:0:0:
182,192,173566,1,0,0:0:0:0:
256,192,173566,1,0,0:0:0:0:
36,192,173566,1,0,0:0:0:0:
329,192,173566,1,0,0:0:0:0:
475,192,173566,1,0,0:0:0:0:
329,192,173899,1,0,0:0:0:0:
36,192,173899,1,0,0:0:0:0:
182,192,173899,1,0,0:0:0:0:
256,192,173899,128,0,174149:0:0:0:0:
475,192,173899,128,0,174149:0:0:0:0:
402,192,173899,128,0,174149:0:0:0:0:
36,192,174066,1,0,0:0:0:0:
109,192,174066,1,0,0:0:0:0:
36,192,174233,1,0,0:0:0:0:
182,192,174233,1,0,0:0:0:0:
329,192,174233,1,0,0:0:0:0:
475,192,174233,1,0,0:0:0:0:
256,192,174399,1,0,0:0:0:0:
402,192,174399,1,0,0:0:0:0:
475,192,174399,1,0,0:0:0:0:
109,192,174399,1,0,0:0:0:0:
36,192,174399,1,0,0:0:0:0:
109,192,174566,1,0,0:0:0:0:
182,192,174566,1,0,0:0:0:0:
329,192,174566,1,0,0:0:0:0:
475,192,174566,1,0,0:0:0:0:
36,192,174566,1,0,0:0:0:0:
402,192,174649,1,0,0:0:0:0:
329,192,174733,1,0,0:0:0:0:
475,192,174733,1,0,0:0:0:0:
182,192,174733,1,0,0:0:0:0:
36,192,174733,1,0,0:0:0:0:
109,192,174899,1,0,0:0:0:0:
256,192,174899,1,0,0:0:0:0:
402,192,174899,1,0,0:0:0:0:
475,192,174899,1,0,0:0:0:0:
36,192,174899,1,0,0:0:0:0:
109,192,175066,1,0,0:0:0:0:
182,192,175066,1,0,0:0:0:0:
329,192,175066,1,0,0:0:0:0:
402,192,175066,1,0,0:0:0:0:
475,192,175066,1,0,0:0:0:0:
402,192,175233,1,0,0:0:0:0:
475,192,175233,1,0,0:0:0:0:
256,192,175233,128,0,175483:0:0:0:0:
109,192,175233,128,0,175483:0:0:0:0:
36,192,175233,128,0,175483:0:0:0:0:
256,192,175566,1,0,0:0:0:0:
402,192,175566,1,0,0:0:0:0:
475,192,175566,1,0,0:0:0:0:
36,192,175566,1,0,0:0:0:0:
109,192,175649,1,0,0:0:0:0:
329,192,175649,1,0,0:0:0:0:
182,192,175733,1,0,0:0:0:0:
36,192,175733,1,0,0:0:0:0:
475,192,175733,1,0,0:0:0:0:
402,192,175733,1,0,0:0:0:0:
256,192,175816,1,0,0:0:0:0:
329,192,175816,1,0,0:0:0:0:
475,192,175899,1,0,0:0:0:0:
109,192,175899,1,0,0:0:0:0:
36,192,175899,1,0,0:0:0:0:
182,192,175983,1,0,0:0:0:0:
402,192,175983,1,0,0:0:0:0:
329,192,175983,1,0,0:0:0:0:
256,192,176066,1,0,0:0:0:0:
109,192,176066,1,0,0:0:0:0:
36,192,176066,1,0,0:0:0:0:
475,192,176066,1,0,0:0:0:0:
402,192,176149,1,0,0:0:0:0:
182,192,176149,1,0,0:0:0:0:
329,192,176233,1,0,0:0:0:0:
36,192,176233,1,0,0:0:0:0:
475,192,176233,1,0,0:0:0:0:
256,192,176316,1,0,0:0:0:0:
109,192,176316,1,0,0:0:0:0:
36,192,176399,1,0,0:0:0:0:
182,192,176399,1,0,0:0:0:0:
329,192,176399,1,0,0:0:0:0:
475,192,176399,1,0,0:0:0:0:
402,192,176483,1,0,0:0:0:0:
109,192,176483,1,0,0:0:0:0:
256,192,176483,1,0,0:0:0:0:
182,192,176566,128,0,176816:0:0:0:0:
36,192,176566,128,0,176816:0:0:0:0:
475,192,176566,128,0,176816:0:0:0:0:
329,192,176566,128,0,176816:0:0:0:0:
109,192,176899,1,0,0:0:0:0:
36,192,176899,1,0,0:0:0:0:
256,192,176899,1,0,0:0:0:0:
402,192,176899,1,0,0:0:0:0:
475,192,176899,1,0,0:0:0:0:
329,192,176983,1,0,0:0:0:0:
109,192,177066,1,0,0:0:0:0:
182,192,177066,1,0,0:0:0:0:
475,192,177066,1,0,0:0:0:0:
402,192,177066,1,0,0:0:0:0:
36,192,177066,1,0,0:0:0:0:
182,192,177233,1,0,0:0:0:0:
256,192,177233,1,0,0:0:0:0:
329,192,177233,1,0,0:0:0:0:
36,192,177233,1,0,0:0:0:0:
475,192,177233,128,0,177566:0:0:0:0:
109,192,177399,1,0,0:0:0:0:
256,192,177399,1,0,0:0:0:0:
329,192,177399,1,0,0:0:0:0:
402,192,177399,1,0,0:0:0:0:
402,192,177566,1,0,0:0:0:0:
182,192,177566,1,0,0:0:0:0:
36,192,177566,1,0,0:0:0:0:
329,192,177566,1,0,0:0:0:0:
256,192,177649,1,0,0:0:0:0:
109,192,177649,1,0,0:0:0:0:
329,192,177733,1,0,0:0:0:0:
182,192,177733,1,0,0:0:0:0:
36,192,177733,1,0,0:0:0:0:
475,192,177733,1,0,0:0:0:0:
256,192,177899,128,0,178149:0:0:0:0:
402,192,177899,128,0,178149:0:0:0:0:
475,192,177899,128,0,178149:0:0:0:0:
109,192,177899,128,0,178149:0:0:0:0:
36,192,177899,128,0,178149:0:0:0:0:
329,192,178233,1,0,0:0:0:0:
402,192,178233,1,0,0:0:0:0:
475,192,178233,1,0,0:0:0:0:
182,192,178233,1,0,0:0:0:0:
36,192,178233,1,0,0:0:0:0:
109,192,178316,1,0,0:0:0:0:
182,192,178399,1,0,0:0:0:0:
36,192,178399,1,0,0:0:0:0:
329,192,178399,1,0,0:0:0:0:
402,192,178399,1,0,0:0:0:0:
475,192,178399,1,0,0:0:0:0:
256,192,178566,1,0,0:0:0:0:
182,192,178566,1,0,0:0:0:0:
402,192,178566,1,0,0:0:0:0:
475,192,178566,1,0,0:0:0:0:
36,192,178566,128,0,178899:0:0:0:0:
329,192,178733,1,0,0:0:0:0:
256,192,178733,1,0,0:0:0:0:
475,192,178733,1,0,0:0:0:0:
109,192,178733,1,0,0:0:0:0:
182,192,178899,1,0,0:0:0:0:
109,192,178899,1,0,0:0:0:0:
329,192,178899,1,0,0:0:0:0:
475,192,178899,1,0,0:0:0:0:
256,192,178983,1,0,0:0:0:0:
402,192,178983,1,0,0:0:0:0:
329,192,179066,1,0,0:0:0:0:
475,192,179066,1,0,0:0:0:0:
182,192,179066,1,0,0:0:0:0:
36,192,179066,1,0,0:0:0:0:
329,192,179233,128,0,179483:0:0:0:0:
402,192,179233,128,0,179483:0:0:0:0:
475,192,179233,128,0,179483:0:0:0:0:
182,192,179233,128,0,179483:0:0:0:0:
109,192,179233,128,0,179483:0:0:0:0:
36,192,179233,128,0,179483:0:0:0:0:
109,192,179566,1,0,0:0:0:0:
256,192,179566,1,0,0:0:0:0:
475,192,179566,1,0,0:0:0:0:
36,192,179566,1,0,0:0:0:0:
402,192,179566,1,0,0:0:0:0:
182,192,179649,1,0,0:0:0:0:
329,192,179649,1,0,0:0:0:0:
256,192,179733,1,0,0:0:0:0:
475,192,179733,1,0,0:0:0:0:
402,192,179733,1,0,0:0:0:0:
36,192,179733,1,0,0:0:0:0:
109,192,179816,1,0,0:0:0:0:
329,192,179816,1,0,0:0:0:0:
256,192,179899,1,0,0:0:0:0:
402,192,179899,1,0,0:0:0:0:
36,192,179899,1,0,0:0:0:0:
475,192,179899,1,0,0:0:0:0:
182,192,179983,1,0,0:0:0:0:
329,192,179983,1,0,0:0:0:0:
256,192,180066,1,0,0:0:0:0:
36,192,180066,1,0,0:0:0:0:
475,192,180066,1,0,0:0:0:0:
402,192,180066,1,0,0:0:0:0:
109,192,180149,1,0,0:0:0:0:
182,192,180149,1,0,0:0:0:0:
36,192,180233,1,0,0:0:0:0:
329,192,180233,1,0,0:0:0:0:
402,192,180233,1,0,0:0:0:0:
475,192,180233,1,0,0:0:0:0:
256,192,180316,1,0,0:0:0:0:
182,192,180316,1,0,0:0:0:0:
109,192,180399,1,0,0:0:0:0:
36,192,180399,1,0,0:0:0:0:
329,192,180399,1,0,0:0:0:0:
475,192,180399,1,0,0:0:0:0:
402,192,180483,1,0,0:0:0:0:
256,192,180483,1,0,0:0:0:0:
109,192,180566,1,0,0:0:0:0:
36,192,180566,1,0,0:0:0:0:
329,192,180566,128,0,182066:0:0:0:0:
475,192,180566,128,0,182066:0:0:0:0:
182,192,180566,128,0,182066:0:0:0:0:
36,192,182066,1,0,0:0:0:0:
256,192,182066,1,0,0:0:0:0:
402,192,182066,1,0,0:0:0:0:
109,192,182066,1,0,0:0:0:0:
475,192,182399,1,0,0:0:0:0:
36,192,182399,1,0,0:0:0:0:
329,192,182510,1,0,0:0:0:0:
182,192,182510,1,0,0:0:0:0:
475,192,182621,1,0,0:0:0:0:
36,192,182621,1,0,0:0:0:0:
182,192,182732,1,0,0:0:0:0:
36,192,182732,1,0,0:0:0:0:
329,192,182732,1,0,0:0:0:0:
475,192,182732,1,0,0:0:0:0:
256,192,183066,1,0,0:0:0:0:
109,192,183066,1,0,0:0:0:0:
329,192,183288,1,0,0:0:0:0:
475,192,183288,1,0,0:0:0:0:
36,192,183288,1,0,0:0:0:0:
256,192,183399,1,0,0:0:0:0:
109,192,183399,1,0,0:0:0:0:
475,192,183621,1,0,0:0:0:0:
329,192,183621,1,0,0:0:0:0:
36,192,183621,1,0,0:0:0:0:
256,192,183732,1,0,0:0:0:0:
109,192,183732,1,0,0:0:0:0:
109,192,183843,1,0,0:0:0:0:
256,192,183843,1,0,0:0:0:0:
475,192,183954,1,0,0:0:0:0:
329,192,183954,1,0,0:0:0:0:
329,192,184066,1,0,0:0:0:0:
182,192,184066,1,0,0:0:0:0:
36,192,184066,1,0,0:0:0:0:
475,192,184066,1,0,0:0:0:0:
256,192,184399,1,0,0:0:0:0:
402,192,184399,1,0,0:0:0:0:
256,192,184621,1,0,0:0:0:0:
402,192,184621,1,0,0:0:0:0:
36,192,184732,1,0,0:0:0:0:
329,192,184732,1,0,0:0:0:0:
182,192,184732,1,0,0:0:0:0:
475,192,184732,1,0,0:0:0:0:
109,192,185066,1,0,0:0:0:0:
402,192,185066,1,0,0:0:0:0:
182,192,185177,1,0,0:0:0:0:
329,192,185177,1,0,0:0:0:0:
109,192,185288,1,0,0:0:0:0:
402,192,185288,1,0,0:0:0:0:
402,192,185399,1,0,0:0:0:0:
256,192,185399,1,0,0:0:0:0:
109,192,185399,1,0,0:0:0:0:
475,192,185399,1,0,0:0:0:0:
36,192,185399,1,0,0:0:0:0:
182,192,185732,1,0,0:0:0:0:
475,192,185732,1,0,0:0:0:0:
109,192,185954,1,0,0:0:0:0:
256,192,185954,1,0,0:0:0:0:
402,192,185954,1,0,0:0:0:0:
182,192,186066,1,0,0:0:0:0:
475,192,186066,1,0,0:0:0:0:
109,192,186288,1,0,0:0:0:0:
256,192,186288,1,0,0:0:0:0:
402,192,186288,1,0,0:0:0:0:
475,192,186399,1,0,0:0:0:0:
182,192,186399,1,0,0:0:0:0:
182,192,186510,1,0,0:0:0:0:
475,192,186510,1,0,0:0:0:0:
256,192,186621,1,0,0:0:0:0:
402,192,186621,1,0,0:0:0:0:
256,192,186732,1,0,0:0:0:0:
109,192,186732,1,0,0:0:0:0:
402,192,186732,1,0,0:0:0:0:
36,192,186732,1,0,0:0:0:0:
182,192,186954,1,0,0:0:0:0:
475,192,186954,1,0,0:0:0:0:
256,192,187066,1,0,0:0:0:0:
402,192,187066,1,0,0:0:0:0:
475,192,187288,1,0,0:0:0:0:
182,192,187288,1,0,0:0:0:0:
256,192,187399,1,0,0:0:0:0:
402,192,187399,1,0,0:0:0:0:
109,192,187399,1,0,0:0:0:0:
36,192,187399,1,0,0:0:0:0:
109,192,187732,1,0,0:0:0:0:
256,192,187732,1,0,0:0:0:0:
182,192,187843,1,0,0:0:0:0:
402,192,187843,1,0,0:0:0:0:
36,192,187954,1,0,0:0:0:0:
329,192,187954,1,0,0:0:0:0:
182,192,188066,1,0,0:0:0:0:
329,192,188066,1,0,0:0:0:0:
475,192,188066,1,0,0:0:0:0:
36,192,188066,1,0,0:0:0:0:
36,192,188399,1,0,0:0:0:0:
256,192,188399,1,0,0:0:0:0:
475,192,188621,1,0,0:0:0:0:
329,192,188621,1,0,0:0:0:0:
182,192,188621,1,0,0:0:0:0:
256,192,188732,1,0,0:0:0:0:
36,192,188732,1,0,0:0:0:0:
182,192,188954,1,0,0:0:0:0:
475,192,188954,1,0,0:0:0:0:
329,192,188954,1,0,0:0:0:0:
36,192,189066,1,0,0:0:0:0:
256,192,189066,1,0,0:0:0:0:
36,192,189177,1,0,0:0:0:0:
256,192,189177,1,0,0:0:0:0:
475,192,189288,1,0,0:0:0:0:
329,192,189288,1,0,0:0:0:0:
475,192,189399,1,0,0:0:0:0:
329,192,189399,1,0,0:0:0:0:
182,192,189399,1,0,0:0:0:0:
36,192,189399,1,0,0:0:0:0:
182,192,189732,1,0,0:0:0:0:
36,192,189732,1,0,0:0:0:0:
36,192,189954,1,0,0:0:0:0:
182,192,189954,1,0,0:0:0:0:
475,192,190066,1,0,0:0:0:0:
329,192,190066,1,0,0:0:0:0:
402,192,190066,1,0,0:0:0:0:
475,192,190177,1,0,0:0:0:0:
329,192,190177,1,0,0:0:0:0:
402,192,190177,1,0,0:0:0:0:
329,192,190288,1,0,0:0:0:0:
402,192,190288,1,0,0:0:0:0:
475,192,190288,1,0,0:0:0:0:
182,192,190399,1,0,0:0:0:0:
109,192,190399,1,0,0:0:0:0:
36,192,190399,1,0,0:0:0:0:
36,192,190510,1,0,0:0:0:0:
109,192,190510,1,0,0:0:0:0:
182,192,190510,1,0,0:0:0:0:
36,192,190621,1,0,0:0:0:0:
109,192,190621,1,0,0:0:0:0:
182,192,190621,1,0,0:0:0:0:
475,192,190732,1,0,0:0:0:0:
402,192,190732,1,0,0:0:0:0:
329,192,190732,1,0,0:0:0:0:
256,192,190732,1,0,0:0:0:0:
182,192,190816,1,0,0:0:0:0:
109,192,190816,1,0,0:0:0:0:
36,192,190816,1,0,0:0:0:0:
329,192,190899,1,0,0:0:0:0:
402,192,190899,1,0,0:0:0:0:
475,192,190899,1,0,0:0:0:0:
182,192,190982,1,0,0:0:0:0:
109,192,190982,1,0,0:0:0:0:
36,192,190982,1,0,0:0:0:0:
256,192,191066,1,0,0:0:0:0:
329,192,191066,1,0,0:0:0:0:
402,192,191066,1,0,0:0:0:0:
475,192,191066,1,0,0:0:0:0:
182,192,191232,1,0,0:0:0:0:
109,192,191232,1,0,0:0:0:0:
36,192,191232,1,0,0:0:0:0:
329,192,191232,1,0,0:0:0:0:
402,192,191232,1,0,0:0:0:0:
475,192,191232,1,0,0:0:0:0:
182,192,191399,128,0,191510:0:0:0:0:
256,192,191454,128,0,191566:0:0:0:0:
329,192,191510,128,0,191621:0:0:0:0:
402,192,191566,128,0,191677:0:0:0:0:
475,192,191621,128,0,191732:0:0:0:0:
109,192,191621,128,0,191732:0:0:0:0:
182,192,191677,128,0,191788:0:0:0:0:
256,192,191732,128,0,191843:0:0:0:0:
329,192,191788,128,0,191899:0:0:0:0:
402,192,191843,128,0,191954:0:0:0:0:
36,192,191843,128,0,191954:0:0:0:0:
109,192,191899,128,0,192010:0:0:0:0:
182,192,191954,128,0,192066:0:0:0:0:
256,192,192010,128,0,192121:0:0:0:0:
329,192,192066,128,0,192177:0:0:0:0:
402,192,192121,128,0,192232:0:0:0:0:
475,192,192177,128,0,192288:0:0:0:0:
182,192,192177,128,0,192288:0:0:0:0:
109,192,192232,128,0,192343:0:0:0:0:
36,192,192288,128,0,192399:0:0:0:0:
329,192,192288,128,0,192399:0:0:0:0:
256,192,192343,128,0,192454:0:0:0:0:
182,192,192399,128,0,192510:0:0:0:0:
475,192,192399,128,0,192510:0:0:0:0:
109,192,192454,128,0,192566:0:0:0:0:
402,192,192454,128,0,192566:0:0:0:0:
329,192,192510,128,0,192621:0:0:0:0:
256,192,192566,128,0,192677:0:0:0:0:
182,192,192621,128,0,192732:0:0:0:0:
475,192,192621,128,0,192732:0:0:0:0:
36,192,192621,128,0,192732:0:0:0:0:
402,192,192677,128,0,192788:0:0:0:0:
329,192,192732,128,0,192843:0:0:0:0:
256,192,192788,128,0,192899:0:0:0:0:
109,192,192788,128,0,192899:0:0:0:0:
36,192,192843,128,0,192954:0:0:0:0:
475,192,192843,128,0,192954:0:0:0:0:
402,192,192899,128,0,193010:0:0:0:0:
182,192,192954,128,0,193066:0:0:0:0:
329,192,192954,128,0,193066:0:0:0:0:
109,192,193010,128,0,193121:0:0:0:0:
36,192,193066,128,0,193177:0:0:0:0:
475,192,193066,128,0,193232:0:0:0:0:
402,192,193121,128,0,193232:0:0:0:0:
256,192,193121,128,0,193232:0:0:0:0:
329,192,193232,1,0,0:0:0:0:
182,192,193232,1,0,0:0:0:0:
109,192,193232,1,0,0:0:0:0:
36,192,193232,1,0,0:0:0:0:
109,192,193565,1,0,0:0:0:0:
256,192,193565,1,0,0:0:0:0:
36,192,193565,1,0,0:0:0:0:
402,192,193565,1,0,0:0:0:0:
475,192,193565,1,0,0:0:0:0:
329,192,193898,128,0,194148:0:0:0:0:
402,192,193898,128,0,194148:0:0:0:0:
475,192,193898,128,0,194148:0:0:0:0:
182,192,193898,128,0,194148:0:0:0:0:
109,192,193898,128,0,194148:0:0:0:0:
36,192,193898,128,0,194148:0:0:0:0:
36,192,194231,1,0,0:0:0:0:
475,192,194231,1,0,0:0:0:0:
402,192,194231,1,0,0:0:0:0:
256,192,194231,1,0,0:0:0:0:
329,192,194314,1,0,0:0:0:0:
109,192,194314,1,0,0:0:0:0:
402,192,194398,1,0,0:0:0:0:
475,192,194398,1,0,0:0:0:0:
36,192,194398,1,0,0:0:0:0:
182,192,194398,1,0,0:0:0:0:
329,192,194481,1,0,0:0:0:0:
109,192,194481,1,0,0:0:0:0:
475,192,194564,1,0,0:0:0:0:
256,192,194564,1,0,0:0:0:0:
36,192,194564,1,0,0:0:0:0:
182,192,194648,1,0,0:0:0:0:
402,192,194648,1,0,0:0:0:0:
256,192,194731,1,0,0:0:0:0:
475,192,194731,1,0,0:0:0:0:
36,192,194731,1,0,0:0:0:0:
109,192,194731,1,0,0:0:0:0:
402,192,194786,1,0,0:0:0:0:
182,192,194814,1,0,0:0:0:0:
329,192,194842,1,0,0:0:0:0:
475,192,194898,1,0,0:0:0:0:
36,192,194898,1,0,0:0:0:0:
256,192,194898,1,0,0:0:0:0:
109,192,194898,1,0,0:0:0:0:
36,192,195064,1,0,0:0:0:0:
256,192,195064,1,0,0:0:0:0:
402,192,195064,1,0,0:0:0:0:
109,192,195120,1,0,0:0:0:0:
329,192,195148,1,0,0:0:0:0:
182,192,195175,1,0,0:0:0:0:
402,192,195231,1,0,0:0:0:0:
256,192,195231,1,0,0:0:0:0:
475,192,195231,128,0,195481:0:0:0:0:
36,192,195231,128,0,195481:0:0:0:0:
329,192,195398,1,0,0:0:0:0:
182,192,195398,1,0,0:0:0:0:
402,192,195564,1,0,0:0:0:0:
109,192,195564,1,0,0:0:0:0:
256,192,195564,1,0,0:0:0:0:
36,192,195564,1,0,0:0:0:0:
475,192,195648,1,0,0:0:0:0:
182,192,195648,1,0,0:0:0:0:
256,192,195731,1,0,0:0:0:0:
402,192,195731,1,0,0:0:0:0:
36,192,195731,1,0,0:0:0:0:
109,192,195814,1,0,0:0:0:0:
329,192,195814,1,0,0:0:0:0:
475,192,195814,1,0,0:0:0:0:
182,192,195898,1,0,0:0:0:0:
36,192,195898,1,0,0:0:0:0:
402,192,195898,1,0,0:0:0:0:
109,192,195981,1,0,0:0:0:0:
256,192,195981,1,0,0:0:0:0:
182,192,196064,1,0,0:0:0:0:
329,192,196064,1,0,0:0:0:0:
36,192,196064,1,0,0:0:0:0:
475,192,196064,1,0,0:0:0:0:
256,192,196148,1,0,0:0:0:0:
402,192,196148,1,0,0:0:0:0:
109,192,196231,1,0,0:0:0:0:
36,192,196231,1,0,0:0:0:0:
329,192,196231,1,0,0:0:0:0:
182,192,196314,1,0,0:0:0:0:
402,192,196314,1,0,0:0:0:0:
475,192,196398,1,0,0:0:0:0:
256,192,196398,1,0,0:0:0:0:
36,192,196398,1,0,0:0:0:0:
109,192,196398,1,0,0:0:0:0:
182,192,196481,1,0,0:0:0:0:
329,192,196481,1,0,0:0:0:0:
256,192,196564,1,0,0:0:0:0:
36,192,196564,1,0,0:0:0:0:
475,192,196564,1,0,0:0:0:0:
402,192,196564,1,0,0:0:0:0:
109,192,196648,1,0,0:0:0:0:
182,192,196648,1,0,0:0:0:0:
36,192,196731,1,0,0:0:0:0:
256,192,196731,128,0,197064:0:0:0:0:
475,192,196731,128,0,197064:0:0:0:0:
329,192,196731,1,0,0:0:0:0:
402,192,196731,1,0,0:0:0:0:
182,192,196898,1,0,0:0:0:0:
36,192,196898,1,0,0:0:0:0:
109,192,196898,1,0,0:0:0:0:
329,192,197064,1,0,0:0:0:0:
402,192,197064,1,0,0:0:0:0:
182,192,197064,1,0,0:0:0:0:
36,192,197064,128,0,197398:0:0:0:0:
256,192,197231,128,0,197398:0:0:0:0:
402,192,197314,1,0,0:0:0:0:
475,192,197314,1,0,0:0:0:0:
109,192,197314,1,0,0:0:0:0:
182,192,197398,1,0,0:0:0:0:
329,192,197398,1,0,0:0:0:0:
402,192,197564,1,0,0:0:0:0:
256,192,197564,1,0,0:0:0:0:
36,192,197564,1,0,0:0:0:0:
109,192,197564,1,0,0:0:0:0:
475,192,197564,128,0,197898:0:0:0:0:
329,192,197564,128,0,197898:0:0:0:0:
182,192,197731,1,0,0:0:0:0:
109,192,197731,1,0,0:0:0:0:
36,192,197731,1,0,0:0:0:0:
36,192,197898,128,0,198398:0:0:0:0:
109,192,197898,128,0,198148:0:0:0:0:
256,192,197898,128,0,198148:0:0:0:0:
402,192,197898,1,0,0:0:0:0:
109,192,198231,1,0,0:0:0:0:
475,192,198231,1,0,0:0:0:0:
256,192,198231,1,0,0:0:0:0:
402,192,198231,1,0,0:0:0:0:
182,192,198398,1,0,0:0:0:0:
329,192,198398,1,0,0:0:0:0:
475,192,198398,1,0,0:0:0:0:
402,192,198398,1,0,0:0:0:0:
402,192,198564,1,0,0:0:0:0:
109,192,198564,1,0,0:0:0:0:
36,192,198564,1,0,0:0:0:0:
475,192,198564,128,0,198898:0:0:0:0:
256,192,198564,1,0,0:0:0:0:
109,192,198731,1,0,0:0:0:0:
36,192,198731,1,0,0:0:0:0:
256,192,198731,1,0,0:0:0:0:
182,192,198814,1,0,0:0:0:0:
329,192,198814,1,0,0:0:0:0:
402,192,198898,1,0,0:0:0:0:
36,192,198898,1,0,0:0:0:0:
256,192,198898,128,0,199064:0:0:0:0:
109,192,198898,1,0,0:0:0:0:
182,192,199064,1,0,0:0:0:0:
329,192,199064,1,0,0:0:0:0:
475,192,199064,1,0,0:0:0:0:
109,192,199064,128,0,199231:0:0:0:0:
402,192,199231,1,0,0:0:0:0:
475,192,199231,1,0,0:0:0:0:
256,192,199231,1,0,0:0:0:0:
36,192,199231,1,0,0:0:0:0:
182,192,199314,1,0,0:0:0:0:
329,192,199314,1,0,0:0:0:0:
109,192,199314,1,0,0:0:0:0:
256,192,199398,1,0,0:0:0:0:
402,192,199398,1,0,0:0:0:0:
475,192,199398,1,0,0:0:0:0:
36,192,199398,1,0,0:0:0:0:
329,192,199564,1,0,0:0:0:0:
182,192,199564,1,0,0:0:0:0:
36,192,199564,1,0,0:0:0:0:
475,192,199564,128,0,199731:0:0:0:0:
109,192,199564,1,0,0:0:0:0:
182,192,199731,1,0,0:0:0:0:
36,192,199731,1,0,0:0:0:0:
329,192,199731,1,0,0:0:0:0:
402,192,199814,1,0,0:0:0:0:
109,192,199814,1,0,0:0:0:0:
256,192,199898,1,0,0:0:0:0:
475,192,199898,1,0,0:0:0:0:
36,192,199898,1,0,0:0:0:0:
182,192,199981,1,0,0:0:0:0:
329,192,199981,1,0,0:0:0:0:
109,192,199981,1,0,0:0:0:0:
402,192,200064,1,0,0:0:0:0:
475,192,200064,1,0,0:0:0:0:
256,192,200064,128,0,200231:0:0:0:0:
36,192,200064,128,0,200231:0:0:0:0:
329,192,200231,1,0,0:0:0:0:
109,192,200231,1,0,0:0:0:0:
182,192,200286,1,0,0:0:0:0:
402,192,200314,1,0,0:0:0:0:
256,192,200342,1,0,0:0:0:0:
109,192,200398,1,0,0:0:0:0:
475,192,200398,1,0,0:0:0:0:
329,192,200398,1,0,0:0:0:0:
36,192,200398,1,0,0:0:0:0:
109,192,200564,1,0,0:0:0:0:
475,192,200564,1,0,0:0:0:0:
36,192,200564,1,0,0:0:0:0:
256,192,200564,128,0,200731:0:0:0:0:
402,192,200564,128,0,200731:0:0:0:0:
36,192,200731,1,0,0:0:0:0:
329,192,200731,1,0,0:0:0:0:
109,192,200731,1,0,0:0:0:0:
182,192,200814,1,0,0:0:0:0:
475,192,200814,1,0,0:0:0:0:
402,192,200898,1,0,0:0:0:0:
256,192,200898,1,0,0:0:0:0:
36,192,200898,1,0,0:0:0:0:
329,192,200981,1,0,0:0:0:0:
182,192,200981,1,0,0:0:0:0:
256,192,201064,1,0,0:0:0:0:
109,192,201064,1,0,0:0:0:0:
402,192,201064,128,0,201231:0:0:0:0:
475,192,201064,128,0,201231:0:0:0:0:
36,192,201064,1,0,0:0:0:0:
182,192,201231,1,0,0:0:0:0:
109,192,201231,1,0,0:0:0:0:
36,192,201231,1,0,0:0:0:0:
329,192,201231,1,0,0:0:0:0:
256,192,201314,1,0,0:0:0:0:
475,192,201314,1,0,0:0:0:0:
402,192,201314,1,0,0:0:0:0:
109,192,201398,1,0,0:0:0:0:
36,192,201398,1,0,0:0:0:0:
329,192,201398,1,0,0:0:0:0:
182,192,201481,1,0,0:0:0:0:
402,192,201481,1,0,0:0:0:0:
475,192,201481,1,0,0:0:0:0:
256,192,201564,1,0,0:0:0:0:
109,192,201564,1,0,0:0:0:0:
36,192,201564,1,0,0:0:0:0:
182,192,201648,1,0,0:0:0:0:
329,192,201648,1,0,0:0:0:0:
475,192,201648,1,0,0:0:0:0:
256,192,201731,1,0,0:0:0:0:
109,192,201731,1,0,0:0:0:0:
402,192,201731,1,0,0:0:0:0:
36,192,201814,1,0,0:0:0:0:
329,192,201814,1,0,0:0:0:0:
182,192,201814,1,0,0:0:0:0:
402,192,201898,1,0,0:0:0:0:
475,192,201898,1,0,0:0:0:0:
256,192,201898,1,0,0:0:0:0:
182,192,201981,1,0,0:0:0:0:
36,192,201981,1,0,0:0:0:0:
329,192,201981,1,0,0:0:0:0:
109,192,202064,128,0,202231:0:0:0:0:
402,192,202064,128,0,202231:0:0:0:0:
256,192,202064,128,0,202231:0:0:0:0:
475,192,202064,1,0,0:0:0:0:
329,192,202231,1,0,0:0:0:0:
182,192,202231,1,0,0:0:0:0:
36,192,202231,1,0,0:0:0:0:
109,192,202314,1,0,0:0:0:0:
256,192,202314,1,0,0:0:0:0:
402,192,202314,1,0,0:0:0:0:
475,192,202398,128,0,202564:0:0:0:0:
329,192,202398,128,0,202564:0:0:0:0:
182,192,202398,128,0,202564:0:0:0:0:
109,192,202564,1,0,0:0:0:0:
402,192,202564,1,0,0:0:0:0:
256,192,202564,1,0,0:0:0:0:
36,192,202564,1,0,0:0:0:0:
329,192,202898,1,0,0:0:0:0:
109,192,202898,1,0,0:0:0:0:
36,192,202898,1,0,0:0:0:0:
402,192,202898,1,0,0:0:0:0:
475,192,202898,1,0,0:0:0:0:
256,192,202898,1,0,0:0:0:0:
182,192,203231,128,0,203481:0:0:0:0:
109,192,203231,128,0,203481:0:0:0:0:
36,192,203231,128,0,203481:0:0:0:0:
329,192,203231,128,0,203481:0:0:0:0:
475,192,203231,128,0,203481:0:0:0:0:
402,192,203231,128,0,203481:0:0:0:0:
182,192,203564,1,0,0:0:0:0:
329,192,203564,1,0,0:0:0:0:
109,192,203648,1,0,0:0:0:0:
475,192,203648,1,0,0:0:0:0:
36,192,203731,1,0,0:0:0:0:
329,192,203731,1,0,0:0:0:0:
475,192,203814,1,0,0:0:0:0:
182,192,203814,1,0,0:0:0:0:
256,192,203898,128,0,203981:0:0:0:0:
402,192,203898,128,0,203981:0:0:0:0:
329,192,203898,128,0,203981:0:0:0:0:
36,192,203898,128,0,203981:0:0:0:0:
109,192,203898,128,0,203981:0:0:0:0:
256,192,204064,128,0,204148:0:0:0:0:
182,192,204064,128,0,204148:0:0:0:0:
36,192,204064,128,0,204148:0:0:0:0:
402,192,204064,128,0,204148:0:0:0:0:
475,192,204064,128,0,204148:0:0:0:0:
475,192,204231,128,0,204314:0:0:0:0:
329,192,204231,128,0,204314:0:0:0:0:
256,192,204231,128,0,204314:0:0:0:0:
109,192,204231,128,0,204314:0:0:0:0:
36,192,204231,128,0,204314:0:0:0:0:
402,192,204398,128,0,204481:0:0:0:0:
182,192,204398,128,0,204481:0:0:0:0:
329,192,204398,128,0,204481:0:0:0:0:
36,192,204398,128,0,204481:0:0:0:0:
475,192,204398,128,0,204481:0:0:0:0:
256,192,204564,128,0,204814:0:0:0:0:
402,192,204564,128,0,204814:0:0:0:0:
475,192,204564,128,0,204814:0:0:0:0:
182,192,204564,128,0,204814:0:0:0:0:
109,192,204564,128,0,204814:0:0:0:0:
36,192,204564,128,0,204814:0:0:0:0:
36,192,204898,1,0,0:0:0:0:
475,192,204898,1,0,0:0:0:0:
402,192,204898,1,0,0:0:0:0:
329,192,204898,1,0,0:0:0:0:
182,192,204898,128,0,205064:0:0:0:0:
256,192,205064,1,0,0:0:0:0:
402,192,205064,1,0,0:0:0:0:
36,192,205064,1,0,0:0:0:0:
109,192,205064,1,0,0:0:0:0:
475,192,205064,128,0,205231:0:0:0:0:
402,192,205231,1,0,0:0:0:0:
109,192,205231,1,0,0:0:0:0:
329,192,205231,128,0,205398:0:0:0:0:
36,192,205231,1,0,0:0:0:0:
256,192,205231,1,0,0:0:0:0:
109,192,205398,1,0,0:0:0:0:
36,192,205398,1,0,0:0:0:0:
402,192,205398,1,0,0:0:0:0:
182,192,205398,128,0,205564:0:0:0:0:
36,192,205564,1,0,0:0:0:0:
329,192,205564,1,0,0:0:0:0:
256,192,205564,1,0,0:0:0:0:
475,192,205564,128,0,205731:0:0:0:0:
182,192,205731,1,0,0:0:0:0:
36,192,205731,1,0,0:0:0:0:
109,192,205731,1,0,0:0:0:0:
402,192,205731,128,0,205898:0:0:0:0:
329,192,205898,1,0,0:0:0:0:
182,192,205898,1,0,0:0:0:0:
36,192,205898,1,0,0:0:0:0:
256,192,205898,128,0,206398:0:0:0:0:
475,192,205898,1,0,0:0:0:0:
109,192,206064,1,0,0:0:0:0:
475,192,206064,1,0,0:0:0:0:
402,192,206064,1,0,0:0:0:0:
329,192,206231,1,0,0:0:0:0:
36,192,206231,1,0,0:0:0:0:
182,192,206231,1,0,0:0:0:0:
402,192,206231,1,0,0:0:0:0:
109,192,206398,1,0,0:0:0:0:
475,192,206398,1,0,0:0:0:0:
402,192,206398,1,0,0:0:0:0:
36,192,206564,128,0,206731:0:0:0:0:
182,192,206564,1,0,0:0:0:0:
109,192,206564,1,0,0:0:0:0:
329,192,206564,1,0,0:0:0:0:
402,192,206564,1,0,0:0:0:0:
256,192,206731,128,0,206898:0:0:0:0:
109,192,206731,1,0,0:0:0:0:
475,192,206731,1,0,0:0:0:0:
402,192,206731,1,0,0:0:0:0:
182,192,206898,128,0,207064:0:0:0:0:
36,192,206898,1,0,0:0:0:0:
329,192,206898,1,0,0:0:0:0:
402,192,206898,1,0,0:0:0:0:
402,192,207064,128,0,207231:0:0:0:0:
329,192,207064,1,0,0:0:0:0:
109,192,207064,1,0,0:0:0:0:
475,192,207064,1,0,0:0:0:0:
256,192,207231,1,0,0:0:0:0:
36,192,207231,128,0,207564:0:0:0:0:
182,192,207231,1,0,0:0:0:0:
329,192,207231,1,0,0:0:0:0:
109,192,207398,1,0,0:0:0:0:
256,192,207398,1,0,0:0:0:0:
475,192,207398,1,0,0:0:0:0:
402,192,207398,1,0,0:0:0:0:
329,192,207564,128,0,207731:0:0:0:0:
402,192,207564,1,0,0:0:0:0:
109,192,207564,1,0,0:0:0:0:
182,192,207564,1,0,0:0:0:0:
475,192,207731,128,0,207898:0:0:0:0:
182,192,207731,1,0,0:0:0:0:
256,192,207731,1,0,0:0:0:0:
36,192,207731,1,0,0:0:0:0:
109,192,207898,128,0,208064:0:0:0:0:
182,192,207898,1,0,0:0:0:0:
402,192,207898,1,0,0:0:0:0:
329,192,207898,1,0,0:0:0:0:
256,192,208064,128,0,208231:0:0:0:0:
329,192,208064,1,0,0:0:0:0:
182,192,208064,1,0,0:0:0:0:
36,192,208064,1,0,0:0:0:0:
475,192,208064,1,0,0:0:0:0:
402,192,208231,128,0,208397:0:0:0:0:
109,192,208231,1,0,0:0:0:0:
329,192,208231,1,0,0:0:0:0:
36,192,208231,1,0,0:0:0:0:
36,192,208397,128,0,208564:0:0:0:0:
182,192,208397,1,0,0:0:0:0:
256,192,208397,1,0,0:0:0:0:
475,192,208397,1,0,0:0:0:0:
329,192,208564,128,0,209064:0:0:0:0:
109,192,208564,1,0,0:0:0:0:
475,192,208564,1,0,0:0:0:0:
182,192,208564,1,0,0:0:0:0:
256,192,208731,1,0,0:0:0:0:
402,192,208731,1,0,0:0:0:0:
109,192,208731,1,0,0:0:0:0:
36,192,208731,1,0,0:0:0:0:
109,192,208897,1,0,0:0:0:0:
475,192,208897,1,0,0:0:0:0:
182,192,208897,1,0,0:0:0:0:
256,192,209064,1,0,0:0:0:0:
36,192,209064,1,0,0:0:0:0:
475,192,209064,1,0,0:0:0:0:
402,192,209064,1,0,0:0:0:0:
109,192,209064,1,0,0:0:0:0:
182,192,209231,128,0,209397:0:0:0:0:
475,192,209231,1,0,0:0:0:0:
109,192,209231,1,0,0:0:0:0:
329,192,209231,1,0,0:0:0:0:
36,192,209397,128,0,209564:0:0:0:0:
256,192,209397,1,0,0:0:0:0:
109,192,209397,1,0,0:0:0:0:
402,192,209397,1,0,0:0:0:0:
329,192,209564,128,0,209731:0:0:0:0:
475,192,209564,1,0,0:0:0:0:
182,192,209564,1,0,0:0:0:0:
402,192,209564,1,0,0:0:0:0:
36,192,209647,1,0,0:0:0:0:
109,192,209647,1,0,0:0:0:0:
256,192,209731,128,0,209897:0:0:0:0:
182,192,209731,1,0,0:0:0:0:
475,192,209731,1,0,0:0:0:0:
329,192,209814,1,0,0:0:0:0:
402,192,209814,1,0,0:0:0:0:
36,192,209897,128,0,210397:0:0:0:0:
182,192,209897,1,0,0:0:0:0:
109,192,209897,1,0,0:0:0:0:
475,192,209897,128,0,210231:0:0:0:0:
109,192,210231,128,0,210397:0:0:0:0:
402,192,210231,1,0,0:0:0:0:
329,192,210231,1,0,0:0:0:0:
182,192,210314,128,0,210481:0:0:0:0:
256,192,210397,128,0,210897:0:0:0:0:
329,192,210397,1,0,0:0:0:0:
402,192,210397,1,0,0:0:0:0:
475,192,210397,1,0,0:0:0:0:
475,192,210564,1,0,0:0:0:0:
329,192,210564,1,0,0:0:0:0:
109,192,210564,1,0,0:0:0:0:
36,192,210564,1,0,0:0:0:0:
402,192,210731,1,0,0:0:0:0:
475,192,210731,1,0,0:0:0:0:
109,192,210731,1,0,0:0:0:0:
329,192,210731,1,0,0:0:0:0:
182,192,210731,1,0,0:0:0:0:
475,192,210897,128,0,211009:0:0:0:0:
109,192,210897,1,0,0:0:0:0:
36,192,210897,1,0,0:0:0:0:
329,192,210953,128,0,211064:0:0:0:0:
182,192,210981,1,0,0:0:0:0:
402,192,211009,128,0,211120:0:0:0:0:
109,192,211064,1,0,0:0:0:0:
36,192,211064,1,0,0:0:0:0:
256,192,211064,128,0,211175:0:0:0:0:
36,192,211231,128,0,211397:0:0:0:0:
182,192,211231,1,0,0:0:0:0:
109,192,211231,1,0,0:0:0:0:
329,192,211231,1,0,0:0:0:0:
475,192,211231,1,0,0:0:0:0:
402,192,211397,1,0,0:0:0:0:
256,192,211397,1,0,0:0:0:0:
182,192,211481,1,0,0:0:0:0:
329,192,211481,1,0,0:0:0:0:
256,192,211564,128,0,211731:0:0:0:0:
109,192,211564,1,0,0:0:0:0:
36,192,211564,1,0,0:0:0:0:
475,192,211564,1,0,0:0:0:0:
402,192,211564,1,0,0:0:0:0:
36,192,211731,1,0,0:0:0:0:
109,192,211731,1,0,0:0:0:0:
475,192,211731,1,0,0:0:0:0:
402,192,211731,1,0,0:0:0:0:
182,192,211814,1,0,0:0:0:0:
329,192,211814,1,0,0:0:0:0:
402,192,211897,128,0,212064:0:0:0:0:
109,192,211897,1,0,0:0:0:0:
36,192,211897,1,0,0:0:0:0:
475,192,211897,1,0,0:0:0:0:
256,192,211897,1,0,0:0:0:0:
36,192,212064,1,0,0:0:0:0:
182,192,212064,1,0,0:0:0:0:
329,192,212064,1,0,0:0:0:0:
475,192,212064,1,0,0:0:0:0:
256,192,212147,1,0,0:0:0:0:
109,192,212147,1,0,0:0:0:0:
182,192,212231,1,0,0:0:0:0:
36,192,212231,128,0,212397:0:0:0:0:
329,192,212231,1,0,0:0:0:0:
475,192,212231,1,0,0:0:0:0:
402,192,212231,1,0,0:0:0:0:
256,192,212397,128,0,212564:0:0:0:0:
402,192,212397,1,0,0:0:0:0:
109,192,212397,1,0,0:0:0:0:
182,192,212397,1,0,0:0:0:0:
475,192,212397,1,0,0:0:0:0:
182,192,212564,128,0,212897:0:0:0:0:
475,192,212564,1,0,0:0:0:0:
109,192,212564,1,0,0:0:0:0:
36,192,212564,1,0,0:0:0:0:
402,192,212564,128,0,212897:0:0:0:0:
329,192,212564,1,0,0:0:0:0:
329,192,212897,1,0,0:0:0:0:
256,192,212897,1,0,0:0:0:0:
36,192,212897,1,0,0:0:0:0:
475,192,212897,1,0,0:0:0:0:
182,192,212981,1,0,0:0:0:0:
109,192,212981,1,0,0:0:0:0:
402,192,212981,1,0,0:0:0:0:
329,192,213064,1,0,0:0:0:0:
36,192,213064,1,0,0:0:0:0:
475,192,213064,1,0,0:0:0:0:
256,192,213147,1,0,0:0:0:0:
109,192,213147,1,0,0:0:0:0:
402,192,213147,1,0,0:0:0:0:
182,192,213231,1,0,0:0:0:0:
36,192,213231,1,0,0:0:0:0:
329,192,213231,1,0,0:0:0:0:
256,192,213314,1,0,0:0:0:0:
475,192,213314,1,0,0:0:0:0:
402,192,213314,1,0,0:0:0:0:
182,192,213397,1,0,0:0:0:0:
36,192,213397,1,0,0:0:0:0:
109,192,213397,1,0,0:0:0:0:
329,192,213397,1,0,0:0:0:0:
109,192,213564,1,0,0:0:0:0:
182,192,213564,1,0,0:0:0:0:
402,192,213564,1,0,0:0:0:0:
329,192,213564,1,0,0:0:0:0:
475,192,213564,1,0,0:0:0:0:
256,192,213731,1,0,0:0:0:0:
109,192,213731,1,0,0:0:0:0:
36,192,213731,1,0,0:0:0:0:
402,192,213731,1,0,0:0:0:0:
475,192,213731,1,0,0:0:0:0:
329,192,213897,128,0,214147:0:0:0:0:
182,192,213897,128,0,214147:0:0:0:0:
36,192,213897,128,0,214147:0:0:0:0:
402,192,213897,128,0,214147:0:0:0:0:
475,192,213897,128,0,214147:0:0:0:0:
109,192,213897,128,0,214147:0:0:0:0:
329,192,214231,1,0,0:0:0:0:
256,192,214231,1,0,0:0:0:0:
109,192,214231,1,0,0:0:0:0:
36,192,214231,1,0,0:0:0:0:
402,192,214231,1,0,0:0:0:0:
109,192,214397,1,0,0:0:0:0:
182,192,214397,1,0,0:0:0:0:
36,192,214397,1,0,0:0:0:0:
329,192,214397,1,0,0:0:0:0:
475,192,214397,1,0,0:0:0:0:
256,192,214564,1,0,0:0:0:0:
329,192,214564,1,0,0:0:0:0:
402,192,214564,1,0,0:0:0:0:
475,192,214564,1,0,0:0:0:0:
109,192,214564,1,0,0:0:0:0:
36,192,214564,1,0,0:0:0:0:
109,192,214897,1,0,0:0:0:0:
329,192,214897,128,0,214981:0:0:0:0:
475,192,214897,128,0,214981:0:0:0:0:
402,192,214897,128,0,214981:0:0:0:0:
182,192,214953,1,0,0:0:0:0:
256,192,215009,1,0,0:0:0:0:
402,192,215064,1,0,0:0:0:0:
109,192,215064,128,0,215147:0:0:0:0:
36,192,215064,128,0,215147:0:0:0:0:
329,192,215120,1,0,0:0:0:0:
256,192,215175,1,0,0:0:0:0:
475,192,215231,128,0,215481:0:0:0:0:
329,192,215231,128,0,215481:0:0:0:0:
402,192,215231,128,0,215481:0:0:0:0:
182,192,215231,128,0,215481:0:0:0:0:
109,192,215231,128,0,215481:0:0:0:0:
36,192,215231,128,0,215481:0:0:0:0:
36,192,215564,1,0,0:0:0:0:
109,192,215564,1,0,0:0:0:0:
475,192,215564,1,0,0:0:0:0:
402,192,215564,1,0,0:0:0:0:
256,192,215564,128,0,215731:0:0:0:0:
182,192,215564,1,0,0:0:0:0:
475,192,215731,1,0,0:0:0:0:
329,192,215731,1,0,0:0:0:0:
36,192,215731,128,0,215897:0:0:0:0:
109,192,215731,1,0,0:0:0:0:
402,192,215897,1,0,0:0:0:0:
182,192,215897,1,0,0:0:0:0:
256,192,215897,128,0,216064:0:0:0:0:
475,192,215897,1,0,0:0:0:0:
329,192,215897,1,0,0:0:0:0:
109,192,216064,1,0,0:0:0:0:
36,192,216064,1,0,0:0:0:0:
182,192,216064,1,0,0:0:0:0:
402,192,216064,128,0,216231:0:0:0:0:
329,192,216231,1,0,0:0:0:0:
256,192,216231,1,0,0:0:0:0:
475,192,216231,1,0,0:0:0:0:
109,192,216231,128,0,216397:0:0:0:0:
36,192,216231,1,0,0:0:0:0:
475,192,216397,1,0,0:0:0:0:
402,192,216397,1,0,0:0:0:0:
182,192,216397,1,0,0:0:0:0:
256,192,216397,128,0,216564:0:0:0:0:
475,192,216564,1,0,0:0:0:0:
329,192,216564,1,0,0:0:0:0:
182,192,216564,1,0,0:0:0:0:
36,192,216564,128,0,217064:0:0:0:0:
109,192,216564,1,0,0:0:0:0:
256,192,216731,1,0,0:0:0:0:
109,192,216731,1,0,0:0:0:0:
475,192,216731,1,0,0:0:0:0:
402,192,216731,1,0,0:0:0:0:
329,192,216897,1,0,0:0:0:0:
475,192,216897,1,0,0:0:0:0:
182,192,216897,1,0,0:0:0:0:
109,192,216897,1,0,0:0:0:0:
256,192,217064,1,0,0:0:0:0:
475,192,217064,1,0,0:0:0:0:
402,192,217064,1,0,0:0:0:0:
109,192,217064,1,0,0:0:0:0:
402,192,217231,128,0,217397:0:0:0:0:
182,192,217231,1,0,0:0:0:0:
329,192,217231,1,0,0:0:0:0:
475,192,217231,1,0,0:0:0:0:
36,192,217231,1,0,0:0:0:0:
109,192,217397,128,0,217564:0:0:0:0:
182,192,217397,1,0,0:0:0:0:
475,192,217397,1,0,0:0:0:0:
329,192,217397,1,0,0:0:0:0:
256,192,217564,128,0,217731:0:0:0:0:
36,192,217564,1,0,0:0:0:0:
475,192,217564,1,0,0:0:0:0:
402,192,217564,1,0,0:0:0:0:
475,192,217731,128,0,217897:0:0:0:0:
329,192,217731,1,0,0:0:0:0:
182,192,217731,1,0,0:0:0:0:
109,192,217731,1,0,0:0:0:0:
256,192,217897,1,0,0:0:0:0:
182,192,217897,128,0,218231:0:0:0:0:
36,192,217897,1,0,0:0:0:0:
402,192,217897,1,0,0:0:0:0:
36,192,218064,1,0,0:0:0:0:
329,192,218064,1,0,0:0:0:0:
475,192,218064,1,0,0:0:0:0:
109,192,218231,128,0,218397:0:0:0:0:
329,192,218231,1,0,0:0:0:0:
256,192,218231,1,0,0:0:0:0:
402,192,218231,1,0,0:0:0:0:
256,192,218397,128,0,218564:0:0:0:0:
402,192,218397,1,0,0:0:0:0:
182,192,218397,1,0,0:0:0:0:
36,192,218397,1,0,0:0:0:0:
402,192,218564,128,0,218731:0:0:0:0:
109,192,218564,1,0,0:0:0:0:
329,192,218564,1,0,0:0:0:0:
475,192,218564,1,0,0:0:0:0:
36,192,218564,1,0,0:0:0:0:
475,192,218731,128,0,218897:0:0:0:0:
329,192,218731,1,0,0:0:0:0:
109,192,218731,1,0,0:0:0:0:
182,192,218731,1,0,0:0:0:0:
256,192,218897,128,0,219064:0:0:0:0:
36,192,218897,1,0,0:0:0:0:
182,192,218897,1,0,0:0:0:0:
402,192,218897,1,0,0:0:0:0:
109,192,219064,128,0,219231:0:0:0:0:
36,192,219064,1,0,0:0:0:0:
329,192,219064,1,0,0:0:0:0:
475,192,219064,1,0,0:0:0:0:
182,192,219231,128,0,219731:0:0:0:0:
402,192,219231,1,0,0:0:0:0:
329,192,219231,1,0,0:0:0:0:
475,192,219231,1,0,0:0:0:0:
36,192,219231,1,0,0:0:0:0:
256,192,219397,1,0,0:0:0:0:
402,192,219397,1,0,0:0:0:0:
109,192,219397,1,0,0:0:0:0:
329,192,219397,1,0,0:0:0:0:
402,192,219564,1,0,0:0:0:0:
36,192,219564,1,0,0:0:0:0:
329,192,219564,1,0,0:0:0:0:
475,192,219564,1,0,0:0:0:0:
256,192,219731,1,0,0:0:0:0:
109,192,219731,1,0,0:0:0:0:
329,192,219731,1,0,0:0:0:0:
402,192,219731,1,0,0:0:0:0:
475,192,219897,128,0,220231:0:0:0:0:
256,192,219897,1,0,0:0:0:0:
109,192,219897,1,0,0:0:0:0:
36,192,219897,1,0,0:0:0:0:
182,192,220064,1,0,0:0:0:0:
402,192,220064,1,0,0:0:0:0:
329,192,220064,1,0,0:0:0:0:
36,192,220231,128,0,220397:0:0:0:0:
182,192,220231,1,0,0:0:0:0:
109,192,220231,1,0,0:0:0:0:
329,192,220231,1,0,0:0:0:0:
402,192,220314,1,0,0:0:0:0:
256,192,220314,1,0,0:0:0:0:
182,192,220397,128,0,220564:0:0:0:0:
475,192,220397,1,0,0:0:0:0:
109,192,220397,1,0,0:0:0:0:
329,192,220397,1,0,0:0:0:0:
402,192,220564,1,0,0:0:0:0:
256,192,220564,1,0,0:0:0:0:
475,192,220564,1,0,0:0:0:0:
36,192,220564,1,0,0:0:0:0:
109,192,220647,1,0,0:0:0:0:
329,192,220647,1,0,0:0:0:0:
475,192,220731,128,0,220897:0:0:0:0:
402,192,220731,128,0,220897:0:0:0:0:
256,192,220731,128,0,220897:0:0:0:0:
36,192,220731,128,0,220897:0:0:0:0:
182,192,220731,128,0,220897:0:0:0:0:
329,192,220981,128,0,221147:0:0:0:0:
402,192,220981,128,0,221147:0:0:0:0:
182,192,220981,128,0,221147:0:0:0:0:
109,192,220981,128,0,221147:0:0:0:0:
475,192,220981,128,0,221147:0:0:0:0:
402,192,221231,128,0,221481:0:0:0:0:
36,192,221231,128,0,221481:0:0:0:0:
109,192,221231,128,0,221481:0:0:0:0:
475,192,221231,128,0,221481:0:0:0:0:
256,192,221231,128,0,221481:0:0:0:0:
182,192,221231,128,0,221481:0:0:0:0:
256,192,221564,1,0,0:0:0:0:
36,192,221564,1,0,0:0:0:0:
402,192,221564,1,0,0:0:0:0:
475,192,221564,1,0,0:0:0:0:
109,192,221564,1,0,0:0:0:0:
182,192,221731,1,0,0:0:0:0:
329,192,221731,1,0,0:0:0:0:
402,192,221731,1,0,0:0:0:0:
109,192,221731,1,0,0:0:0:0:
36,192,221731,1,0,0:0:0:0:
36,192,221897,1,0,0:0:0:0:
475,192,221897,1,0,0:0:0:0:
402,192,221897,1,0,0:0:0:0:
329,192,221897,1,0,0:0:0:0:
256,192,221897,128,0,222231:0:0:0:0:
109,192,221897,128,0,222231:0:0:0:0:
182,192,222231,1,0,0:0:0:0:
329,192,222231,1,0,0:0:0:0:
402,192,222231,1,0,0:0:0:0:
475,192,222231,128,0,222397:0:0:0:0:
36,192,222231,1,0,0:0:0:0:
36,192,222397,1,0,0:0:0:0:
109,192,222397,1,0,0:0:0:0:
256,192,222397,128,0,222564:0:0:0:0:
329,192,222397,1,0,0:0:0:0:
475,192,222481,1,0,0:0:0:0:
402,192,222481,1,0,0:0:0:0:
182,192,222564,1,0,0:0:0:0:
109,192,222564,1,0,0:0:0:0:
36,192,222564,128,0,222897:0:0:0:0:
329,192,222564,1,0,0:0:0:0:
256,192,222647,1,0,0:0:0:0:
402,192,222647,1,0,0:0:0:0:
109,192,222731,1,0,0:0:0:0:
329,192,222731,1,0,0:0:0:0:
475,192,222731,1,0,0:0:0:0:
256,192,222814,1,0,0:0:0:0:
182,192,222814,1,0,0:0:0:0:
475,192,222897,128,0,223064:0:0:0:0:
402,192,222897,1,0,0:0:0:0:
329,192,222897,1,0,0:0:0:0:
182,192,222981,1,0,0:0:0:0:
109,192,222981,1,0,0:0:0:0:
256,192,223064,128,0,223231:0:0:0:0:
329,192,223064,1,0,0:0:0:0:
402,192,223064,1,0,0:0:0:0:
36,192,223064,1,0,0:0:0:0:
109,192,223231,1,0,0:0:0:0:
329,192,223231,1,0,0:0:0:0:
475,192,223231,128,0,223564:0:0:0:0:
36,192,223231,1,0,0:0:0:0:
182,192,223231,128,0,223564:0:0:0:0:
402,192,223231,1,0,0:0:0:0:
256,192,223564,1,0,0:0:0:0:
329,192,223564,1,0,0:0:0:0:
109,192,223564,1,0,0:0:0:0:
36,192,223564,128,0,223731:0:0:0:0:
402,192,223564,1,0,0:0:0:0:
256,192,223731,1,0,0:0:0:0:
402,192,223731,1,0,0:0:0:0:
109,192,223731,1,0,0:0:0:0:
475,192,223731,128,0,223897:0:0:0:0:
329,192,223814,1,0,0:0:0:0:
182,192,223814,1,0,0:0:0:0:
256,192,223897,128,0,224231:0:0:0:0:
36,192,223897,1,0,0:0:0:0:
402,192,223897,1,0,0:0:0:0:
109,192,223981,1,0,0:0:0:0:
329,192,223981,1,0,0:0:0:0:
475,192,224064,1,0,0:0:0:0:
36,192,224064,1,0,0:0:0:0:
182,192,224064,1,0,0:0:0:0:
329,192,224147,1,0,0:0:0:0:
402,192,224147,1,0,0:0:0:0:
36,192,224231,1,0,0:0:0:0:
475,192,224231,1,0,0:0:0:0:
109,192,224231,128,0,224397:0:0:0:0:
329,192,224314,1,0,0:0:0:0:
182,192,224314,1,0,0:0:0:0:
402,192,224314,1,0,0:0:0:0:
256,192,224397,128,0,224564:0:0:0:0:
36,192,224397,1,0,0:0:0:0:
475,192,224397,1,0,0:0:0:0:
36,192,224564,1,0,0:0:0:0:
402,192,224564,1,0,0:0:0:0:
475,192,224564,1,0,0:0:0:0:
182,192,224564,1,0,0:0:0:0:
109,192,224564,1,0,0:0:0:0:
329,192,224564,1,0,0:0:0:0:
256,192,224897,1,0,0:0:0:0:
329,192,224897,1,0,0:0:0:0:
109,192,224897,1,0,0:0:0:0:
36,192,224897,1,0,0:0:0:0:
402,192,224897,1,0,0:0:0:0:
475,192,224897,1,0,0:0:0:0:
109,192,225064,1,0,0:0:0:0:
36,192,225064,1,0,0:0:0:0:
182,192,225064,1,0,0:0:0:0:
475,192,225064,1,0,0:0:0:0:
329,192,225064,1,0,0:0:0:0:
402,192,225064,1,0,0:0:0:0:
182,192,225231,1,0,0:0:0:0:
256,192,225231,1,0,0:0:0:0:
402,192,225231,1,0,0:0:0:0:
475,192,225231,1,0,0:0:0:0:
109,192,225231,1,0,0:0:0:0:
36,192,225231,1,0,0:0:0:0:
36,192,225397,1,0,0:0:0:0:
109,192,225397,1,0,0:0:0:0:
182,192,225397,1,0,0:0:0:0:
256,192,225397,1,0,0:0:0:0:
329,192,225397,1,0,0:0:0:0:
475,192,225397,128,0,225481:0:0:0:0:
329,192,225564,128,0,225647:0:0:0:0:
182,192,225731,128,0,225814:0:0:0:0:
256,192,225897,1,0,0:0:0:0:
109,192,225897,1,0,0:0:0:0:
36,192,225897,1,0,0:0:0:0:
329,192,225897,1,0,0:0:0:0:
402,192,225897,128,0,226147:0:0:0:0:
475,192,225897,128,0,226147:0:0:0:0:
109,192,226064,1,0,0:0:0:0:
182,192,226064,1,0,0:0:0:0:
182,192,226231,1,0,0:0:0:0:
256,192,226231,1,0,0:0:0:0:
36,192,226231,1,0,0:0:0:0:
402,192,226231,1,0,0:0:0:0:
475,192,226231,1,0,0:0:0:0:
329,192,226231,1,0,0:0:0:0:
109,192,226397,1,0,0:0:0:0:
182,192,226397,1,0,0:0:0:0:
256,192,226397,1,0,0:0:0:0:
402,192,226397,1,0,0:0:0:0:
329,192,226397,1,0,0:0:0:0:
109,192,226564,1,0,0:0:0:0:
182,192,226564,1,0,0:0:0:0:
36,192,226564,1,0,0:0:0:0:
329,192,226564,1,0,0:0:0:0:
475,192,226564,1,0,0:0:0:0:
402,192,226564,1,0,0:0:0:0:
182,192,226731,1,0,0:0:0:0:
256,192,226731,1,0,0:0:0:0:
109,192,226731,1,0,0:0:0:0:
36,192,226731,1,0,0:0:0:0:
402,192,226731,1,0,0:0:0:0:
256,192,226897,1,0,0:0:0:0:
109,192,226897,1,0,0:0:0:0:
182,192,226897,1,0,0:0:0:0:
329,192,226897,1,0,0:0:0:0:
402,192,226897,1,0,0:0:0:0:
475,192,226897,1,0,0:0:0:0:
329,192,227064,1,0,0:0:0:0:
182,192,227064,1,0,0:0:0:0:
109,192,227064,1,0,0:0:0:0:
36,192,227064,1,0,0:0:0:0:
475,192,227064,1,0,0:0:0:0:
402,192,227231,1,0,0:0:0:0:
475,192,227231,1,0,0:0:0:0:
256,192,227231,1,0,0:0:0:0:
329,192,227231,1,0,0:0:0:0:
36,192,227231,128,0,227731:0:0:0:0:
109,192,227231,128,0,227731:0:0:0:0:
182,192,227397,1,0,0:0:0:0:
402,192,227397,1,0,0:0:0:0:
256,192,227564,1,0,0:0:0:0:
329,192,227564,1,0,0:0:0:0:
475,192,227564,1,0,0:0:0:0:
182,192,227731,1,0,0:0:0:0:
329,192,227731,1,0,0:0:0:0:
256,192,227897,1,0,0:0:0:0:
402,192,227897,1,0,0:0:0:0:
475,192,227897,1,0,0:0:0:0:
109,192,227897,1,0,0:0:0:0:
182,192,227897,1,0,0:0:0:0:
36,192,227897,1,0,0:0:0:0:
109,192,228064,1,0,0:0:0:0:
256,192,228064,1,0,0:0:0:0:
36,192,228064,1,0,0:0:0:0:
329,192,228064,1,0,0:0:0:0:
402,192,228064,1,0,0:0:0:0:
182,192,228231,1,0,0:0:0:0:
256,192,228231,1,0,0:0:0:0:
329,192,228231,1,0,0:0:0:0:
475,192,228231,1,0,0:0:0:0:
36,192,228231,1,0,0:0:0:0:
402,192,228231,1,0,0:0:0:0:
109,192,228397,1,0,0:0:0:0:
182,192,228397,1,0,0:0:0:0:
329,192,228397,1,0,0:0:0:0:
402,192,228397,1,0,0:0:0:0:
475,192,228397,1,0,0:0:0:0:
256,192,228564,1,0,0:0:0:0:
109,192,228564,1,0,0:0:0:0:
36,192,228564,1,0,0:0:0:0:
402,192,228564,1,0,0:0:0:0:
329,192,228564,128,0,228814:0:0:0:0:
475,192,228564,128,0,228814:0:0:0:0:
182,192,228731,1,0,0:0:0:0:
109,192,228731,1,0,0:0:0:0:
36,192,228897,1,0,0:0:0:0:
256,192,228897,1,0,0:0:0:0:
402,192,228897,1,0,0:0:0:0:
475,192,228897,1,0,0:0:0:0:
182,192,228897,1,0,0:0:0:0:
329,192,228897,1,0,0:0:0:0:
109,192,229064,1,0,0:0:0:0:
256,192,229064,1,0,0:0:0:0:
402,192,229064,1,0,0:0:0:0:
475,192,229064,1,0,0:0:0:0:
182,192,229064,1,0,0:0:0:0:
109,192,229231,1,0,0:0:0:0:
36,192,229231,1,0,0:0:0:0:
256,192,229231,1,0,0:0:0:0:
329,192,229231,1,0,0:0:0:0:
475,192,229231,1,0,0:0:0:0:
402,192,229231,1,0,0:0:0:0:
475,192,229397,1,0,0:0:0:0:
329,192,229397,1,0,0:0:0:0:
109,192,229397,1,0,0:0:0:0:
36,192,229397,1,0,0:0:0:0:
182,192,229397,1,0,0:0:0:0:
182,192,229564,1,0,0:0:0:0:
256,192,229564,1,0,0:0:0:0:
402,192,229564,1,0,0:0:0:0:
475,192,229564,1,0,0:0:0:0:
36,192,229564,1,0,0:0:0:0:
109,192,229564,1,0,0:0:0:0:
109,192,229731,1,0,0:0:0:0:
256,192,229731,1,0,0:0:0:0:
329,192,229731,1,0,0:0:0:0:
402,192,229731,1,0,0:0:0:0:
475,192,229731,1,0,0:0:0:0:
256,192,229897,1,0,0:0:0:0:
182,192,229897,1,0,0:0:0:0:
109,192,229897,1,0,0:0:0:0:
402,192,229897,1,0,0:0:0:0:
36,192,229897,128,0,230397:0:0:0:0:
475,192,229897,128,0,230397:0:0:0:0:
182,192,230064,1,0,0:0:0:0:
329,192,230064,1,0,0:0:0:0:
109,192,230231,1,0,0:0:0:0:
256,192,230231,1,0,0:0:0:0:
402,192,230231,1,0,0:0:0:0:
182,192,230397,1,0,0:0:0:0:
402,192,230397,1,0,0:0:0:0:
256,192,230564,1,0,0:0:0:0:
329,192,230564,1,0,0:0:0:0:
475,192,230564,1,0,0:0:0:0:
109,192,230564,1,0,0:0:0:0:
36,192,230564,1,0,0:0:0:0:
402,192,230564,1,0,0:0:0:0:
256,192,230731,1,0,0:0:0:0:
182,192,230731,1,0,0:0:0:0:
36,192,230731,1,0,0:0:0:0:
329,192,230731,1,0,0:0:0:0:
475,192,230731,1,0,0:0:0:0:
256,192,230897,1,0,0:0:0:0:
329,192,230897,1,0,0:0:0:0:
402,192,230897,1,0,0:0:0:0:
475,192,230897,1,0,0:0:0:0:
109,192,230897,1,0,0:0:0:0:
36,192,230897,1,0,0:0:0:0:
109,192,231064,1,0,0:0:0:0:
182,192,231064,1,0,0:0:0:0:
256,192,231064,1,0,0:0:0:0:
402,192,231064,1,0,0:0:0:0:
475,192,231064,1,0,0:0:0:0:
329,192,231231,1,0,0:0:0:0:
256,192,231231,1,0,0:0:0:0:
475,192,231231,1,0,0:0:0:0:
402,192,231231,1,0,0:0:0:0:
182,192,231231,128,0,231481:0:0:0:0:
36,192,231231,128,0,231481:0:0:0:0:
329,192,231397,1,0,0:0:0:0:
475,192,231397,1,0,0:0:0:0:
256,192,231564,1,0,0:0:0:0:
402,192,231564,1,0,0:0:0:0:
475,192,231564,1,0,0:0:0:0:
109,192,231564,1,0,0:0:0:0:
36,192,231564,1,0,0:0:0:0:
182,192,231564,1,0,0:0:0:0:
109,192,231731,1,0,0:0:0:0:
182,192,231731,1,0,0:0:0:0:
256,192,231731,1,0,0:0:0:0:
329,192,231731,1,0,0:0:0:0:
402,192,231731,1,0,0:0:0:0:
182,192,231897,1,0,0:0:0:0:
36,192,231897,1,0,0:0:0:0:
402,192,231897,1,0,0:0:0:0:
109,192,231897,1,0,0:0:0:0:
256,192,231897,128,0,232147:0:0:0:0:
475,192,231897,128,0,232147:0:0:0:0:
329,192,232064,1,0,0:0:0:0:
36,192,232064,1,0,0:0:0:0:
182,192,232231,1,0,0:0:0:0:
109,192,232231,1,0,0:0:0:0:
36,192,232231,1,0,0:0:0:0:
329,192,232231,1,0,0:0:0:0:
475,192,232231,1,0,0:0:0:0:
402,192,232231,1,0,0:0:0:0:
109,192,232397,1,0,0:0:0:0:
182,192,232397,1,0,0:0:0:0:
256,192,232397,1,0,0:0:0:0:
402,192,232397,1,0,0:0:0:0:
475,192,232397,1,0,0:0:0:0:
329,192,232564,1,0,0:0:0:0:
402,192,232564,1,0,0:0:0:0:
475,192,232564,1,0,0:0:0:0:
182,192,232564,1,0,0:0:0:0:
109,192,232564,128,0,232814:0:0:0:0:
36,192,232564,128,0,232814:0:0:0:0:
256,192,232731,1,0,0:0:0:0:
402,192,232731,1,0,0:0:0:0:
475,192,232731,1,0,0:0:0:0:
329,192,232814,1,0,0:0:0:0:
182,192,232814,1,0,0:0:0:0:
256,192,232897,1,0,0:0:0:0:
36,192,232897,1,0,0:0:0:0:
109,192,232897,1,0,0:0:0:0:
402,192,232897,128,0,233064:0:0:0:0:
475,192,232897,128,0,233064:0:0:0:0:
329,192,233064,1,0,0:0:0:0:
182,192,233064,1,0,0:0:0:0:
36,192,233064,1,0,0:0:0:0:
256,192,233147,1,0,0:0:0:0:
402,192,233147,1,0,0:0:0:0:
329,192,233231,1,0,0:0:0:0:
475,192,233231,1,0,0:0:0:0:
36,192,233231,1,0,0:0:0:0:
182,192,233231,128,0,233397:0:0:0:0:
109,192,233231,128,0,233397:0:0:0:0:
256,192,233397,1,0,0:0:0:0:
402,192,233397,1,0,0:0:0:0:
475,192,233397,1,0,0:0:0:0:
329,192,233564,1,0,0:0:0:0:
182,192,233564,1,0,0:0:0:0:
109,192,233564,1,0,0:0:0:0:
36,192,233564,1,0,0:0:0:0:
475,192,233564,1,0,0:0:0:0:
402,192,233564,1,0,0:0:0:0:
256,192,233731,1,0,0:0:0:0:
182,192,233731,1,0,0:0:0:0:
36,192,233731,1,0,0:0:0:0:
475,192,233731,1,0,0:0:0:0:
402,192,233731,1,0,0:0:0:0:
182,192,233897,128,0,234147:0:0:0:0:
109,192,233897,128,0,234147:0:0:0:0:
36,192,233897,128,0,234147:0:0:0:0:
329,192,233897,128,0,234147:0:0:0:0:
402,192,233897,128,0,234147:0:0:0:0:
475,192,233897,128,0,234147:0:0:0:0:
256,192,234231,1,0,0:0:0:0:
402,192,234231,1,0,0:0:0:0:
475,192,234231,1,0,0:0:0:0:
36,192,234231,1,0,0:0:0:0:
109,192,234314,1,0,0:0:0:0:
182,192,234314,1,0,0:0:0:0:
329,192,234314,1,0,0:0:0:0:
475,192,234397,1,0,0:0:0:0:
256,192,234397,1,0,0:0:0:0:
36,192,234397,1,0,0:0:0:0:
402,192,234397,1,0,0:0:0:0:
329,192,234481,1,0,0:0:0:0:
109,192,234481,1,0,0:0:0:0:
475,192,234564,1,0,0:0:0:0:
182,192,234564,1,0,0:0:0:0:
36,192,234564,1,0,0:0:0:0:
402,192,234564,1,0,0:0:0:0:
256,192,234647,1,0,0:0:0:0:
109,192,234647,1,0,0:0:0:0:
329,192,234647,1,0,0:0:0:0:
402,192,234731,1,0,0:0:0:0:
475,192,234731,1,0,0:0:0:0:
36,192,234731,1,0,0:0:0:0:
182,192,234731,1,0,0:0:0:0:
256,192,234897,1,0,0:0:0:0:
402,192,234897,1,0,0:0:0:0:
475,192,234897,1,0,0:0:0:0:
182,192,234897,1,0,0:0:0:0:
109,192,234897,1,0,0:0:0:0:
36,192,234897,1,0,0:0:0:0:
109,192,235064,1,0,0:0:0:0:
256,192,235064,1,0,0:0:0:0:
329,192,235064,1,0,0:0:0:0:
402,192,235064,1,0,0:0:0:0:
475,192,235064,1,0,0:0:0:0:
36,192,235064,1,0,0:0:0:0:
475,192,235231,128,0,235481:0:0:0:0:
256,192,235231,128,0,235481:0:0:0:0:
182,192,235231,128,0,235481:0:0:0:0:
36,192,235231,128,0,235481:0:0:0:0:
109,192,235231,128,0,235481:0:0:0:0:
402,192,235231,128,0,235481:0:0:0:0:
36,192,235564,1,0,0:0:0:0:
182,192,235564,1,0,0:0:0:0:
329,192,235564,1,0,0:0:0:0:
256,192,235564,1,0,0:0:0:0:
475,192,235564,1,0,0:0:0:0:
402,192,235564,1,0,0:0:0:0:
109,192,235731,1,0,0:0:0:0:
182,192,235731,1,0,0:0:0:0:
256,192,235731,1,0,0:0:0:0:
329,192,235731,1,0,0:0:0:0:
475,192,235731,1,0,0:0:0:0:
36,192,235897,1,0,0:0:0:0:
109,192,235897,1,0,0:0:0:0:
182,192,235897,1,0,0:0:0:0:
329,192,235897,1,0,0:0:0:0:
402,192,235897,1,0,0:0:0:0:
475,192,235897,1,0,0:0:0:0:
329,192,236064,1,0,0:0:0:0:
182,192,236064,1,0,0:0:0:0:
475,192,236064,1,0,0:0:0:0:
36,192,236064,1,0,0:0:0:0:
256,192,236147,1,0,0:0:0:0:
109,192,236147,1,0,0:0:0:0:
329,192,236231,1,0,0:0:0:0:
475,192,236231,1,0,0:0:0:0:
182,192,236231,1,0,0:0:0:0:
402,192,236314,1,0,0:0:0:0:
36,192,236314,1,0,0:0:0:0:
256,192,236314,1,0,0:0:0:0:
475,192,236397,1,0,0:0:0:0:
109,192,236397,1,0,0:0:0:0:
329,192,236397,1,0,0:0:0:0:
182,192,236481,1,0,0:0:0:0:
402,192,236481,1,0,0:0:0:0:
36,192,236564,1,0,0:0:0:0:
256,192,236564,1,0,0:0:0:0:
109,192,236564,1,0,0:0:0:0:
475,192,236564,128,0,237064:0:0:0:0:
329,192,236564,128,0,237064:0:0:0:0:
109,192,236731,1,0,0:0:0:0:
256,192,236731,1,0,0:0:0:0:
182,192,236897,1,0,0:0:0:0:
402,192,236897,1,0,0:0:0:0:
36,192,236897,1,0,0:0:0:0:
109,192,236897,1,0,0:0:0:0:
182,192,237064,1,0,0:0:0:0:
256,192,237064,1,0,0:0:0:0:
36,192,237064,1,0,0:0:0:0:
402,192,237064,1,0,0:0:0:0:
109,192,237231,1,0,0:0:0:0:
36,192,237231,1,0,0:0:0:0:
256,192,237231,1,0,0:0:0:0:
475,192,237231,1,0,0:0:0:0:
402,192,237314,1,0,0:0:0:0:
182,192,237314,1,0,0:0:0:0:
329,192,237314,1,0,0:0:0:0:
475,192,237397,1,0,0:0:0:0:
256,192,237397,1,0,0:0:0:0:
36,192,237397,1,0,0:0:0:0:
109,192,237397,1,0,0:0:0:0:
109,192,237564,1,0,0:0:0:0:
182,192,237564,1,0,0:0:0:0:
329,192,237564,1,0,0:0:0:0:
402,192,237564,1,0,0:0:0:0:
475,192,237564,1,0,0:0:0:0:
36,192,237564,1,0,0:0:0:0:
256,192,237731,1,0,0:0:0:0:
109,192,237731,1,0,0:0:0:0:
329,192,237731,1,0,0:0:0:0:
402,192,237731,1,0,0:0:0:0:
475,192,237731,1,0,0:0:0:0:
109,192,237897,1,0,0:0:0:0:
475,192,237897,1,0,0:0:0:0:
402,192,237897,1,0,0:0:0:0:
256,192,237897,1,0,0:0:0:0:
182,192,237897,128,0,238397:0:0:0:0:
36,192,237897,128,0,238397:0:0:0:0:
329,192,238064,1,0,0:0:0:0:
402,192,238064,1,0,0:0:0:0:
256,192,238231,1,0,0:0:0:0:
329,192,238231,1,0,0:0:0:0:
109,192,238231,1,0,0:0:0:0:
475,192,238231,1,0,0:0:0:0:
109,192,238397,1,0,0:0:0:0:
256,192,238397,1,0,0:0:0:0:
402,192,238397,1,0,0:0:0:0:
475,192,238397,1,0,0:0:0:0:
182,192,238564,1,0,0:0:0:0:
36,192,238564,1,0,0:0:0:0:
329,192,238564,1,0,0:0:0:0:
475,192,238647,1,0,0:0:0:0:
256,192,238647,1,0,0:0:0:0:
402,192,238647,1,0,0:0:0:0:
109,192,238731,1,0,0:0:0:0:
329,192,238731,1,0,0:0:0:0:
36,192,238731,1,0,0:0:0:0:
402,192,238814,1,0,0:0:0:0:
475,192,238814,1,0,0:0:0:0:
182,192,238814,1,0,0:0:0:0:
256,192,238897,1,0,0:0:0:0:
109,192,238897,1,0,0:0:0:0:
36,192,238897,1,0,0:0:0:0:
475,192,238981,1,0,0:0:0:0:
182,192,238981,1,0,0:0:0:0:
329,192,238981,1,0,0:0:0:0:
109,192,239064,1,0,0:0:0:0:
256,192,239064,1,0,0:0:0:0:
402,192,239064,1,0,0:0:0:0:
329,192,239147,1,0,0:0:0:0:
182,192,239147,1,0,0:0:0:0:
36,192,239147,1,0,0:0:0:0:
109,192,239231,1,0,0:0:0:0:
256,192,239231,1,0,0:0:0:0:
402,192,239231,128,0,239481:0:0:0:0:
475,192,239231,128,0,239481:0:0:0:0:
182,192,239397,1,0,0:0:0:0:
329,192,239397,1,0,0:0:0:0:
36,192,239397,1,0,0:0:0:0:
256,192,239564,1,0,0:0:0:0:
109,192,239564,1,0,0:0:0:0:
329,192,239564,1,0,0:0:0:0:
402,192,239564,1,0,0:0:0:0:
475,192,239564,1,0,0:0:0:0:
36,192,239564,1,0,0:0:0:0:
36,192,239731,1,0,0:0:0:0:
182,192,239731,1,0,0:0:0:0:
329,192,239731,1,0,0:0:0:0:
475,192,239731,1,0,0:0:0:0:
256,192,239814,1,0,0:0:0:0:
402,192,239814,1,0,0:0:0:0:
109,192,239814,1,0,0:0:0:0:
475,192,239897,1,0,0:0:0:0:
182,192,239897,1,0,0:0:0:0:
329,192,239897,1,0,0:0:0:0:
256,192,239981,1,0,0:0:0:0:
36,192,239981,1,0,0:0:0:0:
109,192,239981,1,0,0:0:0:0:
182,192,240064,128,0,240147:0:0:0:0:
475,192,240064,128,0,240147:0:0:0:0:
329,192,240064,128,0,240147:0:0:0:0:
256,192,240147,128,0,240231:0:0:0:0:
402,192,240147,128,0,240231:0:0:0:0:
109,192,240147,128,0,240231:0:0:0:0:
182,192,240231,128,0,240481:0:0:0:0:
36,192,240231,128,0,240481:0:0:0:0:
329,192,240231,128,0,240481:0:0:0:0:
402,192,240397,1,0,0:0:0:0:
475,192,240397,1,0,0:0:0:0:
256,192,240564,1,0,0:0:0:0:
402,192,240564,1,0,0:0:0:0:
475,192,240564,1,0,0:0:0:0:
182,192,240564,1,0,0:0:0:0:
109,192,240564,128,0,240814:0:0:0:0:
36,192,240564,128,0,240814:0:0:0:0:
182,192,240731,1,0,0:0:0:0:
329,192,240731,1,0,0:0:0:0:
256,192,240897,1,0,0:0:0:0:
475,192,240897,1,0,0:0:0:0:
402,192,240897,1,0,0:0:0:0:
36,192,240897,1,0,0:0:0:0:
329,192,240981,1,0,0:0:0:0:
182,192,240981,1,0,0:0:0:0:
109,192,240981,1,0,0:0:0:0:
36,192,241064,1,0,0:0:0:0:
256,192,241064,1,0,0:0:0:0:
475,192,241064,1,0,0:0:0:0:
182,192,241147,1,0,0:0:0:0:
329,192,241147,1,0,0:0:0:0:
402,192,241147,1,0,0:0:0:0:
36,192,241231,1,0,0:0:0:0:
109,192,241231,1,0,0:0:0:0:
475,192,241231,128,0,241481:0:0:0:0:
256,192,241231,128,0,241481:0:0:0:0:
182,192,241397,1,0,0:0:0:0:
329,192,241397,1,0,0:0:0:0:
109,192,241564,1,0,0:0:0:0:
182,192,241564,1,0,0:0:0:0:
36,192,241564,1,0,0:0:0:0:
329,192,241564,1,0,0:0:0:0:
475,192,241564,1,0,0:0:0:0:
402,192,241564,1,0,0:0:0:0:
109,192,241731,1,0,0:0:0:0:
256,192,241731,1,0,0:0:0:0:
329,192,241731,1,0,0:0:0:0:
402,192,241731,1,0,0:0:0:0:
475,192,241731,1,0,0:0:0:0:
182,192,241897,1,0,0:0:0:0:
36,192,241897,1,0,0:0:0:0:
109,192,241897,1,0,0:0:0:0:
256,192,241897,1,0,0:0:0:0:
329,192,241897,1,0,0:0:0:0:
475,192,241897,1,0,0:0:0:0:
182,192,242064,1,0,0:0:0:0:
109,192,242064,1,0,0:0:0:0:
36,192,242064,1,0,0:0:0:0:
329,192,242064,128,0,242231:0:0:0:0:
402,192,242064,128,0,242231:0:0:0:0:
475,192,242064,128,0,242231:0:0:0:0:
182,192,242231,1,0,0:0:0:0:
256,192,242314,128,0,242481:0:0:0:0:
402,192,242314,128,0,242481:0:0:0:0:
475,192,242314,128,0,242481:0:0:0:0:
109,192,242314,128,0,242481:0:0:0:0:
36,192,242314,128,0,242481:0:0:0:0:
329,192,242564,128,0,242731:0:0:0:0:
182,192,242564,128,0,242731:0:0:0:0:
109,192,242564,128,0,242731:0:0:0:0:
36,192,242564,128,0,242731:0:0:0:0:
402,192,242564,128,0,242731:0:0:0:0:
475,192,242564,128,0,242731:0:0:0:0:
329,192,242897,1,0,0:0:0:0:
475,192,242897,1,0,0:0:0:0:
182,192,242897,1,0,0:0:0:0:
109,192,242897,1,0,0:0:0:0:
36,192,242897,1,0,0:0:0:0:
329,192,243064,1,0,0:0:0:0:
182,192,243064,1,0,0:0:0:0:
475,192,243064,1,0,0:0:0:0:
402,192,243064,1,0,0:0:0:0:
36,192,243064,1,0,0:0:0:0:
402,192,243231,128,0,243481:0:0:0:0:
475,192,243231,128,0,243481:0:0:0:0:
256,192,243231,128,0,243481:0:0:0:0:
182,192,243231,128,0,243481:0:0:0:0:
109,192,243231,128,0,243481:0:0:0:0:
36,192,243231,128,0,243481:0:0:0:0:
182,192,243564,1,0,0:0:0:0:
109,192,243564,1,0,0:0:0:0:
36,192,243564,1,0,0:0:0:0:
329,192,243564,1,0,0:0:0:0:
402,192,243564,1,0,0:0:0:0:
475,192,243564,1,0,0:0:0:0:
256,192,243731,1,0,0:0:0:0:
182,192,243731,1,0,0:0:0:0:
109,192,243731,1,0,0:0:0:0:
36,192,243731,1,0,0:0:0:0:
402,192,243731,1,0,0:0:0:0:
109,192,243897,1,0,0:0:0:0:
182,192,243897,1,0,0:0:0:0:
402,192,243897,1,0,0:0:0:0:
36,192,243897,1,0,0:0:0:0:
475,192,243897,1,0,0:0:0:0:
329,192,243981,1,0,0:0:0:0:
256,192,243981,1,0,0:0:0:0:
182,192,244064,1,0,0:0:0:0:
36,192,244064,1,0,0:0:0:0:
475,192,244064,1,0,0:0:0:0:
402,192,244064,1,0,0:0:0:0:
109,192,244147,1,0,0:0:0:0:
256,192,244147,1,0,0:0:0:0:
36,192,244231,1,0,0:0:0:0:
329,192,244231,1,0,0:0:0:0:
402,192,244231,1,0,0:0:0:0:
475,192,244231,1,0,0:0:0:0:
182,192,244231,1,0,0:0:0:0:
109,192,244397,1,0,0:0:0:0:
182,192,244397,1,0,0:0:0:0:
256,192,244397,1,0,0:0:0:0:
475,192,244397,1,0,0:0:0:0:
402,192,244397,1,0,0:0:0:0:
256,192,244564,128,0,244814:0:0:0:0:
109,192,244564,128,0,244814:0:0:0:0:
36,192,244564,128,0,244814:0:0:0:0:
329,192,244564,128,0,244814:0:0:0:0:
402,192,244564,128,0,244814:0:0:0:0:
475,192,244564,128,0,244814:0:0:0:0:
109,192,244897,1,0,0:0:0:0:
182,192,244897,1,0,0:0:0:0:
329,192,244897,1,0,0:0:0:0:
402,192,244897,1,0,0:0:0:0:
475,192,244897,1,0,0:0:0:0:
36,192,244897,1,0,0:0:0:0:
109,192,245064,1,0,0:0:0:0:
256,192,245064,1,0,0:0:0:0:
182,192,245064,1,0,0:0:0:0:
329,192,245064,1,0,0:0:0:0:
475,192,245064,1,0,0:0:0:0:
402,192,245231,1,0,0:0:0:0:
256,192,245231,1,0,0:0:0:0:
182,192,245231,1,0,0:0:0:0:
109,192,245231,1,0,0:0:0:0:
36,192,245231,1,0,0:0:0:0:
329,192,245314,1,0,0:0:0:0:
475,192,245314,1,0,0:0:0:0:
402,192,245397,1,0,0:0:0:0:
182,192,245397,1,0,0:0:0:0:
36,192,245397,1,0,0:0:0:0:
256,192,245397,1,0,0:0:0:0:
109,192,245481,1,0,0:0:0:0:
329,192,245481,1,0,0:0:0:0:
256,192,245564,1,0,0:0:0:0:
182,192,245564,1,0,0:0:0:0:
36,192,245564,1,0,0:0:0:0:
402,192,245564,1,0,0:0:0:0:
475,192,245564,1,0,0:0:0:0:
109,192,245731,1,0,0:0:0:0:
182,192,245731,1,0,0:0:0:0:
36,192,245731,1,0,0:0:0:0:
329,192,245731,1,0,0:0:0:0:
475,192,245731,1,0,0:0:0:0:
182,192,245897,128,0,246314:0:0:0:0:
329,192,245897,128,0,246147:0:0:0:0:
402,192,245897,128,0,246147:0:0:0:0:
475,192,245897,128,0,246147:0:0:0:0:
109,192,245897,128,0,246481:0:0:0:0:
36,192,245897,128,0,246147:0:0:0:0:
36,192,246231,128,0,246814:0:0:0:0:
329,192,246231,128,0,246481:0:0:0:0:
402,192,246231,128,0,246481:0:0:0:0:
475,192,246231,128,0,246481:0:0:0:0:
182,192,246397,128,0,246981:0:0:0:0:
402,192,246564,128,0,246814:0:0:0:0:
329,192,246564,128,0,246814:0:0:0:0:
475,192,246564,128,0,246814:0:0:0:0:
109,192,246564,128,0,247231:0:0:0:0:
36,192,246897,128,0,247231:0:0:0:0:
329,192,246897,128,0,247147:0:0:0:0:
402,192,246897,128,0,247147:0:0:0:0:
475,192,246897,128,0,247147:0:0:0:0:
182,192,247064,128,0,247231:0:0:0:0:
256,192,247231,1,0,0:0:0:0:
402,192,247231,1,0,0:0:0:0:
475,192,247231,1,0,0:0:0:0:
329,192,247314,1,0,0:0:0:0:
36,192,247397,1,0,0:0:0:0:
182,192,247397,1,0,0:0:0:0:
402,192,247397,1,0,0:0:0:0:
256,192,247481,1,0,0:0:0:0:
475,192,247564,1,0,0:0:0:0:
329,192,247564,1,0,0:0:0:0:
402,192,247564,1,0,0:0:0:0:
36,192,247564,1,0,0:0:0:0:
109,192,247564,1,0,0:0:0:0:
182,192,247647,1,0,0:0:0:0:
256,192,247647,1,0,0:0:0:0:
109,192,247731,1,0,0:0:0:0:
36,192,247731,1,0,0:0:0:0:
329,192,247731,1,0,0:0:0:0:
475,192,247731,1,0,0:0:0:0:
402,192,247814,1,0,0:0:0:0:
109,192,247897,1,0,0:0:0:0:
36,192,247897,1,0,0:0:0:0:
329,192,247897,1,0,0:0:0:0:
475,192,247897,1,0,0:0:0:0:
182,192,247981,1,0,0:0:0:0:
256,192,247981,1,0,0:0:0:0:
109,192,248064,1,0,0:0:0:0:
36,192,248064,1,0,0:0:0:0:
329,192,248064,1,0,0:0:0:0:
475,192,248064,1,0,0:0:0:0:
402,192,248147,1,0,0:0:0:0:
329,192,248231,1,0,0:0:0:0:
475,192,248231,1,0,0:0:0:0:
36,192,248231,1,0,0:0:0:0:
109,192,248231,1,0,0:0:0:0:
182,192,248231,1,0,0:0:0:0:
256,192,248314,1,0,0:0:0:0:
109,192,248397,1,0,0:0:0:0:
36,192,248397,1,0,0:0:0:0:
475,192,248397,1,0,0:0:0:0:
402,192,248397,1,0,0:0:0:0:
182,192,248481,1,0,0:0:0:0:
329,192,248481,1,0,0:0:0:0:
475,192,248564,1,0,0:0:0:0:
36,192,248564,1,0,0:0:0:0:
256,192,248564,1,0,0:0:0:0:
402,192,248564,1,0,0:0:0:0:
109,192,248647,1,0,0:0:0:0:
36,192,248731,1,0,0:0:0:0:
182,192,248731,1,0,0:0:0:0:
402,192,248731,1,0,0:0:0:0:
329,192,248814,1,0,0:0:0:0:
475,192,248897,1,0,0:0:0:0:
402,192,248897,1,0,0:0:0:0:
256,192,248897,1,0,0:0:0:0:
36,192,248897,1,0,0:0:0:0:
109,192,248897,1,0,0:0:0:0:
329,192,248981,1,0,0:0:0:0:
182,192,248981,1,0,0:0:0:0:
36,192,249064,1,0,0:0:0:0:
475,192,249064,1,0,0:0:0:0:
402,192,249064,1,0,0:0:0:0:
182,192,249147,1,0,0:0:0:0:
109,192,249147,1,0,0:0:0:0:
256,192,249231,1,0,0:0:0:0:
475,192,249231,1,0,0:0:0:0:
36,192,249231,1,0,0:0:0:0:
402,192,249231,1,0,0:0:0:0:
329,192,249314,1,0,0:0:0:0:
182,192,249314,1,0,0:0:0:0:
475,192,249397,1,0,0:0:0:0:
36,192,249397,1,0,0:0:0:0:
402,192,249397,1,0,0:0:0:0:
109,192,249481,1,0,0:0:0:0:
182,192,249481,1,0,0:0:0:0:
36,192,249564,1,0,0:0:0:0:
475,192,249564,1,0,0:0:0:0:
256,192,249564,1,0,0:0:0:0:
402,192,249564,1,0,0:0:0:0:
329,192,249647,1,0,0:0:0:0:
36,192,249731,1,0,0:0:0:0:
182,192,249731,1,0,0:0:0:0:
402,192,249731,1,0,0:0:0:0:
475,192,249731,1,0,0:0:0:0:
256,192,249814,1,0,0:0:0:0:
109,192,249814,1,0,0:0:0:0:
36,192,249897,1,0,0:0:0:0:
182,192,249897,1,0,0:0:0:0:
475,192,249897,1,0,0:0:0:0:
329,192,249897,1,0,0:0:0:0:
402,192,249981,1,0,0:0:0:0:
329,192,250064,1,0,0:0:0:0:
36,192,250064,1,0,0:0:0:0:
109,192,250064,1,0,0:0:0:0:
182,192,250147,1,0,0:0:0:0:
256,192,250231,1,0,0:0:0:0:
36,192,250231,1,0,0:0:0:0:
329,192,250231,1,0,0:0:0:0:
475,192,250231,1,0,0:0:0:0:
402,192,250231,1,0,0:0:0:0:
109,192,250314,1,0,0:0:0:0:
182,192,250314,1,0,0:0:0:0:
256,192,250397,1,0,0:0:0:0:
402,192,250397,1,0,0:0:0:0:
36,192,250397,1,0,0:0:0:0:
329,192,250481,1,0,0:0:0:0:
256,192,250564,1,0,0:0:0:0:
36,192,250564,1,0,0:0:0:0:
402,192,250564,1,0,0:0:0:0:
475,192,250564,1,0,0:0:0:0:
182,192,250647,1,0,0:0:0:0:
109,192,250647,1,0,0:0:0:0:
36,192,250731,1,0,0:0:0:0:
256,192,250731,1,0,0:0:0:0:
402,192,250731,1,0,0:0:0:0:
329,192,250814,1,0,0:0:0:0:
402,192,250897,1,0,0:0:0:0:
475,192,250897,1,0,0:0:0:0:
182,192,250897,1,0,0:0:0:0:
36,192,250897,1,0,0:0:0:0:
109,192,250897,1,0,0:0:0:0:
256,192,250981,1,0,0:0:0:0:
36,192,251064,1,0,0:0:0:0:
109,192,251064,1,0,0:0:0:0:
402,192,251064,1,0,0:0:0:0:
475,192,251064,1,0,0:0:0:0:
329,192,251147,1,0,0:0:0:0:
182,192,251147,1,0,0:0:0:0:
402,192,251231,1,0,0:0:0:0:
109,192,251231,1,0,0:0:0:0:
36,192,251231,1,0,0:0:0:0:
475,192,251231,1,0,0:0:0:0:
256,192,251231,1,0,0:0:0:0:
109,192,251564,1,0,0:0:0:0:
182,192,251564,1,0,0:0:0:0:
256,192,251564,1,0,0:0:0:0:
402,192,251564,1,0,0:0:0:0:
475,192,251564,1,0,0:0:0:0:
329,192,251564,1,0,0:0:0:0:
402,192,251897,1,0,0:0:0:0:
256,192,251897,1,0,0:0:0:0:
182,192,251897,1,0,0:0:0:0:
109,192,251897,1,0,0:0:0:0:
36,192,251897,1,0,0:0:0:0:
329,192,251897,1,0,0:0:0:0:
109,192,252231,1,0,0:0:0:0:
182,192,252231,1,0,0:0:0:0:
256,192,252231,1,0,0:0:0:0:
329,192,252231,1,0,0:0:0:0:
402,192,252231,1,0,0:0:0:0:
475,192,252231,1,0,0:0:0:0:
36,192,252564,1,0,0:0:0:0:
256,192,252564,1,0,0:0:0:0:
402,192,252564,1,0,0:0:0:0:
475,192,252564,1,0,0:0:0:0:
109,192,252564,1,0,0:0:0:0:
182,192,252647,1,0,0:0:0:0:
475,192,252731,1,0,0:0:0:0:
329,192,252731,1,0,0:0:0:0:
109,192,252731,1,0,0:0:0:0:
36,192,252731,1,0,0:0:0:0:
402,192,252814,1,0,0:0:0:0:
256,192,252897,1,0,0:0:0:0:
36,192,252897,1,0,0:0:0:0:
182,192,252897,1,0,0:0:0:0:
109,192,252897,1,0,0:0:0:0:
475,192,252897,1,0,0:0:0:0:
329,192,252981,1,0,0:0:0:0:
402,192,252981,1,0,0:0:0:0:
256,192,253064,1,0,0:0:0:0:
475,192,253064,1,0,0:0:0:0:
109,192,253064,1,0,0:0:0:0:
36,192,253064,1,0,0:0:0:0:
182,192,253147,1,0,0:0:0:0:
109,192,253231,1,0,0:0:0:0:
36,192,253231,1,0,0:0:0:0:
256,192,253231,1,0,0:0:0:0:
475,192,253231,1,0,0:0:0:0:
402,192,253314,1,0,0:0:0:0:
329,192,253314,1,0,0:0:0:0:
109,192,253397,1,0,0:0:0:0:
36,192,253397,1,0,0:0:0:0:
256,192,253397,1,0,0:0:0:0:
475,192,253397,1,0,0:0:0:0:
182,192,253481,1,0,0:0:0:0:
402,192,253564,1,0,0:0:0:0:
475,192,253564,1,0,0:0:0:0:
36,192,253564,1,0,0:0:0:0:
109,192,253564,1,0,0:0:0:0:
256,192,253564,1,0,0:0:0:0:
329,192,253647,1,0,0:0:0:0:
182,192,253731,1,0,0:0:0:0:
36,192,253731,1,0,0:0:0:0:
475,192,253731,1,0,0:0:0:0:
402,192,253731,1,0,0:0:0:0:
109,192,253814,1,0,0:0:0:0:
256,192,253814,1,0,0:0:0:0:
475,192,253897,1,0,0:0:0:0:
36,192,253897,1,0,0:0:0:0:
182,192,253897,1,0,0:0:0:0:
329,192,253897,1,0,0:0:0:0:
402,192,253981,1,0,0:0:0:0:
109,192,254064,1,0,0:0:0:0:
256,192,254064,1,0,0:0:0:0:
475,192,254064,1,0,0:0:0:0:
36,192,254064,1,0,0:0:0:0:
182,192,254147,1,0,0:0:0:0:
475,192,254231,1,0,0:0:0:0:
402,192,254231,1,0,0:0:0:0:
329,192,254231,1,0,0:0:0:0:
36,192,254231,1,0,0:0:0:0:
109,192,254231,1,0,0:0:0:0:
256,192,254314,1,0,0:0:0:0:
182,192,254314,1,0,0:0:0:0:
36,192,254397,1,0,0:0:0:0:
475,192,254397,1,0,0:0:0:0:
402,192,254397,1,0,0:0:0:0:
256,192,254481,1,0,0:0:0:0:
329,192,254481,1,0,0:0:0:0:
109,192,254564,1,0,0:0:0:0:
475,192,254564,1,0,0:0:0:0:
36,192,254564,1,0,0:0:0:0:
402,192,254564,1,0,0:0:0:0:
256,192,254647,1,0,0:0:0:0:
182,192,254647,1,0,0:0:0:0:
475,192,254731,1,0,0:0:0:0:
36,192,254731,1,0,0:0:0:0:
402,192,254731,1,0,0:0:0:0:
329,192,254814,1,0,0:0:0:0:
256,192,254814,1,0,0:0:0:0:
36,192,254897,1,0,0:0:0:0:
475,192,254897,1,0,0:0:0:0:
109,192,254897,1,0,0:0:0:0:
182,192,254897,1,0,0:0:0:0:
402,192,254897,1,0,0:0:0:0:
329,192,254981,1,0,0:0:0:0:
36,192,255064,1,0,0:0:0:0:
109,192,255064,1,0,0:0:0:0:
256,192,255064,1,0,0:0:0:0:
475,192,255064,1,0,0:0:0:0:
329,192,255147,1,0,0:0:0:0:
182,192,255147,1,0,0:0:0:0:
36,192,255231,1,0,0:0:0:0:
256,192,255231,1,0,0:0:0:0:
475,192,255231,1,0,0:0:0:0:
402,192,255231,1,0,0:0:0:0:
109,192,255314,1,0,0:0:0:0:
475,192,255397,1,0,0:0:0:0:
36,192,255397,1,0,0:0:0:0:
182,192,255397,1,0,0:0:0:0:
329,192,255397,1,0,0:0:0:0:
256,192,255481,1,0,0:0:0:0:
36,192,255564,1,0,0:0:0:0:
182,192,255564,1,0,0:0:0:0:
475,192,255564,1,0,0:0:0:0:
402,192,255564,1,0,0:0:0:0:
329,192,255647,1,0,0:0:0:0:
256,192,255647,1,0,0:0:0:0:
109,192,255731,1,0,0:0:0:0:
402,192,255731,1,0,0:0:0:0:
36,192,255731,1,0,0:0:0:0:
475,192,255731,1,0,0:0:0:0:
182,192,255814,1,0,0:0:0:0:
109,192,255897,1,0,0:0:0:0:
36,192,255897,1,0,0:0:0:0:
329,192,255897,1,0,0:0:0:0:
475,192,255897,1,0,0:0:0:0:
256,192,255981,1,0,0:0:0:0:
402,192,255981,1,0,0:0:0:0:
36,192,256064,1,0,0:0:0:0:
109,192,256064,1,0,0:0:0:0:
329,192,256064,1,0,0:0:0:0:
475,192,256064,1,0,0:0:0:0:
182,192,256147,1,0,0:0:0:0:
402,192,256231,1,0,0:0:0:0:
475,192,256231,1,0,0:0:0:0:
256,192,256231,1,0,0:0:0:0:
36,192,256231,1,0,0:0:0:0:
109,192,256231,1,0,0:0:0:0:
329,192,256314,1,0,0:0:0:0:
36,192,256397,1,0,0:0:0:0:
109,192,256397,1,0,0:0:0:0:
256,192,256397,1,0,0:0:0:0:
475,192,256397,1,0,0:0:0:0:
329,192,256481,1,0,0:0:0:0:
182,192,256481,1,0,0:0:0:0:
402,192,256564,1,0,0:0:0:0:
109,192,256564,1,0,0:0:0:0:
36,192,256564,1,0,0:0:0:0:
475,192,256564,1,0,0:0:0:0:
256,192,256564,1,0,0:0:0:0:
109,192,256897,1,0,0:0:0:0:
182,192,256897,1,0,0:0:0:0:
256,192,256897,1,0,0:0:0:0:
402,192,256897,1,0,0:0:0:0:
475,192,256897,1,0,0:0:0:0:
36,192,256897,1,0,0:0:0:0:
402,192,257231,1,0,0:0:0:0:
256,192,257231,1,0,0:0:0:0:
475,192,257231,1,0,0:0:0:0:
109,192,257231,1,0,0:0:0:0:
36,192,257231,1,0,0:0:0:0:
329,192,257231,1,0,0:0:0:0:
109,192,257564,1,0,0:0:0:0:
182,192,257564,1,0,0:0:0:0:
36,192,257564,1,0,0:0:0:0:
329,192,257564,1,0,0:0:0:0:
402,192,257564,1,0,0:0:0:0:
475,192,257564,1,0,0:0:0:0:
402,192,257897,128,0,259064:0:0:0:0:
475,192,257897,128,0,259064:0:0:0:0:
256,192,257897,128,0,259064:0:0:0:0:
109,192,257897,128,0,259064:0:0:0:0:
36,192,257897,128,0,259064:0:0:0:0:
182,192,259064,128,0,259286:0:0:0:0:
402,192,259286,128,0,259619:0:0:0:0:
109,192,259286,1,0,0:0:0:0:
36,192,259286,1,0,0:0:0:0:
109,192,259619,1,0,0:0:0:0:
256,192,259619,128,0,259730:0:0:0:0:
475,192,259619,1,0,0:0:0:0:
329,192,259952,128,0,260064:0:0:0:0:
36,192,259952,1,0,0:0:0:0:
182,192,260064,1,0,0:0:0:0:
256,192,260286,128,0,260730:0:0:0:0:
109,192,260730,128,0,261063:0:0:0:0:
329,192,260730,1,0,0:0:0:0:
475,192,260730,1,0,0:0:0:0:
182,192,261063,128,0,261285:0:0:0:0:
402,192,261063,1,0,0:0:0:0:
36,192,261285,128,0,261396:0:0:0:0:
402,192,261285,1,0,0:0:0:0:
329,192,261396,1,0,0:0:0:0:
182,192,261396,1,0,0:0:0:0:
256,192,261618,128,0,261730:0:0:0:0:
402,192,262007,128,0,262730:0:0:0:0:
36,192,262007,1,0,0:0:0:0:
182,192,262007,1,0,0:0:0:0:
329,192,262118,1,0,0:0:0:0:
109,192,262341,1,0,0:0:0:0:
182,192,262452,1,0,0:0:0:0:
256,192,262730,1,0,0:0:0:0:
36,192,262730,128,0,263118:0:0:0:0:
329,192,262841,1,0,0:0:0:0:
475,192,262841,1,0,0:0:0:0:
182,192,263118,128,0,263230:0:0:0:0:
329,192,263230,128,0,263452:0:0:0:0:
402,192,263452,128,0,263618:0:0:0:0:
475,192,263618,128,0,264451:0:0:0:0:
256,192,263618,1,0,0:0:0:0:
109,192,263618,1,0,0:0:0:0:
36,192,263618,1,0,0:0:0:0:
182,192,263618,1,0,0:0:0:0:
182,192,264618,128,0,264840:0:0:0:0:
256,192,264840,128,0,265062:0:0:0:0:
109,192,265062,1,0,0:0:0:0:
329,192,265062,128,0,265950:0:0:0:0:
402,192,265062,1,0,0:0:0:0:
36,192,265062,1,0,0:0:0:0:
475,192,265062,1,0,0:0:0:0:
36,192,266339,128,0,266562:0:0:0:0:
182,192,266562,128,0,266784:0:0:0:0:
256,192,266784,128,0,267950:0:0:0:0:
109,192,266784,1,0,0:0:0:0:
36,192,266784,1,0,0:0:0:0:
402,192,266784,1,0,0:0:0:0:
475,192,266784,1,0,0:0:0:0:
402,192,267950,128,0,268450:0:0:0:0:
109,192,268450,128,0,269005:0:0:0:0:
329,192,269005,128,0,269616:0:0:0:0:
256,192,269005,1,0,0:0:0:0:
36,192,269005,1,0,0:0:0:0:
475,192,269005,1,0,0:0:0:0:
182,192,269616,128,0,270949:0:0:0:0:
475,192,270227,128,0,274949:0:0:0:0:
36,192,270227,128,0,270949:0:0:0:0:
329,192,270949,128,0,275004:0:0:0:0:
36,192,271560,1,0,0:0:0:0:
109,192,271643,1,0,0:0:0:0:
182,192,271727,128,0,275060:0:0:0:0:
109,192,273393,128,0,273504:0:0:0:0:
256,192,273449,128,0,273560:0:0:0:0:
475,192,275060,128,0,275185:0:0:0:0:
329,192,275102,128,0,275227:0:0:0:0:
36,192,275102,128,0,275185:0:0:0:0:
109,192,275143,128,0,275227:0:0:0:0:
182,192,275185,128,0,275268:0:0:0:0:
256,192,275227,128,0,275310:0:0:0:0:
