osu file format v14

[General]
AudioFilename: PPBQ.ogg
AudioLeadIn: 0
PreviewTime: 62888
Countdown: 0
SampleSet: Soft
StackLeniency: 0.7
Mode: 3
LetterboxInBreaks: 0
SpecialStyle: 0
WidescreenStoryboard: 0

[Editor]
DistanceSpacing: 0.8
BeatDivisor: 4
GridSize: 32
TimelineZoom: 1.5

[Metadata]
Title:PPBQ
TitleUnicode:PPBQ
Artist:ponkichi
ArtistUnicode:ぽんきち
Creator:AutotelicBrown
Version:Meccha Emoi...
Source:BOFXVI
Tags:パリピちょっと黙って party people be quiet THE BMS OF FIGHTERS XVI -NEO DYSTOPIA- TEQUILA SUNSET カクテルラウンジこゆぽ Cocktail Lounge KoYuPo warukichi ponkichi_minoura Video Game Electronic Instrumental
BeatmapID:3177095
BeatmapSetID:1555101

[Difficulty]
HPDrainRate:8.5
CircleSize:4
OverallDifficulty:8.5
ApproachRate:5
SliderMultiplier:1.4
SliderTickRate:1

[Events]
//Background and Video events
0,0,"bg.png",0,0
Video,534,"BGA.mp4"
//Break Periods
//Storyboard Layer 0 (Background)
//Storyboard Layer 1 (Fail)
//Storyboard Layer 2 (Pass)
//Storyboard Layer 3 (Foreground)
//Storyboard Layer 4 (Overlay)
//Storyboard Sound Samples
Sample,26177,0,"Clap Drum.wav",15
Sample,28546,0,"Clap Drum.wav",15
Sample,32493,0,"Clap Drum.wav",15
Sample,34862,0,"Clap Drum.wav",15
Sample,38809,0,"Clap Drum.wav",15
Sample,39598,0,"Clap Drum.wav",15
Sample,41177,0,"Clap Drum.wav",15
Sample,41967,0,"Clap Drum.wav",15
Sample,42756,0,"Clap Drum.wav",15
Sample,43546,0,"Clap Drum.wav",15
Sample,44335,0,"Clap Drum.wav",15
Sample,45125,0,"Clap Drum.wav",15
Sample,47493,0,"Clap Drum.wav",15
Sample,48283,0,"Clap Drum.wav",15
Sample,49072,0,"Clap Drum.wav",15
Sample,55881,0,"Timbale1.wav",35
Sample,56079,0,"Timbale2.wav",35
Sample,56177,0,"Timbale1.wav",35
Sample,56473,0,"Timbale2.wav",35
Sample,77394,0,"Timbale1.wav",35
Sample,85585,0,"tom01.wav",25
Sample,98217,0,"tom01.wav",25
Sample,106309,0,"Timbale2.wav",35
Sample,106704,0,"Timbale2.wav",35

[TimingPoints]
520,394.736842,4,2,1,40,1,0
13151,-100,4,2,1,50,0,1
24204,-100,4,2,1,30,0,0
38414,-100,4,2,1,40,0,0
62888,-100,4,2,1,50,0,1
77888,-100,4,2,1,40,0,0
113414,-100,4,2,1,50,0,1
131572,-100,4,2,1,50,0,0

[HitObjects]
64,192,520,5,2,0:0:0:0:
192,192,520,1,4,0:0:0:0:
448,192,520,1,0,0:0:0:0:
320,192,816,1,0,0:0:0:0:
320,192,1112,1,0,0:0:0:0:
192,192,1408,1,0,0:0:0:0:
64,192,1704,1,2,0:0:0:0:
192,192,1704,1,0,0:0:0:0:
320,192,1769,1,2,0:0:0:0:
64,192,1835,1,2,0:0:0:0:
448,192,1901,1,2,0:0:0:0:
192,192,2000,1,2,0:0:0:0:
64,192,2098,1,2,0:0:0:0:
320,192,2098,1,4,0:0:0:0:
448,192,2098,1,0,0:0:0:0:
192,192,2394,1,0,0:0:0:0:
320,192,2691,1,0,0:0:0:0:
448,192,2987,1,0,0:0:0:0:
192,192,3283,1,2,0:0:0:0:
320,192,3283,1,0,0:0:0:0:
64,192,3348,1,2,0:0:0:0:
192,192,3414,1,2,0:0:0:0:
448,192,3480,1,2,0:0:0:0:
320,192,3579,1,2,0:0:0:0:
64,192,3677,1,4,0:0:0:0:
192,192,3677,1,2,0:0:0:0:
448,192,3677,1,0,0:0:0:0:
320,192,3973,1,0,0:0:0:0:
320,192,4269,1,0,0:0:0:0:
192,192,4566,1,0,0:0:0:0:
64,192,4862,1,2,0:0:0:0:
192,192,4862,1,4,0:0:0:0:
320,192,4927,1,2,0:0:0:0:
64,192,4993,1,2,0:0:0:0:
192,192,5059,1,2,0:0:0:0:
320,192,5059,1,4,0:0:0:0:
448,192,5125,1,0,0:0:0:0:
64,192,5191,1,0,0:0:0:0:
320,192,5256,1,0,0:0:0:0:
192,192,5322,1,0,0:0:0:0:
448,192,5388,1,0,0:0:0:0:
64,192,5454,1,0,0:0:0:0:
192,192,5519,1,0,0:0:0:0:
320,192,5585,1,0,0:0:0:0:
448,192,5651,1,0,0:0:0:0:
64,192,5717,1,0,0:0:0:0:
192,192,5783,1,0,0:0:0:0:
320,192,5848,1,2,0:0:0:0:
448,192,5848,1,4,0:0:0:0:
192,192,5914,1,0,0:0:0:0:
64,192,5980,1,0,0:0:0:0:
448,192,6046,1,0,0:0:0:0:
192,192,6112,1,0,0:0:0:0:
320,192,6177,1,0,0:0:0:0:
64,192,6243,1,0,0:0:0:0:
448,192,6309,1,0,0:0:0:0:
320,192,6375,1,0,0:0:0:0:
192,192,6441,1,0,0:0:0:0:
64,192,6506,1,0,0:0:0:0:
448,192,6539,1,0,0:0:0:0:
320,192,6572,1,0,0:0:0:0:
64,192,6638,1,2,0:0:0:0:
192,192,6638,1,0,0:0:0:0:
320,192,6737,1,2,0:0:0:0:
448,192,6737,1,0,0:0:0:0:
64,192,6835,1,2,0:0:0:0:
192,192,6835,1,4,0:0:0:0:
448,192,6835,1,8,0:0:0:0:
320,192,7131,1,0,0:0:0:0:
64,192,7230,1,10,0:0:0:0:
320,192,7427,1,0,0:0:0:0:
448,192,7625,1,10,0:0:0:0:
192,192,7723,1,0,0:0:0:0:
64,192,7921,1,2,0:0:0:0:
64,192,8019,1,8,0:0:0:0:
192,192,8019,1,0,0:0:0:0:
448,192,8217,1,10,0:0:0:0:
64,192,8414,1,2,0:0:0:0:
320,192,8414,1,8,0:0:0:0:
192,192,8710,1,0,0:0:0:0:
448,192,8809,1,10,0:0:0:0:
320,192,9006,1,0,0:0:0:0:
64,192,9204,1,10,0:0:0:0:
448,192,9302,1,0,0:0:0:0:
192,192,9500,1,2,0:0:0:0:
192,192,9598,1,8,0:0:0:0:
320,192,9598,1,0,0:0:0:0:
320,192,9796,1,10,0:0:0:0:
64,192,9993,1,8,0:0:0:0:
192,192,9993,1,2,0:0:0:0:
448,192,9993,1,0,0:0:0:0:
64,192,10191,1,8,0:0:0:0:
320,192,10289,1,0,0:0:0:0:
64,192,10388,1,10,0:0:0:0:
320,192,10585,1,8,0:0:0:0:
448,192,10783,1,10,0:0:0:0:
192,192,10881,1,0,0:0:0:0:
448,192,10980,1,8,0:0:0:0:
320,192,11079,1,2,0:0:0:0:
192,192,11177,1,8,0:0:0:0:
448,192,11177,1,0,0:0:0:0:
64,192,11375,1,8,0:0:0:0:
192,192,11375,1,2,0:0:0:0:
320,192,11375,1,4,0:0:0:0:
448,192,11769,1,8,0:0:0:0:
192,192,11868,1,8,0:0:0:0:
320,192,11967,1,10,0:0:0:0:
64,192,12066,1,8,0:0:0:0:
192,192,12164,1,8,0:0:0:0:
448,192,12164,1,0,0:0:0:0:
64,192,12263,1,8,0:0:0:0:
320,192,12362,1,10,0:0:0:0:
448,192,12460,1,8,0:0:0:0:
192,192,12559,1,8,0:0:0:0:
192,192,12658,1,10,0:0:0:0:
320,192,12756,1,8,0:0:0:0:
448,192,12756,1,0,0:0:0:0:
320,192,12855,1,0,0:0:0:0:
64,192,12954,1,10,0:0:0:0:
448,192,13019,1,8,0:0:0:0:
64,192,13052,1,0,0:0:0:0:
320,192,13085,1,8,0:0:0:0:
64,192,13151,1,2,0:0:0:0:
192,192,13151,1,8,0:0:0:0:
448,192,13151,1,4,0:0:0:0:
64,192,13447,1,0,0:0:0:0:
320,192,13546,1,10,0:0:0:0:
64,192,13743,1,8,0:0:0:0:
448,192,13743,1,0,0:0:0:0:
448,192,13842,1,0,0:0:0:0:
192,192,13941,1,8,0:0:0:0:
448,192,13941,1,2,0:0:0:0:
320,192,14138,1,8,0:0:0:0:
64,192,14237,1,2,0:0:0:0:
192,192,14237,1,0,0:0:0:0:
448,192,14335,1,8,0:0:0:0:
64,192,14434,1,0,0:0:0:0:
192,192,14533,1,8,0:0:0:0:
320,192,14533,1,2,0:0:0:0:
64,192,14730,1,2,0:0:0:0:
320,192,14730,1,8,0:0:0:0:
448,192,14730,1,0,0:0:0:0:
64,192,15026,1,0,0:0:0:0:
192,192,15125,1,10,0:0:0:0:
64,192,15322,1,8,0:0:0:0:
448,192,15322,1,0,0:0:0:0:
64,192,15421,1,0,0:0:0:0:
448,192,15421,1,0,0:0:0:0:
192,192,15519,1,8,0:0:0:0:
448,192,15519,1,2,0:0:0:0:
64,192,15618,1,0,0:0:0:0:
320,192,15717,1,8,0:0:0:0:
64,192,15816,1,2,0:0:0:0:
448,192,15816,1,0,0:0:0:0:
192,192,15914,1,8,0:0:0:0:
64,192,16013,1,0,0:0:0:0:
448,192,16013,1,0,0:0:0:0:
320,192,16112,1,10,0:0:0:0:
64,192,16210,1,0,0:0:0:0:
64,192,16309,1,8,0:0:0:0:
192,192,16309,1,2,0:0:0:0:
448,192,16309,1,0,0:0:0:0:
64,192,16605,1,0,0:0:0:0:
320,192,16704,1,10,0:0:0:0:
64,192,16901,1,8,0:0:0:0:
448,192,16901,1,0,0:0:0:0:
448,192,17000,1,0,0:0:0:0:
192,192,17098,1,2,0:0:0:0:
448,192,17098,1,8,0:0:0:0:
320,192,17296,1,8,0:0:0:0:
64,192,17394,1,2,0:0:0:0:
192,192,17394,1,0,0:0:0:0:
448,192,17493,1,8,0:0:0:0:
64,192,17592,1,0,0:0:0:0:
192,192,17691,1,2,0:0:0:0:
320,192,17691,1,8,0:0:0:0:
64,192,17888,1,8,0:0:0:0:
320,192,17888,1,2,0:0:0:0:
448,192,17888,1,0,0:0:0:0:
192,192,17987,1,0,0:0:0:0:
448,192,18085,1,0,0:0:0:0:
64,192,18184,1,8,0:0:0:0:
320,192,18184,1,2,0:0:0:0:
192,192,18283,1,0,0:0:0:0:
64,192,18381,1,0,0:0:0:0:
192,192,18480,1,2,0:0:0:0:
448,192,18480,1,8,0:0:0:0:
320,192,18579,1,0,0:0:0:0:
64,192,18677,1,8,0:0:0:0:
192,192,18677,1,2,0:0:0:0:
448,192,18677,1,0,0:0:0:0:
64,192,18776,1,2,0:0:0:0:
320,192,18776,1,8,0:0:0:0:
448,192,18875,1,0,0:0:0:0:
64,192,18973,1,8,0:0:0:0:
192,192,18973,1,2,0:0:0:0:
320,192,19072,1,0,0:0:0:0:
192,192,19171,1,0,0:0:0:0:
64,192,19269,1,2,0:0:0:0:
448,192,19269,1,8,0:0:0:0:
320,192,19368,1,0,0:0:0:0:
64,192,19467,1,8,0:0:0:0:
192,192,19467,1,2,0:0:0:0:
448,192,19467,1,4,0:0:0:0:
192,192,19664,1,8,0:0:0:0:
320,192,19664,1,0,0:0:0:0:
320,192,19763,1,0,0:0:0:0:
64,192,19862,1,8,0:0:0:0:
320,192,19862,1,2,0:0:0:0:
192,192,20059,1,8,0:0:0:0:
448,192,20059,1,0,0:0:0:0:
192,192,20158,1,0,0:0:0:0:
64,192,20256,1,8,0:0:0:0:
320,192,20256,1,2,0:0:0:0:
448,192,20355,1,0,0:0:0:0:
192,192,20454,1,8,0:0:0:0:
448,192,20454,1,0,0:0:0:0:
64,192,20651,1,8,0:0:0:0:
192,192,20651,1,0,0:0:0:0:
64,192,20750,1,0,0:0:0:0:
320,192,20848,1,8,0:0:0:0:
448,192,20848,1,2,0:0:0:0:
320,192,20947,1,0,0:0:0:0:
64,192,21046,1,2,0:0:0:0:
192,192,21046,1,8,0:0:0:0:
448,192,21046,1,0,0:0:0:0:
192,192,21243,1,8,0:0:0:0:
320,192,21243,1,0,0:0:0:0:
320,192,21342,1,0,0:0:0:0:
64,192,21441,1,2,0:0:0:0:
320,192,21441,1,8,0:0:0:0:
192,192,21638,1,8,0:0:0:0:
448,192,21638,1,0,0:0:0:0:
192,192,21737,1,0,0:0:0:0:
64,192,21835,1,8,0:0:0:0:
320,192,21835,1,2,0:0:0:0:
448,192,21934,1,0,0:0:0:0:
192,192,22033,1,8,0:0:0:0:
448,192,22033,1,0,0:0:0:0:
64,192,22230,1,8,0:0:0:0:
192,192,22230,1,0,0:0:0:0:
64,192,22329,1,0,0:0:0:0:
320,192,22427,1,2,0:0:0:0:
448,192,22427,1,8,0:0:0:0:
320,192,22526,1,0,0:0:0:0:
64,192,22625,1,8,0:0:0:0:
192,192,22625,1,2,0:0:0:0:
448,192,22625,1,0,0:0:0:0:
192,192,22723,1,8,0:0:0:0:
64,192,22822,1,8,0:0:0:0:
320,192,22822,1,2,0:0:0:0:
320,192,22921,1,8,0:0:0:0:
64,192,23019,1,8,0:0:0:0:
448,192,23019,1,2,0:0:0:0:
64,192,23118,1,8,0:0:0:0:
320,192,23217,1,8,0:0:0:0:
448,192,23217,1,2,0:0:0:0:
448,192,23316,1,8,0:0:0:0:
64,192,23414,1,8,0:0:0:0:
192,192,23414,1,2,0:0:0:0:
320,192,23480,1,8,0:0:0:0:
448,192,23513,1,2,0:0:0:0:
64,192,23546,1,8,0:0:0:0:
192,192,23612,1,8,0:0:0:0:
320,192,23612,1,2,0:0:0:0:
64,192,23710,1,8,0:0:0:0:
448,192,23710,1,2,0:0:0:0:
192,192,23809,1,8,0:0:0:0:
320,192,23809,1,2,0:0:0:0:
448,192,23875,1,8,0:0:0:0:
64,192,23908,1,2,0:0:0:0:
192,192,23941,1,8,0:0:0:0:
320,192,24006,1,8,0:0:0:0:
448,192,24006,1,2,0:0:0:0:
64,192,24105,1,8,0:0:0:0:
192,192,24105,1,2,0:0:0:0:
448,192,24228,1,0,0:0:0:0:
64,192,24401,1,0,0:0:0:0:
320,192,24598,1,0,0:0:0:0:
192,192,24845,1,0,0:0:0:0:
448,192,25018,1,0,0:0:0:0:
320,192,25191,128,0,25585:0:0:0:0:
64,192,25783,1,2,0:0:0:0:
192,192,25783,1,4,0:0:0:0:
448,192,25783,1,0,0:0:0:0:
320,192,25881,1,0,0:0:0:0:
64,192,25980,1,0,0:0:0:0:
192,192,26177,1,2,0:0:0:0:
320,192,26473,1,0,0:0:0:0:
448,192,26769,1,0,0:0:0:0:
320,192,27164,128,0,27362:0:0:0:0:
64,192,27954,1,0,0:0:0:0:
192,192,28052,1,0,0:0:0:0:
64,192,28151,1,2,0:0:0:0:
320,192,28447,1,0,0:0:0:0:
448,192,28496,1,0,0:0:0:0:
192,192,28546,1,2,0:0:0:0:
64,192,28743,1,0,0:0:0:0:
320,192,28941,1,2,0:0:0:0:
448,192,29237,1,0,0:0:0:0:
64,192,29533,128,0,29730:0:0:0:0:
320,192,29927,1,0,0:0:0:0:
448,192,30223,1,0,0:0:0:0:
192,192,30519,1,2,0:0:0:0:
320,192,30816,1,0,0:0:0:0:
64,192,31112,1,0,0:0:0:0:
64,192,31506,1,0,0:0:0:0:
448,192,31802,1,0,0:0:0:0:
192,192,32098,1,2,0:0:0:0:
320,192,32197,1,0,0:0:0:0:
64,192,32296,1,0,0:0:0:0:
192,192,32493,1,2,0:0:0:0:
320,192,32789,1,0,0:0:0:0:
448,192,33085,1,0,0:0:0:0:
320,192,33480,128,0,33677:0:0:0:0:
64,192,34269,1,0,0:0:0:0:
192,192,34368,1,0,0:0:0:0:
64,192,34467,1,2,0:0:0:0:
320,192,34763,1,0,0:0:0:0:
448,192,34812,1,0,0:0:0:0:
192,192,34862,1,2,0:0:0:0:
64,192,35059,1,0,0:0:0:0:
320,192,35256,1,2,0:0:0:0:
448,192,35552,1,0,0:0:0:0:
192,192,35848,128,0,36046:0:0:0:0:
448,192,36243,1,0,0:0:0:0:
64,192,36539,1,0,0:0:0:0:
192,192,36835,1,2,0:0:0:0:
320,192,37131,1,0,0:0:0:0:
448,192,37427,1,0,0:0:0:0:
192,192,37822,1,0,0:0:0:0:
320,192,38118,1,0,0:0:0:0:
64,192,38414,1,2,0:0:0:0:
448,192,38414,1,0,0:0:0:30:soft-hitfinish.wav
192,192,38809,1,2,0:0:0:0:
64,192,39204,1,2,0:0:0:0:
320,192,39204,1,0,0:0:0:0:
192,192,39500,1,0,0:0:0:0:
448,192,39598,1,2,0:0:0:0:
64,192,39796,1,0,0:0:0:0:
192,192,39993,1,2,0:0:0:0:
320,192,39993,1,0,0:0:0:0:
192,192,40388,1,2,0:0:0:0:
448,192,40388,1,0,0:0:0:15:Clap Drum.wav
64,192,40783,1,2,0:0:0:0:
320,192,40783,1,0,0:0:0:0:
448,192,41079,1,0,0:0:0:0:
192,192,41177,1,2,0:0:0:0:
320,192,41375,1,0,0:0:0:0:
64,192,41572,1,2,0:0:0:0:
448,192,41572,1,0,0:0:0:0:
192,192,41868,1,0,0:0:0:0:
320,192,41967,1,2,0:0:0:0:
64,192,42164,1,0,0:0:0:0:
448,192,42362,1,2,0:0:0:0:
192,192,42559,1,0,0:0:0:0:
320,192,42756,1,2,0:0:0:0:
448,192,42954,1,0,0:0:0:0:
320,192,43052,1,0,0:0:0:0:
64,192,43151,1,2,0:0:0:0:
192,192,43151,1,0,0:0:0:0:
320,192,43546,1,2,0:0:0:0:
192,192,43743,1,0,0:0:0:0:
320,192,43842,1,0,0:0:0:0:
64,192,43941,1,2,0:0:0:0:
448,192,43941,1,0,0:0:0:0:
192,192,44237,1,0,0:0:0:0:
320,192,44335,1,2,0:0:0:0:
64,192,44533,1,0,0:0:0:0:
192,192,44730,1,2,0:0:0:0:
448,192,44730,1,0,0:0:0:0:
320,192,45026,1,0,0:0:0:0:
64,192,45125,1,2,0:0:0:0:
448,192,45322,1,0,0:0:0:0:
192,192,45519,1,2,0:0:0:0:
320,192,45618,1,0,0:0:0:0:
64,192,45914,1,2,0:0:0:0:
192,192,45914,1,0,0:0:0:15:Clap Drum.wav
320,192,46112,1,0,0:0:0:0:
448,192,46210,1,0,0:0:0:0:
192,192,46309,1,2,0:0:0:0:
320,192,46408,1,0,0:0:0:0:
64,192,46506,1,0,0:0:0:0:
448,192,46605,1,0,0:0:0:0:
192,192,46704,1,2,0:0:0:0:
320,192,46704,1,0,0:0:0:15:Clap Drum.wav
448,192,46802,1,0,0:0:0:0:
64,192,46901,1,0,0:0:0:0:
192,192,47000,1,0,0:0:0:0:
320,192,47098,1,2,0:0:0:0:
448,192,47098,1,0,0:0:0:0:
192,192,47394,1,0,0:0:0:0:
448,192,47493,1,2,0:0:0:0:
64,192,47691,1,0,0:0:0:0:
64,192,47888,1,2,0:0:0:0:
320,192,47888,1,0,0:0:0:0:
192,192,48085,1,0,0:0:0:0:
320,192,48151,1,0,0:0:0:0:
192,192,48217,1,0,0:0:0:0:
320,192,48283,1,2,0:0:0:0:
192,192,48348,1,0,0:0:0:0:
320,192,48414,1,0,0:0:0:0:
192,192,48480,1,0,0:0:0:0:
320,192,48546,1,0,0:0:0:0:
192,192,48612,1,0,0:0:0:0:
320,192,48677,1,2,0:0:0:0:
192,192,48743,1,0,0:0:0:0:
320,192,48809,1,0,0:0:0:0:
192,192,48875,1,0,0:0:0:0:
320,192,48941,1,0,0:0:0:0:
192,192,49006,1,0,0:0:0:0:
320,192,49072,1,2,0:0:0:0:
192,192,49138,1,0,0:0:0:0:
320,192,49204,1,0,0:0:0:0:
64,192,49269,1,10,0:0:0:0:
448,192,49269,1,0,0:0:0:50:soft-hitfinish.wav
320,192,50158,1,0,0:0:0:25:tom01.wav
192,192,50207,1,0,0:0:0:25:tom01.wav
320,192,50256,1,2,0:0:0:0:
448,192,50256,1,0,0:0:0:25:tom01.wav
64,192,50355,1,0,0:0:0:25:tom01.wav
192,192,50454,1,0,0:0:0:25:tom02.wav
64,192,50552,1,2,0:0:0:0:
320,192,50552,1,0,0:0:0:25:tom03.wav
64,192,50848,1,2,0:0:0:0:
192,192,50848,1,8,0:0:0:0:
448,192,50848,1,4,0:0:0:0:
320,192,51144,1,8,0:0:0:0:
192,192,51194,1,8,0:0:0:0:
448,192,51243,1,8,0:0:0:0:
64,192,51309,1,0,0:0:0:0:
192,192,51342,1,8,0:0:0:0:
320,192,51375,1,0,0:0:0:0:
448,192,51441,1,0,0:0:0:25:tom01.wav
64,192,51506,1,0,0:0:0:0:
320,192,51539,1,0,0:0:0:25:tom01.wav
192,192,51572,1,0,0:0:0:0:
448,192,51638,1,0,0:0:0:25:tom02.wav
64,192,51704,1,0,0:0:0:0:
192,192,51737,1,0,0:0:0:25:tom03.wav
320,192,51769,1,0,0:0:0:0:
64,192,51835,1,10,0:0:0:0:
448,192,51835,1,4,0:0:0:0:
192,192,52131,1,2,0:0:0:0:
320,192,52131,1,8,0:0:0:0:
448,192,52131,1,4,0:0:0:0:
64,192,52427,1,8,0:0:0:0:
320,192,52427,1,2,0:0:0:0:
448,192,52427,1,4,0:0:0:0:
192,192,52723,1,8,0:0:0:0:
320,192,52773,1,8,0:0:0:0:
64,192,52822,1,8,0:0:0:0:
448,192,52888,1,0,0:0:0:0:
320,192,52921,1,8,0:0:0:0:
192,192,52954,1,0,0:0:0:0:
64,192,53019,1,0,0:0:0:25:tom01.wav
448,192,53085,1,0,0:0:0:0:
192,192,53118,1,0,0:0:0:25:tom01.wav
320,192,53151,1,0,0:0:0:0:
64,192,53217,1,0,0:0:0:25:tom02.wav
448,192,53283,1,0,0:0:0:0:
320,192,53316,1,0,0:0:0:25:tom03.wav
192,192,53348,1,0,0:0:0:0:
64,192,53414,1,10,0:0:0:0:
448,192,53414,1,4,0:0:0:0:
64,192,53710,1,2,0:0:0:0:
192,192,53710,1,8,0:0:0:0:
320,192,53710,1,4,0:0:0:0:
64,192,54006,1,8,0:0:0:0:
192,192,54006,1,2,0:0:0:0:
448,192,54006,1,4,0:0:0:0:
320,192,54302,1,0,0:0:0:25:tom01.wav
64,192,54352,1,0,0:0:0:25:tom01.wav
448,192,54401,1,0,0:0:0:25:tom01.wav
192,192,54467,1,0,0:0:0:0:
320,192,54500,1,0,0:0:0:25:tom01.wav
448,192,54533,1,0,0:0:0:0:
64,192,54598,1,0,0:0:0:25:tom02.wav
192,192,54664,1,0,0:0:0:0:
320,192,54697,1,0,0:0:0:25:tom02.wav
64,192,54730,1,0,0:0:0:0:
448,192,54796,1,0,0:0:0:25:tom03.wav
192,192,54862,1,0,0:0:0:0:
320,192,54894,1,0,0:0:0:25:tom04.wav
64,192,54927,1,0,0:0:0:0:
192,192,54993,1,10,0:0:0:0:
448,192,54993,1,4,0:0:0:0:
320,192,55191,1,0,0:0:0:0:
64,192,55289,1,2,0:0:0:0:
192,192,55289,1,8,0:0:0:0:
448,192,55289,1,4,0:0:0:0:
64,192,55585,1,8,0:0:0:0:
320,192,55585,1,2,0:0:0:0:
448,192,55585,1,4,0:0:0:0:
192,192,55881,1,8,0:0:0:0:
64,192,55931,1,8,0:0:0:0:
320,192,55980,1,8,0:0:0:0:
192,192,56046,1,0,0:0:0:0:
448,192,56079,1,8,0:0:0:0:
320,192,56112,1,0,0:0:0:0:
64,192,56177,1,8,0:0:0:0:
192,192,56243,1,8,0:0:0:0:
448,192,56276,1,0,0:0:0:35:Timbale1.wav
64,192,56309,1,8,0:0:0:0:
320,192,56375,1,8,0:0:0:0:
192,192,56441,1,0,0:0:0:0:
448,192,56473,1,8,0:0:0:0:
320,192,56506,1,0,0:0:0:0:
64,192,56572,1,10,0:0:0:0:
192,192,56572,1,4,0:0:0:0:
64,192,56868,1,2,0:0:0:0:
192,192,56868,1,8,0:0:0:0:
320,192,56868,1,4,0:0:0:0:
64,192,57164,1,8,0:0:0:0:
192,192,57164,1,2,0:0:0:0:
448,192,57164,1,4,0:0:0:0:
320,192,57460,1,8,0:0:0:0:
192,192,57510,1,8,0:0:0:0:
448,192,57559,1,8,0:0:0:0:
64,192,57625,1,0,0:0:0:0:
192,192,57658,1,8,0:0:0:0:
320,192,57691,1,0,0:0:0:0:
448,192,57756,1,0,0:0:0:25:tom01.wav
64,192,57822,1,0,0:0:0:0:
320,192,57855,1,0,0:0:0:25:tom01.wav
192,192,57888,1,0,0:0:0:0:
448,192,57954,1,0,0:0:0:25:tom02.wav
64,192,58019,1,0,0:0:0:0:
192,192,58052,1,0,0:0:0:25:tom03.wav
320,192,58085,1,0,0:0:0:0:
64,192,58151,1,12,0:0:0:0:
448,192,58151,1,2,0:0:0:0:
192,192,58447,1,4,0:0:0:0:
320,192,58447,1,8,0:0:0:0:
448,192,58447,1,2,0:0:0:0:
64,192,58743,1,4,0:0:0:0:
320,192,58743,1,2,0:0:0:0:
448,192,58743,1,8,0:0:0:0:
192,192,59039,1,8,0:0:0:0:
320,192,59089,1,8,0:0:0:0:
64,192,59138,1,8,0:0:0:0:
448,192,59204,1,0,0:0:0:0:
320,192,59237,1,8,0:0:0:0:
192,192,59269,1,0,0:0:0:0:
64,192,59335,1,0,0:0:0:25:tom01.wav
448,192,59401,1,0,0:0:0:0:
192,192,59434,1,0,0:0:0:25:tom01.wav
320,192,59467,1,0,0:0:0:0:
64,192,59533,1,0,0:0:0:25:tom02.wav
448,192,59598,1,0,0:0:0:0:
320,192,59631,1,0,0:0:0:25:tom03.wav
192,192,59664,1,0,0:0:0:0:
64,192,59730,1,10,0:0:0:0:
448,192,59730,1,4,0:0:0:0:
320,192,59927,1,0,0:0:0:0:
64,192,60026,1,2,0:0:0:0:
192,192,60026,1,8,0:0:0:0:
448,192,60026,1,4,0:0:0:0:
64,192,60322,1,8,0:0:0:0:
192,192,60322,1,2,0:0:0:0:
320,192,60322,1,4,0:0:0:0:
320,192,60651,1,0,0:0:0:25:Timbale2.wav
64,192,60684,1,0,0:0:0:25:Timbale1.wav
448,192,60717,1,0,0:0:0:0:
192,192,60783,1,0,0:0:0:25:Timbale1.wav
320,192,60848,1,0,0:0:0:0:
64,192,60914,1,0,0:0:0:25:Timbale1.wav
192,192,60980,1,0,0:0:0:0:
448,192,61046,1,0,0:0:0:25:Timbale2.wav
64,192,61112,1,0,0:0:0:0:
320,192,61177,1,0,0:0:0:25:Timbale2.wav
192,192,61243,1,0,0:0:0:0:
64,192,61309,1,0,0:0:0:25:Timbale2.wav
448,192,61375,1,0,0:0:0:0:
320,192,61441,1,0,0:0:0:25:Timbale3.wav
192,192,61506,1,0,0:0:0:0:
448,192,61572,1,0,0:0:0:25:Timbale3.wav
64,192,61638,1,0,0:0:0:0:
320,192,61704,1,0,0:0:0:25:Timbale3.wav
192,192,61769,1,0,0:0:0:0:
64,192,61835,1,0,0:0:0:0:
320,192,61901,1,2,0:0:0:0:
448,192,61901,1,8,0:0:0:0:
320,192,62000,1,2,0:0:0:0:
448,192,62000,1,8,0:0:0:0:
64,192,62888,1,2,0:0:0:0:
192,192,62888,1,8,0:0:0:0:
448,192,62888,1,0,0:0:0:0:
64,192,62987,1,2,0:0:0:0:
192,192,62987,1,8,0:0:0:0:
448,192,62987,1,0,0:0:0:0:
64,192,63283,1,8,0:0:0:0:
320,192,63283,1,2,0:0:0:0:
448,192,63283,1,0,0:0:0:0:
64,192,63381,1,8,0:0:0:0:
320,192,63381,1,2,0:0:0:0:
448,192,63381,1,0,0:0:0:0:
192,192,63579,1,2,0:0:0:0:
320,192,63579,1,8,0:0:0:0:
448,192,63579,1,4,0:0:0:0:
320,192,63875,1,0,0:0:0:0:
192,192,63973,1,0,0:0:0:0:
64,192,64072,1,8,0:0:0:0:
448,192,64072,1,2,0:0:0:0:
320,192,64171,1,0,0:0:0:0:
64,192,64269,1,0,0:0:0:0:
192,192,64368,1,0,0:0:0:0:
320,192,64467,1,2,0:0:0:0:
448,192,64467,1,8,0:0:0:0:
64,192,64566,1,0,0:0:0:0:
320,192,64664,1,0,0:0:0:0:
192,192,64763,1,8,0:0:0:0:
448,192,64763,1,2,0:0:0:0:
64,192,64862,1,0,0:0:0:0:
320,192,64960,1,0,0:0:0:0:
64,192,65059,1,10,0:0:0:0:
192,192,65059,1,4,0:0:0:0:
192,192,65454,1,0,0:0:0:0:
448,192,65552,1,0,0:0:0:0:
64,192,65651,1,8,0:0:0:0:
320,192,65651,1,2,0:0:0:0:
448,192,65750,1,0,0:0:0:0:
192,192,65848,1,0,0:0:0:0:
320,192,65947,1,0,0:0:0:0:
64,192,66046,1,2,0:0:0:0:
192,192,66046,1,8,0:0:0:0:
448,192,66046,1,0,0:0:0:0:
64,192,66243,1,8,0:0:0:0:
192,192,66243,1,2,0:0:0:0:
448,192,66243,1,0,0:0:0:0:
64,192,66539,1,2,0:0:0:0:
320,192,66539,1,8,0:0:0:0:
448,192,66539,1,0,0:0:0:0:
192,192,66737,1,8,0:0:0:0:
320,192,66737,1,2,0:0:0:0:
448,192,66737,1,4,0:0:0:0:
320,192,67033,1,0,0:0:0:0:
192,192,67131,1,0,0:0:0:0:
64,192,67230,1,2,0:0:0:0:
448,192,67230,1,8,0:0:0:0:
320,192,67329,1,0,0:0:0:0:
64,192,67427,1,0,0:0:0:0:
192,192,67526,1,0,0:0:0:0:
320,192,67625,1,8,0:0:0:0:
448,192,67625,1,2,0:0:0:0:
64,192,67822,1,0,0:0:0:0:
192,192,67921,1,2,0:0:0:0:
320,192,67921,1,8,0:0:0:0:
64,192,68217,1,8,0:0:0:0:
192,192,68217,1,2,0:0:0:0:
448,192,68217,1,4,0:0:0:0:
448,192,68513,1,0,0:0:0:25:tom01.wav
64,192,68612,1,0,0:0:0:25:tom01.wav
320,192,68612,1,0,0:0:0:0:
192,192,68661,1,0,0:0:0:25:tom01.wav
448,192,68710,1,0,0:0:0:25:tom01.wav
64,192,68809,1,0,0:0:0:25:tom02.wav
64,192,68908,1,0,0:0:0:25:tom02.wav
320,192,69006,1,0,0:0:0:25:tom03.wav
320,192,69105,1,0,0:0:0:25:tom03.wav
64,192,69204,1,8,0:0:0:0:
192,192,69204,1,2,0:0:0:0:
448,192,69204,1,0,0:0:0:0:
64,192,69302,1,2,0:0:0:0:
192,192,69302,1,8,0:0:0:0:
448,192,69302,1,0,0:0:0:0:
64,192,69598,1,8,0:0:0:0:
320,192,69598,1,2,0:0:0:0:
448,192,69598,1,0,0:0:0:0:
64,192,69697,1,2,0:0:0:0:
320,192,69697,1,8,0:0:0:0:
448,192,69697,1,0,0:0:0:0:
192,192,69894,1,8,0:0:0:0:
320,192,69894,1,2,0:0:0:0:
448,192,69894,1,4,0:0:0:0:
320,192,70191,1,0,0:0:0:0:
192,192,70289,1,0,0:0:0:0:
64,192,70388,1,2,0:0:0:0:
448,192,70388,1,8,0:0:0:0:
320,192,70487,1,0,0:0:0:0:
64,192,70585,1,0,0:0:0:0:
192,192,70684,1,0,0:0:0:0:
320,192,70783,1,8,0:0:0:0:
448,192,70783,1,2,0:0:0:0:
64,192,70881,1,0,0:0:0:0:
320,192,70980,1,0,0:0:0:0:
192,192,71079,1,2,0:0:0:0:
448,192,71079,1,8,0:0:0:0:
64,192,71177,1,0,0:0:0:0:
320,192,71276,1,0,0:0:0:0:
64,192,71375,1,10,0:0:0:0:
192,192,71375,1,4,0:0:0:0:
192,192,71769,1,0,0:0:0:0:
448,192,71868,1,0,0:0:0:0:
64,192,71967,1,2,0:0:0:0:
320,192,71967,1,8,0:0:0:0:
448,192,72066,1,0,0:0:0:0:
192,192,72164,1,0,0:0:0:0:
64,192,72263,1,0,0:0:0:0:
192,192,72362,1,8,0:0:0:0:
320,192,72362,1,2,0:0:0:0:
448,192,72362,1,0,0:0:0:0:
64,192,72658,1,2,0:0:0:0:
320,192,72658,1,8,0:0:0:0:
448,192,72658,1,0,0:0:0:0:
64,192,72954,1,8,0:0:0:0:
192,192,72954,1,2,0:0:0:0:
320,192,72954,1,4,0:0:0:0:
64,192,73348,1,0,0:0:0:0:
192,192,73447,1,0,0:0:0:0:
320,192,73546,1,2,0:0:0:0:
448,192,73546,1,8,0:0:0:0:
64,192,73644,1,0,0:0:0:0:
192,192,73743,1,0,0:0:0:0:
320,192,73842,1,0,0:0:0:0:
64,192,73941,1,8,0:0:0:0:
192,192,73941,1,2,0:0:0:0:
448,192,73941,1,0,0:0:0:0:
64,192,74237,1,2,0:0:0:0:
320,192,74237,1,8,0:0:0:0:
448,192,74237,1,0,0:0:0:0:
192,192,74533,1,8,0:0:0:0:
320,192,74533,1,2,0:0:0:0:
448,192,74533,1,4,0:0:0:0:
64,192,74829,1,0,0:0:0:25:tom01.wav
192,192,74927,1,0,0:0:0:25:tom01.wav
320,192,74927,1,0,0:0:0:0:
64,192,74977,1,0,0:0:0:25:tom01.wav
320,192,75026,1,0,0:0:0:25:tom01.wav
192,192,75125,1,0,0:0:0:25:tom02.wav
448,192,75125,1,0,0:0:0:0:
192,192,75223,1,0,0:0:0:25:tom02.wav
320,192,75322,1,0,0:0:0:25:tom03.wav
448,192,75322,1,0,0:0:0:0:
448,192,75421,1,0,0:0:0:25:tom03.wav
64,192,75519,1,2,0:0:0:0:
192,192,75519,1,8,0:0:0:0:
320,192,75519,1,0,0:0:0:0:
64,192,75717,1,0,0:0:0:35:Timbale1.wav
64,192,75816,1,8,0:0:0:0:
192,192,75816,1,2,0:0:0:0:
448,192,75816,1,0,0:0:0:0:
320,192,76013,1,0,0:0:0:35:Timbale1.wav
64,192,76112,1,2,0:0:0:0:
320,192,76112,1,8,0:0:0:0:
448,192,76112,1,4,0:0:0:0:
192,192,76408,1,0,0:0:0:25:tom01.wav
448,192,76457,1,0,0:0:0:25:tom01.wav
192,192,76506,1,0,0:0:0:25:tom01.wav
448,192,76605,1,0,0:0:0:25:tom01.wav
64,192,76704,1,2,0:0:0:0:
192,192,76704,1,0,0:0:0:25:tom02.wav
320,192,76753,1,0,0:0:0:25:tom02.wav
64,192,76802,1,0,0:0:0:25:tom02.wav
320,192,76901,1,0,0:0:0:25:tom02.wav
192,192,77000,1,0,0:0:0:25:tom02.wav
64,192,77098,1,2,0:0:0:0:
448,192,77098,1,0,0:0:0:25:tom03.wav
320,192,77164,1,0,0:0:0:25:tom03.wav
448,192,77230,1,0,0:0:0:25:tom03.wav
64,192,77296,1,10,0:0:0:0:
192,192,77296,1,0,0:0:0:35:Timbale2.wav
448,192,77394,1,8,0:0:0:0:
192,192,77493,1,2,0:0:0:0:
320,192,77493,1,8,0:0:0:0:
64,192,77592,1,2,0:0:0:0:
320,192,77592,1,8,0:0:0:0:
448,192,77592,1,0,0:0:0:35:Timbale1.wav
64,192,77789,1,2,0:0:0:0:
320,192,77789,1,8,0:0:0:0:
448,192,77789,1,4,0:0:0:0:
192,192,77987,1,0,0:0:0:0:
64,192,78085,1,0,0:0:0:0:
448,192,78184,1,0,0:0:0:0:
320,192,78283,1,0,0:0:0:0:
192,192,78332,1,0,0:0:0:0:
448,192,78579,1,0,0:0:0:0:
320,192,78628,1,0,0:0:0:0:
64,192,78677,1,0,0:0:0:0:
192,192,78875,1,8,0:0:0:0:
448,192,78941,1,8,0:0:0:0:
320,192,79006,1,8,0:0:0:0:
448,192,79072,1,0,0:0:0:25:tom01.wav
64,192,79171,1,0,0:0:0:25:tom01.wav
320,192,79269,1,0,0:0:0:25:tom02.wav
192,192,79368,1,0,0:0:0:25:tom02.wav
64,192,79467,1,2,0:0:0:0:
448,192,79467,1,4,0:0:0:0:
320,192,79664,1,0,0:0:0:0:
320,192,79763,1,0,0:0:0:0:
192,192,80059,1,0,0:0:0:0:
320,192,80108,1,0,0:0:0:0:
64,192,80454,1,0,0:0:0:0:
448,192,80651,1,10,0:0:0:0:
320,192,80848,1,0,0:0:0:0:
64,192,80947,1,0,0:0:0:0:
64,192,81243,1,0,0:0:0:0:
192,192,81342,1,0,0:0:0:0:
320,192,81441,1,10,0:0:0:0:
448,192,81506,1,0,0:0:0:0:
320,192,81572,1,0,0:0:0:0:
192,192,81638,1,0,0:0:0:0:
64,192,81737,1,0,0:0:0:0:
448,192,81934,1,0,0:0:0:0:
192,192,82131,1,0,0:0:0:0:
320,192,82329,1,0,0:0:0:0:
448,192,82427,1,0,0:0:0:0:
64,192,82526,1,0,0:0:0:0:
192,192,82625,1,2,0:0:0:0:
320,192,82691,1,0,0:0:0:0:
192,192,82756,1,0,0:0:0:0:
64,192,82822,1,0,0:0:0:0:
448,192,82888,1,0,0:0:0:0:
320,192,82954,1,0,0:0:0:0:
192,192,83019,1,10,0:0:0:0:
320,192,83085,1,0,0:0:0:0:
192,192,83151,1,0,0:0:0:0:
64,192,83217,1,0,0:0:0:0:
448,192,83283,1,0,0:0:0:0:
320,192,83348,1,0,0:0:0:0:
192,192,83414,1,2,0:0:0:0:
320,192,83513,1,0,0:0:0:0:
64,192,83612,1,0,0:0:0:0:
448,192,83710,1,0,0:0:0:0:
192,192,83908,1,0,0:0:0:0:
320,192,84105,1,0,0:0:0:0:
192,192,84302,1,0,0:0:0:0:
320,192,84352,1,0,0:0:0:0:
448,192,84401,1,0,0:0:0:0:
320,192,84500,1,0,0:0:0:0:
64,192,84598,1,10,0:0:0:0:
192,192,84648,1,0,0:0:0:0:
448,192,84796,1,0,0:0:0:0:
64,192,84894,1,0,0:0:0:0:
320,192,85092,1,0,0:0:0:0:
192,192,85191,1,0,0:0:0:0:
64,192,85289,1,0,0:0:0:0:
448,192,85388,1,10,0:0:0:0:
192,192,85487,1,8,0:0:0:0:
320,192,85536,1,0,0:0:0:0:
64,192,85585,1,2,0:0:0:0:
448,192,85651,1,0,0:0:0:25:tom02.wav
320,192,85684,1,0,0:0:0:0:
192,192,85717,1,0,0:0:0:25:tom03.wav
64,192,85783,1,4,0:0:0:0:
448,192,85783,1,2,0:0:0:0:
192,192,85881,1,0,0:0:0:0:
320,192,85980,1,0,0:0:0:0:
64,192,86079,1,0,0:0:0:0:
448,192,86177,1,10,0:0:0:0:
320,192,86276,1,0,0:0:0:0:
192,192,86375,1,0,0:0:0:0:
64,192,86473,1,0,0:0:0:0:
320,192,86671,1,0,0:0:0:0:
192,192,86769,1,0,0:0:0:0:
64,192,87066,1,0,0:0:0:0:
448,192,87362,128,2,87559:0:0:0:0:
64,192,87658,1,0,0:0:0:0:
320,192,87954,1,0,0:0:0:0:
192,192,88348,1,0,0:0:0:0:
320,192,88546,1,10,0:0:0:0:
448,192,88743,1,0,0:0:0:0:
192,192,88941,128,2,89138:0:0:0:0:
320,192,89335,1,10,0:0:0:0:
64,192,89401,1,0,0:0:0:0:
192,192,89533,1,0,0:0:0:0:
320,192,89730,1,2,0:0:0:0:
64,192,90026,1,0,0:0:0:0:
64,192,90322,128,0,90519:0:0:0:0:
192,192,90519,1,2,0:0:0:0:
448,192,90519,1,0,0:0:0:0:
448,192,90618,1,8,0:0:0:0:
192,192,90717,1,8,0:0:0:0:
320,192,90717,1,0,0:0:0:0:
192,192,90816,1,0,0:0:0:25:tom01.wav
64,192,90914,1,0,0:0:0:25:tom01.wav
320,192,90914,1,0,0:0:0:0:
320,192,91013,1,0,0:0:0:25:tom02.wav
64,192,91112,1,0,0:0:0:25:tom02.wav
448,192,91112,1,0,0:0:0:0:
64,192,91210,1,0,0:0:0:25:tom03.wav
192,192,91309,1,0,0:0:0:25:tom03.wav
320,192,91309,1,0,0:0:0:0:
320,192,91408,1,2,0:0:0:0:
192,192,91506,1,2,0:0:0:0:
448,192,91506,1,8,0:0:0:0:
192,192,91605,1,0,0:0:0:35:Timbale1.wav
64,192,91704,1,0,0:0:0:25:tom04.wav
448,192,91704,1,0,0:0:0:0:
448,192,91802,1,10,0:0:0:0:
64,192,91901,1,0,0:0:0:0:
320,192,91901,1,0,0:0:0:0:
64,192,92000,1,0,0:0:0:35:Timbale1.wav
192,192,92098,1,4,0:0:0:0:
448,192,92098,1,2,0:0:0:0:
320,192,92148,1,0,0:0:0:0:
448,192,92296,1,0,0:0:0:0:
192,192,92394,1,0,0:0:0:0:
320,192,92444,1,0,0:0:0:0:
448,192,92592,1,0,0:0:0:0:
192,192,92691,1,0,0:0:0:0:
320,192,92740,1,0,0:0:0:0:
448,192,92888,1,2,0:0:0:0:
192,192,92987,1,0,0:0:0:0:
320,192,93036,1,0,0:0:0:0:
448,192,93184,1,0,0:0:0:0:
64,192,93283,1,10,0:0:0:0:
192,192,93348,1,0,0:0:0:0:
64,192,93414,1,0,0:0:0:0:
448,192,93480,1,0,0:0:0:0:
320,192,93579,1,0,0:0:0:0:
192,192,93677,1,2,0:0:0:0:
64,192,93776,1,0,0:0:0:0:
320,192,93875,1,0,0:0:0:0:
448,192,93973,1,0,0:0:0:0:
64,192,94072,1,10,0:0:0:0:
192,192,94171,1,0,0:0:0:0:
320,192,94269,1,0,0:0:0:0:
64,192,94368,1,0,0:0:0:0:
320,192,94467,1,2,0:0:0:0:
192,192,94566,1,0,0:0:0:0:
448,192,94664,1,0,0:0:0:0:
192,192,94763,1,0,0:0:0:0:
320,192,94862,1,10,0:0:0:0:
448,192,94960,1,0,0:0:0:0:
64,192,95059,1,0,0:0:0:0:
192,192,95125,1,0,0:0:0:0:
320,192,95191,1,0,0:0:0:0:
448,192,95256,1,2,0:0:0:0:
320,192,95322,1,0,0:0:0:0:
192,192,95388,1,0,0:0:0:0:
320,192,95454,1,0,0:0:0:0:
192,192,95519,1,0,0:0:0:0:
64,192,95585,1,0,0:0:0:0:
192,192,95651,1,10,0:0:0:0:
64,192,95717,1,0,0:0:0:0:
448,192,95783,1,0,0:0:0:0:
64,192,95848,1,0,0:0:0:0:
448,192,95914,1,0,0:0:0:0:
320,192,95980,1,0,0:0:0:0:
448,192,96046,1,2,0:0:0:0:
320,192,96112,1,0,0:0:0:0:
192,192,96177,1,0,0:0:0:0:
320,192,96243,1,0,0:0:0:0:
192,192,96309,1,0,0:0:0:0:
64,192,96375,1,0,0:0:0:0:
192,192,96441,1,10,0:0:0:0:
64,192,96506,1,0,0:0:0:0:
448,192,96572,1,0,0:0:0:0:
192,192,96638,1,0,0:0:0:0:
320,192,96704,1,0,0:0:0:0:
448,192,96769,1,0,0:0:0:0:
64,192,96835,1,2,0:0:0:0:
192,192,96885,1,0,0:0:0:0:
64,192,97131,1,0,0:0:0:0:
192,192,97181,1,0,0:0:0:0:
320,192,97427,1,0,0:0:0:0:
448,192,97477,1,0,0:0:0:0:
320,192,97723,1,0,0:0:0:0:
448,192,97773,1,0,0:0:0:0:
192,192,97921,1,0,0:0:0:0:
448,192,97970,1,0,0:0:0:0:
64,192,98019,1,2,0:0:0:0:
320,192,98019,1,8,0:0:0:0:
320,192,98118,1,8,0:0:0:0:
64,192,98217,1,2,0:0:0:0:
192,192,98283,1,0,0:0:0:25:tom02.wav
448,192,98316,1,0,0:0:0:0:
64,192,98348,1,0,0:0:0:25:tom03.wav
192,192,98414,1,4,0:0:0:0:
320,192,98414,1,2,0:0:0:0:
448,192,98464,1,0,0:0:0:0:
320,192,98612,1,0,0:0:0:0:
192,192,98710,1,0,0:0:0:0:
448,192,98760,1,0,0:0:0:0:
192,192,98809,1,10,0:0:0:0:
320,192,98908,1,0,0:0:0:0:
448,192,99006,1,0,0:0:0:0:
64,192,99105,1,0,0:0:0:0:
320,192,99154,1,0,0:0:0:0:
64,192,99204,1,2,0:0:0:0:
448,192,99302,1,0,0:0:0:0:
64,192,99401,1,0,0:0:0:0:
320,192,99450,1,0,0:0:0:0:
64,192,99500,1,0,0:0:0:0:
448,192,99598,1,10,0:0:0:0:
192,192,99648,1,0,0:0:0:0:
320,192,99697,1,0,0:0:0:0:
64,192,99746,1,0,0:0:0:0:
448,192,99796,1,0,0:0:0:0:
192,192,99894,1,0,0:0:0:0:
64,192,99993,1,2,0:0:0:0:
320,192,99993,1,0,0:0:0:0:
192,192,100125,1,0,0:0:0:0:
320,192,100125,1,0,0:0:0:0:
192,192,100256,1,0,0:0:0:0:
448,192,100256,1,0,0:0:0:0:
320,192,100388,1,8,0:0:0:0:
448,192,100388,1,2,0:0:0:0:
64,192,100519,1,0,0:0:0:0:
192,192,100519,1,0,0:0:0:0:
64,192,100651,1,0,0:0:0:0:
320,192,100651,1,0,0:0:0:0:
192,192,100783,1,2,0:0:0:0:
448,192,100783,1,0,0:0:0:0:
192,192,100914,1,0,0:0:0:0:
320,192,100914,1,0,0:0:0:0:
320,192,101046,1,0,0:0:0:0:
448,192,101046,1,0,0:0:0:0:
64,192,101177,1,2,0:0:0:0:
192,192,101177,1,8,0:0:0:0:
64,192,101309,1,0,0:0:0:0:
448,192,101309,1,0,0:0:0:0:
192,192,101441,1,0,0:0:0:0:
320,192,101441,1,0,0:0:0:0:
448,192,101572,1,2,0:0:0:0:
320,192,101638,1,0,0:0:0:0:
192,192,101704,1,0,0:0:0:0:
64,192,101769,1,0,0:0:0:0:
320,192,101835,1,0,0:0:0:0:
192,192,101901,1,0,0:0:0:0:
320,192,101967,1,10,0:0:0:0:
448,192,102066,1,0,0:0:0:0:
320,192,102164,1,0,0:0:0:0:
192,192,102263,1,0,0:0:0:0:
64,192,102460,1,0,0:0:0:0:
448,192,102559,1,0,0:0:0:0:
320,192,102658,1,0,0:0:0:0:
192,192,102855,1,0,0:0:0:0:
320,192,102904,1,0,0:0:0:0:
192,192,102954,1,0,0:0:0:0:
64,192,103019,1,0,0:0:0:0:
448,192,103085,1,0,0:0:0:0:
192,192,103151,1,2,0:0:0:0:
64,192,103250,1,8,0:0:0:0:
320,192,103299,1,0,0:0:0:0:
64,192,103348,1,8,0:0:0:0:
448,192,103398,1,8,0:0:0:0:
192,192,103447,1,0,0:0:0:25:tom01.wav
320,192,103546,1,0,0:0:0:25:tom01.wav
64,192,103644,1,0,0:0:0:25:tom02.wav
448,192,103677,1,0,0:0:0:0:
192,192,103743,1,0,0:0:0:25:tom02.wav
64,192,103842,1,0,0:0:0:25:tom03.wav
320,192,103941,1,0,0:0:0:25:tom03.wav
448,192,104039,1,2,0:0:0:0:
64,192,104138,1,2,0:0:0:0:
192,192,104138,1,8,0:0:0:0:
320,192,104237,1,0,0:0:0:35:Timbale1.wav
448,192,104237,1,0,0:0:0:0:
64,192,104335,1,0,0:0:0:25:tom01.wav
192,192,104434,1,2,0:0:0:0:
320,192,104434,1,8,0:0:0:0:
64,192,104533,1,0,0:0:0:25:tom02.wav
320,192,104631,1,2,0:0:0:0:
448,192,104631,1,8,0:0:0:0:
192,192,104796,1,0,0:0:0:0:
320,192,104862,1,0,0:0:0:0:
192,192,104927,1,0,0:0:0:0:
320,192,104993,1,0,0:0:0:0:
192,192,105059,1,0,0:0:0:0:
320,192,105125,1,10,0:0:0:0:
192,192,105191,1,0,0:0:0:0:
320,192,105256,1,0,0:0:0:0:
192,192,105322,1,0,0:0:0:0:
320,192,105388,1,0,0:0:0:0:
192,192,105454,1,0,0:0:0:0:
64,192,105519,1,2,0:0:0:0:
448,192,105519,1,8,0:0:0:0:
448,192,105618,1,8,0:0:0:0:
192,192,105717,1,8,0:0:0:0:
320,192,105717,1,2,0:0:0:0:
192,192,105816,1,8,0:0:0:0:
64,192,105914,1,2,0:0:0:0:
320,192,105914,1,8,0:0:0:0:
320,192,106013,1,8,0:0:0:0:
64,192,106112,1,8,0:0:0:0:
448,192,106112,1,2,0:0:0:0:
192,192,106177,1,8,0:0:0:0:
64,192,106243,1,8,0:0:0:0:
320,192,106309,1,10,0:0:0:0:
448,192,106342,1,0,0:0:0:35:Timbale1.wav
192,192,106408,1,8,0:0:0:0:
448,192,106506,1,0,0:0:0:25:tom01.wav
64,192,106572,1,0,0:0:0:25:tom01.wav
320,192,106605,1,0,0:0:0:0:
192,192,106638,1,0,0:0:0:25:tom01.wav
448,192,106704,1,0,0:0:0:25:tom02.wav
64,192,106737,1,0,0:0:0:35:Timbale1.wav
320,192,106802,1,0,0:0:0:25:tom02.wav
192,192,106901,1,0,0:0:0:25:tom03.wav
448,192,107000,1,0,0:0:0:25:tom03.wav
64,192,107098,1,2,0:0:0:0:
192,192,107098,1,8,0:0:0:0:
320,192,107098,1,0,0:0:0:0:
64,192,107197,1,8,0:0:0:0:
192,192,107197,1,2,0:0:0:0:
320,192,107197,1,0,0:0:0:0:
64,192,107493,1,2,0:0:0:0:
192,192,107493,1,8,0:0:0:0:
448,192,107493,1,0,0:0:0:0:
64,192,107592,1,8,0:0:0:0:
192,192,107592,1,2,0:0:0:0:
448,192,107592,1,0,0:0:0:0:
192,192,107789,1,0,0:0:0:0:
320,192,107789,1,0,0:0:0:0:
448,192,108085,1,0,0:0:0:0:
320,192,108184,1,0,0:0:0:0:
64,192,108283,1,0,0:0:0:0:
192,192,108381,1,0,0:0:0:0:
320,192,108480,1,0,0:0:0:0:
448,192,108579,1,0,0:0:0:0:
64,192,108677,1,0,0:0:0:0:
192,192,108776,1,0,0:0:0:0:
64,192,108875,1,0,0:0:0:0:
448,192,108973,1,0,0:0:0:0:
320,192,109072,1,0,0:0:0:0:
192,192,109171,1,0,0:0:0:0:
64,192,109269,1,0,0:0:0:0:
64,192,109664,1,0,0:0:0:0:
192,192,109763,1,0,0:0:0:0:
320,192,109862,1,0,0:0:0:0:
448,192,109960,1,0,0:0:0:0:
192,192,110059,1,0,0:0:0:0:
320,192,110158,1,0,0:0:0:0:
64,192,110256,1,0,0:0:0:0:
192,192,110256,1,0,0:0:0:0:
64,192,110454,1,0,0:0:0:0:
192,192,110454,1,0,0:0:0:0:
64,192,110750,1,0,0:0:0:0:
320,192,110750,1,0,0:0:0:0:
192,192,110947,1,0,0:0:0:0:
320,192,110947,1,0,0:0:0:0:
448,192,111243,1,0,0:0:0:0:
320,192,111342,1,0,0:0:0:0:
64,192,111441,1,0,0:0:0:0:
192,192,111539,1,0,0:0:0:0:
320,192,111638,1,0,0:0:0:0:
448,192,111737,1,0,0:0:0:0:
64,192,111835,1,0,0:0:0:0:
192,192,112033,1,0,0:0:0:0:
320,192,112131,1,0,0:0:0:0:
448,192,112427,1,0,0:0:0:0:
320,192,112822,1,0,0:0:0:0:
64,192,113414,1,2,0:0:0:0:
192,192,113414,1,8,0:0:0:0:
448,192,113414,1,0,0:0:0:0:
64,192,113513,1,8,0:0:0:0:
192,192,113513,1,2,0:0:0:0:
448,192,113513,1,0,0:0:0:0:
64,192,113809,1,2,0:0:0:0:
320,192,113809,1,8,0:0:0:0:
448,192,113809,1,0,0:0:0:0:
64,192,113908,1,8,0:0:0:0:
320,192,113908,1,2,0:0:0:0:
448,192,113908,1,0,0:0:0:0:
192,192,114105,1,4,0:0:0:0:
320,192,114105,1,2,0:0:0:0:
448,192,114105,1,8,0:0:0:0:
320,192,114401,1,0,0:0:0:0:
192,192,114500,1,0,0:0:0:0:
64,192,114598,1,8,0:0:0:0:
448,192,114598,1,2,0:0:0:0:
320,192,114697,1,0,0:0:0:0:
64,192,114796,1,0,0:0:0:0:
192,192,114894,1,0,0:0:0:0:
320,192,114993,1,2,0:0:0:0:
448,192,114993,1,8,0:0:0:0:
64,192,115092,1,0,0:0:0:0:
320,192,115191,1,0,0:0:0:0:
192,192,115289,1,8,0:0:0:0:
448,192,115289,1,2,0:0:0:0:
64,192,115388,1,0,0:0:0:0:
320,192,115487,1,0,0:0:0:0:
64,192,115585,1,6,0:0:0:0:
192,192,115585,1,8,0:0:0:0:
192,192,115980,1,0,0:0:0:0:
448,192,116079,1,0,0:0:0:0:
64,192,116177,1,8,0:0:0:0:
320,192,116177,1,2,0:0:0:0:
448,192,116276,1,0,0:0:0:0:
192,192,116375,1,0,0:0:0:0:
64,192,116473,1,0,0:0:0:0:
192,192,116572,1,2,0:0:0:0:
320,192,116572,1,8,0:0:0:0:
448,192,116572,1,0,0:0:0:0:
64,192,116868,1,8,0:0:0:0:
320,192,116868,1,2,0:0:0:0:
448,192,116868,1,0,0:0:0:0:
64,192,117164,1,4,0:0:0:0:
192,192,117164,1,2,0:0:0:0:
320,192,117164,1,8,0:0:0:0:
64,192,117559,1,0,0:0:0:0:
192,192,117658,1,0,0:0:0:0:
320,192,117756,1,8,0:0:0:0:
448,192,117756,1,2,0:0:0:0:
64,192,117855,1,0,0:0:0:0:
192,192,117954,1,0,0:0:0:0:
320,192,118052,1,0,0:0:0:0:
64,192,118151,1,2,0:0:0:0:
192,192,118151,1,8,0:0:0:0:
448,192,118151,1,0,0:0:0:0:
64,192,118447,1,8,0:0:0:0:
320,192,118447,1,2,0:0:0:0:
448,192,118447,1,0,0:0:0:0:
192,192,118743,1,4,0:0:0:0:
320,192,118743,1,2,0:0:0:0:
448,192,118743,1,8,0:0:0:0:
64,192,119039,1,0,0:0:0:25:tom01.wav
192,192,119138,1,0,0:0:0:25:tom01.wav
320,192,119138,1,0,0:0:0:0:
64,192,119187,1,0,0:0:0:25:tom01.wav
320,192,119237,1,0,0:0:0:25:tom01.wav
192,192,119335,1,0,0:0:0:25:tom02.wav
448,192,119335,1,0,0:0:0:0:
192,192,119434,1,0,0:0:0:25:tom02.wav
320,192,119533,1,0,0:0:0:25:tom03.wav
448,192,119533,1,0,0:0:0:0:
448,192,119631,1,0,0:0:0:25:tom03.wav
64,192,119730,1,8,0:0:0:0:
192,192,119730,1,2,0:0:0:0:
320,192,119730,1,0,0:0:0:0:
448,192,119829,1,0,0:0:0:35:Timbale1.wav
64,192,119927,1,0,0:0:0:35:Timbale2.wav
192,192,120026,1,8,0:0:0:0:
320,192,120026,1,2,0:0:0:0:
448,192,120026,1,0,0:0:0:0:
64,192,120125,1,0,0:0:0:35:Timbale1.wav
320,192,120223,1,0,0:0:0:35:Timbale2.wav
192,192,120322,1,2,0:0:0:0:
448,192,120322,1,8,0:0:0:0:
64,192,120388,1,0,0:0:0:0:
192,192,120454,1,0,0:0:0:0:
64,192,120519,1,2,0:0:0:0:
320,192,120519,1,8,0:0:0:0:
448,192,120519,1,4,0:0:0:0:
192,192,120717,1,8,0:0:0:0:
64,192,120816,1,0,0:0:0:0:
448,192,120914,1,10,0:0:0:0:
64,192,121112,1,8,0:0:0:0:
320,192,121112,1,0,0:0:0:0:
320,192,121210,1,0,0:0:0:0:
192,192,121309,1,8,0:0:0:0:
320,192,121309,1,2,0:0:0:0:
448,192,121506,1,8,0:0:0:0:
64,192,121605,1,2,0:0:0:0:
192,192,121605,1,0,0:0:0:0:
320,192,121704,1,8,0:0:0:0:
64,192,121802,1,0,0:0:0:0:
192,192,121901,1,8,0:0:0:0:
448,192,121901,1,2,0:0:0:0:
64,192,122098,1,2,0:0:0:0:
320,192,122098,1,8,0:0:0:0:
448,192,122098,1,0,0:0:0:0:
192,192,122296,1,8,0:0:0:0:
64,192,122394,1,0,0:0:0:0:
448,192,122493,1,10,0:0:0:0:
64,192,122691,1,8,0:0:0:0:
320,192,122691,1,0,0:0:0:0:
64,192,122789,1,0,0:0:0:0:
320,192,122789,1,0,0:0:0:0:
192,192,122888,1,8,0:0:0:0:
320,192,122888,1,2,0:0:0:0:
64,192,122987,1,0,0:0:0:0:
448,192,123085,1,8,0:0:0:0:
64,192,123184,1,2,0:0:0:0:
320,192,123184,1,0,0:0:0:0:
192,192,123283,1,8,0:0:0:0:
64,192,123381,1,0,0:0:0:0:
448,192,123381,1,0,0:0:0:0:
192,192,123480,1,8,0:0:0:0:
320,192,123480,1,2,0:0:0:0:
64,192,123579,1,0,0:0:0:0:
64,192,123677,1,8,0:0:0:0:
320,192,123677,1,2,0:0:0:0:
448,192,123677,1,0,0:0:0:0:
192,192,123875,1,8,0:0:0:0:
64,192,123973,1,0,0:0:0:0:
448,192,124072,1,10,0:0:0:0:
64,192,124269,1,8,0:0:0:0:
320,192,124269,1,0,0:0:0:0:
320,192,124368,1,0,0:0:0:0:
192,192,124467,1,2,0:0:0:0:
320,192,124467,1,8,0:0:0:0:
448,192,124664,1,8,0:0:0:0:
64,192,124763,1,2,0:0:0:0:
192,192,124763,1,0,0:0:0:0:
448,192,124862,1,8,0:0:0:0:
64,192,124960,1,0,0:0:0:0:
192,192,125059,1,2,0:0:0:0:
320,192,125059,1,8,0:0:0:0:
64,192,125256,1,8,0:0:0:0:
320,192,125256,1,2,0:0:0:0:
448,192,125256,1,0,0:0:0:0:
192,192,125355,1,0,0:0:0:0:
448,192,125454,1,0,0:0:0:0:
64,192,125552,1,8,0:0:0:0:
320,192,125552,1,2,0:0:0:0:
192,192,125651,1,0,0:0:0:0:
64,192,125750,1,0,0:0:0:0:
192,192,125848,1,2,0:0:0:0:
448,192,125848,1,8,0:0:0:0:
320,192,125947,1,0,0:0:0:0:
64,192,126046,1,8,0:0:0:0:
192,192,126046,1,2,0:0:0:0:
448,192,126046,1,0,0:0:0:0:
64,192,126144,1,2,0:0:0:0:
320,192,126144,1,8,0:0:0:0:
448,192,126243,1,0,0:0:0:0:
64,192,126342,1,8,0:0:0:0:
192,192,126342,1,2,0:0:0:0:
320,192,126441,1,0,0:0:0:0:
192,192,126539,1,0,0:0:0:0:
64,192,126638,1,2,0:0:0:0:
448,192,126638,1,8,0:0:0:0:
320,192,126737,1,0,0:0:0:0:
64,192,126835,1,8,0:0:0:0:
192,192,126835,1,2,0:0:0:0:
448,192,126835,1,4,0:0:0:0:
192,192,127033,1,8,0:0:0:0:
320,192,127033,1,0,0:0:0:0:
320,192,127131,1,0,0:0:0:0:
64,192,127230,1,8,0:0:0:0:
320,192,127230,1,2,0:0:0:0:
192,192,127427,1,8,0:0:0:0:
448,192,127427,1,0,0:0:0:0:
192,192,127526,1,0,0:0:0:0:
64,192,127625,1,8,0:0:0:0:
320,192,127625,1,2,0:0:0:0:
448,192,127723,1,0,0:0:0:0:
192,192,127822,1,8,0:0:0:0:
448,192,127822,1,0,0:0:0:0:
64,192,128019,1,8,0:0:0:0:
192,192,128019,1,0,0:0:0:0:
64,192,128118,1,0,0:0:0:0:
320,192,128217,1,8,0:0:0:0:
448,192,128217,1,2,0:0:0:0:
320,192,128316,1,0,0:0:0:0:
64,192,128414,1,2,0:0:0:0:
192,192,128414,1,8,0:0:0:0:
448,192,128414,1,0,0:0:0:0:
192,192,128612,1,8,0:0:0:0:
320,192,128612,1,0,0:0:0:0:
320,192,128710,1,0,0:0:0:0:
64,192,128809,1,2,0:0:0:0:
320,192,128809,1,8,0:0:0:0:
192,192,129006,1,8,0:0:0:0:
448,192,129006,1,0,0:0:0:0:
192,192,129105,1,0,0:0:0:0:
64,192,129204,1,8,0:0:0:0:
320,192,129204,1,2,0:0:0:0:
448,192,129302,1,0,0:0:0:0:
192,192,129401,1,8,0:0:0:0:
448,192,129401,1,0,0:0:0:0:
64,192,129598,1,8,0:0:0:0:
192,192,129598,1,0,0:0:0:0:
64,192,129697,1,0,0:0:0:0:
320,192,129796,1,2,0:0:0:0:
448,192,129796,1,8,0:0:0:0:
320,192,129894,1,0,0:0:0:0:
64,192,129993,1,8,0:0:0:0:
192,192,129993,1,2,0:0:0:0:
448,192,129993,1,0,0:0:0:0:
192,192,130092,1,8,0:0:0:0:
64,192,130191,1,8,0:0:0:0:
320,192,130191,1,2,0:0:0:0:
320,192,130289,1,8,0:0:0:0:
64,192,130388,1,8,0:0:0:0:
448,192,130388,1,2,0:0:0:0:
64,192,130487,1,8,0:0:0:0:
320,192,130585,1,8,0:0:0:0:
448,192,130585,1,2,0:0:0:0:
448,192,130684,1,8,0:0:0:0:
64,192,130783,1,8,0:0:0:0:
192,192,130783,1,2,0:0:0:0:
320,192,130848,1,8,0:0:0:0:
448,192,130881,1,2,0:0:0:0:
64,192,130914,1,8,0:0:0:0:
192,192,130980,1,8,0:0:0:0:
320,192,130980,1,2,0:0:0:0:
64,192,131079,1,8,0:0:0:0:
448,192,131079,1,2,0:0:0:0:
192,192,131177,1,8,0:0:0:0:
320,192,131177,1,2,0:0:0:0:
448,192,131243,1,8,0:0:0:0:
64,192,131276,1,2,0:0:0:0:
192,192,131309,1,8,0:0:0:0:
320,192,131375,1,8,0:0:0:0:
448,192,131375,1,2,0:0:0:0:
64,192,131473,1,8,0:0:0:0:
192,192,131473,1,2,0:0:0:0:
448,192,131597,1,0,0:0:0:0:
64,192,131769,1,0,0:0:0:0:
320,192,131967,1,0,0:0:0:0:
192,192,132214,1,0,0:0:0:0:
448,192,132386,1,0,0:0:0:0:
320,192,132559,128,0,132954:0:0:0:0:
