osu file format v14

[General]
AudioFilename: audio.mp3
AudioLeadIn: 0
PreviewTime: 50191
Countdown: 0
SampleSet: Soft
StackLeniency: 0.3
Mode: 0
LetterboxInBreaks: 0
WidescreenStoryboard: 0

[Editor]
Bookmarks: 16746,27909,39072,51630,73956,93491,115816
DistanceSpacing: 1.1
BeatDivisor: 4
GridSize: 32
TimelineZoom: 1.4

[Metadata]
Title:Hurt Urge
TitleUnicode:Hurt Urge
Artist:polysha feat. Sennzai
ArtistUnicode:polysha feat. Sennzai
Creator:Down
Version:Hard
Source:
Tags:rock japanese mappers' guild mpg fa featured artist
BeatmapID:2886124
BeatmapSetID:1397802

[Difficulty]
HPDrainRate:5
CircleSize:4
OverallDifficulty:7
ApproachRate:8
SliderMultiplier:1.5
SliderTickRate:1

[Events]
//Background and Video events
0,0,"bg.jpg",0,0
//Break Periods
2,93691,97624
//Storyboard Layer 0 (Background)
//Storyboard Layer 1 (Fail)
//Storyboard Layer 2 (Pass)
//Storyboard Layer 3 (Foreground)
//Storyboard Layer 4 (Overlay)
//Storyboard Sound Samples

[TimingPoints]
1398,348.837209302326,4,2,1,70,1,0
5235,-100,4,2,1,5,0,0
5584,-100,4,2,1,60,0,0
15525,-90.9090909090909,4,2,1,70,0,0
16746,-111.111111111111,4,2,1,50,0,0
27909,-111.111111111111,4,2,1,55,0,0
36281,-100,4,2,1,70,0,0
50235,-90.9090909090909,4,2,1,80,0,0
51630,-100,4,2,1,70,0,1
71165,-90.9090909090909,4,2,1,80,0,1
73084,-100,4,2,1,70,0,0
73956,-100,4,2,1,60,0,0
78142,-100,4,2,1,70,0,0
90700,-100,4,2,1,80,0,0
98374,-100,4,2,1,50,0,0
99072,-100,4,2,1,60,0,0
101863,-100,4,2,1,60,0,0
104653,-100,4,2,1,70,0,1
113025,-90.9090909090909,4,2,1,80,0,1
114944,-90.9090909090909,4,2,1,80,0,0
115816,-100,4,2,1,70,0,0

[Colours]
Combo1 : 189,224,255
Combo2 : 166,251,145
Combo3 : 243,157,255
Combo4 : 254,252,173

[HitObjects]
273,125,700,6,0,L|263:211,1,75,12|0,0:0|1:0,0:0:0:0:
257,210,961,1,8,3:0:0:0:
248,219,1049,2,0,P|228:240|213:273,3,37.5,8|4|4|0,3:0|3:0|3:0|1:0,0:0:0:0:
226,288,1398,6,0,P|185:276|152:261,1,75,12|8,0:0|3:0,0:0:0:0:
75,283,1746,1,0,1:0:0:0:
82,200,1921,2,0,P|94:171|113:109,1,75,12|4,0:0|3:0,0:0:0:0:
68,56,2270,2,0,P|50:37|27:33,2,37.5,0|0|12,1:0|1:0|0:0,0:0:0:0:
145,28,2618,1,4,3:0:0:0:
180,102,2793,6,0,P|205:130|263:141,1,75,12|4,0:0|3:0,0:0:0:0:
308,96,3142,1,0,1:0:0:0:
285,209,3316,1,12,0:0:0:0:
256,192,3491,12,0,5235,0:0:0:0:
308,96,5584,6,0,P|315:145|319:181,1,75,12|2,0:0|0:0,0:0:0:0:
387,213,5932,2,0,P|422:192|472:177,1,75,0|2,1:0|0:0,0:0:0:0:
486,104,6281,1,8,0:0:0:0:
434,39,6456,2,0,P|384:36|344:30,1,75,2|0,0:0|1:0,0:0:0:0:
308,96,6804,6,0,L|271:81,2,37.5,2|0|8,0:0|0:0|0:0,0:0:0:0:
377,141,7153,1,2,0:0:0:0:
301,174,7328,2,0,P|286:205|264:261,1,75,0|2,1:0|0:0,0:0:0:0:
199,284,7677,2,0,P|167:271|115:254,1,75,8|2,0:0|0:0,0:0:0:0:
60,212,8025,1,0,1:0:0:0:
60,212,8200,1,2,0:0:0:0:
97,83,8374,6,0,P|109:118|119:155,1,75,8|2,0:0|0:0,0:0:0:0:
195,187,8723,2,0,P|239:159|243:125,1,75,0|2,1:0|0:0,0:0:0:0:
283,66,9072,1,8,0:0:0:0:
359,95,9246,2,0,P|403:113|436:142,1,75,2|0,0:0|1:0,0:0:0:0:
458,205,9595,6,0,P|476:195|506:179,2,37.5,2|0|8,0:0|0:0|0:0,0:0:0:0:
376,189,9944,1,2,0:0:0:0:
326,254,10118,2,0,P|306:277|285:330,1,75,0|10,1:0|3:0,0:0:0:0:
195,353,10467,2,0,P|197:334|204:317,3,37.5,8|8|6|4,3:0|3:0|3:0|3:0,0:0:0:0:
188,278,10816,2,0,P|172:260|161:252,3,37.5,0|0|2|0,1:0|1:0|1:0|1:0,0:0:0:0:
128,226,11165,6,0,P|209:206|288:180,1,150,8|0,0:0|1:0,0:0:0:0:
319,117,11688,1,2,0:0:0:0:
319,117,11775,1,0,0:0:0:0:
319,117,11863,2,0,L|422:132,1,75,8|10,0:0|0:0,0:0:0:0:
462,83,12211,1,0,1:0:0:0:
505,153,12386,6,0,P|484:214|459:318,1,150,10|10,0:0|0:0,0:0:0:0:
389,333,12909,2,0,P|361:313|309:299,1,75,0|2,1:0|0:0,0:0:0:0:
322,300,13171,1,0,1:0:0:0:
322,300,13258,1,0,0:0:0:0:
367,231,13432,1,10,0:0:0:0:
284,227,13607,2,0,P|243:240|192:262,1,75,0|6,1:0|3:0,0:0:0:0:
98,240,13956,6,0,P|124:267|145:299,1,75,8|0,0:0|1:0,0:0:0:0:
144,298,14217,1,0,1:0:0:0:
144,298,14304,1,0,1:0:0:0:
221,350,14479,1,8,0:0:0:0:
288,303,14653,2,0,P|300:325|314:348,2,37.5,8|0|0,3:0|0:0|1:0,0:0:0:0:
319,226,15002,1,8,0:0:0:0:
319,226,15089,1,0,0:0:0:0:
319,226,15177,2,0,P|323:193|333:170,2,37.5,4|0|8,3:0|1:0|0:0,0:0:0:0:
407,205,15525,6,0,P|406:138|428:83,2,123.75000377655,12|12|12,0:0|0:0|0:0,0:0:0:0:
453,283,16223,2,0,P|447:306|443:339,2,41.2500012588501,0|2|2,0:0|0:0|0:0,0:0:0:0:
453,283,16746,6,0,P|379:290|310:300,1,134.999995880127,12|0,0:0|0:0,0:0:0:0:
250,254,17270,1,2,0:0:0:0:
182,298,17444,2,0,P|158:311|120:344,1,67.4999979400635,0|2,0:0|0:0,0:0:0:0:
52,303,17793,2,0,P|34:268|3:228,1,67.4999979400635,0|2,0:0|0:0,0:0:0:0:
71,183,18142,6,0,P|91:165|143:131,2,67.4999979400635,0|2|0,0:0|0:0|0:0,0:0:0:0:
13,125,18665,2,0,P|85:72|141:44,1,134.999995880127,2|2,0:0|0:0,0:0:0:0:
201,79,19188,2,0,P|245:107|274:104,1,67.4999979400635,0|10,0:0|0:0,0:0:0:0:
328,65,19537,5,8,0:0:0:0:
471,139,19886,2,0,P|457:172|450:219,1,67.4999979400635,0|2,0:0|0:0,0:0:0:0:
380,244,20235,2,0,P|310:213|236:180,1,134.999995880127
185,228,20758,1,2,0:0:0:0:
240,286,20932,6,0,P|258:320|260:354,1,67.4999979400635,0|2,0:0|0:0,0:0:0:0:
339,367,21281,2,0,P|384:350|426:344,1,67.4999979400635,0|2,0:0|0:0,0:0:0:0:
452,281,21630,2,0,P|462:238|470:205,1,67.4999979400635,0|2,0:0|0:0,0:0:0:0:
400,169,21979,1,0,0:0:0:0:
465,122,22153,1,10,0:0:0:0:
412,59,22328,6,0,P|351:48|253:27,1,134.999995880127,8|0,0:0|0:0,0:0:0:0:
206,68,22851,1,2,0:0:0:0:
269,117,23025,2,0,P|276:151|290:209,1,67.4999979400635,0|2,0:0|0:0,0:0:0:0:
239,251,23374,2,0,P|212:267|165:307,1,67.4999979400635,0|2,0:0|0:0,0:0:0:0:
124,233,23723,6,0,P|104:212|54:203,2,67.4999979400635,0|2|0,0:0|0:0|0:0,0:0:0:0:
183,289,24246,2,0,P|257:334|298:310,1,134.999995880127,2|2,0:0|0:0,0:0:0:0:
352,260,24770,1,0,0:0:0:0:
425,292,24944,1,10,0:0:0:0:
469,224,25118,6,0,P|472:184|489:74,1,134.999995880127,8|0,0:0|0:0,0:0:0:0:
431,28,25642,1,2,0:0:0:0:
353,49,25816,2,0,P|335:79|320:139,1,67.4999979400635,0|2,0:0|0:0,0:0:0:0:
372,175,26165,1,0,0:0:0:0:
299,211,26339,6,0,P|264:209|213:185,1,67.4999979400635,2|8,0:0|0:0,0:0:0:0:
174,142,26688,1,2,1:0:0:0:
98,171,26863,2,0,P|76:208|70:254,1,67.4999979400635,8|10,0:0|0:0,0:0:0:0:
117,297,27211,2,0,P|161:299|231:322,2,101.249996910095,8|4|2,3:0|3:0|1:0,0:0:0:0:
106,304,27822,1,0,1:0:0:0:
97,313,27909,6,0,P|91:245|56:182,1,134.999995880127,12|0,0:0|0:0,0:0:0:0:
23,114,28432,1,2,0:0:0:0:
91,70,28607,2,0,P|137:56|177:33,1,67.4999979400635,0|2,1:0|0:0,0:0:0:0:
223,90,28956,1,0,0:0:0:0:
293,51,29130,6,0,B|341:28|380:45|380:45|389:74|433:94,1,134.999995880127,10|10,0:0|0:0,0:0:0:0:
470,130,29653,2,0,P|462:169|437:201,1,67.4999979400635,8|2,0:0|0:0,0:0:0:0:
365,190,30002,2,0,P|376:240|393:342,1,134.999995880127,0|0,1:0|0:0,0:0:0:0:
315,348,30525,1,10,0:0:0:0:
315,348,30700,6,0,B|275:362|275:362|173:329,1,134.999995880127,8|0,0:0|0:0,0:0:0:0:
132,272,31223,1,10,0:0:0:0:
60,310,31398,2,0,P|50:280|32:231,1,67.4999979400635,0|10,1:0|0:0,0:0:0:0:
76,175,31746,1,0,0:0:0:0:
1,142,31921,6,0,P|59:144|134:74,1,134.999995880127,10|10,0:0|0:0,0:0:0:0:
169,37,32444,2,0,P|211:56|250:72,1,67.4999979400635,8|2,0:0|0:0,0:0:0:0:
198,138,32793,1,0,1:0:0:0:
260,189,32967,2,0,B|272:225|272:225|237:272,2,67.4999979400635,10|4|6,3:0|3:0|3:0,0:0:0:0:
303,119,33491,6,0,L|458:85,1,134.999995880127,12|0,0:0|0:0,0:0:0:0:
501,137,34014,1,10,0:0:0:0:
440,190,34188,2,0,P|430:222|435:276,1,67.4999979400635,0|10,1:0|0:0,0:0:0:0:
487,314,34537,1,0,0:0:0:0:
421,360,34711,1,10,0:0:0:0:
358,307,34886,6,0,P|326:302|268:288,1,67.4999979400635,0|10,0:0|0:0,0:0:0:0:
223,250,35235,2,0,P|192:263|136:283,1,67.4999979400635,8|2,0:0|0:0,0:0:0:0:
79,263,35584,2,0,P|66:298|53:343,2,67.4999979400635,0|2|0,1:0|0:0|0:0,0:0:0:0:
34,195,36107,1,10,3:0:0:0:
34,195,36194,1,8,3:0:0:0:
34,195,36281,6,0,L|28:98,1,75,8|10,0:0|0:0,0:0:0:0:
78,53,36630,2,0,P|119:62|185:72,1,75,4|0,1:0|0:0,0:0:0:0:
207,128,36979,1,8,0:0:0:0:
142,179,37153,1,0,1:0:0:0:
195,241,37328,2,0,P|213:260|246:273,3,37.5,8|8|4|4,3:0|3:0|3:0|3:0,0:0:0:0:
251,295,37677,6,0,P|276:288|304:266,3,37.5,8|0|0|0,0:0|1:0|1:0|1:0,0:0:0:0:
326,291,38025,2,0,P|333:265|328:230,3,37.5,0|0|8|0,1:0|1:0|0:0|1:0,0:0:0:0:
397,202,38461,1,8,0:0:0:0:
397,202,38549,2,0,L|385:118,1,75,0|8,1:0|3:0,0:0:0:0:
443,67,38898,1,4,3:0:0:0:
300,51,39072,6,0,P|336:38|371:26,1,75,12|2,0:0|0:0,0:0:0:0:
443,67,39421,2,0,P|469:94|468:136,1,75,0|2,1:0|0:0,0:0:0:0:
424,199,39770,1,8,0:0:0:0:
424,199,39944,1,10,0:0:0:0:
344,177,40118,1,0,1:0:0:0:
291,240,40293,6,0,P|223:256|152:323,1,150,10|10,0:0|0:0,0:0:0:0:
80,295,40816,2,0,P|64:258|47:225,1,75,0|2,1:0|0:0,0:0:0:0:
91,156,41165,1,8,0:0:0:0:
91,156,41339,1,10,0:0:0:0:
41,89,41514,2,0,P|90:63|123:43,1,75,0|2,1:0|0:0,0:0:0:0:
245,121,41863,6,0,P|209:108|173:102,1,75,12|2,0:0|0:0,0:0:0:0:
171,184,42211,2,0,P|182:230|218:255,1,75,0|2,1:0|0:0,0:0:0:0:
201,247,42473,1,0,0:0:0:0:
201,247,42560,1,12,0:0:0:0:
270,202,42735,1,10,0:0:0:0:
345,234,42909,1,0,1:0:0:0:
410,183,43084,6,0,B|391:145|424:111|424:111|410:68|360:50,1,150,10|2,0:0|0:0,0:0:0:0:
326,122,43607,1,0,1:0:0:0:
326,122,43781,1,2,0:0:0:0:
254,79,43956,2,0,P|210:97|160:113,1,75,8|6,0:0|3:0,0:0:0:0:
103,86,44304,2,0,P|87:70|62:58,2,37.5,4|4|2,3:0|3:0|1:0,0:0:0:0:
174,182,44653,6,0,P|205:220|219:274,1,75,12|2,0:0|0:0,0:0:0:0:
165,310,45002,2,0,P|112:332|75:365,1,75,0|2,1:0|0:0,0:0:0:0:
24,303,45351,1,8,0:0:0:0:
24,303,45525,1,10,0:0:0:0:
73,236,45700,1,0,1:0:0:0:
15,177,45874,6,0,B|21:136|27:79|27:79|43:111|80:116,1,150,10|10,0:0|0:0,0:0:0:0:
143,82,46398,1,0,1:0:0:0:
206,134,46572,2,0,P|219:154|223:175,2,37.5,2|0|8,0:0|1:0|0:0,0:0:0:0:
256,68,46921,1,10,0:0:0:0:
329,104,47095,2,0,P|347:142|363:205,1,75,0|2,1:0|1:0,0:0:0:0:
356,173,47357,1,0,1:0:0:0:
356,173,47444,5,12,0:0:0:0:
292,223,47618,2,0,P|284:245|280:269,2,37.5,2|0|8,1:0|1:0|2:0,0:0:0:0:
241,157,47967,2,0,P|210:148|175:101,1,75,14|8,0:0|0:0,0:0:0:0:
181,117,48229,1,0,1:0:0:0:
181,117,48316,1,2,1:0:0:0:
122,175,48491,1,8,0:0:0:0:
45,145,48665,1,8,0:0:0:0:
119,292,49014,5,4,3:0:0:0:
119,292,49101,1,4,3:0:0:0:
119,292,49188,1,0,1:0:0:0:
119,292,50235,6,0,P|157:278|228:266,1,82.5000025177003,8|4,0:0|1:0,0:0:0:0:
282,304,50584,1,8,0:0:0:0:
282,304,50671,1,4,1:0:0:0:
330,229,50845,1,8,0:0:0:0:
330,229,50932,1,4,1:0:0:0:
330,229,51630,6,0,P|342:186|357:131,1,75,12|2,0:0|0:0,0:0:0:0:
308,85,51979,2,0,P|272:76|229:31,1,75,0|2,1:0|0:0,0:0:0:0:
162,74,52328,1,8,0:0:0:0:
96,24,52502,1,2,0:0:0:0:
34,79,52677,2,0,P|21:126|29:164,1,75,0|2,1:0|0:0,0:0:0:0:
79,212,53025,6,0,P|66:227|50:249,2,37.5,8|0|2,0:0|0:0|0:0,0:0:0:0:
153,174,53374,2,0,P|203:184|242:193,1,75,0|2,1:0|0:0,0:0:0:0:
287,245,53723,2,0,P|309:228|339:220,2,37.5,8|0|2,0:0|0:0|0:0,0:0:0:0:
212,281,54072,2,0,P|197:312|192:377,1,75,0|2,1:0|0:0,0:0:0:0:
270,371,54421,6,0,P|310:352|347:355,1,75,8|2,0:0|0:0,0:0:0:0:
422,357,54770,1,0,1:0:0:0:
470,290,54944,1,2,0:0:0:0:
402,242,55118,2,0,P|384:212|370:193,2,37.5,8|0|2,0:0|0:0|0:0,0:0:0:0:
475,204,55467,2,0,P|480:174|479:112,1,75,0|2,1:0|0:0,0:0:0:0:
433,61,55816,5,8,0:0:0:0:
433,61,55903,1,0,0:0:0:0:
433,61,55991,2,0,P|388:73|334:85,1,75,2|0,0:0|1:0,0:0:0:0:
280,60,56339,2,0,P|262:36|240:20,4,37.5,2|0|8|8|6,1:0|1:0|3:0|3:0|3:0,0:0:0:0:
147,159,57037,1,10,3:0:0:0:
147,159,57124,1,8,3:0:0:0:
147,159,57211,6,0,P|162:206|171:254,1,75,12|2,0:0|0:0,0:0:0:0:
117,296,57560,2,0,P|78:307|42:283,1,75,0|2,1:0|0:0,0:0:0:0:
7,220,57909,1,8,0:0:0:0:
65,161,58084,1,2,0:0:0:0:
6,102,58258,2,0,P|12:67|15:23,1,75,0|2,1:0|0:0,0:0:0:0:
96,12,58607,6,0,P|144:27|173:55,1,75,8|2,0:0|0:0,0:0:0:0:
227,94,58956,2,0,P|297:94|380:31,1,150,0|8,1:0|0:0,0:0:0:0:
445,42,59479,1,2,0:0:0:0:
479,116,59653,2,0,P|491:146|497:180,3,37.5,0|8|10|8,1:0|3:0|3:0|3:0,0:0:0:0:
460,177,60002,6,0,P|421:193|398:247,1,75,12|2,0:0|0:0,0:0:0:0:
447,288,60351,1,0,1:0:0:0:
386,343,60525,1,2,0:0:0:0:
311,307,60700,2,0,P|272:313|216:351,1,75,8|2,0:0|0:0,0:0:0:0:
162,356,61049,2,0,P|142:327|108:300,1,75,8|6,3:0|1:0,0:0:0:0:
42,255,61398,6,0,P|48:218|72:163,2,75,8|2|8,0:0|0:0|3:0,0:0:0:0:
111,302,61921,1,10,3:0:0:0:
161,237,62095,2,0,P|185:223|214:217,3,37.5,0|0|2|0,1:0|1:0|1:0|1:0,0:0:0:0:
223,190,62444,2,0,P|247:203|266:225,3,37.5,0|0|2|0,1:0|1:0|1:0|1:0,0:0:0:0:
283,239,62793,6,0,P|329:227|368:192,1,75,12|2,0:0|0:0,0:0:0:0:
332,131,63142,2,0,P|299:75|295:41,1,75,0|2,1:0|0:0,0:0:0:0:
358,10,63491,1,8,0:0:0:0:
419,64,63665,1,2,0:0:0:0:
499,45,63839,2,0,P|504:83|512:119,1,75,0|2,1:0|0:0,0:0:0:0:
466,187,64188,6,0,P|486:191|519:204,2,37.5,8|0|2,0:0|0:0|0:0,0:0:0:0:
400,237,64537,2,0,P|363:246|309:262,1,75,0|2,1:0|0:0,0:0:0:0:
254,217,64886,2,0,P|237:204|201:196,2,37.5,8|0|2,0:0|0:0|0:0,0:0:0:0:
323,172,65235,2,0,P|345:141|347:99,1,75,0|2,1:0|0:0,0:0:0:0:
300,37,65584,6,0,P|261:48|225:58,1,75,12|2,0:0|0:0,0:0:0:0:
148,36,65932,1,0,1:0:0:0:
78,81,66107,1,2,0:0:0:0:
137,137,66281,2,0,P|161:145|189:163,2,37.5,8|0|2,0:0|0:0|0:0,0:0:0:0:
62,172,66630,2,0,P|44:200|36:270,1,75,0|2,1:0|0:0,0:0:0:0:
116,281,66979,5,12,0:0:0:0:
116,281,67066,1,0,0:0:0:0:
116,281,67153,2,0,L|203:269,1,75,2|0,0:0|1:0,0:0:0:0:
266,302,67502,2,0,P|279:314|293:343,4,37.5,2|0|4|4|6,1:0|1:0|3:0|3:0|3:0,0:0:0:0:
378,180,68200,1,10,3:0:0:0:
378,180,68287,1,8,3:0:0:0:
378,180,68374,6,0,P|392:132|410:80,1,75,12|2,0:0|0:0,0:0:0:0:
331,62,68723,2,0,P|285:86|244:89,1,75,0|2,1:0|0:0,0:0:0:0:
184,64,69072,1,8,0:0:0:0:
136,131,69246,1,2,0:0:0:0:
204,178,69421,2,0,P|235:203|251:261,1,75,0|2,1:0|0:0,0:0:0:0:
211,307,69770,6,0,P|170:317|118:335,2,75,8|2|0,0:0|0:0|1:0,0:0:0:0:
287,337,70293,1,2,0:0:0:0:
340,274,70467,2,0,P|346:241|357:177,1,75,8|2,0:0|0:0,0:0:0:0:
425,160,70816,1,0,1:0:0:0:
366,101,70991,1,10,3:0:0:0:
475,25,71165,6,0,P|477:66|488:115,1,82.5000025177003,12|0,0:0|1:0,0:0:0:0:
485,106,71427,1,0,1:0:0:0:
485,106,71514,1,0,1:0:0:0:
508,193,71688,1,12,0:0:0:0:
425,160,71863,2,0,P|401:150|380:136,3,41.2500012588501,0|0|0|0,1:0|1:0|1:0|1:0,0:0:0:0:
349,118,72211,2,0,P|325:128|304:142,3,41.2500012588501,4|4|8|8,3:0|3:0|3:0|3:0,0:0:0:0:
271,114,72560,6,0,B|258:90|258:90|282:31,1,82.5000025177003,8|4,0:0|0:3,0:0:0:0:
187,43,72909,1,0,1:0:0:0:
187,43,73084,1,12,0:0:0:0:
187,43,73956,5,12,0:0:0:0:
266,23,74130,2,0,B|275:85|284:112|284:112|254:121|232:159,1,150,10|6,3:0|3:0,0:0:0:0:
156,152,74653,2,0,P|128:144|97:108,1,75,0|10,1:0|3:0,0:0:0:0:
21,141,75002,1,0,0:0:0:0:
64,300,75351,6,0,P|39:287|10:279,2,50,8|2|2,0:0|0:3|0:3,0:0:0:0:
113,275,75700,2,0,P|111:246|104:217,2,50,8|2|2,0:0|0:3|0:3,0:0:0:0:
160,302,76049,2,0,P|183:286|205:265,2,50,0|2|2,1:0|0:3|0:3,0:0:0:0:
157,357,76398,2,0,P|204:358|252:372,1,75,8|0,0:0|0:0,0:0:0:0:
308,337,76746,5,8,0:0:0:0:
359,271,76921,2,0,P|382:277|410:292,2,37.5,10|0|4,3:0|0:0|3:0,0:0:0:0:
286,230,77270,1,6,3:0:0:0:
345,172,77444,1,0,1:0:0:0:
345,172,77531,2,0,L|435:157,1,75,0|0,1:0|0:0,0:0:0:0:
435,167,77793,2,0,L|442:61,1,75,8|6,3:0|3:0,0:0:0:0:
385,29,78142,5,12,0:0:0:0:
223,65,78491,1,0,1:0:0:0:
223,65,78665,1,10,0:0:0:0:
385,29,79014,2,0,P|439:57|473:69,1,75,10|0,0:0|1:0,0:0:0:0:
424,140,79363,6,0,P|347:157|276:191,1,150,14|10,0:0|3:0,0:0:0:0:
200,177,79886,2,0,P|178:168|149:118,1,75,0|2,1:0|0:0,0:0:0:0:
150,126,80148,1,0,1:0:0:0:
150,126,80235,1,8,0:0:0:0:
202,63,80409,1,10,0:0:0:0:
124,35,80584,1,0,1:0:0:0:
74,100,80758,6,0,P|52:201|47:268,1,150,10|10,0:0|0:0,0:0:0:0:
104,307,81281,1,0,1:0:0:0:
180,276,81456,2,0,P|194:285|216:308,2,37.5,2|0|8,0:0|0:0|0:0,0:0:0:0:
135,206,81804,1,10,0:0:0:0:
205,161,81979,2,0,P|251:153|295:146,1,75,0|2,1:0|0:0,0:0:0:0:
347,195,82328,5,8,0:0:0:0:
347,195,82502,1,2,0:0:0:0:
409,140,82677,2,0,B|422:120|422:120|397:52,1,75,0|2,1:0|0:0,0:0:0:0:
343,16,83025,1,8,0:0:0:0:
272,59,83200,2,0,P|237:53|190:43,1,75,10|0,0:0|1:0,0:0:0:0:
135,99,83549,6,0,B|148:130|148:130|105:206|105:206|112:258,1,150,10|10,0:0|0:0,0:0:0:0:
191,227,84072,1,0,1:0:0:0:
152,303,84246,2,0,B|135:319|135:319|70:308,1,75,10|0,0:0|0:0,0:0:0:0:
21,256,84595,1,10,0:0:0:0:
21,256,84944,6,0,P|65:212|104:129,1,150,14|6,0:0|3:0,0:0:0:0:
61,61,85467,2,0,P|94:41|133:33,1,75,0|2,1:0|0:0,0:0:0:0:
129,33,85729,1,0,0:0:0:0:
129,33,85816,1,8,0:0:0:0:
179,108,85991,1,10,0:0:0:0:
255,78,86165,1,0,1:0:0:0:
312,137,86339,6,0,B|365:143|365:143|411:101|481:109,1,150,10|10,0:0|0:0,0:0:0:0:
478,186,86863,1,0,1:0:0:0:
403,220,87037,2,0,P|385:252|376:290,1,75,2|8,0:0|0:0,0:0:0:0:
376,289,87299,1,0,0:0:0:0:
376,289,87386,1,10,0:0:0:0:
295,271,87560,1,0,1:0:0:0:
233,325,87735,6,0,B|195:346|195:346|72:288,1,150,14|10,0:0|0:0,0:0:0:0:
33,249,88258,1,0,1:0:0:0:
101,203,88432,2,0,B|118:181|118:181|70:101|70:101|100:56,1,150,14|10,0:0|0:0,0:0:0:0:
165,101,88956,1,0,1:0:0:0:
229,49,89130,6,0,B|260:59|260:59|342:35|342:35|367:-4,1,150,14|6,0:0|3:0,0:0:0:0:
424,59,89653,1,0,1:0:0:0:
371,122,89828,2,0,B|364:168|334:183|334:183|344:238|404:252,1,150,14|6,0:0|3:0,0:0:0:0:
376,242,90264,1,0,0:0:0:0:
376,242,90351,1,8,0:0:0:0:
224,308,90700,6,0,P|183:291|138:286,1,75,12|0,0:0|1:0,0:0:0:0:
152,286,90961,1,0,1:0:0:0:
152,286,91049,1,4,3:0:0:0:
83,242,91223,2,0,P|77:205|103:166,1,75,12|0,0:0|1:0,0:0:0:0:
95,172,91485,1,0,1:0:0:0:
95,172,91572,1,0,1:0:0:0:
56,100,91746,2,0,P|44:82|15:68,4,37.5,4|4|8|8|8,3:0|3:0|3:0|3:0|0:0,0:0:0:0:
139,96,92270,6,0,P|189:67|258:49,2,112.5,4|4|4,1:0|1:0|1:0,0:0:0:0:
139,96,93142,1,0,0:0:0:0:
139,96,93491,5,4,0:0:0:0:
345,238,98374,5,8,3:0:0:0:
345,238,98549,1,8,3:0:0:0:
345,238,99072,6,0,P|356:200|378:144,1,75,12|2,0:0|0:0,0:0:0:0:
317,101,99421,2,0,P|275:83|257:34,1,75,8|2,0:0|0:0,0:0:0:0:
181,33,99770,1,8,0:0:0:0:
181,33,99944,1,2,0:0:0:0:
108,72,100118,2,0,P|89:108|86:152,1,75,8|2,0:0|0:0,0:0:0:0:
145,197,100467,6,0,P|168:197|191:206,2,37.5,8|0|2,0:0|0:0|0:0,0:0:0:0:
64,217,100816,2,0,P|43:241|46:307,1,75,8|2,0:0|0:0,0:0:0:0:
70,358,101165,2,0,P|47:362|16:372,2,37.5,8|0|2,0:0|0:0|0:0,0:0:0:0:
144,320,101514,2,0,P|184:328|250:349,1,75,8|2,0:0|0:0,0:0:0:0:
267,271,101863,6,0,B|281:247|281:247|253:179,1,75,8|2,0:0|0:0,0:0:0:0:
191,161,102211,1,8,0:0:0:0:
191,161,102386,1,2,0:0:0:0:
253,107,102560,2,0,L|349:121,1,75,8|6,0:0|3:0,0:0:0:0:
393,68,102909,1,8,0:0:0:0:
468,101,103084,1,10,3:0:0:0:
408,158,103258,6,0,B|399:195|399:195|425:247,1,75,8|0,0:0|1:0,0:0:0:0:
375,300,103607,2,0,P|391:315|400:337,3,37.5,0|0|8|0,1:0|1:0|0:0|1:0,0:0:0:0:
483,343,104043,1,8,0:0:0:0:
483,343,104130,2,0,P|489:296|500:247,1,75,0|8,1:0|3:0,0:0:0:0:
485,186,104479,1,4,3:0:0:0:
407,213,104653,6,0,P|381:205|327:160,1,75,12|2,0:0|0:0,0:0:0:0:
280,122,105002,2,0,P|232:146|199:179,1,75,0|2,1:0|0:0,0:0:0:0:
160,220,105351,1,8,0:0:0:0:
91,174,105525,1,2,0:0:0:0:
135,104,105700,2,0,P|112:71|70:29,1,75,0|2,1:0|0:0,0:0:0:0:
6,39,106049,6,0,P|8:24|15:2,2,37.5,8|0|2,0:0|0:0|0:0,0:0:0:0:
33,116,106398,2,0,P|34:157|12:218,1,75,0|2,1:0|0:0,0:0:0:0:
58,265,106746,2,0,P|41:280|30:306,2,37.5,8|0|2,0:0|0:0|0:0,0:0:0:0:
130,225,107095,2,0,P|170:234|229:266,1,75,0|2,1:0|0:0,0:0:0:0:
250,313,107444,6,0,P|291:301|349:297,1,75,12|2,0:0|0:0,0:0:0:0:
390,345,107793,1,0,1:0:0:0:
452,291,107967,1,2,0:0:0:0:
401,225,108142,2,0,P|408:201|441:173,2,37.5,8|0|2,0:0|0:0|0:0,0:0:0:0:
318,219,108491,2,0,P|294:192|234:170,1,75,0|2,1:0|0:0,0:0:0:0:
222,100,108839,6,0,P|266:75|304:60,1,75,12|2,0:0|0:0,0:0:0:0:
363,99,109188,1,0,1:0:0:0:
422,41,109363,2,0,P|443:20|467:6,4,37.5,2|0|8|8|10,1:0|1:0|3:0|3:0|3:0,0:0:0:0:
428,205,110060,1,6,3:0:0:0:
428,205,110148,1,4,3:0:0:0:
428,205,110235,6,0,P|450:250|474:291,1,75,8|2,0:0|0:0,0:0:0:0:
402,328,110584,2,0,P|364:319|327:306,1,75,0|2,1:0|0:0,0:0:0:0:
278,243,110932,1,8,0:0:0:0:
199,270,111107,1,2,0:0:0:0:
155,200,111281,2,0,P|138:161|94:129,1,75,0|2,1:0|0:0,0:0:0:0:
34,117,111630,6,0,P|112:97|194:60,1,150,8|0,0:0|1:0,0:0:0:0:
251,36,112153,1,2,0:0:0:0:
300,102,112328,2,0,P|329:141|323:190,1,75,8|2,0:0|0:0,0:0:0:0:
270,222,112677,2,0,P|283:264|340:287,1,75,0|2,1:0|0:0,0:0:0:0:
397,210,113025,6,0,P|433:193|478:183,1,82.5000025177003,12|2,0:0|0:0,0:0:0:0:
474,183,113287,1,0,1:0:0:0:
474,183,113374,1,0,1:0:0:0:
409,118,113549,2,0,P|460:104|512:100,1,82.5000025177003,14|0,0:0|0:0,0:0:0:0:
422,30,113898,1,0,1:0:0:0:
422,30,113985,1,0,1:0:0:0:
422,30,114072,2,0,P|387:21|362:7,3,41.2500012588501,8|8|8|4,0:0|3:0|3:0|3:0,0:0:0:0:
340,36,114421,6,0,P|320:70|308:130,1,82.5000025177003,12|8,0:0|0:0,0:0:0:0:
237,64,114770,1,0,1:0:0:0:
237,64,114944,1,12,0:0:0:0:
237,64,115816,6,0,P|199:74|149:83,1,75,12|0,0:0|0:0,0:0:0:0:
85,56,116165,1,8,3:0:0:0:
36,122,116339,2,0,P|20:159|19:211,1,75,0|0,1:0|0:0,0:0:0:0:
71,255,116688,1,8,3:0:0:0:
131,198,116863,6,0,B|161:230|161:230|155:277,2,75,0|8|4,1:0|3:0|3:0,0:0:0:0:
187,137,117386,2,0,L|196:87,2,37.5,0|0|0,0:0|1:0|1:0,0:0:0:0:
256,182,117735,1,10,0:0:0:0:
322,133,117909,1,0,0:0:0:0:
381,190,118084,2,0,P|388:233|358:291,1,75,10|0,0:0|0:0,0:0:0:0:
314,312,118432,1,12,0:0:0:0:
256,192,118607,12,8,121049,0:0:0:0:
