osu file format v14

[General]
AudioFilename: audio.mp3
AudioLeadIn: 0
PreviewTime: 50191
Countdown: 0
SampleSet: Soft
StackLeniency: 0.3
Mode: 0
LetterboxInBreaks: 0
WidescreenStoryboard: 0

[Editor]
Bookmarks: 16746,27909,39072,51630,73956,93491,115816
DistanceSpacing: 0.8
BeatDivisor: 4
GridSize: 32
TimelineZoom: 1.4

[Metadata]
Title:Hurt Urge
TitleUnicode:Hurt Urge
Artist:polysha feat. Sennzai
ArtistUnicode:polysha feat. Sennzai
Creator:Down
Version:Extra
Source:
Tags:rock japanese mappers' guild mpg fa featured artist
BeatmapID:2884476
BeatmapSetID:1397802

[Difficulty]
HPDrainRate:5
CircleSize:4.2
OverallDifficulty:8.4
ApproachRate:9.2
SliderMultiplier:2.1
SliderTickRate:1

[Events]
//Background and Video events
0,0,"bg.jpg",0,0
//Break Periods
2,93691,97804
//Storyboard Layer 0 (Background)
//Storyboard Layer 1 (Fail)
//Storyboard Layer 2 (Pass)
//Storyboard Layer 3 (Foreground)
//Storyboard Layer 4 (Overlay)
//Storyboard Sound Samples

[TimingPoints]
1398,348.837209302326,4,2,1,70,1,0
5235,-100,4,2,1,5,0,0
5584,-83.3333333333333,4,2,1,60,0,0
15525,-66.6666666666667,4,2,1,70,0,0
16746,-100,4,2,1,50,0,0
27909,-90.9090909090909,4,2,1,55,0,0
36281,-83.3333333333333,4,2,1,70,0,0
50235,-66.6666666666667,4,2,1,80,0,0
51630,-83.3333333333333,4,2,1,70,0,1
71165,-66.6666666666667,4,2,1,80,0,1
73084,-200,4,2,1,70,0,0
73956,-100,4,2,1,60,0,0
78142,-83.3333333333333,4,2,1,70,0,0
90700,-66.6666666666667,4,2,1,80,0,0
98374,-66.6666666666667,4,2,1,50,0,0
99072,-100,4,2,1,60,0,0
101863,-90.9090909090909,4,2,1,60,0,0
104653,-83.3333333333333,4,2,1,70,0,1
113025,-66.6666666666667,4,2,1,80,0,1
114944,-66.6666666666667,4,2,1,80,0,0
115816,-83.3333333333333,4,2,1,70,0,0

[Colours]
Combo1 : 189,224,255
Combo2 : 166,251,145
Combo3 : 243,157,255
Combo4 : 254,252,173

[HitObjects]
189,113,700,5,12,0:0:0:0:
189,113,874,5,0,1:0:0:0:
174,105,961,1,8,3:0:0:0:
149,107,1049,1,8,3:0:0:0:
128,133,1136,1,4,3:0:0:0:
125,180,1223,1,4,3:0:0:0:
172,220,1310,1,0,1:0:0:0:
243,193,1398,6,0,P|272:187|319:179,1,52.5,12|0,0:0|0:0,0:0:0:0:
400,104,1572,2,0,P|421:119|446:132,1,52.5,8|0,3:0|0:0,0:0:0:0:
457,257,1746,1,0,1:0:0:0:
457,257,1921,6,0,P|467:302|473:313,1,52.5,12|0,0:0|0:0,0:0:0:0:
294,182,2095,2,0,P|277:213|278:238,1,52.5,4|0,3:0|0:0,0:0:0:0:
196,318,2270,1,0,1:0:0:0:
186,328,2357,1,0,1:0:0:0:
163,331,2444,1,12,0:0:0:0:
132,309,2531,1,0,0:0:0:0:
105,269,2618,1,4,3:0:0:0:
57,256,2706,1,0,0:0:0:0:
12,298,2793,6,0,P|5:329|-1:367,1,52.5,12|0,0:0|0:0,0:0:0:0:
17,166,2967,2,0,P|56:179|82:187,1,52.5,4|0,3:0|0:0,0:0:0:0:
203,117,3142,1,0,1:0:0:0:
37,21,3316,1,12,0:0:0:0:
256,192,3491,12,0,5235,0:0:0:0:
203,117,5584,6,0,P|268:108|357:92,1,125.999996154785,12|2,0:0|0:0,0:0:0:0:
438,246,5932,2,0,P|372:254|284:271,1,125.999996154785,0|2,1:0|0:0,0:0:0:0:
208,198,6194,1,0,0:0:0:0:
208,198,6281,2,0,P|225:234|236:273,1,62.9999980773926,8|0,0:0|0:0,0:0:0:0:
96,357,6456,2,0,P|74:301|19:222,1,125.999996154785,2|0,0:0|1:0,0:0:0:0:
70,32,6804,1,2,0:0:0:0:
105,55,6892,1,0,0:0:0:0:
128,51,6979,6,0,P|60:75|2:79,1,125.999996154785,8|2,0:0|0:0,0:0:0:0:
30,156,7241,2,0,P|73:171|111:194,1,62.9999980773926,0|0,0:0|1:0,0:0:0:0:
202,133,7415,1,0,0:0:0:0:
202,133,7502,2,0,P|214:188|237:275,1,125.999996154785,2|8,0:0|0:0,0:0:0:0:
304,287,7764,2,0,P|328:254|371:229,1,62.9999980773926,0|2,0:0|0:0,0:0:0:0:
433,147,7938,1,0,0:0:0:0:
433,147,8025,6,0,P|422:108|397:63,1,62.9999980773926,0|0,1:0|0:0,0:0:0:0:
499,39,8200,1,2,0:0:0:0:
424,226,8374,6,0,P|447:300|463:375,1,125.999996154785,8|2,0:0|0:0,0:0:0:0:
304,287,8723,2,0,P|289:225|270:165,1,125.999996154785,0|2,1:0|0:0,0:0:0:0:
381,158,8985,1,0,0:0:0:0:
381,158,9072,2,0,P|410:141|459:115,1,62.9999980773926,8|0,0:0|0:0,0:0:0:0:
397,23,9246,2,0,P|337:57|262:103,1,125.999996154785,2|0,0:0|1:0,0:0:0:0:
144,238,9595,1,2,0:0:0:0:
179,215,9683,1,0,0:0:0:0:
202,219,9770,6,0,P|175:169|70:143,1,125.999996154785,8|2,0:0|0:0,0:0:0:0:
79,71,10031,2,0,P|51:85|-9:104,1,62.9999980773926,0|0,0:0|1:0,0:0:0:0:
199,31,10206,1,0,0:0:0:0:
199,31,10293,2,8,P|277:58|341:68,1,125.999996154785,10|8,3:0|3:0,3:0:0:0:
445,102,10554,1,8,3:0:0:0:
455,97,10642,1,6,3:0:0:0:
457,73,10729,1,4,3:0:0:0:
482,55,10816,5,0,1:0:0:0:
492,94,10903,1,0,1:0:0:0:
465,140,10991,1,2,1:0:0:0:
406,156,11078,1,0,1:0:0:0:
333,137,11165,6,0,B|298:188|320:235|343:215|363:261|335:314,1,188.999994232178,8|0,0:0|0:0,0:0:0:0:
257,318,11514,2,0,P|215:337|180:366,1,62.9999980773926,0|0,1:0|0:0,0:0:0:0:
84,203,11688,1,2,0:0:0:0:
107,206,11776,1,0,0:0:0:0:
136,190,11863,6,0,P|159:160|170:115,1,62.9999980773926,8|0,0:0|0:0,0:0:0:0:
9,170,12037,2,0,P|54:233|63:318,1,125.999996154785,10|0,0:0|1:0,0:0:0:0:
64,279,12386,6,0,P|85:149|102:72,1,188.999994232178,10|0,0:0|0:0,0:0:0:0:
45,40,12735,1,10,0:0:0:0:
221,114,12909,1,0,1:0:0:0:
372,43,13084,1,2,0:0:0:0:
372,43,13171,2,0,P|441:56|506:66,1,125.999996154785,0|0,1:0|0:0,0:0:0:0:
502,139,13432,2,0,P|482:168|470:205,1,62.9999980773926,10|0,0:0|0:0,0:0:0:0:
349,294,13607,1,0,1:0:0:0:
335,166,13781,1,6,3:0:0:0:
335,166,13869,1,0,0:0:0:0:
335,166,13956,6,0,P|358:196|369:241,1,62.9999980773926,8|0,0:0|0:0,0:0:0:0:
420,334,14130,1,0,1:0:0:0:
478,351,14217,1,0,1:0:0:0:
500,333,14304,1,0,1:0:0:0:
349,294,14479,6,0,P|330:301|270:319,1,62.9999980773926,8|0,0:0|0:0,0:0:0:0:
161,347,14653,2,0,P|128:325|92:313,1,62.9999980773926,8|0,3:0|0:0,0:0:0:0:
53,199,14828,1,0,1:0:0:0:
53,199,15002,5,8,0:0:0:0:
72,219,15089,1,0,0:0:0:0:
123,236,15177,1,4,3:0:0:0:
179,211,15264,1,0,1:0:0:0:
230,266,15351,5,8,0:0:0:0:
230,266,15525,2,0,P|344:282|396:324,1,157.500006008148,12|0,0:0|0:0,0:0:0:0:
420,242,15787,2,0,P|411:159|496:102,1,157.500006008148,12|0,0:0|0:0,0:0:0:0:
390,138,16049,2,0,P|330:104|377:54,1,157.500006008148,12|0,0:0|0:0,0:0:0:0:
453,33,16310,1,2,0:0:0:0:
468,26,16398,1,2,0:0:0:0:
468,26,16746,5,12,0:0:0:0:
272,110,17095,2,0,P|260:158|248:213,1,105,0|2,0:0|0:0,0:0:0:0:
119,241,17444,2,0,P|143:302|157:358,1,105,0|2,0:0|0:0,0:0:0:0:
220,283,17793,1,0,0:0:0:0:
349,249,17967,1,2,0:0:0:0:
449,348,18142,6,0,P|454:311|486:224,1,105,0|2,0:0|0:0,0:0:0:0:
349,249,18491,1,0,0:0:0:0:
195,178,18665,1,2,0:0:0:0:
262,140,18839,2,0,P|270:92|286:11,1,105,0|2,0:0|0:0,0:0:0:0:
136,51,19188,1,0,0:0:0:0:
9,131,19363,2,0,P|42:143|65:150,1,52.5,10|0,0:0|0:0,0:0:0:0:
121,197,19537,6,0,P|95:147|49:36,1,157.5,8|0,0:0|0:0,0:0:0:0:
55,53,19886,1,0,0:0:0:0:
51,224,20060,1,2,0:0:0:0:
180,249,20235,2,0,P|168:310|170:370,1,105,0|2,0:0|0:0,0:0:0:0:
247,205,20584,1,0,0:0:0:0:
384,322,20758,6,0,P|446:331|509:366,1,105,2|0,0:0|0:0,0:0:0:0:
484,348,21107,2,0,P|490:305|417:296,1,105,2|0,0:0|0:0,0:0:0:0:
317,367,21456,1,2,0:0:0:0:
371,245,21630,2,0,P|388:199|395:133,1,105,0|2,0:0|0:0,0:0:0:0:
287,33,21979,1,0,0:0:0:0:
402,38,22153,2,0,P|433:58|455:85,1,52.5,10|0,0:0|0:0,0:0:0:0:
490,128,22328,6,0,P|437:109|322:91,1,157.5,8|0,0:0|0:0,0:0:0:0:
337,91,22677,1,0,0:0:0:0:
213,122,22851,1,2,0:0:0:0:
100,232,23025,1,0,0:0:0:0:
179,246,23200,1,2,0:0:0:0:
306,356,23374,2,0,P|361:347|416:336,1,105,0|2,0:0|0:0,0:0:0:0:
228,338,23723,6,0,P|210:302|158:213,1,105,0|2,0:0|0:0,0:0:0:0:
106,94,24072,1,0,0:0:0:0:
27,176,24246,1,2,0:0:0:0:
106,94,24421,2,0,P|177:109|231:119,1,105,0|2,0:0|0:0,0:0:0:0:
365,205,24770,1,0,0:0:0:0:
421,45,24944,2,0,P|412:69|403:94,1,52.5,10|0,0:0|0:0,0:0:0:0:
335,134,25118,6,0,P|442:120|516:112,1,157.5,8|0,0:0|0:0,0:0:0:0:
491,114,25467,1,0,0:0:0:0:
428,286,25642,1,2,0:0:0:0:
287,243,25816,2,0,P|302:294|312:357,1,105,0|2,0:0|0:0,0:0:0:0:
146,307,26165,1,0,0:0:0:0:
287,243,26339,1,2,0:0:0:0:
200,157,26514,6,0,P|183:147|151:119,1,52.5,8|0,0:0|0:0,0:0:0:0:
23,301,26688,2,0,P|49:292|79:282,1,52.5,2|0,1:0|0:0,0:0:0:0:
146,307,26863,1,8,0:0:0:0:
89,159,27037,1,10,0:0:0:0:
213,265,27211,6,0,P|273:275|320:294,1,105,8|2,3:0|0:0,0:0:0:0:
417,363,27473,2,0,P|468:339|468:271,1,105,4|0,3:0|0:0,0:0:0:0:
396,220,27735,1,2,1:0:0:0:
377,209,27822,1,0,1:0:0:0:
338,218,27909,6,0,P|314:164|291:94,2,115.50000352478,12|2|0,0:0|0:0|0:0,0:0:0:0:
457,89,28432,1,2,0:0:0:0:
457,89,28607,2,0,P|447:125|445:170,1,57.7500017623902,0|0,1:0|0:0,0:0:0:0:
418,234,28781,1,2,0:0:0:0:
282,274,28956,1,0,0:0:0:0:
132,151,29130,6,0,P|102:93|57:40,1,115.50000352478,10|0,0:0|0:0,0:0:0:0:
70,53,29479,2,0,P|128:30|152:25,1,57.7500017623902,10|0,0:0|0:0,0:0:0:0:
292,58,29653,2,0,P|349:81|418:106,1,115.50000352478,8|2,0:0|0:0,0:0:0:0:
485,86,29915,1,0,0:0:0:0:
496,77,30002,1,0,1:0:0:0:
438,168,30177,1,2,0:0:0:0:
313,241,30351,5,0,0:0:0:0:
388,269,30525,1,10,0:0:0:0:
232,338,30700,6,0,P|196:346|88:375,2,115.50000352478,8|2|0,0:0|0:0|0:0,0:0:0:0:
420,366,31223,1,10,0:0:0:0:
420,366,31398,2,0,P|389:355|344:339,1,57.7500017623902,0|0,1:0|0:0,0:0:0:0:
279,277,31572,1,10,0:0:0:0:
374,203,31746,1,0,0:0:0:0:
299,62,31921,6,0,P|245:54|156:19,1,115.50000352478,10|0,0:0|0:0,0:0:0:0:
91,136,32270,2,0,P|60:156|50:196,1,57.7500017623902,10|0,0:0|0:0,0:0:0:0:
52,175,32444,2,0,P|65:248|74:305,1,115.50000352478,8|2,0:0|0:0,0:0:0:0:
140,339,32706,1,0,0:0:0:0:
151,328,32793,1,0,1:0:0:0:
265,242,32967,1,10,3:0:0:0:
125,147,33142,5,4,3:0:0:0:
198,170,33316,1,6,3:0:0:0:
339,116,33491,6,0,P|349:71|388:4,1,115.50000352478,12|2,0:0|0:0,0:0:0:0:
494,133,33839,2,0,P|468:169|418:257,1,115.50000352478,0|10,0:0|0:0,0:0:0:0:
356,206,34101,1,0,0:0:0:0:
344,193,34188,1,0,1:0:0:0:
209,270,34363,1,10,0:0:0:0:
75,195,34537,1,0,0:0:0:0:
146,154,34711,6,0,P|86:153|27:108,1,115.50000352478,10|0,0:0|0:0,0:0:0:0:
272,56,35060,2,0,P|255:38|233:2,1,57.7500017623902,10|0,0:0|0:0,0:0:0:0:
347,27,35235,2,0,P|308:78|326:171,1,115.50000352478,8|2,0:0|0:0,0:0:0:0:
234,164,35496,1,0,0:0:0:0:
224,176,35584,1,0,1:0:0:0:
287,313,35758,1,2,0:0:0:0:
409,336,35932,1,0,0:0:0:0:
483,285,36107,1,10,3:0:0:0:
463,284,36194,1,8,3:0:0:0:
435,267,36281,5,8,0:0:0:0:
273,243,36456,2,0,P|244:252|218:289,1,62.9999980773926,10|0,0:0|0:0,0:0:0:0:
133,361,36630,2,0,P|112:287|57:179,1,188.999994232178,4|0,1:0|0:0,0:0:0:0:
4,329,36979,6,0,P|42:335|51:364,1,62.9999980773926,8|0,0:0|0:0,0:0:0:0:
206,332,37153,2,0,P|226:290|207:256,1,62.9999980773926,0|0,1:0|0:0,0:0:0:0:
202,160,37328,1,8,3:0:0:0:
145,153,37415,1,8,3:0:0:0:
108,123,37502,1,4,3:0:0:0:
100,89,37589,1,4,3:0:0:0:
108,69,37677,5,8,0:0:0:0:
94,72,37764,1,0,1:0:0:0:
80,91,37851,1,0,1:0:0:0:
54,114,37938,1,0,1:0:0:0:
9,141,38025,5,0,1:0:0:0:
39,147,38113,1,0,1:0:0:0:
73,192,38200,1,8,0:0:0:0:
140,176,38287,2,0,P|175:159|194:130,1,62.9999980773926,0|0,1:0|0:0,0:0:0:0:
329,13,38461,5,8,0:0:0:0:
329,13,38549,2,0,P|332:51|339:116,1,62.9999980773926,0|0,1:0|0:0,0:0:0:0:
373,189,38723,1,8,3:0:0:0:
423,153,38810,1,4,3:0:0:0:
465,155,38898,1,4,3:0:0:0:
486,130,38985,1,4,3:0:0:0:
504,131,39072,6,0,P|499:166|491:215,1,62.9999980773926,12|0,0:0|0:0,0:0:0:0:
411,253,39246,2,0,P|423:284|440:338,1,62.9999980773926,2|0,0:0|0:0,0:0:0:0:
270,258,39421,2,0,P|278:183|280:124,1,125.999996154785,0|2,1:0|0:0,0:0:0:0:
356,102,39682,1,0,0:0:0:0:
365,90,39770,1,8,0:0:0:0:
203,198,39944,1,10,0:0:0:0:
129,30,40118,2,0,P|170:29|191:63,1,62.9999980773926,0|0,1:0|0:0,0:0:0:0:
263,47,40293,6,0,P|165:71|80:94,1,188.999994232178,10|0,0:0|0:0,0:0:0:0:
79,94,40642,1,10,0:0:0:0:
33,223,40816,2,0,P|97:293|127:329,1,125.999996154785,0|2,1:0|0:0,0:0:0:0:
203,198,41078,1,0,0:0:0:0:
203,198,41165,2,0,P|248:186|297:171,1,62.9999980773926,8|0,0:0|0:0,0:0:0:0:
367,274,41339,2,0,P|362:299|358:343,1,62.9999980773926,10|0,0:0|0:0,0:0:0:0:
444,197,41514,1,0,1:0:0:0:
283,293,41688,1,2,0:0:0:0:
263,181,41863,6,0,P|270:119|280:50,1,125.999996154785,12|2,0:0|0:0,0:0:0:0:
135,22,42211,2,0,P|85:63|30:95,1,125.999996154785,0|2,1:0|0:0,0:0:0:0:
45,176,42473,1,0,0:0:0:0:
59,166,42560,1,12,0:0:0:0:
192,117,42735,1,10,0:0:0:0:
257,276,42909,2,0,P|222:291|215:323,1,62.9999980773926,0|0,1:0|0:0,0:0:0:0:
137,319,43084,6,0,P|253:338|346:354,1,188.999994232178,10|0,0:0|0:0,0:0:0:0:
370,290,43432,2,0,P|401:279|436:269,1,62.9999980773926,2|0,0:0|0:0,0:0:0:0:
462,142,43607,1,0,1:0:0:0:
308,197,43781,2,0,P|270:178|207:157,1,62.9999980773926,2|0,0:0|0:0,0:0:0:0:
317,15,43956,6,0,P|331:42|344:71,1,62.9999980773926,8|0,0:0|0:0,0:0:0:0:
273,99,44130,2,0,P|260:70|245:42,1,62.9999980773926,6|0,3:0|0:0,0:0:0:0:
103,14,44304,1,4,3:0:0:0:
44,29,44391,1,4,3:0:0:0:
34,55,44478,1,2,1:0:0:0:
34,55,44653,6,0,P|52:90|62:121,1,62.9999980773926,12|0,0:0|0:0,0:0:0:0:
173,181,44828,2,0,P|161:216|143:276,1,62.9999980773926,2|0,0:0|0:0,0:0:0:0:
273,99,45002,2,0,P|299:157|323:239,1,125.999996154785,0|2,1:0|0:0,0:0:0:0:
251,258,45264,1,0,0:0:0:0:
235,251,45351,1,8,0:0:0:0:
390,173,45525,1,10,0:0:0:0:
420,319,45700,2,0,P|394:290|347:300,1,62.9999980773926,0|0,1:0|0:0,0:0:0:0:
302,322,45874,6,0,P|407:333|496:363,1,188.999994232178,10|0,0:0|0:0,0:0:0:0:
486,358,46223,1,10,0:0:0:0:
475,174,46398,2,0,P|487:125|506:38,1,125.999996154785,0|2,1:0|0:0,0:0:0:0:
435,16,46659,1,0,1:0:0:0:
423,26,46746,1,8,0:0:0:0:
377,116,46921,1,10,0:0:0:0:
240,168,47095,1,0,1:0:0:0:
68,72,47270,1,2,1:0:0:0:
51,55,47357,1,0,1:0:0:0:
55,43,47444,5,12,0:0:0:0:
121,178,47618,1,2,1:0:0:0:
76,216,47706,1,0,1:0:0:0:
43,211,47793,2,0,P|70:223|88:249,1,62.9999980773926,8|0,2:0|0:0,0:0:0:0:
216,353,47967,5,14,0:0:0:0:
340,254,48142,1,8,0:0:0:0:
380,227,48229,1,0,1:0:0:0:
363,221,48316,1,2,1:0:0:0:
190,140,48491,6,0,P|229:133|264:129,1,62.9999980773926,8|0,0:0|0:0,0:0:0:0:
333,65,48665,6,0,B|383:69|448:131|448:131|432:104|437:70,1,188.999994232178,8|0,0:0|0:0,0:0:0:0:
512,83,49014,1,4,3:0:0:0:
507,42,49101,1,4,3:0:0:0:
455,6,49188,1,0,1:0:0:0:
455,6,50235,5,8,0:0:0:0:
318,163,50409,6,0,L|336:289,1,78.7500030040742,4|0,1:0|0:0,0:0:0:0:
393,336,50584,5,8,0:0:0:0:
460,297,50672,2,0,B|469:262|469:262|356:284,1,78.7500030040742,4|0,1:0|0:0,0:0:0:0:
267,288,50845,5,8,0:0:0:0:
200,249,50933,2,0,B|153:272|153:272|52:185|52:185|-5:208,1,236.250009012223,4|0,1:0|0:0,0:0:0:0:
5,203,51281,5,0,0:0:0:0:
5,203,51630,6,0,B|72:193|72:193|104:118,1,125.999996154785,12|2,0:0|0:0,0:0:0:0:
252,48,51979,2,0,P|317:61|387:78,1,125.999996154785,0|2,1:0|0:0,0:0:0:0:
492,38,52328,1,8,0:0:0:0:
356,150,52502,1,2,0:0:0:0:
504,265,52677,2,0,P|482:258|444:243,1,62.9999980773926,0|0,1:0|0:0,0:0:0:0:
501,180,52851,1,2,0:0:0:0:
383,300,53025,5,8,0:0:0:0:
369,311,53113,1,0,0:0:0:0:
328,317,53200,2,0,P|264:301|193:292,1,125.999996154785,2|0,0:0|1:0,0:0:0:0:
151,174,53549,2,0,P|115:182|51:204,1,62.9999980773926,2|0,0:0|0:0,0:0:0:0:
36,133,53723,5,8,0:0:0:0:
46,120,53810,1,0,0:0:0:0:
37,86,53898,2,0,P|114:57|114:-1,1,125.999996154785,2|0,0:0|1:0,0:0:0:0:
246,90,54246,2,0,P|237:126|231:177,1,62.9999980773926,2|0,0:0|0:0,0:0:0:0:
328,317,54421,5,8,0:0:0:0:
490,267,54595,1,2,0:0:0:0:
401,356,54770,2,0,P|407:294|417:195,1,125.999996154785,0|2,1:0|0:0,0:0:0:0:
303,112,55118,1,8,0:0:0:0:
300,96,55206,1,0,0:0:0:0:
317,67,55293,1,2,0:0:0:0:
462,8,55467,2,0,P|487:39|474:90,1,62.9999980773926,0|0,1:0|0:0,0:0:0:0:
425,156,55642,2,0,P|383:164|343:177,1,62.9999980773926,2|0,0:0|0:0,0:0:0:0:
224,109,55816,6,0,P|217:172|213:234,1,125.999996154785,8|2,0:0|0:0,0:0:0:0:
150,295,56078,1,0,0:0:0:0:
144,277,56165,1,0,1:0:0:0:
322,302,56339,5,2,1:0:0:0:
389,276,56427,1,0,1:0:0:0:
429,305,56514,1,8,3:0:0:0:
433,344,56601,1,8,3:0:0:0:
446,339,56688,1,6,3:0:0:0:
446,339,57037,5,10,3:0:0:0:
460,343,57124,1,8,3:0:0:0:
485,307,57211,6,0,P|393:334|347:348,1,125.999996154785,12|2,0:0|0:0,0:0:0:0:
188,303,57560,2,0,P|142:291|5:264,1,125.999996154785,0|2,1:0|0:0,0:0:0:0:
0,167,57909,1,8,0:0:0:0:
58,351,58084,1,2,0:0:0:0:
188,303,58258,2,0,P|191:274|199:226,1,62.9999980773926,0|0,1:0|0:0,0:0:0:0:
112,272,58432,1,2,0:0:0:0:
272,282,58607,6,0,P|333:276|432:259,1,125.999996154785,8|2,0:0|0:0,0:0:0:0:
445,128,58956,1,0,1:0:0:0:
299,83,59130,1,2,0:0:0:0:
465,1,59304,2,0,P|434:8|411:37,1,62.9999980773926,8|0,0:0|0:0,0:0:0:0:
355,137,59479,2,0,P|374:165|387:201,1,62.9999980773926,2|0,0:0|0:0,0:0:0:0:
477,348,59653,5,0,1:0:0:0:
420,301,59741,1,8,3:0:0:0:
376,317,59828,1,10,3:0:0:0:
382,345,59915,1,8,3:0:0:0:
398,347,60002,6,0,P|404:290|338:321,1,125.999996154785,12|2,0:0|0:0,0:0:0:0:
179,183,60351,1,0,1:0:0:0:
69,310,60525,2,0,P|37:303|27:278,1,62.9999980773926,2|0,0:0|0:0,0:0:0:0:
65,212,60700,5,8,0:0:0:0:
217,339,60874,2,0,P|260:322|307:315,1,62.9999980773926,2|0,0:0|0:0,0:0:0:0:
425,215,61049,1,8,3:0:0:0:
368,201,61136,1,8,3:0:0:0:
336,136,61223,6,0,P|337:84|397:50,1,125.999996154785,6|8,1:0|0:0,0:0:0:0:
396,49,61572,2,0,P|431:81|423:107,1,62.9999980773926,2|0,0:0|0:0,0:0:0:0:
368,201,61746,2,0,P|328:213|290:223,1,62.9999980773926,8|0,3:0|0:0,0:0:0:0:
201,139,61921,2,0,P|175:126|113:108,1,62.9999980773926,10|0,3:0|0:0,0:0:0:0:
31,187,62095,5,0,1:0:0:0:
38,196,62182,1,0,1:0:0:0:
64,212,62270,1,2,1:0:0:0:
78,243,62357,1,0,1:0:0:0:
40,284,62444,5,0,1:0:0:0:
10,247,62531,1,0,1:0:0:0:
23,195,62618,1,2,1:0:0:0:
78,154,62706,1,0,1:0:0:0:
98,83,62793,6,0,P|66:36|23:98,1,125.999996154785,12|2,0:0|0:0,0:0:0:0:
168,201,63142,2,0,P|237:247|298:228,1,125.999996154785,0|2,1:0|0:0,0:0:0:0:
451,274,63491,1,8,0:0:0:0:
323,180,63665,1,2,0:0:0:0:
471,91,63839,2,0,P|476:135|482:180,1,62.9999980773926,0|0,1:0|0:0,0:0:0:0:
389,122,64014,1,2,0:0:0:0:
374,114,64101,1,0,0:0:0:0:
344,79,64188,5,8,0:0:0:0:
332,103,64275,1,0,0:0:0:0:
281,127,64363,2,0,P|231:119|147:88,1,125.999996154785,2|0,0:0|1:0,0:0:0:0:
51,265,64711,6,0,P|87:250|110:245,1,62.9999980773926,2|0,0:0|0:0,0:0:0:0:
256,230,64886,1,8,0:0:0:0:
298,270,64973,1,0,0:0:0:0:
313,256,65060,2,0,P|351:245|396:244,1,62.9999980773926,2|0,0:0|0:0,0:0:0:0:
504,335,65235,5,0,1:0:0:0:
462,322,65322,1,0,0:0:0:0:
445,349,65409,1,2,0:0:0:0:
427,352,65496,1,0,0:0:0:0:
420,344,65584,6,0,P|352:349|283:322,1,125.999996154785,12|2,0:0|0:0,0:0:0:0:
188,230,65932,1,0,1:0:0:0:
132,352,66107,2,0,P|91:306|18:265,1,125.999996154785,2|8,0:0|0:0,0:0:0:0:
44,194,66368,1,0,0:0:0:0:
57,200,66456,1,2,0:0:0:0:
188,230,66630,1,0,1:0:0:0:
328,107,66804,1,2,0:0:0:0:
333,96,66892,1,0,0:0:0:0:
328,81,66979,6,0,P|303:140|368:176,1,125.999996154785,12|2,0:0|0:0,0:0:0:0:
427,214,67241,1,0,0:0:0:0:
417,203,67328,1,0,1:0:0:0:
293,295,67502,5,2,1:0:0:0:
226,321,67590,1,0,1:0:0:0:
186,292,67677,1,4,3:0:0:0:
182,253,67764,1,4,3:0:0:0:
169,258,67851,1,6,3:0:0:0:
169,258,68200,5,10,3:0:0:0:
155,254,68287,1,8,3:0:0:0:
130,290,68374,6,0,P|222:263|268:249,1,125.999996154785,12|2,0:0|0:0,0:0:0:0:
358,142,68723,2,0,P|412:167|484:188,1,125.999996154785,0|2,1:0|0:0,0:0:0:0:
427,291,69072,1,8,0:0:0:0:
291,188,69246,1,2,0:0:0:0:
434,92,69421,2,0,P|445:66|460:33,1,62.9999980773926,0|0,1:0|0:0,0:0:0:0:
358,67,69595,1,2,0:0:0:0:
235,131,69770,6,0,P|177:144|97:166,1,125.999996154785,8|2,0:0|0:0,0:0:0:0:
29,334,70118,1,0,1:0:0:0:
173,229,70293,1,2,0:0:0:0:
111,362,70467,2,0,P|103:302|92:222,1,125.999996154785,8|2,0:0|0:0,0:0:0:0:
29,189,70729,1,0,0:0:0:0:
22,205,70816,1,0,1:0:0:0:
183,303,70991,1,10,3:0:0:0:
210,319,71078,1,8,3:0:0:0:
245,283,71165,6,0,P|295:269|343:249,1,78.7500030040742,12|0,0:0|0:0,0:0:0:0:
473,309,71339,1,0,1:0:0:0:
419,273,71427,1,0,1:0:0:0:
425,247,71514,2,0,P|330:219|265:141,1,157.500006008148,0|12,1:0|0:0,0:0:0:0:
214,7,71863,5,0,1:0:0:0:
234,48,71950,1,0,1:0:0:0:
288,74,72037,1,0,1:0:0:0:
344,40,72124,1,0,1:0:0:0:
411,73,72211,5,4,3:0:0:0:
420,117,72299,1,4,3:0:0:0:
440,130,72386,1,8,3:0:0:0:
451,125,72473,1,8,3:0:0:0:
379,120,72560,6,0,P|339:178|331:217,1,78.7500030040742,8|0,0:0|0:0,0:0:0:0:
493,313,72735,2,0,P|454:319|422:341,1,78.7500030040742,4|0,0:3|0:0,0:0:0:0:
345,261,72909,1,0,1:0:0:0:
132,221,73084,5,12,0:0:0:0:
132,221,73956,6,0,P|113:260|109:313,1,52.5,12|0,0:0|0:0,0:0:0:0:
106,345,74130,2,0,P|91:294|37:180,1,157.5,10|0,3:0|0:0,0:0:0:0:
32,107,74479,2,0,P|62:118|98:158,1,52.5,6|0,3:0|0:0,0:0:0:0:
208,200,74653,1,0,1:0:0:0:
326,64,74828,1,10,3:0:0:0:
452,103,75002,2,0,P|460:156|483:225,1,105,0|10,0:0|0:0,0:0:0:0:
470,322,75351,5,8,0:0:0:0:
415,331,75467,1,2,0:3:0:0:
375,292,75584,1,2,0:3:0:0:
303,315,75700,5,8,0:0:0:0:
256,297,75816,1,2,0:3:0:0:
242,248,75933,1,2,0:3:0:0:
171,220,76049,5,0,1:0:0:0:
145,188,76165,1,2,0:3:0:0:
155,149,76282,1,2,0:3:0:0:
106,90,76398,6,0,P|216:112|291:107,1,157.5,8|0,0:0|0:0,0:0:0:0:
371,45,76746,5,8,0:0:0:0:
371,45,76834,2,0,P|381:81|388:113,1,52.5,0|10,0:0|3:0,0:0:0:0:
494,168,77008,1,0,0:0:0:0:
494,168,77096,2,0,P|484:204|477:236,1,52.5,4|0,3:0|0:0,0:0:0:0:
474,2,77270,2,0,P|484:38|491:70,1,52.5,6|0,3:0|0:0,0:0:0:0:
318,149,77444,5,0,1:0:0:0:
318,149,77531,2,0,P|295:210|273:285,1,105,0|0,1:0|0:0,0:0:0:0:
189,328,77793,2,0,P|233:309|280:310,1,52.5,8|0,3:0|0:0,0:0:0:0:
371,232,77967,2,0,P|411:261|437:296,1,52.5,6|0,3:0|0:0,0:0:0:0:
318,149,78142,6,0,P|266:161|179:187,1,125.999996154785,12|2,0:0|0:0,0:0:0:0:
196,181,78491,2,0,P|152:172|119:146,1,62.9999980773926,0|0,1:0|0:0,0:0:0:0:
51,262,78665,2,0,P|34:273|101:272,1,188.999994232178,10|0,0:0|0:0,0:0:0:0:
111,326,79014,1,10,0:0:0:0:
237,308,79188,2,0,P|264:316|257:374,1,62.9999980773926,0|0,1:0|0:0,0:0:0:0:
207,376,79363,6,0,B|172:325|194:278|217:298|237:252|209:199,1,188.999994232178,14|0,0:0|0:0,0:0:0:0:
136,176,79711,2,0,P|101:185|53:196,1,62.9999980773926,10|0,3:0|0:0,0:0:0:0:
245,77,79886,2,0,P|254:42|269:-4,1,62.9999980773926,0|0,1:0|0:0,0:0:0:0:
367,165,80060,2,0,P|408:185|425:226,1,62.9999980773926,2|0,0:0|1:0,0:0:0:0:
473,44,80235,6,0,P|404:57|339:111,1,125.999996154785,8|10,0:0|0:0,0:0:0:0:
367,165,80496,1,0,0:0:0:0:
383,160,80584,1,0,1:0:0:0:
245,77,80758,6,0,B|189:38|137:85|137:85|150:143|65:176,1,188.999994232178,10|0,0:0|0:0,0:0:0:0:
45,180,81107,2,0,P|17:221|37:259,1,62.9999980773926,10|0,0:0|0:0,0:0:0:0:
147,336,81281,2,0,P|196:339|219:303,1,62.9999980773926,0|0,1:0|0:0,0:0:0:0:
323,228,81456,1,2,0:0:0:0:
344,267,81543,1,0,0:0:0:0:
367,268,81630,6,0,P|434:294|453:301,1,62.9999980773926,8|0,0:0|0:0,0:0:0:0:
268,173,81804,2,0,P|238:184|222:220,1,62.9999980773926,10|0,0:0|0:0,0:0:0:0:
147,336,81979,1,0,1:0:0:0:
12,235,82153,1,2,0:0:0:0:
69,336,82328,6,0,P|80:281|107:180,1,125.999996154785,8|2,0:0|0:0,0:0:0:0:
42,31,82677,2,0,B|83:62|83:62|178:19,1,125.999996154785,0|2,1:0|0:0,0:0:0:0:
334,92,83025,1,8,0:0:0:0:
205,135,83200,2,0,P|176:163|175:209,1,62.9999980773926,10|0,0:0|0:0,0:0:0:0:
293,272,83374,2,0,P|341:257|380:260,1,62.9999980773926,0|0,1:0|0:0,0:0:0:0:
431,244,83549,6,0,P|341:223|205:190,1,188.999994232178,10|0,0:0|0:0,0:0:0:0:
170,184,83898,2,0,P|140:199|99:216,1,62.9999980773926,10|0,0:0|0:0,0:0:0:0:
18,133,84072,1,0,1:0:0:0:
205,58,84246,2,0,P|250:58|331:-10,1,125.999996154785,10|0,0:0|0:0,0:0:0:0:
444,102,84595,2,0,P|486:98|428:27,1,188.999994232178,10|0,0:0|0:0,0:0:0:0:
376,68,84944,6,0,B|403:95|403:95|366:209|366:209|392:253,1,188.999994232178,14|0,0:0|0:0,0:0:0:0:
381,235,85293,1,6,3:0:0:0:
283,314,85467,1,0,1:0:0:0:
129,224,85642,1,2,0:0:0:0:
120,209,85729,1,0,0:0:0:0:
130,184,85816,6,0,P|169:167|197:156,1,62.9999980773926,8|0,0:0|0:0,0:0:0:0:
294,80,85991,2,0,B|304:61|304:61|259:14,1,62.9999980773926,10|0,0:0|0:0,0:0:0:0:
63,47,86165,2,0,P|75:86|84:117,1,62.9999980773926,0|0,1:0|0:0,0:0:0:0:
188,159,86339,6,0,P|79:133|-55:106,1,188.999994232178,10|0,0:0|0:0,0:0:0:0:
8,196,86688,2,0,P|5:226|53:247,1,62.9999980773926,10|0,0:0|0:0,0:0:0:0:
136,313,86863,1,0,1:0:0:0:
188,159,87037,2,0,P|216:120|279:109,1,62.9999980773926,2|0,0:0|0:0,0:0:0:0:
289,62,87211,1,8,0:0:0:0:
276,38,87299,1,0,0:0:0:0:
225,20,87386,1,10,0:0:0:0:
367,131,87560,2,0,P|400:120|451:113,1,62.9999980773926,0|0,1:0|0:0,0:0:0:0:
474,52,87735,6,0,B|439:103|461:150|484:130|504:176|476:229,1,188.999994232178,14|0,0:0|0:0,0:0:0:0:
416,280,88084,2,0,P|369:268|239:240,1,125.999996154785,10|0,0:0|1:0,0:0:0:0:
162,139,88432,6,0,B|108:152|80:210|80:210|41:203|26:129,1,188.999994232178,14|0,0:0|0:0,0:0:0:0:
17,63,88781,2,0,P|65:84|87:112,1,62.9999980773926,10|0,0:0|0:0,0:0:0:0:
175,214,88956,2,0,P|148:249|151:279,1,62.9999980773926,0|0,1:0|0:0,0:0:0:0:
343,333,89130,6,0,B|340:290|308:262|308:262|338:148,1,188.999994232178,14|0,0:0|0:0,0:0:0:0:
306,86,89479,2,0,B|273:95|273:95|262:158,1,62.9999980773926,6|0,3:0|0:0,0:0:0:0:
394,241,89653,2,0,P|433:220|493:213,1,62.9999980773926,0|0,1:0|0:0,0:0:0:0:
264,328,89828,6,0,B|201:358|148:306|148:306|153:262|109:239,1,188.999994232178,14|0,0:0|0:0,0:0:0:0:
38,273,90177,2,0,P|36:291|72:300,1,62.9999980773926,6|0,3:0|0:0,0:0:0:0:
166,182,90351,1,8,0:0:0:0:
166,182,90438,2,0,P|198:168|185:81,1,125.999996154785
55,8,90700,6,0,P|25:32|49:77,1,78.7500030040742,12|0,0:0|0:0,0:0:0:0:
32,194,90874,1,0,1:0:0:0:
59,165,90961,1,0,1:0:0:0:
56,144,91049,1,4,3:0:0:0:
46,143,91136,1,4,3:0:0:0:
102,145,91223,6,0,P|158:168|162:231,1,78.7500030040742,12|0,0:0|0:0,0:0:0:0:
240,294,91398,1,0,1:0:0:0:
219,270,91485,1,0,1:0:0:0:
162,257,91572,1,0,1:0:0:0:
358,361,91746,5,4,3:0:0:0:
400,313,91834,1,4,3:0:0:0:
448,321,91921,1,8,3:0:0:0:
466,338,92008,1,8,3:0:0:0:
512,304,92095,5,8,0:0:0:0:
395,185,92270,2,0,P|372:140|306:72,1,78.7500030040742,4|0,1:0|0:0,0:0:0:0:
418,12,92444,5,8,0:0:0:0:
480,53,92532,2,0,B|477:72|485:93|485:93|469:79|423:79,1,78.7500030040742,4|0,1:0|0:0,0:0:0:0:
298,62,92706,5,8,0:0:0:0:
235,106,92793,2,0,B|194:119|146:91|146:91|123:126|87:170|87:170|68:144|30:147,1,236.250009012223,4|0,1:0|0:0,0:0:0:0:
49,147,93142,5,0,0:0:0:0:
49,147,93491,5,4,0:0:0:0:
427,185,98374,5,8,3:0:0:0:
427,185,98549,1,8,3:0:0:0:
427,185,99072,6,0,P|437:243|447:300,1,105,12|2,0:0|0:0,0:0:0:0:
235,351,99421,2,0,P|242:300|269:230,1,105,8|2,0:0|0:0,0:0:0:0:
236,132,99770,1,8,0:0:0:0:
127,262,99944,1,2,0:0:0:0:
21,190,100118,1,8,0:0:0:0:
188,215,100293,1,2,0:0:0:0:
295,84,100467,6,0,P|300:56|309:17,2,52.5,8|0|2,0:0|0:0|0:0,0:0:0:0:
428,48,100816,1,8,0:0:0:0:
428,48,100903,1,0,0:0:0:0:
428,48,100991,1,2,0:0:0:0:
385,230,101165,2,0,P|390:202|399:163,2,52.5,8|0|2,0:0|0:0|0:0,0:0:0:0:
467,329,101514,1,8,0:0:0:0:
451,344,101601,1,0,0:0:0:0:
422,358,101689,1,2,0:0:0:0:
371,343,101775,1,0,0:0:0:0:
330,284,101863,6,0,P|292:268|193:238,1,115.50000352478,8|2,0:0|0:0,0:0:0:0:
42,100,102211,2,0,P|67:158|74:219,1,115.50000352478,8|2,0:0|0:0,0:0:0:0:
169,356,102560,1,8,0:0:0:0:
36,310,102735,2,0,P|67:290|109:281,1,57.7500017623902,6|0,3:0|0:0,0:0:0:0:
155,203,102909,1,8,0:0:0:0:
42,100,103084,2,0,P|20:83|32:43,1,57.7500017623902,10|0,3:0|0:0,0:0:0:0:
102,6,103258,6,0,P|153:17|198:18,1,57.7500017623902,8|0,0:0|0:0,0:0:0:0:
263,167,103432,2,0,P|279:145|311:126,1,57.7500017623902,0|0,1:0|0:0,0:0:0:0:
438,141,103607,1,0,1:0:0:0:
475,98,103694,1,0,1:0:0:0:
464,63,103781,1,8,0:0:0:0:
470,39,103868,2,0,B|437:51|437:51|422:96,1,57.7500017623902,0|0,1:0|0:0,0:0:0:0:
368,187,104043,5,8,0:0:0:0:
368,187,104130,2,0,P|380:222|380:297,1,57.7500017623902,0|0,1:0|0:0,0:0:0:0:
466,375,104304,1,8,3:0:0:0:
476,364,104392,1,4,3:0:0:0:
460,341,104479,1,4,3:0:0:0:
406,323,104566,1,4,3:0:0:0:
346,362,104653,6,0,P|301:345|215:282,1,125.999996154785,12|2,0:0|0:0,0:0:0:0:
139,166,105002,2,0,P|74:188|1:214,1,125.999996154785,0|2,1:0|0:0,0:0:0:0:
74,78,105351,1,8,0:0:0:0:
217,187,105525,1,2,0:0:0:0:
75,268,105700,2,0,P|63:298|55:330,1,62.9999980773926,0|0,1:0|0:0,0:0:0:0:
142,320,105874,1,2,0:0:0:0:
284,230,106049,5,8,0:0:0:0:
298,219,106137,1,0,0:0:0:0:
339,213,106223,2,0,P|403:229|469:286,1,125.999996154785,2|0,0:0|1:0,0:0:0:0:
420,95,106572,2,0,P|441:59|465:40,1,62.9999980773926,2|0,0:0|0:0,0:0:0:0:
364,28,106746,5,8,0:0:0:0:
350,17,106834,1,0,0:0:0:0:
309,11,106921,2,0,P|245:27|179:84,1,125.999996154785,2|0,0:0|1:0,0:0:0:0:
107,220,107270,2,0,P|89:194|60:181,1,62.9999980773926,2|0,0:0|0:0,0:0:0:0:
17,91,107444,6,0,P|119:112|158:113,1,125.999996154785,12|2,0:0|0:0,0:0:0:0:
297,218,107793,1,0,1:0:0:0:
428,143,107967,1,2,0:0:0:0:
341,61,108142,1,8,0:0:0:0:
338,45,108230,1,0,0:0:0:0:
355,16,108317,1,2,0:0:0:0:
501,100,108491,1,0,1:0:0:0:
400,257,108665,1,2,0:0:0:0:
505,311,108839,6,0,P|474:318|330:351,1,125.999996154785,12|2,0:0|0:0,0:0:0:0:
322,278,109101,1,0,0:0:0:0:
317,292,109188,1,0,1:0:0:0:
184,321,109363,5,2,1:0:0:0:
117,347,109451,1,0,1:0:0:0:
77,318,109538,1,8,3:0:0:0:
73,279,109625,1,8,3:0:0:0:
60,284,109712,1,10,3:0:0:0:
60,284,110060,5,6,3:0:0:0:
46,280,110147,1,4,3:0:0:0:
21,316,110234,6,0,P|41:234|58:159,1,125.999996154785,8|2,0:0|0:0,0:0:0:0:
244,152,110584,2,0,P|212:97|203:36,1,125.999996154785,0|2,1:0|0:0,0:0:0:0:
83,30,110932,1,8,0:0:0:0:
130,181,111107,1,2,0:0:0:0:
301,89,111281,2,0,P|344:84|372:80,1,62.9999980773926,0|0,1:0|0:0,0:0:0:0:
415,146,111456,1,2,0:0:0:0:
244,152,111630,6,0,P|235:225|225:337,1,125.999996154785,8|2,0:0|0:0,0:0:0:0:
391,327,111979,2,0,P|396:263|485:209,1,125.999996154785,0|2,1:0|0:0,0:0:0:0:
415,146,112241,1,0,0:0:0:0:
429,135,112328,1,8,0:0:0:0:
314,240,112502,1,2,0:0:0:0:
156,95,112677,2,0,P|107:77|45:23,1,125.999996154785,0|2,1:0|0:0,0:0:0:0:
31,200,113025,6,0,P|68:234|47:299,1,78.7500030040742,12|0,0:0|0:0,0:0:0:0:
201,279,113200,1,2,0:0:0:0:
169,331,113287,1,0,1:0:0:0:
135,340,113374,1,0,1:0:0:0:
338,227,113549,6,0,P|420:265|504:316,1,157.500006008148,14|0,0:0|0:0,0:0:0:0:
258,325,113898,1,0,1:0:0:0:
201,279,113985,1,0,1:0:0:0:
207,222,114072,1,8,0:0:0:0:
231,183,114159,1,8,3:0:0:0:
222,161,114246,1,8,3:0:0:0:
209,160,114334,1,4,3:0:0:0:
253,98,114421,6,0,P|312:129|301:152,1,78.7500030040742,12|0,0:0|0:0,0:0:0:0:
321,21,114595,2,0,P|238:64|138:90,1,157.500006008148,8|0,0:0|1:0,0:0:0:0:
440,138,114944,1,12,0:0:0:0:
440,138,115816,6,0,P|430:174|419:244,1,62.9999980773926,12|0,0:0|0:0,0:0:0:0:
382,36,115991,2,0,P|412:29|443:22,1,62.9999980773926
253,88,116165,1,8,3:0:0:0:
253,88,116339,6,0,P|220:71|164:65,1,62.9999980773926,0|0,1:0|0:0,0:0:0:0:
110,8,116514,2,0,P|74:21|45:67,1,62.9999980773926
23,148,116688,1,8,3:0:0:0:
23,148,116863,5,0,1:0:0:0:
148,200,117037,1,8,3:0:0:0:
223,355,117211,2,0,P|291:341|362:335,1,125.999996154785,4|0,3:0|0:0,0:0:0:0:
438,294,117473,1,0,1:0:0:0:
423,286,117560,1,0,1:0:0:0:
309,217,117735,2,0,P|259:235|243:284,1,62.9999980773926,10|0,0:0|0:0,0:0:0:0:
436,112,117909,6,0,P|474:131|483:191,1,62.9999980773926
309,217,118084,2,0,B|274:166|296:119|319:139|339:93|311:40,1,188.999994232178,10|0,0:0|0:0,0:0:0:0:
311,40,118432,1,12,0:0:0:0:
256,192,118607,12,8,121049,0:0:0:0:
