osu file format v14

[General]
AudioFilename: audio.mp3
AudioLeadIn: 0
PreviewTime: 59234
Countdown: 0
SampleSet: Soft
StackLeniency: 0.8
Mode: 0
LetterboxInBreaks: 0
WidescreenStoryboard: 1

[Editor]
Bookmarks: 1568,6901,17401,28234,38901,49567,60234,70901,81567,92067,102901,113567,124234,136234,146900,157567,168067,178900,192233,210899,221565,232232,242898,253565
DistanceSpacing: 0.9
BeatDivisor: 4
GridSize: 16
TimelineZoom: 2.5

[Metadata]
Title:Escape from the Abyss
TitleUnicode:Escape from the Abyss
Artist:polysha feat. Sennzai
ArtistUnicode:polysha feat. Sennzai
Creator:Hinsvar
Version:Insane
Source:
Tags:マサムネ Masamune Japanese Electronic hardcore techno J-core Jcore dance music EDM Papermoon Featured Artist FA Mappers' Guild MG MPG
BeatmapID:4523235
BeatmapSetID:2147338

[Difficulty]
HPDrainRate:5
CircleSize:4
OverallDifficulty:8
ApproachRate:9
SliderMultiplier:1.6
SliderTickRate:1

[Events]
//Background and Video events
0,0,"BG.jpg",0,0
//Break Periods
2,39101,48967
2,192433,207632
//Storyboard Layer 0 (Background)
//Storyboard Layer 1 (Fail)
//Storyboard Layer 2 (Pass)
//Storyboard Layer 3 (Foreground)
//Storyboard Layer 4 (Overlay)
//Storyboard Sound Samples

[TimingPoints]
1568,333.333333333333,4,2,1,50,1,0
1568,-200,4,2,1,50,0,0
4234,-133.333333333333,4,2,1,60,0,0
6901,-100,4,2,1,75,0,0
17401,-133.333333333333,4,2,1,60,0,0
28234,-100,4,2,1,70,0,0
49567,-133.333333333333,4,2,1,60,0,0
54901,-100,4,2,1,70,0,0
59401,-200,4,2,1,60,0,0
60234,-80,4,2,1,80,0,1
70567,-80,4,2,1,70,0,0
70901,-80,4,2,1,80,0,1
81567,-100,4,2,1,75,0,0
92067,-133.333333333333,4,2,1,60,0,0
102901,-100,4,2,1,70,0,0
134901,-100,4,2,1,60,0,0
135901,-100,4,2,1,70,0,0
136234,333.333333333333,4,2,1,80,1,1
136234,-80,4,2,1,80,0,1
146567,-80,4,2,1,70,0,0
146900,-80,4,2,1,80,0,1
157567,-100,4,2,1,70,0,0
160233,-200,4,2,1,50,0,0
161400,-133.333333333333,4,2,1,60,0,0
162900,-100,4,2,1,70,0,0
191400,-200,4,2,1,60,0,0
192233,333.333333333333,4,2,1,65,1,0
208232,-100,4,2,1,70,0,0
210899,333.333333333333,4,2,1,75,1,0
213565,-66.6666666666667,4,2,1,85,0,1
221232,-66.6666666666667,4,2,1,75,0,0
221565,-66.6666666666667,4,2,1,85,0,1
232232,-80,4,2,1,80,0,0
249565,-80,4,2,1,70,0,0
250898,-80,4,2,1,60,0,0
252232,-80,4,2,1,50,0,0
253565,-80,4,2,1,40,0,0

[Colours]
Combo1 : 85,236,202
Combo2 : 33,153,241
Combo3 : 88,236,243
Combo4 : 75,189,214

[HitObjects]
19,133,1568,5,4,3:2:0:0:
170,232,1734,1,4,3:2:0:0:
170,232,2734,6,0,L|147:258,2,20,0|0|0,3:0|3:0|3:0,0:0:0:0:
165,151,3067,1,2,0:0:0:0:
246,146,3234,1,2,0:0:0:0:
251,227,3401,1,2,0:0:0:0:
332,222,3567,1,2,0:0:0:0:
327,141,3734,1,0,3:0:0:0:
327,141,3817,1,0,3:0:0:0:
327,141,3901,2,0,L|349:114,3,20,0|0|0|0,3:0|3:0|3:0|3:0,0:0:0:0:
335,53,4234,5,6,3:2:0:0:
451,19,4401,1,4,3:2:0:0:
178,155,4734,5,6,3:2:0:0:
144,39,4901,1,4,3:2:0:0:
280,312,5234,5,6,3:2:0:0:
164,346,5401,1,4,3:2:0:0:
437,210,5734,5,6,3:2:0:0:
471,326,5901,1,4,3:2:0:0:
406,368,6067,5,0,3:0:0:0:
406,368,6151,1,0,3:0:0:0:
406,368,6234,2,0,P|377:372|344:358,1,60.0000022888184,0|0,3:0|0:0,0:0:0:0:
277,229,6567,2,0,P|291:227|308:234,3,30.0000011444092,8|0|0|0,0:1|3:0|3:0|3:0,0:0:0:0:
381,255,6901,6,0,B|405:222|387:196|385:201|365:176|391:125,1,120,6|0,3:2|0:0,0:0:0:0:
384,140,7234,2,0,L|476:128,1,80,0|0,1:0|3:0,0:0:0:0:
275,17,7567,2,0,L|287:108,1,80,0|0,3:0|3:0,0:0:0:0:
227,288,7901,1,0,1:0:0:0:
137,367,8067,1,0,3:0:0:0:
58,277,8234,6,0,P|56:218|145:193,1,160,2|0,3:2|1:0,0:0:0:0:
327,201,8734,2,0,P|301:216|268:184,1,80,2|0,0:0|3:0,0:0:0:0:
201,20,9067,1,2,0:0:0:0:
379,76,9234,1,0,1:0:0:0:
297,88,9401,1,0,3:0:0:0:
493,44,9567,6,0,P|479:79|474:124,1,80,2|0,3:2|3:0,0:0:0:0:
429,295,9901,2,0,P|434:332|452:373,1,80,0|0,1:0|3:0,0:0:0:0:
464,210,10234,5,0,3:0:0:0:
444,206,10317,1,0,3:0:0:0:
424,205,10400,1,0,3:0:0:0:
404,207,10484,1,0,3:0:0:0:
384,211,10567,1,0,1:0:0:0:
203,298,10734,6,0,P|173:277|161:235,1,80,2|0,0:0|3:0,0:0:0:0:
313,367,11067,2,0,P|309:348|320:329,1,40,2|0,0:0|0:0,0:0:0:0:
294,261,11234,2,0,B|266:226|282:203|286:205|298:180|271:142,1,120,0|0,1:0|0:0,0:0:0:0:
274,147,11567,5,0,3:0:0:0:
180,25,11734,1,2,0:0:0:0:
160,23,11817,1,2,0:0:0:0:
141,20,11900,1,0,1:0:0:0:
12,191,12067,1,2,0:0:0:0:
32,189,12150,1,2,0:0:0:0:
55,190,12234,6,0,P|108:196|132:257,1,120,6|0,3:2|0:0,0:0:0:0:
132,252,12567,2,0,L|201:210,1,80,0|0,1:0|3:0,0:0:0:0:
271,67,12901,2,0,L|273:147,1,80,2|0,3:2|3:0,0:0:0:0:
362,279,13234,1,0,1:0:0:0:
291,240,13400,1,0,3:0:0:0:
434,96,13567,6,0,P|421:114|398:126,1,40,4|0,3:2|0:0,0:0:0:0:
497,136,13734,2,0,P|429:171|335:171,1,160,2|0,0:0|3:0,0:0:0:0:
192,131,14234,5,2,3:2:0:0:
180,49,14401,1,0,3:0:0:0:
100,60,14567,1,0,1:0:0:0:
110,139,14734,1,2,0:0:0:0:
22,295,14901,5,6,3:2:0:0:
75,367,15067,2,0,L|121:370,2,40,4|0|0,3:2|3:0|3:0,0:0:0:0:
257,350,15401,5,6,3:2:0:0:
329,297,15567,2,0,L|332:251,2,40,4|0|0,3:2|3:0|3:0,0:0:0:0:
312,115,15901,5,6,3:2:0:0:
259,43,16067,2,0,L|213:40,2,40,4|0|0,3:2|3:0|3:0,0:0:0:0:
77,60,16401,5,6,3:2:0:0:
5,113,16567,2,0,L|2:159,2,40,4|0|0,3:2|3:0|3:0,0:0:0:0:
163,244,16901,5,6,3:2:0:0:
165,224,16985,1,0,3:0:0:0:
166,204,17068,1,0,3:0:0:0:
167,184,17151,1,0,3:0:0:0:
169,165,17234,1,0,3:0:0:0:
379,179,17401,6,0,P|352:231|279:236,1,120.000004577637,4|0,3:2|0:0,0:0:0:0:
232,291,17901,2,0,P|240:321|243:349,1,60.0000022888184,2|0,3:2|0:0,0:0:0:0:
107,382,18234,2,0,P|87:314|82:254,1,120.000004577637,2|0,3:2|3:0,0:0:0:0:
94,119,18734,6,0,L|33:98,2,60.0000022888184,2|0|0,0:0|3:0|0:0,0:0:0:0:
34,187,19234,1,0,3:0:0:0:
182,113,19401,2,0,L|175:81,2,30.0000011444092,2|0|0,0:0|0:0|3:0,0:0:0:0:
263,111,19734,2,0,L|250:52,1,60.0000022888184,2|0,0:0|3:0,0:0:0:0:
395,8,20067,6,0,P|428:55|491:57,1,120.000004577637,2|0,0:0|0:0,0:0:0:0:
376,124,20567,2,0,P|352:140|351:172,1,60.0000022888184,2|0,3:2|0:0,0:0:0:0:
510,219,20901,2,0,B|480:206|459:231|461:231|437:255|397:236,1,120.000004577637,0|0,3:0|3:0,0:0:0:0:
475,319,21401,1,0,3:0:0:0:
284,369,21567,6,0,B|314:382|335:357|333:357|357:333|397:352,1,120.000004577637,0|0,3:0|3:0,0:0:0:0:
396,351,21984,1,2,0:0:0:0:
396,351,22068,1,2,0:0:0:0:
310,262,22234,2,0,P|285:233|302:158,1,120.000004577637,0|0,3:0|3:0,0:0:0:0:
435,138,22734,1,2,3:0:0:0:
363,99,22901,5,0,3:0:0:0:
363,99,23234,2,0,P|365:68|359:36,1,60.0000022888184,10|0,0:0|0:0,0:0:0:0:
211,20,23567,2,0,P|207:82|219:146,1,120.000004577637,2|8,3:2|0:0,0:0:0:0:
146,178,24067,2,0,L|75:164,2,60.0000022888184,2|0|0,0:0|3:0|0:0,0:0:0:0:
33,238,24567,1,8,0:0:0:0:
159,261,24734,2,0,L|194:254,2,30.0000011444092,2|0|0,0:0|0:0|3:0,0:0:0:0:
64,368,25067,2,0,P|80:340|80:308,1,60.0000022888184,2|8,0:0|0:0,0:0:0:0:
247,325,25401,6,0,P|294:364|374:353,1,120.000004577637,2|0,0:0|0:0,0:0:0:0:
429,303,25901,2,0,P|431:333|464:357,1,60.0000022888184,10|0,0:0|0:0,0:0:0:0:
375,168,26234,2,0,P|336:215|347:295,1,120.000004577637,0|8,3:0|0:0,0:0:0:0:
237,219,26734,1,2,0:0:0:0:
165,369,26901,5,0,3:0:0:0:
158,289,27067,2,0,P|127:285|99:273,1,60.0000022888184,2|8,0:0|0:0,0:0:0:0:
40,152,27401,2,0,P|42:136|48:122,2,30.0000011444092,0|0|0,3:0|3:0|1:0,0:0:0:0:
144,186,27734,1,0,3:0:0:0:
144,186,27817,1,0,3:0:0:0:
144,186,27901,1,0,3:0:0:0:
285,131,28067,1,0,1:0:0:0:
167,37,28234,6,0,P|244:45|314:5,1,160,6|0,3:2|1:0,0:0:0:0:
482,72,28734,1,2,0:0:0:0:
384,250,28901,1,0,3:0:0:0:
384,250,28984,1,0,3:0:0:0:
384,250,29067,1,0,3:0:0:0:
371,82,29234,2,0,P|375:117|377:165,1,80,0|2,1:0|0:0,0:0:0:0:
216,280,29567,5,0,3:0:0:0:
108,229,29734,1,0,3:0:0:0:
158,121,29901,1,0,1:0:0:0:
265,172,30067,2,0,B|304:136|275:98|280:97|251:62|289:16,1,160,0|0,3:0|3:0,0:0:0:0:
458,72,30567,1,0,1:0:0:0:
481,199,30734,5,0,3:0:0:0:
481,199,30817,1,0,3:0:0:0:
481,199,30901,2,0,P|456:229|433:274,1,80,2|0,3:2|3:0,0:0:0:0:
299,362,31234,1,0,1:0:0:0:
278,267,31401,1,2,3:2:0:0:
278,267,31484,1,0,3:0:0:0:
278,267,31567,2,0,P|297:270|322:269,2,40,0|0|0,3:0|3:0|3:0,0:0:0:0:
71,351,31901,5,0,1:0:0:0:
210,342,32067,1,0,3:0:0:0:
210,342,32151,1,0,3:0:0:0:
210,342,32234,1,0,3:0:0:0:
69,266,32401,2,0,P|35:216|49:162,1,120,2|0,3:2|0:0,0:0:0:0:
49,161,32734,5,2,0:0:0:0:
194,213,32901,1,0,3:0:0:0:
194,213,32984,1,0,3:0:0:0:
194,213,33067,1,0,3:0:0:0:
318,58,33234,1,0,1:0:0:0:
220,68,33401,5,0,3:0:0:0:
220,68,33484,1,0,3:0:0:0:
220,68,33567,2,0,B|222:123|259:138|260:134|292:149|293:213,1,160,6|0,3:2|1:0,0:0:0:0:
448,147,34067,1,2,3:2:0:0:
448,147,34151,1,0,3:0:0:0:
448,147,34234,2,0,P|458:128|477:119,2,40,0|0|0,3:0|3:0|3:0,0:0:0:0:
344,50,34567,1,0,1:0:0:0:
453,251,34734,5,0,3:0:0:0:
453,251,34817,1,0,3:0:0:0:
453,251,34901,2,0,P|409:230|372:221,1,80,6|0,3:2|3:0,0:0:0:0:
203,267,35234,1,0,1:0:0:0:
276,349,35401,1,0,3:0:0:0:
276,349,35484,1,0,3:0:0:0:
276,349,35567,2,0,B|229:333|216:357|218:358|204:384|153:368,2,120,2|2|0,3:2|0:0|3:0,0:0:0:0:
278,166,36234,5,6,1:2:0:0:
227,104,36401,1,0,3:0:0:0:
289,53,36567,1,0,3:0:0:0:
421,158,36734,5,6,1:2:0:0:
471,220,36901,1,0,3:0:0:0:
410,270,37067,1,0,3:0:0:0:
231,256,37234,5,6,1:2:0:0:
138,294,37401,2,0,L|131:254,1,40,0|0,3:0|0:0,0:0:0:0:
45,330,37567,1,2,3:0:0:0:
43,320,37650,1,2,0:3:0:0:
41,310,37733,1,2,0:3:0:0:
39,300,37817,1,2,0:3:0:0:
38,290,37900,1,2,3:0:0:0:
36,280,37983,1,2,0:3:0:0:
34,270,38067,1,2,0:3:0:0:
32,261,38150,1,2,0:3:0:0:
31,251,38234,6,0,B|13:212|31:194|33:195|49:173|32:124,2,120,2|0|0,1:2|3:0|3:0,0:0:0:0:
151,145,38901,1,6,3:2:0:0:
283,373,49567,6,0,P|339:377|393:340,1,120.000004577637,6|0,3:2|3:0,0:0:0:0:
318,289,50067,1,0,3:0:0:0:
467,242,50234,2,0,P|471:186|434:132,1,120.000004577637,0|0,1:0|3:0,0:0:0:0:
383,207,50734,1,0,3:0:0:0:
266,130,50901,6,0,P|256:99|255:72,2,60.0000022888184,2|0|0,3:2|3:0|3:0,0:0:0:0:
392,0,51401,1,0,3:0:0:0:
392,0,51484,1,0,3:0:0:0:
392,0,51567,2,0,P|364:53|352:111,1,120.000004577637,2|0,1:2|3:0,0:0:0:0:
161,273,52234,6,0,B|117:263|104:281|107:285|90:308|40:291,1,120.000004577637,2|0,3:2|3:0,0:0:0:0:
49,191,52734,1,0,3:0:0:0:
49,191,52817,1,0,3:0:0:0:
49,191,52901,2,0,P|76:194|113:173,1,60.0000022888184,2|0,1:2|3:0,0:0:0:0:
231,203,53234,2,0,P|234:176|213:139,1,60.0000022888184,0|0,3:0|3:0,0:0:0:0:
146,15,53567,5,2,3:2:0:0:
65,106,53734,1,0,3:0:0:0:
65,106,53817,1,0,3:0:0:0:
65,106,53901,2,0,P|55:79|68:44,1,60.0000022888184,0|0,3:0|3:0,0:0:0:0:
234,54,54234,2,0,P|288:34|358:60,1,120.000004577637,2|0,1:2|3:0,0:0:0:0:
430,139,54734,2,0,L|458:129,1,30.0000011444092,0|0,1:0|0:0,0:0:0:0:
485,60,54901,5,6,3:2:0:0:
325,150,55067,1,0,3:0:0:0:
325,150,55151,1,0,3:0:0:0:
325,150,55234,1,0,1:0:0:0:
404,242,55401,2,0,B|355:220|328:244|329:250|302:274|249:251,1,160,6|0,3:2|3:0,0:0:0:0:
257,353,55901,1,0,1:0:0:0:
79,361,56067,6,0,P|59:301|108:255,1,120,6|0,3:2|0:0,0:0:0:0:
133,191,56401,2,0,P|113:187|88:177,1,40,2|0,3:2|0:0,0:0:0:0:
12,123,56567,2,0,P|32:119|57:109,1,40,2|0,3:2|0:0,0:0:0:0:
199,135,56734,1,0,3:0:0:0:
199,135,56817,1,0,3:0:0:0:
199,135,56901,2,0,B|245:122|245:96|248:95|248:69|302:62,2,120,2|2|2,1:2|0:0|0:0,0:0:0:0:
244,288,57567,6,0,L|262:372,1,80,6|0,3:2|3:0,0:0:0:0:
460,332,57901,2,0,L|442:248,1,80,0|0,1:0|3:0,0:0:0:0:
347,180,58234,5,0,3:0:0:0:
345,199,58317,1,0,3:0:0:0:
344,219,58400,1,0,3:0:0:0:
343,239,58484,1,0,3:0:0:0:
342,259,58567,1,0,1:0:0:0:
183,172,58734,6,0,P|152:130|86:123,1,120,6|0,3:2|0:0,0:0:0:0:
121,272,59067,2,0,P|138:270|151:252,1,40,2|0,3:2|0:0,0:0:0:0:
42,195,59234,2,0,P|35:210|44:231,1,40,2|0,3:2|0:0,0:0:0:0:
53,310,59401,5,2,0:0:0:0:
53,310,59567,2,0,L|39:354,2,40,2|0|0,0:0|0:0|0:0,0:0:0:0:
244,19,60234,6,0,P|248:68|270:113,1,100,6|0,3:2|3:0,0:0:0:0:
457,190,60567,1,0,1:0:0:0:
395,107,60734,1,0,3:0:0:0:
395,107,60817,1,0,3:0:0:0:
395,107,60901,2,0,P|445:103|493:90,1,100,2|0,3:2|3:0,0:0:0:0:
391,263,61234,2,0,P|316:269|244:288,1,150,0|0,1:0|0:0,0:0:0:0:
243,288,61567,5,2,3:2:0:0:
323,359,61734,1,0,3:0:0:0:
264,184,61901,1,0,1:0:0:0:
142,323,62067,1,0,3:0:0:0:
19,134,62234,5,2,3:2:0:0:
107,180,62401,2,0,P|111:154|121:123,2,50,0|0|0,3:0|0:0|1:0,0:0:0:0:
230,24,62734,5,0,3:0:0:0:
230,24,62817,1,0,3:0:0:0:
230,24,62901,2,0,P|293:26|340:103,1,150,2|0,3:2|0:0,0:0:0:0:
410,108,63234,2,0,P|391:71|419:19,1,100,0|0,1:0|3:0,0:0:0:0:
231,120,63567,1,2,3:2:0:0:
231,120,63651,1,0,3:0:0:0:
231,120,63734,1,0,3:0:0:0:
341,183,63901,1,0,1:0:0:0:
165,263,64067,6,0,P|213:262|246:219,1,100,2|0,0:0|3:0,0:0:0:0:
446,279,64401,1,0,3:0:0:0:
446,279,64484,1,0,3:0:0:0:
446,279,64567,2,0,P|447:327|490:360,1,100,0|0,1:0|3:0,0:0:0:0:
257,373,64901,2,0,B|229:337|190:352|191:357|148:375|106:327,1,150,2|0,3:2|0:0,0:0:0:0:
51,370,65234,2,0,B|74:351|64:325|61:326|49:297|81:269,1,100,0|0,1:0|3:0,0:0:0:0:
27,108,65567,5,6,3:2:0:0:
138,209,65734,1,0,3:0:0:0:
240,98,65901,2,0,P|232:35|306:13,1,150,0|0,1:0|0:0,0:0:0:0:
357,63,66234,6,0,P|401:51|399:5,1,100,2|0,3:2|3:0,0:0:0:0:
481,149,66567,1,0,1:0:0:0:
300,176,66734,1,0,3:0:0:0:
300,176,66817,1,0,3:0:0:0:
300,176,66901,1,0,3:0:0:0:
412,309,67067,2,0,P|408:258|394:207,1,100,2|0,0:0|1:0,0:0:0:0:
209,230,67401,6,0,P|136:204|138:90,1,200,2|0,0:0|3:0,0:0:0:0:
133,94,67817,1,0,3:0:0:0:
133,94,67901,1,0,1:0:0:0:
280,137,68067,1,0,3:0:0:0:
430,19,68234,6,0,L|412:124,1,100,2|0,3:2|3:0,0:0:0:0:
483,307,68567,2,0,L|273:271,1,200,0|0,1:0|3:0,0:0:0:0:
340,165,69067,1,2,3:2:0:0:
340,165,69151,1,0,3:0:0:0:
340,165,69234,1,0,1:0:0:0:
177,218,69401,1,0,3:0:0:0:
230,381,69567,6,0,P|139:374|85:286,1,200,6|0,3:2|1:0,0:0:0:0:
155,97,70067,2,0,P|200:100|227:144,1,100,6|0,3:2|3:0,0:0:0:0:
368,248,70401,1,0,1:0:0:0:
354,329,70567,6,0,L|413:321,3,50,0|0|0|0,3:0|3:0|3:0|3:0,0:0:0:0:
466,366,70901,6,0,P|500:331|499:282,1,100,6|0,3:2|3:0,0:0:0:0:
359,158,71234,1,0,1:0:0:0:
452,107,71401,1,0,3:0:0:0:
452,107,71484,1,0,3:0:0:0:
452,107,71567,2,0,P|437:57|434:9,1,100,2|0,3:2|3:0,0:0:0:0:
260,115,71901,2,0,P|234:47|165:24,1,150,0|0,1:0|0:0,0:0:0:0:
165,24,72234,5,2,3:2:0:0:
18,118,72401,1,0,3:0:0:0:
169,106,72567,1,0,1:0:0:0:
13,35,72734,1,0,3:0:0:0:
104,214,72901,5,2,3:2:0:0:
26,277,73067,2,0,P|14:253|-3:232,2,50,0|0|0,3:0|0:0|1:0,0:0:0:0:
240,223,73401,5,2,3:2:0:0:
240,223,73484,1,0,3:0:0:0:
240,223,73567,2,0,P|278:141|338:149,1,150,0|0,3:0|0:0,0:0:0:0:
399,121,73901,2,0,P|433:170|409:202,1,100,0|0,1:0|3:0,0:0:0:0:
359,369,74234,1,2,3:2:0:0:
359,369,74317,1,0,3:0:0:0:
359,369,74401,1,0,3:0:0:0:
329,223,74567,1,0,1:0:0:0:
509,272,74734,6,0,P|460:276|407:290,1,100,2|0,0:0|3:0,0:0:0:0:
266,365,75067,2,0,P|244:354|218:347,2,50,0|0|0,3:0|3:0|1:0,0:0:0:0:
100,268,75401,2,0,P|157:266|200:191,1,150,2|0,0:0|0:0,0:0:0:0:
200,191,75734,1,0,3:0:0:0:
89,46,75901,2,0,P|98:23|84:4,1,50,0|0,1:0|0:0,0:0:0:0:
16,35,76067,5,0,3:0:0:0:
16,35,76151,1,0,3:0:0:0:
16,35,76234,1,6,3:2:0:0:
185,88,76401,2,0,P|215:52|273:50,1,100,0|0,3:0|1:0,0:0:0:0:
403,182,76734,6,0,B|435:118|391:86|385:89|339:55|370:0,1,200,6|0,3:2|3:0,0:0:0:0:
480,27,77234,1,0,1:0:0:0:
292,155,77401,5,6,3:2:0:0:
145,48,77567,2,0,P|122:46|95:54,2,50,0|0|0,3:0|3:0|3:0,0:0:0:0:
165,174,77901,1,0,1:0:0:0:
53,370,78067,5,2,0:3:0:0:
53,370,78151,1,2,0:3:0:0:
53,370,78234,2,0,P|71:354|75:323,3,50,2|0|2|0,0:3|0:0|3:0|0:0,0:0:0:0:
87,256,78567,2,0,P|104:328|159:377,1,150,2|0,0:3|0:0,0:0:0:0:
235,381,78901,6,0,L|344:370,1,100,6|0,1:2|3:0,0:0:0:0:
508,270,79234,2,0,L|399:259,1,100,6|0,1:2|3:0,0:0:0:0:
220,189,79567,5,6,1:2:0:0:
244,186,79650,1,0,3:0:0:0:
269,183,79733,1,0,3:0:0:0:
294,181,79816,1,0,3:0:0:0:
319,178,79900,1,0,1:0:0:0:
504,96,80067,6,0,P|447:96|387:23,1,150,6|0,3:2|0:0,0:0:0:0:
312,30,80401,2,0,P|317:54|313:81,1,50,2|0,3:2|0:0,0:0:0:0:
130,209,80567,6,0,P|129:152|202:92,1,150,6|0,3:2|0:0,0:0:0:0:
196,18,80901,2,0,P|171:22|144:18,2,50,2|0|0,3:2|0:0|3:0,0:0:0:0:
256,192,81234,5,8,0:1:0:0:
325,326,81401,5,0,3:0:0:0:
325,326,81484,1,0,3:0:0:0:
325,326,81567,2,0,P|279:317|244:391,1,120,6|0,3:2|0:0,0:0:0:0:
239,370,81901,2,0,L|155:373,1,80,0|0,1:0|3:0,0:0:0:0:
18,307,82234,2,0,L|102:304,1,80,0|0,3:0|3:0,0:0:0:0:
257,161,82567,1,0,1:0:0:0:
182,236,82733,1,0,3:0:0:0:
107,161,82901,6,0,P|82:91|25:26,1,160,2|0,3:2|1:0,0:0:0:0:
219,17,83401,2,0,P|194:45|181:86,1,80,2|0,0:0|3:0,0:0:0:0:
276,254,83734,1,2,0:0:0:0:
394,147,83901,1,0,1:0:0:0:
317,161,84067,1,0,3:0:0:0:
188,299,84234,6,0,P|182:255|165:218,1,80,2|0,3:2|3:0,0:0:0:0:
374,303,84567,2,0,P|339:329|315:363,1,80,0|0,1:0|3:0,0:0:0:0:
106,320,84901,5,0,3:0:0:0:
105,300,84984,1,0,3:0:0:0:
101,280,85067,1,0,3:0:0:0:
95,261,85150,1,0,3:0:0:0:
86,243,85234,1,0,1:0:0:0:
44,77,85401,6,0,P|65:108|114:106,1,80,2|0,0:0|3:0,0:0:0:0:
238,23,85734,2,0,P|257:24|268:39,1,40,2|0,0:0|0:0,0:0:0:0:
295,108,85901,2,0,B|340:125|352:99|353:102|369:75|413:98,1,120,0|0,1:0|0:0,0:0:0:0:
407,95,86234,5,0,3:0:0:0:
364,230,86401,1,2,0:0:0:0:
361,210,86484,1,2,0:0:0:0:
358,190,86567,1,0,1:0:0:0:
487,316,86734,1,2,0:0:0:0:
490,336,86817,1,2,0:0:0:0:
497,360,86901,6,0,P|440:371|384:344,1,120,6|0,3:2|0:0,0:0:0:0:
385,345,87234,2,0,L|312:384,1,80,0|0,1:0|3:0,0:0:0:0:
182,378,87567,2,0,L|185:294,1,80,0|0,3:0|3:0,0:0:0:0:
255,185,87901,1,0,1:0:0:0:
322,227,88067,1,0,3:0:0:0:
85,188,88234,6,0,P|105:188|120:169,1,40,4|0,3:2|0:0,0:0:0:0:
54,71,88401,2,0,P|110:127|206:116,1,160,2|0,0:0|3:0,0:0:0:0:
333,58,88901,5,2,3:2:0:0:
399,100,89067,1,0,3:0:0:0:
470,63,89234,1,0,1:0:0:0:
403,21,89400,1,2,0:0:0:0:
306,195,89567,5,6,3:2:0:0:
360,266,89734,2,0,L|402:284,2,40,4|0|0,3:2|3:0|3:0,0:0:0:0:
202,233,90067,5,6,3:2:0:0:
131,287,90234,2,0,L|112:329,2,40,4|0|0,3:2|3:0|3:0,0:0:0:0:
164,130,90567,5,6,3:2:0:0:
109,58,90734,2,0,L|66:39,2,40,4|0|0,3:2|3:0|3:0,0:0:0:0:
267,92,91067,5,6,3:2:0:0:
339,36,91234,2,0,L|357:-6,2,40,4|0|0,3:2|3:0|3:0,0:0:0:0:
426,147,91567,5,6,3:2:0:0:
444,139,91650,1,0,3:0:0:0:
463,132,91733,1,0,3:0:0:0:
481,125,91816,1,0,3:0:0:0:
500,118,91900,1,0,3:0:0:0:
327,175,92067,6,0,P|295:214|312:282,1,120.000004577637,4|0,3:2|0:0,0:0:0:0:
255,384,92567,2,0,P|255:354|246:318,1,60.0000022888184,2|0,3:2|0:0,0:0:0:0:
230,165,92901,2,0,P|170:165|98:183,1,120.000004577637,0|0,1:0|0:0,0:0:0:0:
105,306,93401,6,0,P|138:296|153:267,2,60.0000022888184,2|0|0,3:2|0:0|3:0,0:0:0:0:
33,269,93901,1,0,3:0:0:0:
37,350,94067,2,0,P|33:366|41:380,2,30.0000011444092,2|0|0,0:0|0:0|1:0,0:0:0:0:
186,373,94401,1,2,0:0:0:0:
186,373,94734,6,0,P|235:346|299:358,1,120.000004577637,2|0,0:0|3:0,0:0:0:0:
392,376,95234,2,0,P|378:351|384:319,1,60.0000022888184,2|0,0:0|0:0,0:0:0:0:
262,262,95567,2,0,B|275:216|253:203|254:202|230:192|242:142,1,120.000004577637,0|0,1:0|0:0,0:0:0:0:
348,203,96067,1,0,3:0:0:0:
414,60,96234,6,0,B|401:106|423:119|422:120|446:130|434:180,1,120.000004577637,0|0,3:0|0:0,0:0:0:0:
435,172,96651,1,0,3:0:0:0:
435,172,96734,1,0,3:0:0:0:
328,119,96901,2,0,P|295:72|233:57,1,120.000004577637,0|0,1:0|0:0,0:0:0:0:
121,15,97401,1,0,3:0:0:0:
133,164,97567,5,2,3:2:0:0:
133,164,97901,2,0,P|102:171|74:169,1,60.0000022888184,2|0,0:0|0:0,0:0:0:0:
233,281,98234,2,0,P|219:219|223:163,1,120.000004577637,0|0,1:0|0:0,0:0:0:0:
94,255,98734,6,0,L|34:277,2,60.0000022888184,2|0|0,3:2|0:0|3:0,0:0:0:0:
139,321,99234,1,0,3:0:0:0:
217,335,99401,2,0,L|228:365,2,30.0000011444092,2|0|0,0:0|0:0|1:0,0:0:0:0:
304,241,99734,1,2,0:0:0:0:
304,241,100067,6,0,L|428:250,1,120.000004577637,2|0,0:0|3:0,0:0:0:0:
359,323,100567,2,0,P|353:350|362:382,1,60.0000022888184,2|0,0:0|0:0,0:0:0:0:
368,167,100901,2,0,P|374:140|301:98,1,120.000004577637,0|0,1:0|0:0,0:0:0:0:
273,167,101401,1,2,3:2:0:0:
148,81,101567,5,0,3:0:0:0:
49,92,101734,2,0,P|62:61|63:31,1,60.0000022888184,2|0,3:2|3:0,0:0:0:0:
117,186,102067,2,0,P|110:201|110:216,2,30.0000011444092,2|0|0,0:0|0:0|1:0,0:0:0:0:
52,292,102401,1,0,3:0:0:0:
52,292,102484,1,0,3:0:0:0:
52,292,102567,1,0,3:0:0:0:
197,253,102734,1,0,1:0:0:0:
316,363,102901,6,0,B|299:313|329:288|332:294|364:267|343:203,1,160,6|0,3:2|1:0,0:0:0:0:
264,31,103401,1,2,0:0:0:0:
443,112,103567,1,0,3:0:0:0:
443,112,103651,1,0,3:0:0:0:
443,112,103734,1,0,3:0:0:0:
463,14,103901,2,0,P|424:9|382:26,1,80,0|2,1:0|0:0,0:0:0:0:
234,115,104234,5,0,3:0:0:0:
160,248,104401,1,0,3:0:0:0:
263,218,104567,1,0,1:0:0:0:
131,144,104734,2,0,P|87:72|15:65,1,160,0|0,3:0|3:0,0:0:0:0:
27,225,105234,1,0,1:0:0:0:
63,363,105401,5,0,3:0:0:0:
63,363,105484,1,0,3:0:0:0:
63,363,105567,2,0,P|68:324|89:274,1,80,2|0,3:2|3:0,0:0:0:0:
226,358,105901,1,0,1:0:0:0:
265,268,106067,1,2,3:2:0:0:
265,268,106151,1,0,3:0:0:0:
265,268,106234,2,0,P|245:265|220:255,2,40,0|0|0,3:0|3:0|3:0,0:0:0:0:
345,175,106567,5,0,1:0:0:0:
146,199,106734,1,0,3:0:0:0:
146,199,106817,1,0,3:0:0:0:
146,199,106901,1,0,3:0:0:0:
98,70,107067,2,0,B|131:60|149:91|147:92|168:121|210:108,1,120,2|0,3:2|0:0,0:0:0:0:
204,109,107401,5,2,0:0:0:0:
298,16,107567,1,0,3:0:0:0:
298,16,107651,1,0,3:0:0:0:
298,16,107734,1,0,3:0:0:0:
391,109,107901,1,0,1:0:0:0:
262,213,108067,5,0,3:0:0:0:
262,213,108150,1,0,3:0:0:0:
262,213,108234,2,0,P|310:197|373:272,1,160,6|0,3:2|1:0,0:0:0:0:
304,368,108734,1,2,3:2:0:0:
304,368,108817,1,0,3:0:0:0:
304,368,108901,2,0,P|293:343|294:320,2,40,0|0|0,3:0|3:0|3:0,0:0:0:0:
212,289,109234,1,0,1:0:0:0:
399,360,109401,5,0,3:0:0:0:
399,360,109484,1,0,3:0:0:0:
399,360,109567,2,0,P|438:368|487:368,1,80,6|0,3:2|3:0,0:0:0:0:
447,241,109901,1,0,1:0:0:0:
496,106,110067,1,0,3:0:0:0:
496,106,110151,1,0,3:0:0:0:
496,106,110234,2,0,B|450:91|441:112|442:117|428:138|380:119,2,120,2|2|0,3:2|0:0|3:0,0:0:0:0:
337,32,110901,5,6,1:2:0:0:
273,80,111067,1,0,3:0:0:0:
199,48,111234,1,0,3:0:0:0:
97,186,111401,5,6,1:2:0:0:
161,138,111567,1,0,3:0:0:0:
235,170,111734,1,0,3:0:0:0:
182,332,111901,5,6,1:2:0:0:
96,360,112067,2,0,L|91:312,1,40,0|0,3:0|0:0,0:0:0:0:
266,284,112234,1,2,3:0:0:0:
267,293,112317,1,2,0:3:0:0:
268,303,112401,1,2,0:3:0:0:
269,313,112484,1,2,0:3:0:0:
270,323,112567,1,2,3:0:0:0:
271,333,112651,1,2,0:3:0:0:
272,343,112734,1,2,0:3:0:0:
273,353,112817,1,2,0:3:0:0:
274,363,112901,6,0,B|314:379|326:346|330:345|344:317|387:330,2,120,2|0|0,1:2|3:0|3:0,0:0:0:0:
362,208,113567,6,0,P|437:204|484:266,1,160,6|0,3:2|1:0,0:0:0:0:
500,106,114067,2,0,P|462:108|439:77,1,80,0|0,3:0|3:0,0:0:0:0:
268,54,114401,1,0,3:0:0:0:
268,54,114484,1,0,3:0:0:0:
268,54,114567,2,0,P|275:89|279:141,1,80,0|0,1:0|3:0,0:0:0:0:
147,266,114901,5,2,3:2:0:0:
74,200,115067,1,0,3:0:0:0:
168,170,115234,1,0,1:0:0:0:
241,236,115401,2,0,L|252:278,2,40,2|2|2,0:0|0:0|0:0,0:0:0:0:
389,264,115734,2,0,L|367:348,1,80,0|0,3:0|1:0,0:0:0:0:
219,378,116067,5,0,3:0:0:0:
219,378,116151,1,0,3:0:0:0:
219,378,116234,2,0,P|148:333|48:337,1,160,2|0,3:2|1:0,0:0:0:0:
2,208,116734,1,2,3:2:0:0:
159,240,116901,2,0,P|199:236|233:214,2,80,0|0|0,3:0|3:0|1:0,0:0:0:0:
109,43,117401,6,0,L|69:37,2,40,0|0|2,3:0|3:0|3:2,0:0:0:0:
181,133,117734,1,0,3:0:0:0:
190,52,117901,1,0,1:0:0:0:
99,123,118067,2,0,P|39:178|60:249,1,160,2|0,3:2|3:0,0:0:0:0:
192,368,118567,1,0,1:0:0:0:
320,368,118734,5,0,3:0:0:0:
320,368,118817,1,0,3:0:0:0:
320,368,118901,2,0,B|288:322|313:289|317:294|338:260|305:204,1,160,2|0,3:2|1:0,0:0:0:0:
185,156,119401,2,0,B|178:145|183:136|184:137|191:129|183:118,2,40,0|0|0,3:0|3:0|3:0,0:0:0:0:
30,203,119734,2,0,B|53:187|69:200|67:202|84:212|112:196,2,80,0|0|0,3:0|1:0|3:0,0:0:0:0:
186,235,120234,5,2,3:2:0:0:
163,367,120401,1,0,3:0:0:0:
108,289,120567,1,0,1:0:0:0:
240,312,120734,2,0,P|295:263|378:286,1,160,2|0,0:0|3:0,0:0:0:0:
503,336,121234,2,0,P|475:360|434:349,1,80,0|0,1:0|3:0,0:0:0:0:
436,351,121484,1,0,3:0:0:0:
436,351,121567,6,0,B|446:293|420:268|418:272|385:250|405:180,1,160,2|0,3:2|1:0,0:0:0:0:
415,38,122067,2,0,P|398:18|385:24,2,40,0|0|0,3:0|3:0|3:0,0:0:0:0:
305,74,122401,2,0,P|270:75|233:109,2,80,2|0|0,3:2|1:0|3:0,0:0:0:0:
313,173,122901,5,0,3:0:0:0:
188,17,123067,1,2,3:2:0:0:
107,123,123234,2,0,L|90:35,1,80,0|0,1:0|3:0,0:0:0:0:
18,158,123567,1,0,3:0:0:0:
18,158,123651,1,0,3:0:0:0:
18,158,123734,1,2,3:2:0:0:
128,301,123901,1,0,1:0:0:0:
230,271,124067,2,0,P|233:246|225:220,1,40,2|0,0:0|0:0,0:0:0:0:
144,130,124234,6,0,P|138:180|154:232,1,80,6|0,3:2|3:0,0:0:0:0:
39,331,124567,1,0,1:0:0:0:
197,359,124734,2,0,P|275:358|353:379,1,160,0|0,3:0|3:0,0:0:0:0:
436,293,125234,6,0,P|397:293|358:283,1,80,0|0,1:0|3:0,0:0:0:0:
357,282,125484,1,0,3:0:0:0:
357,282,125567,1,2,3:2:0:0:
410,199,125734,2,0,P|410:160|420:121,1,80,0|0,3:0|1:0,0:0:0:0:
251,14,126067,1,2,3:2:0:0:
251,14,126151,1,0,3:0:0:0:
251,14,126234,2,0,P|286:32|299:80,1,80,0|0,3:0|3:0,0:0:0:0:
190,170,126567,1,0,1:0:0:0:
243,256,126734,5,0,3:0:0:0:
243,256,126817,1,0,3:0:0:0:
243,256,126901,2,0,P|204:263|162:264,2,80,2|0|0,3:2|3:0|1:0,0:0:0:0:
183,79,127401,2,0,P|115:47|57:96,1,160,2|0,0:0|3:0,0:0:0:0:
17,210,127901,1,0,1:0:0:0:
147,349,128067,5,0,3:0:0:0:
147,349,128151,1,0,3:0:0:0:
147,349,128234,1,2,3:2:0:0:
247,366,128401,1,0,3:0:0:0:
210,273,128567,2,0,L|205:190,1,80,0|0,1:0|3:0,0:0:0:0:
101,45,128901,2,0,L|105:124,2,80,2|0|0,0:0|3:0|1:0,0:0:0:0:
342,157,129567,6,0,P|367:129|416:130,1,80,6|0,3:2|3:0,0:0:0:0:
472,295,129901,2,0,P|483:331|458:373,1,80,0|2,1:0|3:2,0:0:0:0:
293,317,130234,1,0,1:0:0:0:
185,264,130401,1,0,3:0:0:0:
373,231,130567,1,0,1:0:0:0:
248,100,130734,2,0,P|256:139|265:178,1,80,2|8,3:2|0:0,0:0:0:0:
386,331,131067,2,0,P|379:351|372:374,2,40,0|0|0,3:0|3:0|1:0,0:0:0:0:
495,170,131401,5,0,3:0:0:0:
495,170,131484,1,0,3:0:0:0:
495,170,131567,1,2,1:2:0:0:
403,51,131734,5,0,3:0:0:0:
403,51,131817,1,0,3:0:0:0:
403,51,131900,1,2,1:2:0:0:
284,142,132068,5,0,3:0:0:0:
284,142,132151,1,0,3:0:0:0:
284,142,132234,1,6,3:2:0:0:
284,142,133401,6,0,P|256:77|216:45,1,120,6|0,3:2|0:0,0:0:0:0:
149,27,133734,6,0,P|127:36|116:49,1,40,2|0,3:2|0:0,0:0:0:0:
54,136,133901,2,0,P|72:129|86:114,1,40,2|0,3:2|0:0,0:0:0:0:
24,22,134067,2,0,P|31:40|46:54,1,40,2|0,3:2|0:0,0:0:0:0:
178,141,134234,2,0,P|170:122|156:109,2,40,2|0|2,3:2|0:0|3:2,0:0:0:0:
178,141,134901,5,2,0:3:0:0:
193,247,135067,2,0,L|174:284,3,40,0|2|2|2,3:0|0:3|0:3|0:3,0:0:0:0:
211,348,135401,2,0,L|285:386,2,80,2|0|0,0:0|0:0|0:0,0:0:0:0:
342,277,135901,5,8,0:1:0:0:
342,277,136234,6,0,P|380:253|394:199,1,100,6|0,3:2|3:0,0:0:0:0:
383,1,136567,1,0,1:0:0:0:
435,98,136734,1,0,3:0:0:0:
435,98,136817,1,0,3:0:0:0:
435,98,136900,2,0,P|391:107|343:79,1,100,2|0,3:2|3:0,0:0:0:0:
168,163,137234,2,0,P|233:148|305:190,1,150,0|0,1:0|0:0,0:0:0:0:
302,186,137567,5,2,3:2:0:0:
210,338,137734,1,0,3:0:0:0:
308,350,137900,1,0,1:0:0:0:
156,258,138067,1,0,3:0:0:0:
0,343,138234,5,2,3:2:0:0:
104,382,138400,2,0,P|99:350|90:328,2,50,0|0|0,3:0|0:0|1:0,0:0:0:0:
9,213,138734,5,0,3:0:0:0:
9,213,138817,1,0,3:0:0:0:
9,213,138900,2,0,P|4:141|76:136,1,150,2|0,3:2|0:0,0:0:0:0:
101,63,139234,2,0,P|140:36|167:76,1,100,0|0,1:0|3:0,0:0:0:0:
175,215,139567,1,2,3:2:0:0:
175,215,139650,1,0,3:0:0:0:
175,215,139734,1,0,3:0:0:0:
337,169,139900,1,0,1:0:0:0:
254,313,140067,6,0,P|266:267|261:211,1,100,2|0,0:0|3:0,0:0:0:0:
487,277,140400,1,0,3:0:0:0:
487,277,140484,1,0,3:0:0:0:
487,277,140567,2,0,P|475:323|480:379,1,100,0|0,1:0|3:0,0:0:0:0:
331,376,140900,2,0,B|327:331|363:312|366:315|397:288|391:245,1,150,2|0,3:2|0:0,0:0:0:0:
443,189,141234,2,0,B|444:159|421:146|419:148|398:130|402:102,1,100,0|0,1:0|3:0,0:0:0:0:
195,13,141567,5,6,3:2:0:0:
315,100,141734,1,0,3:0:0:0:
137,154,141900,2,0,B|89:141|77:98|85:100|71:61|13:53,1,150,0|0,1:0|0:0,0:0:0:0:
51,129,142234,6,0,B|62:154|44:175|42:169|22:191|30:223,1,100,2|0,3:2|3:0,0:0:0:0:
179,355,142567,1,0,1:0:0:0:
148,253,142734,1,0,3:0:0:0:
148,253,142817,1,0,3:0:0:0:
148,253,142900,1,0,3:0:0:0:
0,368,143067,2,0,P|43:377|78:336,1,100,2|0,0:0|1:0,0:0:0:0:
246,279,143400,6,0,P|340:263|401:337,1,200,2|0,0:0|3:0,0:0:0:0:
401,337,143817,1,0,3:0:0:0:
401,337,143900,1,0,1:0:0:0:
306,354,144067,1,0,3:0:0:0:
466,232,144234,6,0,L|456:126,1,100,2|0,3:2|3:0,0:0:0:0:
246,55,144567,2,0,L|445:36,1,200,0|0,1:0|3:0,0:0:0:0:
366,195,145067,1,2,3:2:0:0:
366,195,145150,1,0,3:0:0:0:
366,195,145234,1,0,1:0:0:0:
252,143,145400,1,0,3:0:0:0:
182,356,145567,6,0,P|238:353|271:232,1,200,6|0,3:2|0:0,0:0:0:0:
51,265,146067,2,0,P|66:288|126:272,1,100,6|0,3:2|3:0,0:0:0:0:
14,136,146400,1,0,1:0:0:0:
75,82,146567,6,0,L|69:23,3,50,0|0|0|0,3:0|3:0|3:0|3:0,0:0:0:0:
143,14,146900,6,0,P|177:40|237:47,1,100,6|0,3:2|3:0,0:0:0:0:
386,157,147234,1,0,1:0:0:0:
481,119,147400,1,0,3:0:0:0:
481,119,147484,1,0,3:0:0:0:
481,119,147567,2,0,P|480:65|465:16,1,100,2|0,3:2|3:0,0:0:0:0:
280,145,147900,2,0,P|241:196|230:286,1,150,0|0,1:0|0:0,0:0:0:0:
228,279,148234,5,2,3:2:0:0:
139,222,148400,1,0,3:0:0:0:
320,230,148567,1,0,1:0:0:0:
135,327,148734,1,0,3:0:0:0:
316,335,148901,5,2,3:2:0:0:
464,365,149067,2,0,P|444:353|432:321,2,50,0|0|0,3:0|0:0|1:0,0:0:0:0:
512,149,149400,5,0,3:0:0:0:
512,149,149484,1,0,3:0:0:0:
512,149,149567,2,0,P|463:202|394:180,1,150,2|0,3:2|0:0,0:0:0:0:
374,110,149900,2,0,P|338:77|353:31,1,100,0|0,1:0|3:0,0:0:0:0:
462,54,150234,1,2,3:2:0:0:
462,54,150317,1,0,3:0:0:0:
462,54,150400,1,0,3:0:0:0:
240,21,150567,1,0,1:0:0:0:
230,207,150733,6,0,P|244:163|255:107,1,100,2|0,0:0|3:0,0:0:0:0:
96,12,151067,2,0,P|119:19|144:24,2,50,0|0|0,3:0|3:0|1:0,0:0:0:0:
8,200,151400,2,0,P|56:150|142:140,1,150,2|0,0:0|0:0,0:0:0:0:
133,137,151733,1,0,3:0:0:0:
301,172,151900,2,0,P|310:205|293:245,1,50,0|0,1:0|0:0,0:0:0:0:
278,294,152067,5,0,3:0:0:0:
278,294,152150,1,0,3:0:0:0:
278,294,152233,1,6,3:2:0:0:
124,359,152400,2,0,P|116:313|92:260,1,100,0|0,3:0|1:0,0:0:0:0:
165,75,152733,6,0,B|107:68|89:120|92:124|66:179|1:170,1,200,6|0,3:2|3:0,0:0:0:0:
66,15,153233,1,0,1:0:0:0:
280,38,153400,5,6,3:2:0:0:
202,181,153567,2,0,P|188:195|193:222,2,50,0|0|0,3:0|3:0|3:0,0:0:0:0:
365,175,153900,1,0,1:0:0:0:
347,378,154067,5,2,0:3:0:0:
347,378,154150,1,2,0:3:0:0:
347,378,154233,2,0,P|325:356|299:351,3,50,2|0|2|0,0:3|0:0|3:0|0:0,0:0:0:0:
231,357,154567,2,0,P|309:311|343:240,1,150,2|0,0:3|0:0,0:0:0:0:
268,235,154900,6,0,L|165:252,1,100,6|0,1:2|3:0,0:0:0:0:
403,129,155233,2,0,L|420:232,1,100,6|0,1:2|3:0,0:0:0:0:
250,117,155567,5,6,1:2:0:0:
245,92,155650,1,0,3:0:0:0:
241,67,155733,1,0,3:0:0:0:
237,43,155817,1,0,3:0:0:0:
233,18,155900,1,0,1:0:0:0:
31,36,156067,6,0,P|14:103|83:140,1,150,6|0,3:2|0:0,0:0:0:0:
72,220,156400,2,0,P|50:214|38:237,1,50,2|0,3:2|0:0,0:0:0:0:
39,352,156567,6,0,P|106:369|143:300,1,150,6|0,3:2|0:0,0:0:0:0:
224,312,156900,2,0,P|219:334|242:346,2,50,2|0|0,3:2|0:0|3:0,0:0:0:0:
256,192,157233,5,2,0:0:0:0:
256,192,157567,6,0,L|261:146,1,40,6|0,3:2|0:0,0:0:0:0:
256,23,157733,2,0,L|251:69,1,40,4|0,3:2|0:0,0:0:0:0:
256,23,160233,5,0,3:0:0:0:
242,101,160400,1,2,0:0:0:0:
323,117,160567,1,2,0:0:0:0:
337,38,160733,1,2,0:0:0:0:
425,52,160900,1,0,3:0:0:0:
425,52,160983,1,0,3:0:0:0:
425,52,161066,2,0,L|454:32,2,20,0|0|8,3:0|3:0|0:0,0:0:0:0:
400,130,161400,6,0,P|454:142|475:202,1,120.000004577637,2|0,0:0|0:0,0:0:0:0:
381,232,161900,1,2,0:0:0:0:
362,334,162067,2,0,P|308:322|287:262,1,120.000004577637,2|0,3:2|0:0,0:0:0:0:
206,270,162567,2,0,P|176:270|147:264,1,60.0000022888184,2|0,0:0|0:0,0:0:0:0:
29,295,162900,5,6,3:2:0:0:
10,116,163067,1,4,3:2:0:0:
25,11,163233,6,0,L|98:56,1,80,0|0,1:0|3:0,0:0:0:0:
264,20,163567,2,0,L|219:93,1,80,0|0,1:0|3:0,0:0:0:0:
255,259,163900,2,0,L|182:214,1,80,0|0,1:0|3:0,0:0:0:0:
24,258,164233,2,0,L|69:185,1,80,0|0,1:0|3:0,0:0:0:0:
65,189,164483,1,0,3:0:0:0:
65,189,164567,2,0,L|105:264,1,80,0|0,1:0|3:0,0:0:0:0:
216,359,164900,5,0,1:0:0:0:
235,359,164983,1,0,3:0:0:0:
255,360,165066,1,0,3:0:0:0:
275,360,165150,1,0,3:0:0:0:
295,361,165233,2,0,L|336:292,1,80,0|0,1:0|3:0,0:0:0:0:
409,146,165567,5,6,3:2:0:0:
451,225,165733,2,0,L|499:217,2,40,4|0|0,3:2|3:0|3:0,0:0:0:0:
326,93,166067,5,6,3:2:0:0:
405,51,166233,2,0,L|397:3,2,40,4|0|0,3:2|3:0|3:0,0:0:0:0:
273,176,166567,5,6,3:2:0:0:
231,97,166733,2,0,L|183:105,2,40,4|0|0,3:2|3:0|3:0,0:0:0:0:
356,229,167067,5,6,3:2:0:0:
277,271,167233,2,0,L|285:319,2,40,4|0|0,3:2|3:0|3:0,0:0:0:0:
71,317,167567,5,6,3:2:0:0:
158,367,167733,1,4,3:2:0:0:
158,367,167817,1,0,3:0:0:0:
158,367,167900,1,0,3:0:0:0:
98,154,168067,6,0,P|164:191|158:267,1,160,6|0,3:2|0:0,0:0:0:0:
256,192,168567,1,0,1:0:0:0:
161,75,168733,1,2,3:2:0:0:
161,75,168817,1,0,3:0:0:0:
161,75,168900,2,0,P|128:56|131:18,2,80,0|0|0,3:0|3:0|1:0,0:0:0:0:
322,30,169400,5,0,3:0:0:0:
322,30,169483,1,0,3:0:0:0:
322,30,169567,1,2,3:2:0:0:
443,43,169733,1,0,3:0:0:0:
377,104,169900,1,0,1:0:0:0:
455,221,170067,2,0,B|402:202|381:238|387:241|367:274|308:254,1,160,2|0,0:0|3:0,0:0:0:0:
177,166,170567,1,0,1:0:0:0:
84,263,170733,5,2,3:2:0:0:
84,263,170817,1,0,3:0:0:0:
84,263,170900,2,0,P|46:264|17:292,1,80,0|0,3:0|3:0,0:0:0:0:
114,365,171233,1,0,1:0:0:0:
247,298,171400,6,0,L|255:378,2,80,2|0|0,0:0|3:0|3:0,0:0:0:0:
265,86,171900,1,0,1:0:0:0:
326,247,172067,5,2,3:2:0:0:
326,247,172150,1,0,3:0:0:0:
326,247,172233,1,0,3:0:0:0:
164,268,172400,1,0,3:0:0:0:
143,106,172567,1,0,1:0:0:0:
238,199,172733,1,2,3:2:0:0:
238,199,172817,1,0,3:0:0:0:
238,199,172900,2,0,B|268:149|299:157|302:162|341:169|371:117,1,160,0|0,3:0|1:0,0:0:0:0:
488,269,173400,5,0,3:0:0:0:
488,269,173483,1,0,3:0:0:0:
488,269,173567,2,0,P|422:293|360:237,1,160,2|0,3:2|1:0,0:0:0:0:
253,315,174067,1,2,3:2:0:0:
253,315,174150,1,0,3:0:0:0:
253,315,174233,2,0,L|260:359,2,40,0|0|0,3:0|3:0|3:0,0:0:0:0:
105,377,174567,2,0,L|117:297,1,80,0|0,1:0|3:0,0:0:0:0:
117,297,174817,1,0,3:0:0:0:
117,297,174900,5,2,3:2:0:0:
41,230,175067,1,0,3:0:0:0:
138,198,175233,1,0,1:0:0:0:
218,269,175400,1,2,3:2:0:0:
218,269,175483,1,0,3:0:0:0:
218,269,175567,2,0,B|215:213|247:194|247:194|277:179|270:110,1,160,0|0,3:0|1:0,0:0:0:0:
348,53,176067,5,0,3:0:0:0:
348,53,176150,1,0,3:0:0:0:
348,53,176233,2,0,P|378:52|399:7,2,80,2|0|0,3:2|3:0|1:0,0:0:0:0:
180,101,176733,2,0,P|104:112|56:52,1,160,2|0,0:0|3:0,0:0:0:0:
56,52,177150,1,0,3:0:0:0:
56,52,177233,2,0,P|61:89|31:113,1,80,2|0,1:2|3:0,0:0:0:0:
26,276,177567,5,0,3:0:0:0:
73,187,177733,1,0,3:0:0:0:
161,235,177900,1,0,1:0:0:0:
121,331,178067,1,0,3:0:0:0:
121,331,178150,1,0,3:0:0:0:
121,331,178233,2,0,L|201:321,1,80,2|0,3:2|3:0,0:0:0:0:
297,166,178567,2,0,L|217:156,1,80,0|0,1:0|3:0,0:0:0:0:
325,373,178900,6,0,B|318:318|357:301|356:309|393:291|388:230,1,160,6|0,3:2|1:0,0:0:0:0:
441,111,179400,1,2,3:2:0:0:
441,111,179483,1,0,3:0:0:0:
441,111,179567,2,0,P|480:102|502:69,2,80,0|0|0,3:0|3:0|1:0,0:0:0:0:
262,19,180067,5,2,3:2:0:0:
262,19,180150,1,0,3:0:0:0:
262,19,180233,1,0,3:0:0:0:
297,166,180400,1,0,3:0:0:0:
353,75,180567,1,0,1:0:0:0:
206,110,180733,2,0,B|153:125|135:94|138:93|117:63|58:77,1,160,2|0,0:0|3:0,0:0:0:0:
128,243,181233,2,0,B|157:250|168:235|166:234|175:219|202:226,1,80,0|0,1:0|3:0,0:0:0:0:
202,226,181483,1,0,3:0:0:0:
202,226,181567,6,0,P|247:295|324:313,1,160,2|0,3:2|1:0,0:0:0:0:
468,373,182067,1,0,3:0:0:0:
471,262,182233,2,0,P|471:223|476:179,1,80,2|0,0:0|3:0,0:0:0:0:
475,182,182483,1,0,3:0:0:0:
475,182,182567,2,0,P|436:181|392:177,1,80,0|0,1:0|3:0,0:0:0:0:
496,25,182900,6,0,P|469:53|420:56,1,80,2|0,3:2|3:0,0:0:0:0:
430,58,183150,1,2,0:0:0:0:
430,58,183233,1,0,1:0:0:0:
317,138,183400,1,0,3:0:0:0:
191,80,183567,5,0,3:0:0:0:
158,7,183733,1,0,3:0:0:0:
112,72,183900,1,0,1:0:0:0:
14,199,184067,5,0,3:0:0:0:
14,199,184150,1,0,3:0:0:0:
14,199,184233,2,0,B|53:168|88:207|87:209|125:242|174:217,1,160,6|0,3:2|1:0,0:0:0:0:
254,354,184733,2,0,L|259:309,2,40,0|0|0,3:0|3:0|3:0,0:0:0:0:
337,344,185067,1,0,3:0:0:0:
169,311,185233,2,0,P|131:321|102:363,1,80,0|0,1:0|3:0,0:0:0:0:
105,351,185483,1,0,3:0:0:0:
105,351,185567,5,2,3:2:0:0:
27,276,185733,1,0,3:0:0:0:
73,177,185900,1,0,1:0:0:0:
249,219,186067,1,2,3:2:0:0:
249,219,186150,1,0,3:0:0:0:
249,219,186233,2,0,P|210:216|198:116,1,160,0|0,3:0|1:0,0:0:0:0:
499,19,186900,5,6,3:2:0:0:
466,120,187067,2,0,L|447:166,2,40,2|2|0,0:3|0:3|1:0,0:0:0:0:
316,9,187400,5,6,3:2:0:0:
338,112,187567,1,2,0:3:0:0:
338,112,187650,1,2,0:3:0:0:
338,112,187733,2,0,L|345:162,2,40,2|0|0,0:3|0:0|1:0,0:0:0:0:
477,256,188067,6,0,P|426:254|370:304,1,120,6|0,3:2|0:0,0:0:0:0:
376,368,188400,2,0,L|320:371,1,40,6|0,3:2|0:0,0:0:0:0:
182,324,188567,2,0,L|238:327,3,40,2|0|0|0,3:2|3:0|3:0|0:0,0:0:0:0:
279,280,188900,5,0,1:0:0:0:
279,270,188983,1,2,0:3:0:0:
280,260,189066,1,2,0:3:0:0:
280,250,189150,1,2,0:3:0:0:
281,240,189233,1,2,0:3:0:0:
281,230,189316,1,2,0:3:0:0:
282,220,189400,1,2,0:3:0:0:
282,210,189483,1,2,0:3:0:0:
283,200,189567,6,0,P|282:163|273:119,2,80,6|0|0,3:2|3:0|1:0,0:0:0:0:
276,37,190067,1,0,3:0:0:0:
276,37,190150,1,0,3:0:0:0:
276,37,190233,2,0,P|257:37|235:42,3,40,2|0|0|0,3:2|0:0|3:0|0:0,0:0:0:0:
192,115,190567,6,0,P|172:119|152:119,1,40,0|0,1:0|0:0,0:0:0:0:
88,152,190733,2,0,P|32:132|26:74,1,120,6|0,3:2|0:0,0:0:0:0:
95,59,191067,2,0,P|91:39|91:19,1,40,2|0,3:2|0:0,0:0:0:0:
106,228,191233,2,0,P|110:248|110:268,1,40,2|0,3:2|0:0,0:0:0:0:
96,342,191400,5,2,0:0:0:0:
96,342,191567,2,0,L|49:347,2,40,2|0|0,0:0|0:0|0:0,0:0:0:0:
416,342,192233,5,6,0:0:0:0:
272,371,208232,6,0,P|254:334|246:285,1,80,6|0,3:2|3:0,0:0:0:0:
252,137,208566,2,0,L|264:6,1,120,6|0,3:2|0:0,0:0:0:0:
198,72,208899,2,0,L|329:84,1,120,0|0,1:0|0:0,0:0:0:0:
317,82,209232,5,0,3:0:0:0:
491,143,209399,2,0,P|477:205|419:209,1,120,6|0,3:2|0:0,0:0:0:0:
359,194,209732,2,0,P|338:189|337:170,1,40,4|0,3:2|0:0,0:0:0:0:
245,235,209899,2,0,P|286:244|288:282,1,80,2|0,3:2|0:0,0:0:0:0:
111,371,210232,6,0,P|116:350|135:349,1,40,6|0,3:2|0:0,0:0:0:0:
126,273,210399,2,0,P|84:263|82:225,1,80,0|0,3:0|0:0,0:0:0:0:
238,37,210899,6,0,P|256:25|270:38,1,40,2|0,3:2|0:0,0:0:0:0:
256,106,211065,1,0,3:0:0:0:
260,363,212065,6,0,L|264:312,1,40,2|0,3:2|0:0,0:0:0:0:
252,355,212399,6,0,L|256:304,1,40,2|0,3:2|0:0,0:0:0:0:
260,191,212565,2,0,L|256:242,1,40,2|0,3:2|0:0,0:0:0:0:
180,276,212732,5,2,3:2:0:0:
328,269,212899,1,2,3:2:0:0:
162,185,213065,1,2,3:2:0:0:
350,185,213232,5,8,0:1:0:0:
350,185,213565,6,0,P|330:96|327:4,1,180.000006866455,6|0,3:2|0:0,0:0:0:0:
400,5,213899,2,0,P|457:23|512:52,1,120.000004577637,0|0,1:0|3:0,0:0:0:0:
445,226,214232,1,2,3:2:0:0:
445,226,214315,1,0,3:0:0:0:
445,226,214399,1,0,3:0:0:0:
254,194,214565,1,0,1:0:0:0:
158,324,214732,6,0,P|201:295|280:289,1,120.000004577637,2|0,0:0|3:0,0:0:0:0:
145,127,215065,1,0,3:0:0:0:
145,127,215149,1,0,3:0:0:0:
145,127,215232,2,0,P|85:121|35:89,1,120.000004577637,0|0,1:0|3:0,0:0:0:0:
55,369,215565,2,0,B|85:318|47:285|45:287|6:255|29:199,1,180.000006866455,2|0,3:2|0:0,0:0:0:0:
98,227,215899,2,0,B|133:241|154:215|153:214|175:188|209:208,1,120.000004577637,0|0,1:0|3:0,0:0:0:0:
375,105,216232,5,6,3:2:0:0:
503,183,216399,1,0,3:0:0:0:
425,311,216565,2,0,P|352:316|347:216,1,180.000006866455,0|0,1:0|0:0,0:0:0:0:
305,161,216899,6,0,P|261:139|291:80,1,120.000004577637,2|0,3:2|3:0,0:0:0:0:
95,20,217232,1,0,1:0:0:0:
159,135,217399,1,0,3:0:0:0:
159,135,217482,1,0,3:0:0:0:
159,135,217565,1,0,3:0:0:0:
9,233,217732,2,0,P|69:217|132:218,1,120.000004577637,2|0,0:0|1:0,0:0:0:0:
297,362,218065,6,0,B|220:391|184:340|187:333|153:284|75:303,1,240.000009155274,2|0,0:0|3:0,0:0:0:0:
78,302,218482,1,0,3:0:0:0:
78,302,218565,1,0,1:0:0:0:
263,279,218732,1,0,3:0:0:0:
405,353,218899,6,0,L|410:230,1,120.000004577637,2|0,3:2|3:0,0:0:0:0:
242,19,219232,2,0,L|481:28,1,240.000009155274,0|0,1:0|3:0,0:0:0:0:
313,119,219732,1,0,3:0:0:0:
313,119,219815,1,0,3:0:0:0:
313,119,219899,1,0,1:0:0:0:
409,233,220065,1,0,3:0:0:0:
128,284,220232,6,0,P|233:309|312:212,1,240.000009155274,6|0,3:2|1:0,0:0:0:0:
100,110,220732,2,0,P|115:162|177:172,1,120.000004577637,6|0,3:2|3:0,0:0:0:0:
290,16,221065,1,0,1:0:0:0:
248,85,221232,6,0,L|306:97,3,60.0000022888184,0|0|0|0,3:0|3:0|3:0|3:0,0:0:0:0:
373,67,221565,6,0,P|423:41|483:62,1,120.000004577637,6|0,3:2|3:0,0:0:0:0:
399,272,221899,1,0,1:0:0:0:
491,182,222065,1,0,3:0:0:0:
491,182,222149,1,0,3:0:0:0:
491,182,222232,2,0,P|502:243|504:307,1,120.000004577637,2|0,3:2|3:0,0:0:0:0:
321,350,222565,2,0,P|255:285|163:293,1,180.000006866455,0|0,1:0|0:0,0:0:0:0:
172,288,222899,5,2,3:2:0:0:
150,121,223065,1,0,3:0:0:0:
77,215,223232,1,0,1:0:0:0:
243,193,223398,1,0,3:0:0:0:
181,21,223565,5,2,3:2:0:0:
325,52,223732,2,0,P|363:47|381:21,2,60.0000022888184,0|0|0,3:0|0:0|1:0,0:0:0:0:
501,188,224065,5,0,3:0:0:0:
501,188,224149,1,0,3:0:0:0:
501,188,224232,2,0,P|418:158|316:145,1,180.000006866455,2|0,3:2|0:0,0:0:0:0:
325,219,224565,2,0,P|335:276|361:340,1,120.000004577637,0|0,1:0|3:0,0:0:0:0:
182,354,224899,1,2,3:2:0:0:
182,354,224982,1,0,3:0:0:0:
182,354,225065,1,0,3:0:0:0:
201,196,225232,1,0,1:0:0:0:
12,286,225398,6,0,P|64:298|112:256,1,120.000004577637,2|0,0:0|3:0,0:0:0:0:
199,110,225732,2,0,P|173:104|149:125,2,60.0000022888184,0|0|0,3:0|3:0|1:0,0:0:0:0:
5,8,226065,2,0,P|43:74|65:179,1,180.000006866455,2|0,0:0|0:0,0:0:0:0:
64,174,226398,1,0,3:0:0:0:
267,252,226565,2,0,P|266:277|255:311,1,60.0000022888184,0|0,1:0|0:0,0:0:0:0:
184,302,226732,5,0,3:0:0:0:
184,302,226815,1,0,3:0:0:0:
184,302,226898,1,6,3:2:0:0:
409,316,227065,2,0,P|376:270|369:200,1,120.000004577637,0|0,3:0|1:0,0:0:0:0:
512,10,227398,6,0,B|447:-13|424:58|427:59|408:132|318:103,1,240.000009155274,6|0,3:2|3:0,0:0:0:0:
235,17,227898,1,0,1:0:0:0:
161,217,228065,5,6,3:2:0:0:
76,136,228232,2,0,L|71:73,2,60.0000022888184,0|0|0,3:0|3:0|3:0,0:0:0:0:
226,126,228565,1,0,1:0:0:0:
197,326,228732,5,2,0:3:0:0:
197,326,228815,1,2,0:3:0:0:
197,326,228898,2,0,P|165:317|142:329,3,60.0000022888184,2|0|0|0,0:3|3:0|3:0|3:0,0:0:0:0:
36,349,229232,2,0,P|121:301|144:226,1,180.000006866455,2|0,0:3|0:0,0:0:0:0:
140,153,229565,6,0,L|125:28,1,120.000004577637,6|0,1:2|3:0,0:0:0:0:
386,33,229898,2,0,L|372:153,1,120.000004577637,6|0,1:2|3:0,0:0:0:0:
256,270,230232,5,6,1:2:0:0:
256,240,230315,1,0,3:0:0:0:
256,210,230398,1,0,3:0:0:0:
256,180,230482,1,0,3:0:0:0:
256,150,230565,1,0,1:0:0:0:
510,200,230732,6,0,P|487:270|396:250,1,180.000006866455,6|0,3:2|0:0,0:0:0:0:
338,297,231065,2,0,P|349:318|322:335,1,60.0000022888184,2|0,3:2|0:0,0:0:0:0:
203,354,231232,6,0,P|133:331|153:240,1,180.000006866455,6|0,3:2|0:0,0:0:0:0:
106,182,231565,2,0,P|85:193|68:166,2,60.0000022888184,2|0|0,3:2|0:0|3:0,0:0:0:0:
187,20,231898,5,8,0:1:0:0:
339,83,232065,1,0,3:0:0:0:
339,83,232148,1,0,3:0:0:0:
339,83,232232,2,0,P|421:88|470:29,1,150,6|0,3:2|0:0,0:0:0:0:
465,42,232565,2,0,L|462:145,1,100,0|0,1:0|3:0,0:0:0:0:
312,170,232898,2,0,L|314:273,1,100,0|0,3:0|3:0,0:0:0:0:
484,341,233232,1,0,1:0:0:0:
384,343,233398,1,0,3:0:0:0:
218,254,233565,6,0,P|127:271|98:365,1,200,2|0,3:2|1:0,0:0:0:0:
30,212,234065,2,0,P|75:203|90:156,1,100,2|0,0:0|3:0,0:0:0:0:
256,103,234398,1,2,0:0:0:0:
135,13,234565,1,0,1:0:0:0:
157,90,234732,1,0,3:0:0:0:
344,156,234898,6,0,P|363:108|412:77,1,100,2|0,3:2|3:0,0:0:0:0:
267,229,235232,2,0,P|215:236|164:209,1,100,0|0,1:0|3:0,0:0:0:0:
369,260,235565,5,0,3:0:0:0:
387,276,235648,1,0,3:0:0:0:
400,298,235731,1,0,3:0:0:0:
406,322,235815,1,0,3:0:0:0:
405,347,235898,1,0,1:0:0:0:
257,370,236065,6,0,L|160:342,1,100,2|0,0:0|3:0,0:0:0:0:
24,253,236398,2,0,L|72:266,1,50,2|0,0:0|0:0,0:0:0:0:
139,234,236565,2,0,B|111:189|143:161|146:164|168:133|142:82,1,150,0|0,1:0|0:0,0:0:0:0:
146,91,236898,5,0,3:0:0:0:
313,18,237065,1,2,0:0:0:0:
298,38,237148,1,2,0:0:0:0:
283,58,237231,1,0,1:0:0:0:
263,239,237399,1,2,0:0:0:0:
253,216,237482,1,2,0:0:0:0:
247,197,237565,6,0,P|304:157|360:213,1,150,6|0,3:2|0:0,0:0:0:0:
358,201,237898,2,0,L|375:102,1,100,0|0,1:0|3:0,0:0:0:0:
436,294,238232,2,0,L|513:358,1,100,0|0,3:0|3:0,0:0:0:0:
316,315,238565,1,0,1:0:0:0:
222,349,238731,1,0,3:0:0:0:
113,234,238898,6,0,P|97:251|90:283,1,50,4|0,3:2|0:0,0:0:0:0:
43,179,239065,2,0,P|45:266|111:369,1,200,2|0,0:0|3:0,0:0:0:0:
224,234,239565,5,2,3:2:0:0:
320,212,239732,1,0,3:0:0:0:
255,137,239898,1,0,1:0:0:0:
156,159,240065,1,2,0:0:0:0:
22,45,240232,5,6,3:2:0:0:
118,66,240398,2,0,L|116:12,2,50,0|0|0,3:0|3:0|1:0,0:0:0:0:
107,242,240732,5,6,3:2:0:0:
11,221,240898,2,0,L|13:275,2,50,0|0|0,3:0|3:0|1:0,0:0:0:0:
159,361,241232,2,0,L|205:272,2,100,4|2|0,3:2|0:0|1:0,0:0:0:0:
359,364,241732,5,4,3:2:0:0:
346,217,241898,1,2,0:0:0:0:
428,294,242065,1,4,1:2:0:0:
428,294,242148,1,0,3:0:0:0:
428,294,242232,2,0,P|448:252|503:242,1,100,4|0,3:2|3:0,0:0:0:0:
425,66,242565,5,8,0:1:0:0:
419,90,242648,1,0,3:0:0:0:
403,109,242731,1,0,3:0:0:0:
380,119,242815,1,0,3:0:0:0:
360,123,242898,6,0,P|302:122|300:30,1,150,6|0,3:2|0:0,0:0:0:0:
286,43,243232,2,0,L|185:22,1,100,0|0,1:0|3:0,0:0:0:0:
170,219,243565,2,0,L|191:117,1,100,0|0,3:0|3:0,0:0:0:0:
367,218,243898,1,0,1:0:0:0:
269,239,244064,1,0,3:0:0:0:
347,369,244232,6,0,B|277:388|250:355|253:354|213:305|146:329,1,200,2|0,3:2|1:0,0:0:0:0:
5,243,244732,2,0,B|40:233|53:250|52:250|72:275|105:263,1,100,2|0,0:0|3:0,0:0:0:0:
248,141,245065,1,2,0:0:0:0:
114,184,245232,1,0,1:0:0:0:
51,109,245398,1,0,3:0:0:0:
185,66,245565,6,0,P|229:54|260:11,1,100,2|0,3:2|0:0,0:0:0:0:
433,39,245898,2,0,P|421:83|443:131,1,100,0|0,1:0|0:0,0:0:0:0:
248,141,246232,1,0,3:0:0:0:
332,267,246398,2,0,P|299:234|246:229,1,100,2|0,0:0|1:0,0:0:0:0:
134,374,246732,6,0,B|176:324|124:282|117:285|61:245|100:196,1,200,2|0,0:0|3:0,0:0:0:0:
23,14,247232,6,0,L|46:119,1,100,6|0,1:2|3:0,0:0:0:0:
204,161,247565,2,0,L|310:171,1,100,6|0,1:2|3:0,0:0:0:0:
461,117,247898,5,6,1:2:0:0:
464,92,247981,1,0,3:0:0:0:
468,67,248064,1,0,3:0:0:0:
472,42,248148,1,0,3:0:0:0:
475,18,248231,1,6,3:2:0:0:
256,192,248398,12,2,253565,0:0:0:0:
