osu file format v14

[General]
AudioFilename: audio.mp3
AudioLeadIn: 0
PreviewTime: 59234
Countdown: 0
SampleSet: Soft
StackLeniency: 0.8
Mode: 0
LetterboxInBreaks: 0
WidescreenStoryboard: 1

[Editor]
Bookmarks: 1568,6901,17401,28234,38901,49567,60234,70901,81567,92067,102901,113567,124234,136234,146900,157567,168067,178900,192233,210899,221565,232232,242898,253565
DistanceSpacing: 0.9
BeatDivisor: 4
GridSize: 16
TimelineZoom: 2.1

[Metadata]
Title:Escape from the Abyss
TitleUnicode:Escape from the Abyss
Artist:polysha feat. Sennzai
ArtistUnicode:polysha feat. Sennzai
Creator:Hinsvar
Version:Hard
Source:
Tags:マサムネ Masamune Japanese Electronic hardcore techno J-core Jcore dance music EDM Papermoon Featured Artist FA Mappers' Guild MG MPG
BeatmapID:4525925
BeatmapSetID:2147338

[Difficulty]
HPDrainRate:4
CircleSize:3.2
OverallDifficulty:6.4
ApproachRate:8
SliderMultiplier:1.36
SliderTickRate:1

[Events]
//Background and Video events
0,0,"BG.jpg",0,0
//Break Periods
2,39101,48817
2,192433,207482
//Storyboard Layer 0 (Background)
//Storyboard Layer 1 (Fail)
//Storyboard Layer 2 (Pass)
//Storyboard Layer 3 (Foreground)
//Storyboard Layer 4 (Overlay)
//Storyboard Sound Samples

[TimingPoints]
1568,333.333333333333,4,2,1,50,1,0
1568,-125,4,2,1,50,0,0
4234,-111.111111111111,4,2,1,60,0,0
6901,-100,4,2,1,75,0,0
17401,-111.111111111111,4,2,1,60,0,0
28234,-100,4,2,1,70,0,0
49567,-111.111111111111,4,2,1,60,0,0
54901,-100,4,2,1,70,0,0
59401,-125,4,2,1,60,0,0
60234,-90.9090909090909,4,2,1,80,0,1
70567,-90.9090909090909,4,2,1,70,0,0
70901,-90.9090909090909,4,2,1,80,0,1
81567,-100,4,2,1,75,0,0
92067,-111.111111111111,4,2,1,60,0,0
102901,-100,4,2,1,70,0,0
134901,-100,4,2,1,60,0,0
135901,-100,4,2,1,70,0,0
136234,333.333333333333,4,2,1,80,1,1
136234,-90.9090909090909,4,2,1,80,0,1
146567,-90.9090909090909,4,2,1,70,0,0
146900,-90.9090909090909,4,2,1,80,0,1
157567,-100,4,2,1,70,0,0
160233,-125,4,2,1,50,0,0
161400,-111.111111111111,4,2,1,60,0,0
162900,-100,4,2,1,70,0,0
191400,-125,4,2,1,60,0,0
192233,333.333333333333,4,2,1,65,1,0
208232,-100,4,2,1,70,0,0
210899,333.333333333333,4,2,1,75,1,0
213565,-83.3333333333333,4,2,1,85,0,1
221232,-83.3333333333333,4,2,1,75,0,0
221565,-83.3333333333333,4,2,1,85,0,1
232232,-90.9090909090909,4,2,1,80,0,0
249565,-90.9090909090909,4,2,1,70,0,0
250898,-90.9090909090909,4,2,1,60,0,0
252232,-90.9090909090909,4,2,1,50,0,0
253565,-90.9090909090909,4,2,1,40,0,0

[Colours]
Combo1 : 85,236,202
Combo2 : 33,153,241
Combo3 : 88,236,243
Combo4 : 75,189,214

[HitObjects]
39,353,1568,5,4,3:2:0:0:
121,336,1734,1,4,3:2:0:0:
121,336,2734,6,0,L|116:296,2,27.2,0|0|0,3:0|3:0|3:0,0:0:0:0:
200,365,3067,2,0,L|264:357,1,54.4,2|2,0:0|0:0,0:0:0:0:
282,279,3401,2,0,L|274:215,1,54.4,2|2,0:0|0:0,0:0:0:0:
196,197,3734,1,0,3:0:0:0:
196,197,3817,1,0,3:0:0:0:
196,197,3901,2,0,L|164:201,3,27.2,0|0|0|0,3:0|3:0|3:0|3:0,0:0:0:0:
138,204,4234,5,6,3:2:0:0:
54,182,4401,1,4,3:2:0:0:
86,13,4734,5,6,3:2:0:0:
170,35,4901,1,4,3:2:0:0:
342,35,5234,5,6,3:2:0:0:
426,13,5401,1,4,3:2:0:0:
458,182,5734,5,6,3:2:0:0:
374,204,5901,1,4,3:2:0:0:
293,207,6067,5,0,3:0:0:0:
293,207,6151,1,0,3:0:0:0:
293,207,6234,2,0,L|287:136,1,61.1999981323243,0|0,3:0|0:0,0:0:0:0:
217,96,6567,2,0,L|220:60,3,30.5999990661621,8|0|0|0,0:1|3:0|3:0|3:0,0:0:0:0:
222,31,6901,6,0,P|165:48|82:36,1,136,6|0,3:2|1:0,0:0:0:0:
29,99,7401,1,0,3:0:0:0:
107,131,7567,2,0,L|137:201,1,68,0|0,3:0|3:0,0:0:0:0:
211,230,7901,2,0,L|201:305,1,68,0|0,1:0|3:0,0:0:0:0:
258,361,8234,6,0,B|305:378|323:351|323:349|339:324|400:341,1,136,2|0,3:2|1:0,0:0:0:0:
470,328,8734,2,0,B|478:304|465:295|464:295|451:287|460:257,1,68,2|0,0:0|3:0,0:0:0:0:
445,179,9067,1,2,0:0:0:0:
379,233,9234,1,0,1:0:0:0:
299,202,9401,1,0,3:0:0:0:
285,117,9567,6,0,L|288:47,1,68,2|0,3:2|3:0,0:0:0:0:
364,10,9901,2,0,L|434:13,1,68,0|0,1:0|3:0,0:0:0:0:
479,97,10234,1,0,3:0:0:0:
479,97,10317,1,0,3:0:0:0:
479,97,10401,2,0,L|477:132,2,34,0|0|0,3:0|3:0|1:0,0:0:0:0:
387,97,10734,6,0,L|383:167,1,68,2|0,0:0|3:0,0:0:0:0:
453,212,11067,1,2,0:0:0:0:
473,294,11234,2,0,B|419:295|415:327|419:324|414:358|360:363,1,136,0|0,1:0|3:0,0:0:0:0:
289,321,11734,2,0,L|286:278,2,34,2|2|0,0:0|0:0|1:0,0:0:0:0:
204,326,12067,5,2,0:0:0:0:
204,326,12151,1,2,0:0:0:0:
204,326,12234,2,0,P|125:326|58:371,1,136,6|0,3:2|1:0,0:0:0:0:
20,288,12734,1,0,3:0:0:0:
93,244,12901,2,0,L|105:171,1,68,2|0,3:2|3:0,0:0:0:0:
185,150,13234,2,0,L|177:76,1,68,0|0,1:0|3:0,0:0:0:0:
114,26,13567,5,4,3:2:0:0:
28,23,13734,2,0,P|0:80|28:148,1,136,2|0,0:0|3:0,0:0:0:0:
104,176,14234,1,2,3:2:0:0:
37,229,14401,1,0,3:0:0:0:
90,296,14567,1,0,1:0:0:0:
157,243,14734,1,2,0:0:0:0:
241,252,14901,5,6,3:2:0:0:
245,336,15067,2,0,P|265:361|307:356,1,68,4|0,3:2|3:0,0:0:0:0:
381,336,15401,5,6,3:2:0:0:
465,332,15567,2,0,P|490:312|485:270,1,68,4|0,3:2|3:0,0:0:0:0:
465,196,15901,5,6,3:2:0:0:
461,112,16067,2,0,P|441:87|399:92,1,68,4|0,3:2|3:0,0:0:0:0:
325,112,16401,5,6,3:2:0:0:
241,116,16567,1,4,3:2:0:0:
102,37,16901,1,6,3:2:0:0:
102,37,16984,1,0,3:0:0:0:
102,37,17067,2,0,L|56:27,2,34,0|0|0,3:0|3:0|3:0,0:0:0:0:
68,117,17401,6,0,P|27:148|16:221,1,122.399996264649,4|0,3:2|0:0,0:0:0:0:
98,200,17901,2,0,L|163:188,1,61.1999981323243,2|0,3:2|0:0,0:0:0:0:
188,271,18234,2,0,P|229:240|240:167,1,122.399996264649,2|0,3:2|3:0,0:0:0:0:
240,87,18734,6,0,P|242:51|252:25,2,61.1999981323243,2|0|0,0:0|3:0|0:0,0:0:0:0:
325,75,19234,1,0,3:0:0:0:
404,43,19401,2,0,L|443:37,2,30.5999990661621,2|0|0,0:0|0:0|3:0,0:0:0:0:
400,128,19734,2,0,P|398:164|388:190,1,61.1999981323243,2|0,0:0|3:0,0:0:0:0:
307,211,20067,6,0,P|250:196|192:222,1,122.399996264649,2|0,0:0|0:0,0:0:0:0:
120,264,20567,1,2,3:2:0:0:
267,351,20901,2,0,P|324:366|382:340,1,122.399996264649,0|0,3:0|3:0,0:0:0:0:
454,298,21401,1,0,3:0:0:0:
470,214,21567,1,0,3:0:0:0:
444,44,21901,6,0,L|482:33,2,30.5999990661621,0|2|2,3:0|0:0|0:0,0:0:0:0:
365,79,22234,2,0,L|231:40,1,122.399996264649,0|0,3:0|3:0,0:0:0:0:
164,21,22734,1,2,3:0:0:0:
86,57,22901,1,0,3:0:0:0:
86,57,23234,6,0,P|94:84|97:124,1,61.1999981323243,10|0,0:0|0:0,0:0:0:0:
106,202,23567,2,0,P|160:186|240:180,1,122.399996264649,2|8,3:2|0:0,0:0:0:0:
311,188,24067,2,0,L|325:123,2,61.1999981323243,2|0|0,0:0|3:0|0:0,0:0:0:0:
390,221,24567,1,8,0:0:0:0:
432,295,24734,2,0,L|464:302,2,30.5999990661621,2|0|0,0:0|0:0|3:0,0:0:0:0:
346,298,25067,1,2,0:0:0:0:
187,362,25401,6,0,P|128:374|68:331,1,122.399996264649,2|0,0:0|0:0,0:0:0:0:
102,261,25901,2,0,L|172:253,1,61.1999981323243,10|0,0:0|0:0,0:0:0:0:
187,171,26234,2,0,P|135:140|77:153,1,122.399996264649,0|8,3:0|0:0,0:0:0:0:
11,98,26734,6,0,L|21:35,1,61.1999981323243,2|0,0:0|3:0,0:0:0:0:
103,16,27067,2,0,L|166:26,1,61.1999981323243,2|8,0:0|0:0,0:0:0:0:
224,86,27401,1,0,3:0:0:0:
389,40,27734,2,0,L|384:8,2,30.5999990661621,0|0|0,3:0|3:0|3:0,0:0:0:0:
474,34,28067,1,0,1:0:0:0:
480,119,28234,6,0,B|498:161|478:183|475:181|449:205|468:253,1,136,6|0,3:2|1:0,0:0:0:0:
423,321,28734,1,2,0:0:0:0:
341,294,28901,2,0,L|338:331,2,34,0|0|0,3:0|3:0|3:0,0:0:0:0:
309,214,29234,2,0,L|241:208,1,68,0|2,1:0|0:0,0:0:0:0:
203,132,29567,5,0,3:0:0:0:
119,145,29734,1,0,3:0:0:0:
105,228,29901,1,0,1:0:0:0:
181,268,30067,2,0,P|188:337|128:360,1,136,0|0,3:0|3:0,0:0:0:0:
50,368,30567,1,0,1:0:0:0:
8,299,30734,5,0,3:0:0:0:
8,299,30817,1,0,3:0:0:0:
8,299,30901,2,0,L|6:219,2,68,2|0|0,3:2|3:0|1:0,0:0:0:0:
92,291,31401,2,0,L|101:252,2,34,2|0|0,3:2|3:0|3:0,0:0:0:0:
136,365,31734,1,0,3:0:0:0:
202,312,31901,5,0,1:0:0:0:
288,350,32067,1,0,3:0:0:0:
288,350,32151,1,0,3:0:0:0:
288,350,32234,1,0,3:0:0:0:
354,297,32401,2,0,P|408:269|482:261,1,136,2|2,3:2|0:0,0:0:0:0:
480,175,32901,2,0,P|484:160|496:146,2,34,0|0|0,3:0|3:0|3:0,0:0:0:0:
395,182,33234,1,0,1:0:0:0:
424,101,33401,5,0,3:0:0:0:
424,101,33484,1,0,3:0:0:0:
424,101,33567,2,0,P|384:44|309:46,1,136,6|0,3:2|1:0,0:0:0:0:
237,51,34067,2,0,L|204:45,2,34,2|0|0,3:2|3:0|3:0,0:0:0:0:
289,119,34401,1,0,3:0:0:0:
241,190,34567,1,0,1:0:0:0:
158,166,34734,5,0,3:0:0:0:
158,166,34817,1,0,3:0:0:0:
158,166,34901,2,0,P|122:164|92:173,2,68,6|0|0,3:2|3:0|1:0,0:0:0:0:
141,255,35401,1,0,3:0:0:0:
141,255,35484,1,0,3:0:0:0:
141,255,35568,2,0,B|160:285|147:305|145:304|130:323|151:354,2,102,2|2|0,3:2|0:0|3:0,0:0:0:0:
221,226,36234,6,0,L|294:234,1,68,6|0,1:2|3:0,0:0:0:0:
358,281,36567,1,0,3:0:0:0:
435,244,36734,6,0,L|443:171,1,68,6|0,1:2|3:0,0:0:0:0:
490,107,37067,1,0,3:0:0:0:
453,30,37234,5,6,1:2:0:0:
404,101,37401,1,0,3:0:0:0:
404,101,37484,1,0,0:0:0:0:
404,101,37567,2,0,L|370:104,3,34,2|2|2|2,3:0|0:3|0:3|0:3,0:0:0:0:
339,90,37901,2,0,L|305:86,3,34,2|2|2|2,3:0|0:3|0:3|0:3,0:0:0:0:
274,101,38234,6,0,P|232:85|228:23,2,102,2|0|0,1:2|3:0|3:0,0:0:0:0:
319,173,38901,1,6,3:2:0:0:
20,352,49567,6,0,P|73:332|94:273,1,122.399996264649,6|0,3:2|3:0,0:0:0:0:
71,192,50067,1,0,3:0:0:0:
48,109,50234,2,0,P|66:52|122:31,1,122.399996264649,0|0,1:0|3:0,0:0:0:0:
198,71,50734,1,0,3:0:0:0:
283,61,50901,6,0,L|348:51,2,61.1999981323243,2|0|0,3:2|3:0|3:0,0:0:0:0:
262,149,51401,1,0,3:0:0:0:
262,149,51484,1,0,3:0:0:0:
262,149,51567,2,0,L|280:269,1,122.399996264649,2|0,1:2|3:0,0:0:0:0:
431,351,52234,6,0,B|422:305|446:294|450:297|470:281|466:217,1,122.399996264649,2|0,3:2|3:0,0:0:0:0:
456,153,52734,1,0,3:0:0:0:
456,153,52817,1,0,3:0:0:0:
456,153,52901,2,0,P|429:133|412:98,1,61.1999981323243,2|0,1:2|3:0,0:0:0:0:
337,76,53234,2,0,P|306:89|268:86,1,61.1999981323243,0|0,3:0|3:0,0:0:0:0:
215,30,53567,5,2,3:2:0:0:
196,113,53734,2,0,L|204:158,2,30.5999990661621,0|0|0,3:0|3:0|3:0,0:0:0:0:
26,86,54234,2,0,L|50:221,1,122.399996264649,2|0,1:2|3:0,0:0:0:0:
124,244,54734,1,0,1:0:0:0:
136,328,54901,5,6,3:2:0:0:
221,374,55067,1,0,3:0:0:0:
221,374,55151,1,0,3:0:0:0:
221,374,55234,1,0,1:0:0:0:
305,362,55401,2,0,B|304:314|333:305|332:309|359:297|359:240,1,136,6|0,3:2|3:0,0:0:0:0:
273,239,55901,1,0,1:0:0:0:
319,168,56067,1,6,3:2:0:0:
206,39,56401,5,2,3:2:0:0:
121,35,56567,1,2,3:2:0:0:
168,118,56734,1,0,3:0:0:0:
168,118,56817,1,0,3:0:0:0:
168,118,56901,2,0,B|125:112|118:126|120:128|113:143|61:141,2,102,2|2|2,1:2|0:0|0:0,0:0:0:0:
225,180,57567,6,0,L|302:188,1,68,6|0,3:2|3:0,0:0:0:0:
344,118,57901,2,0,L|421:110,1,68,0|0,1:0|3:0,0:0:0:0:
487,170,58234,1,0,3:0:0:0:
487,170,58317,1,0,3:0:0:0:
487,170,58401,2,0,L|491:208,2,34,0|0|0,3:0|3:0|1:0,0:0:0:0:
400,199,58734,5,6,3:2:0:0:
299,335,59067,1,2,3:2:0:0:
212,306,59234,1,2,3:2:0:0:
143,366,59401,5,2,0:0:0:0:
143,366,59567,2,0,P|115:375|85:373,2,54.4,2|0|0,0:0|0:0|0:0,0:0:0:0:
78,190,60234,6,0,L|56:116,2,74.8000022827149,6|0|0,3:2|3:0|1:0,0:0:0:0:
168,153,60734,1,0,3:0:0:0:
168,153,60817,1,0,3:0:0:0:
168,153,60901,2,0,L|185:77,1,74.8000022827149,2|0,3:2|3:0,0:0:0:0:
273,44,61234,2,0,P|322:55|385:27,1,112.200003424072,0|0,1:0|0:0,0:0:0:0:
378,33,61567,6,0,L|465:47,1,74.8000022827149,2|0,3:2|3:0,0:0:0:0:
468,137,61901,2,0,L|381:151,1,74.8000022827149,0|0,1:0|3:0,0:0:0:0:
300,161,62234,1,2,3:2:0:0:
318,253,62401,2,0,P|318:274|305:292,2,37.4000011413575,0|0|0,3:0|0:0|1:0,0:0:0:0:
229,222,62734,5,0,3:0:0:0:
229,222,62817,1,0,3:0:0:0:
229,222,62901,2,0,P|153:178|117:98,1,149.60000456543,2|0,3:2|1:0,0:0:0:0:
33,153,63401,1,0,3:0:0:0:
81,244,63567,1,2,3:2:0:0:
81,244,63651,1,0,3:0:0:0:
81,244,63734,2,0,P|80:287|55:323,1,74.8000022827149,0|0,3:0|1:0,0:0:0:0:
139,369,64067,6,0,L|222:355,1,74.8000022827149,2|0,0:0|3:0,0:0:0:0:
288,298,64401,1,0,3:0:0:0:
288,298,64484,1,0,3:0:0:0:
288,298,64567,2,0,L|361:310,1,74.8000022827149,0|0,1:0|3:0,0:0:0:0:
433,379,64901,2,0,P|475:362|501:299,1,112.200003424072,2|0,3:2|0:0,0:0:0:0:
501,304,65234,2,0,P|472:292|455:250,1,74.8000022827149,0|0,1:0|3:0,0:0:0:0:
383,193,65567,5,6,3:2:0:0:
292,167,65734,1,0,3:0:0:0:
269,75,65901,2,0,P|297:25|384:25,1,149.60000456543,0|2,1:0|3:2,0:0:0:0:
473,5,66401,2,0,P|487:29|465:67,1,74.8000022827149,0|0,3:0|1:0,0:0:0:0:
395,125,66734,5,0,3:0:0:0:
395,125,66817,1,0,3:0:0:0:
395,125,66901,1,0,3:0:0:0:
402,217,67067,2,0,L|413:296,1,74.8000022827149,2|0,0:0|1:0,0:0:0:0:
330,337,67401,2,0,B|277:355|255:332|258:328|237:300|178:320,1,149.60000456543,2|0,0:0|3:0,0:0:0:0:
114,375,67901,1,0,1:0:0:0:
55,301,68067,1,0,3:0:0:0:
129,242,68234,6,0,L|121:164,1,74.8000022827149,2|0,3:2|3:0,0:0:0:0:
83,81,68567,2,0,L|239:65,1,149.60000456543,0|0,1:0|3:0,0:0:0:0:
325,34,69067,1,2,3:2:0:0:
325,34,69151,1,0,3:0:0:0:
325,34,69234,1,0,1:0:0:0:
384,114,69401,1,0,3:0:0:0:
326,194,69567,6,0,P|242:163|213:211,1,149.60000456543,6|0,3:2|1:0,0:0:0:0:
124,176,70067,2,0,P|96:211|114:232,1,74.8000022827149,6|0,3:2|3:0,0:0:0:0:
58,307,70401,1,0,1:0:0:0:
150,314,70567,2,0,L|155:361,3,37.4000011413575,0|0|0|0,3:0|3:0|3:0|3:0,0:0:0:0:
191,349,70901,6,0,L|285:339,2,74.8000022827149,6|0|0,3:2|3:0|1:0,0:0:0:0:
225,258,71401,1,0,3:0:0:0:
225,258,71484,1,0,3:0:0:0:
225,258,71567,2,0,P|253:241|269:198,1,74.8000022827149,2|0,3:2|3:0,0:0:0:0:
225,125,71901,2,0,P|244:73|290:43,1,112.200003424072,0|0,1:0|0:0,0:0:0:0:
290,42,72234,6,0,L|326:109,1,74.8000022827149,2|0,3:2|3:0,0:0:0:0:
363,193,72567,2,0,L|439:195,1,74.8000022827149,0|0,1:0|3:0,0:0:0:0:
494,270,72901,1,2,3:2:0:0:
401,279,73067,2,0,L|397:326,2,37.4000011413575,0|0|0,3:0|0:0|1:0,0:0:0:0:
309,289,73401,5,2,3:2:0:0:
309,289,73484,1,0,3:0:0:0:
309,289,73567,2,0,P|260:224|202:189,1,149.60000456543,0|0,3:0|1:0,0:0:0:0:
158,106,74067,1,0,3:0:0:0:
80,152,74234,1,2,3:2:0:0:
80,152,74317,1,0,3:0:0:0:
80,152,74401,2,0,P|47:176|30:205,1,74.8000022827149,0|0,3:0|1:0,0:0:0:0:
105,260,74734,6,0,L|110:337,1,74.8000022827149,2|0,0:0|3:0,0:0:0:0:
199,309,75067,2,0,L|201:347,2,37.4000011413575,0|0|0,3:0|3:0|1:0,0:0:0:0:
190,215,75401,2,0,P|212:139|294:128,1,149.60000456543,2|0,0:0|3:0,0:0:0:0:
359,159,75901,1,0,1:0:0:0:
445,116,76067,5,0,3:0:0:0:
445,116,76151,1,0,3:0:0:0:
445,116,76234,1,6,3:2:0:0:
481,202,76401,2,0,P|468:235|433:248,1,74.8000022827149,0|0,3:0|1:0,0:0:0:0:
339,252,76734,2,0,P|270:276|243:344,1,149.60000456543,6|0,3:2|3:0,0:0:0:0:
331,372,77234,1,0,1:0:0:0:
424,367,77401,6,0,P|458:360|500:340,2,74.8000022827149,6|0|0,3:2|3:0|3:0,0:0:0:0:
393,278,77901,1,0,1:0:0:0:
327,217,78067,1,2,0:3:0:0:
327,217,78151,1,2,0:3:0:0:
327,217,78234,2,0,L|330:171,3,37.4000011413575,2|0|2|0,0:3|0:0|3:0|0:0,0:0:0:0:
333,142,78567,1,2,0:3:0:0:
177,37,78901,6,0,L|97:19,1,74.8000022827149,6|0,1:2|3:0,0:0:0:0:
15,51,79234,2,0,L|-3:131,1,74.8000022827149,6|0,1:2|3:0,0:0:0:0:
39,224,79567,1,6,1:2:0:0:
39,224,79651,1,0,3:0:0:0:
39,224,79734,2,0,L|79:233,2,37.4000011413575,0|0|0,3:0|3:0|1:0,0:0:0:0:
34,317,80067,5,6,3:2:0:0:
214,368,80401,1,2,3:2:0:0:
298,328,80567,2,0,B|321:289|303:253|299:254|281:219|312:173,1,149.60000456543,6|2,3:2|3:2,0:0:0:0:
245,111,81067,1,0,3:0:0:0:
317,51,81234,1,8,0:1:0:0:
385,131,81401,5,0,3:0:0:0:
385,131,81484,1,0,3:0:0:0:
385,131,81567,2,0,B|435:136|439:166|434:168|440:200|504:202,1,136,6|0,3:2|1:0,0:0:0:0:
511,284,82067,1,0,3:0:0:0:
426,277,82234,2,0,P|393:280|363:305,1,68,0|0,3:0|3:0,0:0:0:0:
291,260,82567,2,0,P|288:227|263:197,1,68,0|0,1:0|3:0,0:0:0:0:
192,159,82901,6,0,P|144:118|72:134,1,136,2|0,3:2|1:0,0:0:0:0:
23,196,83401,2,0,P|17:227|42:254,1,68,2|0,0:0|3:0,0:0:0:0:
123,263,83734,1,2,0:0:0:0:
113,347,83901,1,0,1:0:0:0:
197,357,84067,1,0,3:0:0:0:
207,273,84234,6,0,P|233:252|272:237,1,68,2|0,3:2|3:0,0:0:0:0:
284,155,84567,2,0,P|252:141|226:120,1,68,0|0,1:0|3:0,0:0:0:0:
286,60,84901,1,0,3:0:0:0:
286,60,84984,1,0,3:0:0:0:
286,60,85067,2,0,P|282:43|282:26,2,34,0|0|0,3:0|3:0|1:0,0:0:0:0:
368,37,85401,6,0,P|404:35|442:22,1,68,2|0,0:0|3:0,0:0:0:0:
485,93,85734,1,2,0:0:0:0:
494,177,85901,2,0,P|422:181|346:207,1,136,0|0,1:0|3:0,0:0:0:0:
277,214,86401,2,0,L|240:205,2,34,2|2|0,0:0|0:0|1:0,0:0:0:0:
337,289,86734,5,2,0:0:0:0:
337,289,86817,1,2,0:0:0:0:
337,289,86901,2,0,P|322:352|252:361,1,136,6|0,3:2|1:0,0:0:0:0:
179,334,87401,1,0,3:0:0:0:
98,360,87567,2,0,L|17:351,1,68,0|0,3:0|3:0,0:0:0:0:
5,270,87901,2,0,L|86:261,1,68,0|0,1:0|3:0,0:0:0:0:
109,185,88234,5,4,3:2:0:0:
182,228,88401,2,0,B|225:247|246:220|245:215|266:188|314:210,1,136,2|0,0:0|3:0,0:0:0:0:
363,272,88901,1,2,3:2:0:0:
442,240,89067,1,0,3:0:0:0:
435,154,89234,1,0,1:0:0:0:
351,134,89401,1,2,0:0:0:0:
298,67,89567,5,6,3:2:0:0:
214,87,89734,2,0,P|207:55|194:22,1,68,4|0,3:2|3:0,0:0:0:0:
109,32,90067,5,6,3:2:0:0:
129,116,90234,2,0,P|97:123|64:136,1,68,4|0,3:2|3:0,0:0:0:0:
74,221,90567,5,6,3:2:0:0:
158,201,90734,2,0,P|165:233|178:266,1,68,4|0,3:2|3:0,0:0:0:0:
263,256,91067,5,6,3:2:0:0:
243,172,91234,1,4,3:2:0:0:
399,97,91567,1,6,3:2:0:0:
399,97,91651,1,0,3:0:0:0:
399,97,91734,2,0,L|407:56,2,34,0|0|0,3:0|3:0|3:0,0:0:0:0:
435,185,92067,6,0,P|459:232|439:312,1,122.399996264649,4|0,3:2|0:0,0:0:0:0:
364,280,92567,2,0,L|353:218,1,61.1999981323243,2|0,3:2|0:0,0:0:0:0:
269,202,92901,2,0,P|257:261|282:315,1,122.399996264649,0|0,1:0|0:0,0:0:0:0:
206,354,93401,6,0,L|140:358,2,61.1999981323243,2|0|0,3:2|0:0|3:0,0:0:0:0:
174,274,93901,1,0,3:0:0:0:
94,243,94067,2,0,L|61:241,2,30.5999990661621,2|0|0,0:0|0:0|1:0,0:0:0:0:
160,187,94401,1,2,0:0:0:0:
326,227,94734,6,0,B|345:186|325:165|324:168|302:147|333:100,1,122.399996264649,2|0,0:0|3:0,0:0:0:0:
329,24,95234,1,2,0:0:0:0:
157,16,95567,2,0,B|114:31|113:60|116:59|117:89|62:100,1,122.399996264649,0|0,1:0|0:0,0:0:0:0:
12,158,96067,1,0,3:0:0:0:
94,181,96234,1,0,3:0:0:0:
231,283,96567,6,0,L|275:275,2,30.5999990661621,0|0|0,0:0|3:0|3:0,0:0:0:0:
179,352,96901,2,0,L|57:341,1,122.399996264649,0|0,1:0|0:0,0:0:0:0:
2,275,97401,1,0,3:0:0:0:
68,220,97567,1,2,3:2:0:0:
68,220,97901,6,0,P|59:191|67:154,1,61.1999981323243,2|0,0:0|0:0,0:0:0:0:
143,129,98234,2,0,P|156:71|207:13,1,122.399996264649,0|0,1:0|0:0,0:0:0:0:
256,82,98734,2,0,L|256:145,2,61.1999981323243,2|0|0,3:2|0:0|3:0,0:0:0:0:
317,22,99234,1,0,3:0:0:0:
399,46,99401,2,0,L|430:46,2,30.5999990661621,2|0|0,0:0|0:0|1:0,0:0:0:0:
341,109,99734,1,2,0:0:0:0:
485,200,100067,6,0,P|475:256|412:264,1,122.399996264649,2|0,0:0|3:0,0:0:0:0:
359,203,100567,2,0,P|328:202|295:212,1,61.1999981323243,2|0,0:0|0:0,0:0:0:0:
240,146,100901,2,0,P|183:156|173:213,1,122.399996264649,0|0,1:0|0:0,0:0:0:0:
237,269,101401,6,0,P|246:298|251:328,1,61.1999981323243,2|0,3:2|3:0,0:0:0:0:
169,354,101734,2,0,P|139:363|109:368,1,61.1999981323243,2|0,3:2|3:0,0:0:0:0:
84,286,102067,1,2,0:0:0:0:
36,121,102401,2,0,L|8:99,2,30.5999990661621,0|0|0,3:0|3:0|3:0,0:0:0:0:
121,124,102734,1,0,1:0:0:0:
85,45,102901,6,0,P|155:17|211:38,1,136,6|0,3:2|1:0,0:0:0:0:
278,85,103401,1,2,0:0:0:0:
362,79,103567,2,0,L|361:34,2,34,0|0|0,3:0|3:0|3:0,0:0:0:0:
368,163,103901,2,0,L|458:161,1,68,0|2,1:0|0:0,0:0:0:0:
492,225,104234,5,0,3:0:0:0:
466,307,104401,1,0,3:0:0:0:
381,325,104567,1,0,1:0:0:0:
321,259,104734,2,0,B|276:275|256:253|258:250|237:225|188:241,1,136,0|0,3:0|3:0,0:0:0:0:
210,322,105234,1,0,1:0:0:0:
128,297,105401,5,0,3:0:0:0:
128,297,105484,1,0,3:0:0:0:
128,297,105567,2,0,L|106:362,2,68,2|0|0,3:2|3:0|1:0,0:0:0:0:
36,261,106067,2,0,L|3:250,2,34,2|0|0,3:2|3:0|3:0,0:0:0:0:
64,177,106401,1,0,3:0:0:0:
148,168,106567,5,0,1:0:0:0:
165,85,106734,1,0,3:0:0:0:
165,85,106817,1,0,3:0:0:0:
165,85,106900,1,0,3:0:0:0:
249,76,107067,2,0,B|300:57|314:85|309:88|326:119|379:103,1,136,2|2,3:2|0:0,0:0:0:0:
450,69,107567,2,0,P|461:54|479:49,2,34,0|0|0,3:0|3:0|3:0,0:0:0:0:
443,155,107901,1,0,1:0:0:0:
502,230,108067,5,0,3:0:0:0:
502,230,108151,1,0,3:0:0:0:
502,230,108234,2,0,P|482:289|468:370,1,136,6|0,3:2|1:0,0:0:0:0:
388,333,108734,2,0,P|385:316|379:300,2,34,2|0|0,3:2|3:0|3:0,0:0:0:0:
302,338,109067,1,0,3:0:0:0:
308,253,109234,1,0,1:0:0:0:
223,247,109401,5,0,3:0:0:0:
223,247,109484,1,0,3:0:0:0:
223,247,109567,2,0,P|190:231|175:196,2,68,6|0|0,3:2|3:0|1:0,0:0:0:0:
273,174,110067,1,0,3:0:0:0:
273,174,110151,1,0,3:0:0:0:
273,174,110234,2,0,B|262:145|278:125|283:127|293:105|280:69,2,102,2|2|0,3:2|0:0|3:0,0:0:0:0:
308,253,110901,6,0,L|316:335,1,68,6|0,1:2|3:0,0:0:0:0:
377,378,111234,1,0,3:0:0:0:
461,370,111401,6,0,L|453:288,1,68,6|0,1:2|3:0,0:0:0:0:
392,245,111734,1,0,3:0:0:0:
474,222,111901,5,6,1:2:0:0:
414,163,112067,1,0,3:0:0:0:
414,163,112151,1,0,0:0:0:0:
414,163,112234,2,0,P|416:137|419:120,3,34,2|2|2|2,3:0|0:3|0:3|0:3,0:0:0:0:
420,95,112567,2,0,P|398:80|385:69,3,34,2|2|2|2,3:0|0:3|0:3|0:3,0:0:0:0:
364,55,112901,6,0,P|328:22|276:35,2,102,2|0|0,1:2|3:0|3:0,0:0:0:0:
303,114,113567,6,0,B|255:105|240:134|244:136|228:164|169:148,1,136,6|0,3:2|1:0,0:0:0:0:
115,93,114067,1,0,0:0:0:0:
35,247,114401,1,0,3:0:0:0:
35,247,114484,1,0,3:0:0:0:
35,247,114567,2,0,P|38:280|65:310,1,68,0|0,1:0|3:0,0:0:0:0:
141,330,114901,5,2,3:2:0:0:
212,284,115067,2,0,P|244:287|283:298,1,68,0|0,3:0|1:0,0:0:0:0:
350,343,115401,2,0,L|354:382,2,34,2|2|2,0:0|0:0|0:0,0:0:0:0:
416,290,115734,2,0,L|409:222,1,68,0|0,3:0|1:0,0:0:0:0:
333,190,116067,5,0,3:0:0:0:
333,190,116151,1,0,3:0:0:0:
333,190,116234,2,0,P|274:171|255:102,1,136,2|0,3:2|1:0,0:0:0:0:
325,58,116734,2,0,L|326:13,2,34,2|0|0,3:2|3:0|3:0,0:0:0:0:
410,58,117067,1,0,3:0:0:0:
410,143,117234,1,0,1:0:0:0:
503,151,117401,5,0,3:0:0:0:
503,151,117484,1,0,3:0:0:0:
503,151,117567,2,0,P|511:184|500:222,1,68,2|0,3:2|3:0,0:0:0:0:
455,288,117901,1,0,1:0:0:0:
383,240,118067,1,2,3:2:0:0:
212,222,118401,2,0,P|183:239|163:274,1,68,0|0,3:0|1:0,0:0:0:0:
168,361,118734,5,0,3:0:0:0:
168,361,118817,1,0,3:0:0:0:
168,361,118901,2,0,B|127:380|101:356|102:350|83:322|40:330,1,136,2|0,3:2|1:0,0:0:0:0:
31,247,119401,1,0,3:0:0:0:
31,247,119484,1,0,3:0:0:0:
31,247,119567,2,0,P|25:212|30:177,2,68,0|0|0,3:0|3:0|1:0,0:0:0:0:
200,229,120234,5,2,3:2:0:0:
283,247,120401,2,0,P|310:221|313:187,1,68,0|0,3:0|1:0,0:0:0:0:
306,108,120734,2,0,B|260:112|244:89|246:87|230:61|181:66,1,136,2|0,0:0|3:0,0:0:0:0:
117,28,121234,2,0,P|89:38|63:71,1,68,0|0,1:0|3:0,0:0:0:0:
65,66,121484,1,0,3:0:0:0:
64,66,121567,6,0,B|68:112|45:128|43:126|17:142|22:191,1,136,2|0,3:2|1:0,0:0:0:0:
107,191,122067,2,0,L|144:188,2,34,0|0|0,3:0|3:0|3:0,0:0:0:0:
67,267,122401,2,0,L|-1:272,2,68,2|0|0,3:2|1:0|3:0,0:0:0:0:
207,362,123067,1,2,3:2:0:0:
213,277,123234,2,0,P|234:251|267:242,1,68,0|0,1:0|3:0,0:0:0:0:
347,272,123567,2,0,P|363:267|374:254,2,34,0|0|2,3:0|3:0|3:2,0:0:0:0:
368,353,123901,1,0,1:0:0:0:
449,375,124067,1,2,0:0:0:0:
494,304,124234,6,0,P|501:272|485:235,1,68,6|0,3:2|3:0,0:0:0:0:
426,182,124567,1,0,1:0:0:0:
500,141,124734,2,0,P|494:79|429:53,1,136,0|0,3:0|3:0,0:0:0:0:
353,85,125234,1,0,1:0:0:0:
205,169,125567,5,2,3:2:0:0:
143,227,125734,2,0,P|110:227|82:188,1,68,0|0,3:0|1:0,0:0:0:0:
27,141,126067,1,2,3:2:0:0:
27,141,126151,1,0,3:0:0:0:
27,141,126234,2,0,P|27:108|66:80,1,68,0|0,3:0|3:0,0:0:0:0:
113,25,126567,1,0,1:0:0:0:
187,86,126734,5,0,3:0:0:0:
187,86,126817,1,0,3:0:0:0:
187,86,126901,2,0,L|258:80,2,68,2|0|0,3:2|3:0|1:0,0:0:0:0:
205,169,127401,2,0,L|347:181,1,136,2|0,0:0|3:0,0:0:0:0:
399,119,127901,1,0,1:0:0:0:
460,178,128067,6,0,L|493:175,2,34,0|0|2,3:0|3:0|3:2,0:0:0:0:
401,239,128401,1,0,3:0:0:0:
375,319,128567,2,0,P|341:316|304:282,1,68,0|0,1:0|3:0,0:0:0:0:
231,320,128901,2,0,P|191:277|188:192,1,136,2|0,0:0|1:0,0:0:0:0:
326,104,129567,6,0,L|333:30,1,68,6|0,3:2|3:0,0:0:0:0:
247,27,129901,2,0,L|173:20,2,68,0|2|0,1:0|3:2|1:0,0:0:0:0:
237,111,130401,1,0,3:0:0:0:
173,166,130567,1,0,1:0:0:0:
87,159,130734,2,0,P|52:159|18:184,1,68,2|0,3:2|1:0,0:0:0:0:
12,260,131067,6,0,L|6:306,2,34,0|0|0,3:0|3:0|1:0,0:0:0:0:
101,293,131401,1,0,3:0:0:0:
101,293,131484,1,0,3:0:0:0:
101,293,131567,1,2,1:2:0:0:
173,247,131734,6,0,L|167:201,2,34,0|0|2,3:0|3:0|1:2,0:0:0:0:
262,214,132068,1,0,3:0:0:0:
262,214,132151,1,0,3:0:0:0:
262,214,132234,1,6,3:2:0:0:
262,213,133401,6,0,P|282:278|345:301,1,136,6|2,3:2|3:2,0:0:0:0:
413,345,133901,1,2,3:2:0:0:
488,305,134067,1,2,3:2:0:0:
490,220,134234,1,2,3:2:0:0:
417,176,134401,1,2,3:2:0:0:
417,176,134901,5,2,0:3:0:0:
368,106,135067,2,0,P|350:107|333:116,3,34,0|2|2|2,3:0|0:3|0:3|0:3,0:0:0:0:
322,146,135401,2,0,P|324:182|342:215,2,68,2|0|0,0:0|0:0|0:0,0:0:0:0:
254,94,135901,1,8,0:1:0:0:
79,28,136234,6,0,P|39:34|21:63,2,74.8000022827149,6|0|0,3:2|3:0|1:0,0:0:0:0:
99,128,136734,1,0,3:0:0:0:
99,128,136817,1,0,3:0:0:0:
99,128,136900,2,0,P|84:165|100:195,1,74.8000022827149,2|0,3:2|3:0,0:0:0:0:
191,166,137234,2,0,P|248:155|314:155,1,112.200003424072,0|0,1:0|0:0,0:0:0:0:
302,154,137567,6,0,L|324:83,1,74.8000022827149,2|0,3:2|3:0,0:0:0:0:
409,43,137900,2,0,L|431:114,1,74.8000022827149,0|0,1:0|3:0,0:0:0:0:
457,206,138234,1,2,3:2:0:0:
385,265,138400,2,0,P|364:257|348:235,2,37.4000011413575,0|0|0,3:0|0:0|1:0,0:0:0:0:
481,305,138734,5,0,3:0:0:0:
481,305,138817,1,0,3:0:0:0:
481,305,138900,2,0,P|440:357|362:382,1,149.60000456543,2|0,3:2|1:0,0:0:0:0:
285,329,139400,1,0,3:0:0:0:
239,250,139567,1,2,3:2:0:0:
239,250,139650,1,0,3:0:0:0:
239,250,139734,2,0,L|249:164,1,74.8000022827149,0|0,3:0|1:0,0:0:0:0:
312,107,140067,6,0,L|240:79,1,74.8000022827149,2|0,0:0|3:0,0:0:0:0:
165,36,140400,1,0,3:0:0:0:
165,36,140484,1,0,3:0:0:0:
165,36,140567,2,0,L|93:64,1,74.8000022827149,0|0,1:0|3:0,0:0:0:0:
33,133,140900,2,0,B|57:153|46:186|44:180|33:214|76:245,1,112.200003424072,2|0,3:2|0:0,0:0:0:0:
65,235,141234,2,0,B|82:253|103:241|99:241|119:230|135:243,1,74.8000022827149,0|0,1:0|3:0,0:0:0:0:
214,193,141567,5,6,3:2:0:0:
297,237,141734,1,0,3:0:0:0:
300,330,141900,2,0,P|375:334|462:314,1,149.60000456543,0|2,1:0|3:2,0:0:0:0:
501,242,142400,2,0,P|503:204|493:161,1,74.8000022827149,0|0,3:0|1:0,0:0:0:0:
418,114,142734,5,0,3:0:0:0:
418,114,142817,1,0,3:0:0:0:
418,114,142900,1,0,3:0:0:0:
332,152,143067,2,0,P|301:143|299:98,1,74.8000022827149,2|0,0:0|1:0,0:0:0:0:
248,23,143400,2,0,B|201:5|177:39|179:39|155:73|109:52,1,149.60000456543,2|0,0:0|3:0,0:0:0:0:
19,69,143900,1,0,1:0:0:0:
34,160,144067,1,0,3:0:0:0:
126,145,144234,6,0,L|118:224,1,74.8000022827149,2|0,3:2|3:0,0:0:0:0:
211,230,144567,2,0,L|369:246,1,149.60000456543,0|0,1:0|3:0,0:0:0:0:
387,161,145067,1,2,3:2:0:0:
387,161,145150,1,0,3:0:0:0:
387,161,145234,1,0,1:0:0:0:
476,162,145400,1,0,3:0:0:0:
502,246,145567,6,0,P|501:315|430:341,1,149.60000456543,6|0,3:2|0:0,0:0:0:0:
347,376,146067,2,0,P|312:375|299:340,1,74.8000022827149,6|0,3:2|3:0,0:0:0:0:
231,277,146400,1,0,1:0:0:0:
320,250,146567,2,0,L|357:255,3,37.4000011413575,0|0|0|0,3:0|3:0|3:0|3:0,0:0:0:0:
394,258,146900,6,0,L|468:247,2,74.8000022827149,6|0|0,3:2|3:0|1:0,0:0:0:0:
390,165,147400,1,0,3:0:0:0:
390,165,147484,1,0,3:0:0:0:
390,165,147567,2,0,P|349:148|346:110,1,74.8000022827149,2|0,3:2|3:0,0:0:0:0:
289,44,147900,2,0,P|238:62|223:114,1,112.200003424072,0|0,1:0|0:0,0:0:0:0:
223,114,148234,6,0,L|170:63,1,74.8000022827149,2|0,3:2|3:0,0:0:0:0:
83,26,148567,2,0,L|65:97,1,74.8000022827149,0|0,1:0|3:0,0:0:0:0:
109,183,148900,1,2,3:2:0:0:
75,270,149067,2,0,L|26:282,2,37.4000011413575,0|0|0,3:0|0:0|1:0,0:0:0:0:
176,267,149400,5,0,3:0:0:0:
176,267,149484,1,0,3:0:0:0:
176,267,149567,2,0,P|252:286|293:350,1,149.60000456543,2|0,3:2|1:0,0:0:0:0:
384,368,150067,1,0,3:0:0:0:
461,313,150234,1,2,3:2:0:0:
461,313,150317,1,0,3:0:0:0:
461,313,150400,2,0,P|470:275|502:254,1,74.8000022827149,0|0,3:0|1:0,0:0:0:0:
456,170,150733,6,0,L|381:152,1,74.8000022827149,2|0,0:0|3:0,0:0:0:0:
290,168,151067,2,0,L|252:177,2,37.4000011413575,0|0|0,3:0|3:0|1:0,0:0:0:0:
250,83,151400,2,0,P|258:29|345:15,1,149.60000456543,2|0,0:0|3:0,0:0:0:0:
434,16,151900,1,0,1:0:0:0:
391,102,152067,5,0,3:0:0:0:
391,102,152150,1,0,3:0:0:0:
391,102,152233,1,6,3:2:0:0:
466,156,152400,2,0,P|462:183|418:190,1,74.8000022827149,0|0,3:0|1:0,0:0:0:0:
348,251,152733,2,0,P|390:284|359:367,1,149.60000456543,6|0,3:2|3:0,0:0:0:0:
280,322,153233,1,0,1:0:0:0:
190,293,153400,6,0,L|109:300,2,74.8000022827149,6|0|0,3:2|3:0|3:0,0:0:0:0:
258,230,153900,1,0,1:0:0:0:
244,138,154067,1,2,0:3:0:0:
244,138,154150,1,2,0:3:0:0:
244,138,154233,2,0,L|249:93,3,37.4000011413575,2|0|2|0,0:3|0:0|3:0|0:0,0:0:0:0:
257,64,154567,1,2,0:3:0:0:
83,19,154900,6,0,L|7:36,1,74.8000022827149,6|0,1:2|3:0,0:0:0:0:
30,122,155233,2,0,L|47:198,1,74.8000022827149,6|0,1:2|3:0,0:0:0:0:
141,183,155567,1,6,1:2:0:0:
141,183,155650,1,0,3:0:0:0:
141,183,155733,2,0,L|179:174,2,37.4000011413575,0|0|0,3:0|3:0|1:0,0:0:0:0:
104,265,156067,5,6,3:2:0:0:
256,359,156400,1,2,3:2:0:0:
313,289,156567,2,0,B|360:273|384:309|380:312|406:344|462:322,1,149.60000456543,6|2,3:2|3:2,0:0:0:0:
506,256,157067,1,0,3:0:0:0:
385,31,157567,5,6,3:2:0:0:
301,19,157733,1,4,3:2:0:0:
127,353,160233,6,0,L|122:277,1,54.4,0|2,3:0|0:0,0:0:0:0:
96,217,160567,2,0,L|172:212,1,54.4,2|2,0:0|0:0,0:0:0:0:
232,186,160900,1,0,3:0:0:0:
225,270,161067,2,0,L|227:308,2,27.2,0|0|8,3:0|3:0|0:0,0:0:0:0:
305,239,161400,6,0,P|353:280|413:271,1,122.399996264649,2|0,0:0|0:0,0:0:0:0:
477,222,161900,1,2,0:0:0:0:
486,136,162067,2,0,P|438:95|378:104,1,122.399996264649,2|0,3:2|0:0,0:0:0:0:
314,153,162567,1,2,0:0:0:0:
153,96,162900,6,0,L|146:22,1,68,6|4,3:2|3:2,0:0:0:0:
61,34,163233,2,0,L|68:108,1,68,0|0,1:0|3:0,0:0:0:0:
112,174,163567,2,0,L|119:248,1,68,0|0,1:0|3:0,0:0:0:0:
204,236,163900,2,0,L|197:162,2,68,0|0|0,1:0|3:0|1:0,0:0:0:0:
163,314,164400,2,0,L|166:351,2,34,0|0|0,3:0|3:0|1:0,0:0:0:0:
248,308,164733,1,0,3:0:0:0:
311,365,164900,2,0,L|348:362,3,34,0|0|0|0,1:0|3:0|3:0|3:0,0:0:0:0:
372,342,165233,2,0,L|403:274,1,68,0|0,1:0|3:0,0:0:0:0:
394,195,165567,5,6,3:2:0:0:
479,188,165733,1,4,3:2:0:0:
467,18,166067,5,6,3:2:0:0:
382,25,166233,1,4,3:2:0:0:
220,79,166567,5,6,3:2:0:0:
227,164,166733,1,4,3:2:0:0:
57,176,167067,5,6,3:2:0:0:
50,91,167233,1,4,3:2:0:0:
149,229,167567,5,6,3:2:0:0:
156,314,167733,2,0,P|150:331|123:333,2,34,4|0|0,3:2|3:0|3:0,0:0:0:0:
226,265,168067,6,0,P|279:255|324:322,1,136,6|0,3:2|0:0,0:0:0:0:
408,329,168567,1,0,1:0:0:0:
460,264,168733,1,2,3:2:0:0:
460,264,168817,1,0,3:0:0:0:
460,264,168900,2,0,P|486:259|509:292,2,68,0|0|0,3:0|3:0|1:0,0:0:0:0:
441,173,169400,6,0,L|435:136,2,34,0|0|2,3:0|3:0|3:2,0:0:0:0:
358,184,169733,1,0,3:0:0:0:
369,267,169900,1,0,1:0:0:0:
293,235,170067,2,0,B|254:262|233:232|233:229|212:201|155:217,1,136,2|0,0:0|3:0,0:0:0:0:
163,129,170567,1,0,1:0:0:0:
87,174,170733,5,2,3:2:0:0:
87,174,170817,1,0,3:0:0:0:
87,174,170900,2,0,B|67:160|57:175|57:177|46:191|18:183,1,68,0|0,3:0|3:0,0:0:0:0:
7,101,171233,1,0,1:0:0:0:
90,83,171400,2,0,L|101:13,2,68,2|0|0,0:0|3:0|3:0,0:0:0:0:
163,129,171900,1,0,1:0:0:0:
229,75,172067,6,0,P|230:55|225:34,2,34,2|0|0,3:2|3:0|3:0,0:0:0:0:
283,141,172400,1,0,3:0:0:0:
225,203,172567,1,0,1:0:0:0:
267,288,172734,1,2,3:2:0:0:
267,288,172817,1,0,3:0:0:0:
267,288,172900,2,0,B|315:292|317:328|314:331|322:363|374:371,1,136,0|0,3:0|1:0,0:0:0:0:
450,339,173400,5,0,3:0:0:0:
450,339,173484,1,0,3:0:0:0:
450,339,173567,2,0,P|485:292|442:218,1,136,2|0,3:2|1:0,0:0:0:0:
394,169,174067,2,0,P|386:154|395:140,2,34,2|0|0,3:2|3:0|3:0,0:0:0:0:
376,252,174400,1,0,3:0:0:0:
310,197,174567,1,0,1:0:0:0:
143,233,174900,6,0,P|111:248|73:242,1,68,2|0,3:2|3:0,0:0:0:0:
17,185,175233,1,0,1:0:0:0:
34,101,175400,1,2,3:2:0:0:
34,101,175483,1,0,3:0:0:0:
34,101,175567,2,0,P|57:48|132:26,1,136,0|0,3:0|1:0,0:0:0:0:
216,57,176067,5,0,3:0:0:0:
216,57,176150,1,0,3:0:0:0:
216,57,176233,2,0,P|247:48|262:19,2,68,2|0|0,3:2|3:0|1:0,0:0:0:0:
193,139,176733,2,0,B|228:173|219:205|213:205|202:232|237:265,1,136,2|0,0:0|3:0,0:0:0:0:
314,289,177233,2,0,B|296:306|301:322|304:322|309:335|292:352,1,68,2|0,1:2|3:0,0:0:0:0:
373,380,177567,6,0,P|408:376|433:354,1,68,0|0,3:0|3:0,0:0:0:0:
499,302,177900,1,0,1:0:0:0:
440,248,178067,1,0,3:0:0:0:
440,248,178150,1,0,3:0:0:0:
440,248,178233,2,0,P|405:244|380:222,1,68,2|0,3:2|3:0,0:0:0:0:
297,204,178567,2,0,P|301:169|323:144,1,68,0|0,1:0|3:0,0:0:0:0:
340,61,178900,6,0,B|288:70|270:46|273:43|262:19|214:19,1,136,6|0,3:2|1:0,0:0:0:0:
153,74,179400,1,2,3:2:0:0:
153,74,179483,1,0,3:0:0:0:
153,74,179567,2,0,B|130:73|124:85|126:87|117:99|91:94,2,68,0|0|0,3:0|3:0|1:0,0:0:0:0:
184,153,180067,6,0,L|186:194,2,34,2|0|0,3:2|3:0|3:0,0:0:0:0:
267,137,180400,1,0,3:0:0:0:
330,193,180567,1,0,1:0:0:0:
413,177,180733,2,0,P|468:208|471:280,1,136,2|0,0:0|3:0,0:0:0:0:
428,348,181233,1,0,1:0:0:0:
258,369,181567,6,0,B|238:319|261:301|261:301|280:282|261:234,1,136,2|0,3:2|1:0,0:0:0:0:
256,153,182067,1,0,3:0:0:0:
202,87,182233,2,0,P|229:46|287:47,2,102,2|0|0,0:0|3:0|3:0,0:0:0:0:
173,167,182900,5,2,3:2:0:0:
89,149,183067,2,0,L|77:107,2,34,0|2|0,3:0|0:0|1:0,0:0:0:0:
71,233,183400,1,0,3:0:0:0:
155,251,183567,2,0,P|187:268|206:306,1,68,0|0,3:0|3:0,0:0:0:0:
256,360,183900,1,0,1:0:0:0:
309,294,184067,5,0,3:0:0:0:
309,294,184150,1,0,3:0:0:0:
309,294,184233,2,0,B|288:245|319:230|322:232|345:207|327:154,1,136,6|0,3:2|1:0,0:0:0:0:
328,81,184733,2,0,P|309:72|289:65,2,34,0|0|0,3:0|3:0|3:0,0:0:0:0:
408,52,185067,1,0,3:0:0:0:
460,119,185233,1,0,1:0:0:0:
443,288,185567,6,0,P|453:316|477:361,2,68,2|0|0,3:2|3:0|1:0,0:0:0:0:
384,233,186067,1,2,3:2:0:0:
384,233,186150,1,0,3:0:0:0:
384,233,186233,2,0,P|313:241|272:295,1,136,0|0,3:0|1:0,0:0:0:0:
121,364,186900,5,6,3:2:0:0:
58,306,187067,2,0,L|24:298,2,34,2|2|0,0:3|0:3|1:0,0:0:0:0:
139,281,187400,5,6,3:2:0:0:
202,223,187567,2,0,L|236:215,2,34,2|2|2,0:3|0:3|0:3,0:0:0:0:
120,197,187900,1,0,1:0:0:0:
184,141,188067,1,6,3:2:0:0:
307,24,188400,5,6,3:2:0:0:
392,18,188567,2,0,P|422:24|453:56,1,68,2|0,3:2|3:0,0:0:0:0:
418,128,188900,2,0,L|399:159,3,34,0|2|2|2,1:0|0:3|0:3|0:3,0:0:0:0:
366,160,189233,2,0,L|335:141,3,34,2|2|2|2,0:3|0:3|0:3|0:3,0:0:0:0:
302,145,189567,6,0,L|268:203,2,68,6|0|0,3:2|3:0|1:0,0:0:0:0:
227,102,190067,1,0,3:0:0:0:
227,102,190150,1,0,3:0:0:0:
227,102,190233,2,0,L|198:85,3,34,2|0|0|0,3:2|0:0|3:0|0:0,0:0:0:0:
168,66,190567,5,0,1:0:0:0:
85,84,190733,1,6,3:2:0:0:
15,239,191067,5,2,3:2:0:0:
98,257,191233,1,2,3:2:0:0:
44,323,191400,5,2,0:0:0:0:
44,323,191567,2,0,L|50:378,2,54.4,2|0|0,0:0|0:0|0:0,0:0:0:0:
212,347,192233,5,6,0:0:0:0:
30,36,208232,6,0,P|50:70|92:73,1,68,6|0,3:2|3:0,0:0:0:0:
155,46,208566,2,0,P|228:49|266:112,1,136,6|0,3:2|1:0,0:0:0:0:
227,261,209232,5,0,3:0:0:0:
277,329,209399,1,6,3:2:0:0:
436,271,209732,5,4,3:2:0:0:
486,203,209899,2,0,P|491:170|489:134,1,68,2|0,3:2|0:0,0:0:0:0:
439,66,210232,5,6,3:2:0:0:
389,134,210399,2,0,P|384:167|386:203,1,68,0|0,3:0|0:0,0:0:0:0:
227,261,210899,5,2,3:2:0:0:
159,211,211066,1,0,3:0:0:0:
159,211,212065,5,2,3:2:0:0:
328,198,212399,1,2,3:2:0:0:
315,29,212732,2,0,P|291:51|250:54,1,68,2|2,3:2|3:2,0:0:0:0:
172,44,213065,1,2,3:2:0:0:
94,9,213231,1,8,0:1:0:0:
17,198,213565,6,0,B|63:232|44:271|48:272|29:312|79:351,1,163.199995019531,6|0,3:2|1:0,0:0:0:0:
154,284,214065,1,0,3:0:0:0:
246,349,214232,1,2,3:2:0:0:
246,349,214315,1,0,3:0:0:0:
246,349,214399,2,0,B|266:333|257:313|259:312|249:293|272:276,1,81.5999975097657,0|0,3:0|1:0,0:0:0:0:
264,174,214732,6,0,L|258:88,1,81.5999975097657,2|0,0:0|3:0,0:0:0:0:
329,19,215065,1,0,3:0:0:0:
329,19,215149,1,0,3:0:0:0:
329,19,215232,2,0,L|415:13,1,81.5999975097657,0|0,1:0|3:0,0:0:0:0:
484,84,215565,2,0,P|501:125|450:178,1,122.399996264649,2|0,3:2|0:0,0:0:0:0:
454,177,215899,2,0,P|424:202|434:239,1,81.5999975097657,0|0,1:0|3:0,0:0:0:0:
353,303,216232,5,6,3:2:0:0:
257,266,216399,1,0,3:0:0:0:
176,330,216565,2,0,B|129:311|100:343|103:348|71:377|24:355,1,163.199995019531,0|2,1:0|3:2,0:0:0:0:
47,255,217065,2,0,B|56:231|40:217|38:218|23:202|34:179,1,81.5999975097657,0|0,3:0|1:0,0:0:0:0:
145,188,217399,5,0,3:0:0:0:
145,188,217482,1,0,3:0:0:0:
145,188,217565,1,0,3:0:0:0:
247,186,217732,2,0,P|274:157|265:105,1,81.5999975097657,2|0,0:0|1:0,0:0:0:0:
192,53,218065,2,0,P|114:35|33:102,1,163.199995019531,2|0,0:0|3:0,0:0:0:0:
34,178,218565,1,0,1:0:0:0:
97,259,218732,1,0,3:0:0:0:
198,271,218899,6,0,L|192:354,1,81.5999975097657,2|0,3:2|3:0,0:0:0:0:
293,361,219232,2,0,L|455:372,1,163.199995019531,0|0,1:0|3:0,0:0:0:0:
463,271,219732,1,0,3:0:0:0:
463,271,219815,1,0,3:0:0:0:
463,271,219899,1,0,1:0:0:0:
394,190,220065,1,0,3:0:0:0:
313,259,220232,6,0,P|236:248|184:184,1,163.199995019531,6|0,3:2|1:0,0:0:0:0:
83,170,220732,2,0,P|88:131|120:105,1,81.5999975097657,6|0,3:2|3:0,0:0:0:0:
199,41,221065,1,0,1:0:0:0:
263,120,221232,2,0,L|311:117,3,40.7999987548829,0|0|0|0,3:0|3:0|3:0|3:0,0:0:0:0:
330,86,221565,6,0,P|329:46|311:5,2,81.5999975097657,6|0|0,3:2|3:0|1:0,0:0:0:0:
398,176,222065,1,0,3:0:0:0:
398,176,222149,1,0,3:0:0:0:
398,176,222232,2,0,P|434:178|457:216,1,81.5999975097657,2|0,3:2|3:0,0:0:0:0:
425,311,222565,2,0,P|371:308|336:251,1,122.399996264649,0|0,1:0|0:0,0:0:0:0:
336,254,222899,6,0,L|255:269,1,81.5999975097657,2|0,3:2|3:0,0:0:0:0:
229,367,223232,2,0,L|147:352,1,81.5999975097657,0|0,1:0|3:0,0:0:0:0:
47,367,223565,1,2,3:2:0:0:
92,270,223732,2,0,L|77:230,2,40.7999987548829,0|0|0,3:0|0:0|1:0,0:0:0:0:
176,211,224065,5,0,3:0:0:0:
176,211,224149,1,0,3:0:0:0:
176,211,224232,2,0,P|153:129|187:50,1,163.199995019531,2|0,3:2|1:0,0:0:0:0:
256,126,224732,1,0,3:0:0:0:
333,58,224899,1,2,3:2:0:0:
333,58,224982,1,0,3:0:0:0:
333,58,225065,2,0,P|374:46|413:63,1,81.5999975097657,0|0,3:0|1:0,0:0:0:0:
459,148,225398,6,0,L|380:166,1,81.5999975097657,2|0,0:0|3:0,0:0:0:0:
292,221,225732,2,0,L|301:260,2,40.7999987548829,0|0|0,3:0|3:0|1:0,0:0:0:0:
256,126,226065,2,0,P|187:72|114:88,1,163.199995019531,2|0,0:0|3:0,0:0:0:0:
21,118,226565,1,0,1:0:0:0:
62,222,226732,5,0,3:0:0:0:
62,222,226814,1,0,3:0:0:0:
62,222,226898,1,6,3:2:0:0:
158,189,227065,2,0,P|169:229|162:270,1,81.5999975097657,0|0,3:0|1:0,0:0:0:0:
214,356,227398,2,0,P|272:296|350:268,1,163.199995019531,6|0,3:2|3:0,0:0:0:0:
425,333,227898,1,0,1:0:0:0:
484,249,228065,6,0,L|502:142,2,81.5999975097657,6|0|0,3:2|3:0|3:0,0:0:0:0:
400,189,228565,1,0,1:0:0:0:
333,116,228732,1,2,0:3:0:0:
333,116,228815,1,2,0:3:0:0:
333,116,228898,2,0,L|279:111,3,40.7999987548829,2|0|0|0,0:3|3:0|3:0|3:0,0:0:0:0:
251,108,229232,1,2,0:3:0:0:
263,310,229565,6,0,P|258:352|206:373,1,81.5999975097657,6|0,1:2|3:0,0:0:0:0:
125,380,229898,2,0,P|83:375|62:323,1,81.5999975097657,6|0,1:2|3:0,0:0:0:0:
55,242,230232,1,6,1:2:0:0:
55,242,230315,1,0,3:0:0:0:
55,242,230398,2,0,P|57:221|83:210,2,40.7999987548829,0|0|0,3:0|3:0|1:0,0:0:0:0:
147,286,230732,5,6,3:2:0:0:
336,211,231065,1,2,3:2:0:0:
429,252,231232,2,0,B|455:205|431:168|429:169|402:136|429:81,1,163.199995019531,6|2,3:2|3:2,0:0:0:0:
336,41,231732,1,0,3:0:0:0:
256,103,231898,1,8,0:1:0:0:
176,41,232065,5,0,3:0:0:0:
176,41,232148,1,0,3:0:0:0:
176,41,232232,2,0,P|111:35|37:88,1,149.60000456543,6|0,3:2|1:0,0:0:0:0:
22,170,232732,1,0,3:0:0:0:
110,200,232898,2,0,L|128:126,1,74.8000022827149,0|0,3:0|3:0,0:0:0:0:
220,143,233232,2,0,L|292:160,1,74.8000022827149,0|0,1:0|3:0,0:0:0:0:
351,233,233565,6,0,B|398:254|424:227|421:222|447:201|498:223,1,149.60000456543,2|0,3:2|1:0,0:0:0:0:
488,314,234065,2,0,B|467:329|472:347|475:347|477:363|455:380,1,74.8000022827149,2|0,0:0|3:0,0:0:0:0:
369,347,234398,1,2,0:0:0:0:
280,362,234565,1,0,1:0:0:0:
265,273,234732,1,0,3:0:0:0:
354,258,234898,6,0,P|390:245|396:208,1,74.8000022827149,2|0,3:2|3:0,0:0:0:0:
452,140,235232,2,0,P|458:102|429:78,1,74.8000022827149,0|0,1:0|3:0,0:0:0:0:
362,23,235565,1,0,3:0:0:0:
362,23,235648,1,0,3:0:0:0:
362,23,235732,2,0,P|347:19|325:21,2,37.4000011413575,0|0|0,3:0|3:0|1:0,0:0:0:0:
347,111,236065,6,0,L|263:128,1,74.8000022827149,2|0,0:0|3:0,0:0:0:0:
220,52,236398,1,2,0:0:0:0:
143,100,236565,2,0,B|162:146|132:171|128:169|96:192|125:249,1,149.60000456543,0|0,1:0|3:0,0:0:0:0:
210,233,237065,2,0,L|262:238,2,37.4000011413575,2|2|0,0:0|0:0|1:0,0:0:0:0:
175,320,237398,5,2,0:0:0:0:
175,320,237482,1,2,0:0:0:0:
175,320,237565,2,0,P|103:336|26:382,1,149.60000456543,6|0,3:2|1:0,0:0:0:0:
7,288,238065,1,0,3:0:0:0:
32,201,238232,2,0,L|122:223,1,74.8000022827149,0|0,3:0|3:0,0:0:0:0:
170,157,238565,2,0,L|192:67,1,74.8000022827149,0|0,1:0|3:0,0:0:0:0:
252,22,238898,5,4,3:2:0:0:
272,108,239065,2,0,B|317:132|310:170|304:172|302:207|359:232,1,149.60000456543,2|0,0:0|3:0,0:0:0:0:
375,317,239565,1,2,3:2:0:0:
469,321,239732,1,0,3:0:0:0:
501,232,239898,1,0,1:0:0:0:
428,175,240065,1,2,0:0:0:0:
490,105,240232,5,6,3:2:0:0:
398,85,240398,2,0,P|390:46|388:10,1,74.8000022827149,0|0,3:0|1:0,0:0:0:0:
293,13,240732,5,6,3:2:0:0:
201,33,240898,2,0,P|193:72|191:108,1,74.8000022827149,0|0,3:0|1:0,0:0:0:0:
138,184,241232,2,0,P|99:176|63:174,2,74.8000022827149,4|2|0,3:2|0:0|1:0,0:0:0:0:
230,196,241732,5,4,3:2:0:0:
306,142,241898,1,2,0:0:0:0:
398,188,242065,1,4,1:2:0:0:
398,188,242148,1,0,3:0:0:0:
398,188,242232,2,0,P|429:198|450:245,1,74.8000022827149,4|0,3:2|3:0,0:0:0:0:
375,289,242565,2,0,P|359:284|349:260,3,37.4000011413575,8|0|0|0,0:1|3:0|3:0|3:0,0:0:0:0:
318,244,242898,6,0,P|249:245|164:259,1,149.60000456543,6|0,3:2|1:0,0:0:0:0:
107,187,243398,1,0,3:0:0:0:
13,196,243565,2,0,P|13:230|20:273,1,74.8000022827149,0|0,3:0|3:0,0:0:0:0:
28,364,243898,2,0,P|62:363|105:356,1,74.8000022827149,0|0,1:0|3:0,0:0:0:0:
196,348,244232,6,0,B|243:330|267:362|262:362|291:391|352:366,1,149.60000456543,2|0,3:2|1:0,0:0:0:0:
430,372,244732,2,0,B|433:347|453:344|452:346|472:341|476:308,1,74.8000022827149,2|0,0:0|3:0,0:0:0:0:
393,271,245065,1,2,0:0:0:0:
345,192,245232,1,0,1:0:0:0:
342,99,245398,1,0,3:0:0:0:
385,16,245565,6,0,P|423:12|462:18,1,74.8000022827149,2|0,3:2|0:0,0:0:0:0:
508,96,245898,2,0,P|512:134|506:173,1,74.8000022827149,0|0,1:0|0:0,0:0:0:0:
512,272,246232,1,0,3:0:0:0:
512,272,246315,1,0,0:0:0:0:
512,272,246398,2,0,P|510:291|513:310,2,37.4000011413575,2|0|0,0:0|0:0|1:0,0:0:0:0:
427,215,246732,6,0,P|375:165|304:184,1,149.60000456543,2|0,0:0|3:0,0:0:0:0:
272,269,247232,2,0,L|283:349,1,74.8000022827149,6|0,1:2|3:0,0:0:0:0:
189,357,247565,2,0,L|178:282,1,74.8000022827149,6|0,1:2|3:0,0:0:0:0:
113,221,247898,1,6,1:2:0:0:
113,221,247982,1,0,3:0:0:0:
113,221,248065,2,0,L|75:226,2,37.4000011413575,0|0|6,3:0|3:0|3:2,0:0:0:0:
256,192,248398,12,2,253565,0:0:0:0:
