osu file format v14

[General]
AudioFilename: audio.mp3
AudioLeadIn: 0
PreviewTime: 59234
Countdown: 0
SampleSet: Soft
StackLeniency: 0.8
Mode: 0
LetterboxInBreaks: 0
WidescreenStoryboard: 1

[Editor]
Bookmarks: 1568,6901,17401,28234,38901,49567,60234,70901,81567,92067,102901,113567,124234,136234,146900,157567,168067,178900,192233,210899,221565,232232,242898,253565
DistanceSpacing: 0.9
BeatDivisor: 4
GridSize: 4
TimelineZoom: 0.9999999

[Metadata]
Title:Escape from the Abyss
TitleUnicode:Escape from the Abyss
Artist:polysha feat. Sennzai
ArtistUnicode:polysha feat. Sennzai
Creator:Hinsvar
Version:Easy
Source:
Tags:マサムネ Masamune Japanese Electronic hardcore techno J-core Jcore dance music EDM Papermoon Featured Artist FA Mappers' Guild MG MPG
BeatmapID:4528260
BeatmapSetID:2147338

[Difficulty]
HPDrainRate:2
CircleSize:2
OverallDifficulty:2
ApproachRate:4
SliderMultiplier:0.96
SliderTickRate:1

[Events]
//Background and Video events
0,0,"BG.jpg",0,0
//Break Periods
2,39101,48247
2,192433,206912
//Storyboard Layer 0 (Background)
//Storyboard Layer 1 (Fail)
//Storyboard Layer 2 (Pass)
//Storyboard Layer 3 (Foreground)
//Storyboard Layer 4 (Overlay)
//Storyboard Sound Samples

[TimingPoints]
1568,333.333333333333,4,2,1,50,1,0
1568,-111.111111111111,4,2,1,50,0,0
4234,-100,4,2,1,60,0,0
6901,-100,4,2,1,75,0,0
17401,-100,4,2,1,60,0,0
28234,-100,4,2,1,70,0,0
49567,-100,4,2,1,60,0,0
54901,-100,4,2,1,70,0,0
59401,-111.111111111111,4,2,1,60,0,0
60234,-95.2380952380952,4,2,1,80,0,1
70567,-95.2380952380952,4,2,1,70,0,0
70901,-95.2380952380952,4,2,1,80,0,1
81567,-100,4,2,1,75,0,0
92067,-100,4,2,1,60,0,0
102901,-100,4,2,1,70,0,0
134901,-100,4,2,1,60,0,0
135901,-100,4,2,1,70,0,0
136234,333.333333333333,4,2,1,80,1,1
136234,-95.2380952380952,4,2,1,80,0,1
146567,-95.2380952380952,4,2,1,70,0,0
146900,-95.2380952380952,4,2,1,80,0,1
157567,-100,4,2,1,70,0,0
160233,-111.111111111111,4,2,1,50,0,0
161400,-100,4,2,1,60,0,0
162900,-100,4,2,1,70,0,0
191400,-111.111111111111,4,2,1,60,0,0
192233,333.333333333333,4,2,1,65,1,0
208232,-100,4,2,1,70,0,0
210899,333.333333333333,4,2,1,75,1,0
213565,-90.9090909090909,4,2,1,85,0,1
221232,-90.9090909090909,4,2,1,75,0,0
221565,-90.9090909090909,4,2,1,85,0,1
232232,-95.2380952380952,4,2,1,80,0,0
249565,-95.2380952380952,4,2,1,70,0,0
250898,-95.2380952380952,4,2,1,60,0,0
252232,-95.2380952380952,4,2,1,50,0,0
253565,-95.2380952380952,4,2,1,40,0,0

[Colours]
Combo1 : 85,236,202
Combo2 : 33,153,241
Combo3 : 88,236,243
Combo4 : 75,189,214

[HitObjects]
45,92,1568,5,4,3:2:0:0:
45,92,4234,2,0,P|112:96|156:32,1,144,6|6,3:2|3:2,0:0:0:0:
278,139,5234,2,0,P|273:206|337:250,2,144,6|6|0,3:2|3:2|3:0,0:0:0:0:
337,63,6567,1,8,0:1:0:0:
433,51,6901,6,0,B|501:125|458:192|454:191|416:257|473:331,1,288,6|0,3:2|1:0,0:0:0:0:
378,358,8234,2,0,B|345:383|312:364|313:362|279:340|242:375,2,144,2|2|0,3:2|0:0|1:0,0:0:0:0:
342,268,9567,5,2,3:2:0:0:
252,232,9901,1,0,1:0:0:0:
238,136,10234,2,0,P|226:65|161:26,1,144,0|2,3:0|0:0,0:0:0:0:
73,28,11067,2,0,P|17:73|16:149,1,144,2|0,0:0|3:0,0:0:0:0:
61,225,11901,1,0,1:0:0:0:
158,226,12234,6,0,B|221:201|244:252|242:252|268:303|335:289,1,192,6|2,3:2|3:2,0:0:0:0:
335,132,13401,1,2,0:0:0:0:
426,103,13734,2,0,P|494:119|509:192,1,144,2|2,0:0|3:2,0:0:0:0:
452,259,14567,1,0,0:0:0:0:
469,354,14901,6,0,B|418:378|401:345|396:345|380:315|320:336,1,144,6|6,3:2|3:2,0:0:0:0:
177,331,15901,2,0,B|132:315|116:345|111:345|94:378|43:354,2,144,6|6|6,3:2|3:2|3:2,0:0:0:0:
256,194,17401,6,0,P|265:128|251:50,1,144,4|2,3:2|3:2,0:0:0:0:
159,28,18234,1,2,3:2:0:0:
44,182,18901,2,0,P|34:247|49:326,1,144,0|2,3:0|0:0,0:0:0:0:
141,348,19734,1,2,0:0:0:0:
193,268,20067,6,0,B|244:261|257:292|254:293|269:324|333:317,1,144,2|2,0:0|3:2,0:0:0:0:
407,360,20901,2,0,P|486:299|480:198,2,192,0|0|0,3:0|3:0|3:0,0:0:0:0:
256,240,22901,6,0,P|217:218|164:207,1,96,0|10,3:0|0:0,0:0:0:0:
73,226,23567,1,2,3:2:0:0:
29,38,24234,2,0,P|96:37|173:11,1,144,0|2,3:0|0:0,0:0:0:0:
256,52,25067,1,2,0:0:0:0:
343,14,25401,6,0,P|411:36|483:38,1,144,2|10,0:0|0:0,0:0:0:0:
484,134,26234,1,0,3:0:0:0:
330,171,26734,2,0,P|290:197|285:248,1,96,2|2,0:0|0:0,0:0:0:0:
262,335,27401,2,0,P|325:367|395:335,1,144,0|0,3:0|3:0,0:0:0:0:
477,304,28234,6,0,P|472:223|402:173,2,144,6|2|0,3:2|0:0|1:0,0:0:0:0:
389,342,29567,2,0,B|353:312|318:342|323:346|288:379|242:358,1,144,0|0,3:0|3:0,0:0:0:0:
98,351,30567,1,0,1:0:0:0:
107,255,30901,6,0,P|76:183|10:159,2,144,2|2|0,3:2|3:2|1:0,0:0:0:0:
265,241,32401,2,0,P|337:210|361:144,1,144,2|0,3:2|3:0,0:0:0:0:
353,57,33234,1,0,1:0:0:0:
265,18,33567,6,0,B|215:4|193:28|197:33|167:57|117:38,2,144,6|2|0,3:2|3:2|1:0,0:0:0:0:
276,113,34901,2,0,P|211:172|104:199,1,192,6|2,3:2|3:2,0:0:0:0:
18,218,35901,1,0,0:0:0:0:
37,312,36234,6,0,B|90:303|103:337|101:340|118:371|189:360,1,144,6|6,1:2|1:2,0:0:0:0:
323,351,37234,1,6,1:2:0:0:
415,374,37567,2,0,P|457:352|476:295,1,96,2|2,3:0|3:0,0:0:0:0:
499,217,38234,5,2,1:2:0:0:
346,100,38901,1,6,3:2:0:0:
187,54,49567,6,0,P|81:48|29:130,1,192,6|0,3:2|1:0,0:0:0:0:
100,179,50567,1,0,3:0:0:0:
182,228,50901,2,0,B|193:275|176:304|173:297|153:323|165:377,2,144,2|0|0,3:2|3:0|3:0,0:0:0:0:
276,209,52234,2,0,B|265:162|282:133|285:140|305:114|293:60,2,144,2|0|0,3:2|3:0|3:0,0:0:0:0:
358,258,53567,1,2,3:2:0:0:
511,142,54234,1,2,1:2:0:0:
334,67,54901,6,0,B|277:79|264:56|266:51|253:24|192:40,2,144,6|6|0,3:2|3:2|1:0,0:0:0:0:
387,216,56401,2,0,B|399:273|376:286|371:284|344:297|360:358,1,144,2|2,3:2|1:2,0:0:0:0:
265,374,57234,1,0,0:0:0:0:
169,376,57567,6,0,P|127:366|81:328,1,96,6|0,3:2|1:0,0:0:0:0:
15,268,58234,1,0,3:0:0:0:
126,155,58734,2,0,B|150:105|124:82|120:84|96:60|121:3,1,144,6|2,3:2|3:2,0:0:0:0:
418,14,60234,6,0,P|490:76|470:170,1,201.599993847656,6|2,3:2|3:2,0:0:0:0:
369,169,61234,1,0,1:0:0:0:
303,92,61567,2,0,P|257:106|248:154,1,100.799996923828,2|0,3:2|1:0,0:0:0:0:
270,252,62234,1,2,3:2:0:0:
147,374,62734,6,0,B|85:370|82:342|84:338|81:305|7:296,1,151.199995385742,0|0,3:0|1:0,0:0:0:0:
8,199,63567,2,0,B|11:137|39:134|43:136|76:133|85:59,1,151.199995385742,2|2,3:2|0:0,0:0:0:0:
180,49,64401,1,0,3:0:0:0:
273,88,64734,2,0,P|313:127|297:216,1,151.199995385742,0|0,3:0|1:0,0:0:0:0:
248,301,65567,5,6,3:2:0:0:
339,345,65901,1,0,1:0:0:0:
422,288,66234,2,0,P|465:223|478:148,1,151.199995385742,2|0,3:2|3:0,0:0:0:0:
474,51,67067,1,2,0:0:0:0:
374,55,67401,2,0,P|331:120|318:195,1,151.199995385742,2|0,0:0|1:0,0:0:0:0:
222,223,68234,5,2,3:2:0:0:
182,130,68567,2,0,P|103:97|24:177,1,201.599993847656,0|0,1:0|1:0,0:0:0:0:
37,267,69567,2,0,P|45:330|126:351,2,151.199995385742,6|6|0,3:2|3:2|3:0,0:0:0:0:
132,233,70901,6,0,P|155:128|165:26,1,201.599993847656,6|2,3:2|3:2,0:0:0:0:
256,76,71901,1,0,1:0:0:0:
351,44,72234,2,0,P|356:94|367:143,1,100.799996923828,2|0,3:2|1:0,0:0:0:0:
442,210,72901,1,2,3:2:0:0:
505,363,73401,6,0,B|457:387|433:359|432:354|406:329|362:361,1,151.199995385742,2|0,3:2|1:0,0:0:0:0:
335,263,74234,2,0,B|287:238|263:266|262:271|236:296|192:264,1,151.199995385742,2|2,3:2|0:0,0:0:0:0:
137,180,75067,1,0,3:0:0:0:
40,208,75401,2,0,P|2:271|30:341,1,151.199995385742,2|0,0:0|1:0,0:0:0:0:
127,357,76234,6,0,B|168:330|201:359|197:359|230:387|287:351,1,151.199995385742,6|6,3:2|3:2,0:0:0:0:
239,263,77067,1,0,3:0:0:0:
320,203,77401,2,0,B|361:176|394:205|390:205|423:233|480:197,1,151.199995385742,6|0,3:2|1:0,0:0:0:0:
432,109,78234,2,0,P|419:61|419:4,1,100.799996923828,2|2,0:3|0:3,0:0:0:0:
317,17,78901,5,6,1:2:0:0:
249,91,79234,1,6,1:2:0:0:
157,49,79567,2,0,P|90:24|4:24,1,151.199995385742,6|6,1:2|3:2,0:0:0:0:
5,188,80567,2,0,P|94:221|208:221,1,201.599993847656,6|8,3:2|0:1,0:0:0:0:
234,133,81567,6,0,P|339:30|456:95,1,288,6|0,3:2|1:0,0:0:0:0:
474,177,82901,2,0,P|491:248|434:282,2,144,2|2|0,3:2|0:0|1:0,0:0:0:0:
380,153,84234,5,2,3:2:0:0:
335,68,84567,1,0,1:0:0:0:
241,44,84901,2,0,B|238:102|201:102|202:98|166:99|154:160,1,144,0|2,3:0|0:0,0:0:0:0:
66,182,85734,2,0,B|68:240|105:240|104:236|140:237|152:298,1,144,2|0,0:0|3:0,0:0:0:0:
216,356,86567,1,0,1:0:0:0:
303,314,86901,6,0,P|377:263|483:255,1,192,6|0,3:2|3:0,0:0:0:0:
506,98,88067,1,2,0:0:0:0:
452,17,88401,2,0,P|396:55|316:61,1,144,2|2,0:0|3:2,0:0:0:0:
251,126,89234,1,8,0:0:0:0:
183,59,89567,6,0,P|134:31|43:47,1,144,6|6,3:2|3:2,0:0:0:0:
30,199,90567,2,0,P|79:227|170:211,2,144,6|6|6,3:2|3:2|3:2,0:0:0:0:
50,42,92067,6,0,B|102:19|120:47|118:52|137:76|188:48,1,144,4|2,3:2|3:2,0:0:0:0:
277,25,92901,1,0,1:0:0:0:
462,73,93567,2,0,B|484:125|456:143|451:141|427:160|455:211,1,144,2|2,0:0|0:0,0:0:0:0:
479,300,94401,1,2,0:0:0:0:
400,354,94734,6,0,P|335:355|295:286,1,144,2|2,0:0|0:0,0:0:0:0:
309,198,95567,2,0,P|261:119|169:117,2,192,0|0|0,1:0|3:0|1:0,0:0:0:0:
123,246,97567,6,0,P|76:251|23:275,1,96,2|2,3:2|0:0,0:0:0:0:
54,363,98234,1,0,1:0:0:0:
246,360,98901,2,0,P|332:340|344:292,1,144,2|2,0:0|0:0,0:0:0:0:
334,199,99734,1,2,0:0:0:0:
239,217,100067,6,0,P|153:197|141:149,1,144,2|2,0:0|0:0,0:0:0:0:
151,56,100900,1,0,1:0:0:0:
305,20,101401,2,0,P|352:24|410:35,1,96,2|2,3:2|3:2,0:0:0:0:
486,73,102067,2,0,P|480:138|465:219,1,144,2|0,0:0|3:0,0:0:0:0:
376,249,102901,6,0,B|324:248|314:215|320:213|310:184|244:178,2,144,6|2|0,3:2|0:0|1:0,0:0:0:0:
384,344,104234,2,0,P|322:363|237:362,1,144,0|0,3:0|3:0,0:0:0:0:
87,331,105234,1,0,1:0:0:0:
83,234,105567,6,0,P|64:167|-4:137,2,144,2|2|0,3:2|3:2|1:0,0:0:0:0:
237,266,107067,2,0,P|266:202|334:183,1,144,2|0,3:2|3:0,0:0:0:0:
424,215,107901,1,0,1:0:0:0:
497,152,108234,6,0,B|510:107|499:79|494:80|480:55|503:5,2,144,6|2|0,3:2|3:2|1:0,0:0:0:0:
405,123,109567,2,0,P|361:42|258:31,1,192,6|2,3:2|3:2,0:0:0:0:
256,122,110567,1,0,1:0:0:0:
244,217,110901,6,0,B|191:202|173:225|176:227|155:257|96:235,1,144,6|6,1:2|1:2,0:0:0:0:
29,101,111901,1,6,1:2:0:0:
108,47,112234,2,0,P|153:29|203:31,2,96,2|2|2,3:0|3:0|1:2,0:0:0:0:
42,227,113567,6,0,P|75:314|250:329,1,288,6|0,3:2|1:0,0:0:0:0:
346,319,114901,2,0,B|392:314|410:342|407:346|425:377|494:366,2,144,2|2|0,3:2|0:0|1:0,0:0:0:0:
288,241,116234,2,0,B|260:203|276:173|280:173|298:143|254:88,2,144,2|2|0,3:2|3:2|1:0,0:0:0:0:
249,329,117567,2,0,P|181:335|145:277,1,144,2|2,3:2|3:2,0:0:0:0:
137,119,118567,1,0,1:0:0:0:
199,33,118901,6,0,P|350:28|464:114,1,288,2|0,3:2|1:0,0:0:0:0:
465,200,120234,2,0,B|439:242|457:268|459:267|482:292|452:349,2,144,2|2|0,3:2|0:0|1:0,0:0:0:0:
377,159,121567,2,0,P|251:154|156:226,1,240,2|2,3:2|3:2,0:0:0:0:
234,281,122734,1,0,3:0:0:0:
171,354,123067,2,0,P|95:356|38:313,1,144,2|0,3:2|3:0,0:0:0:0:
37,222,123901,1,0,1:0:0:0:
102,152,124234,6,0,B|183:189|243:131|243:124|308:64|375:98,1,288,6|0,3:2|1:0,0:0:0:0:
458,132,125567,2,0,P|505:103|505:20,2,144,2|2|0,3:2|3:2|1:0,0:0:0:0:
381,190,126901,2,0,P|382:245|454:286,2,144,2|2|0,3:2|0:0|1:0,0:0:0:0:
373,95,128234,1,2,3:2:0:0:
190,33,128901,1,2,0:0:0:0:
95,47,129234,1,0,1:0:0:0:
59,136,129567,6,0,P|29:223|87:303,1,192,6|0,3:2|1:0,0:0:0:0:
157,359,130567,1,0,1:0:0:0:
237,305,130901,2,0,L|231:206,1,96,0|0,1:0|1:0,0:0:0:0:
311,156,131567,2,0,L|410:150,1,96,2|2,1:2|1:2,0:0:0:0:
460,230,132234,5,6,3:2:0:0:
460,230,133401,2,0,P|459:318|419:346,2,144,6|2|2,3:2|3:2|3:2,0:0:0:0:
460,230,135901,1,8,0:1:0:0:
383,164,136234,6,0,B|316:148|291:193|297:194|268:245|199:239,1,201.599993847656,6|2,3:2|3:2,0:0:0:0:
135,310,137234,1,0,1:0:0:0:
38,284,137567,2,0,B|61:258|48:236|46:239|31:213|51:185,1,100.799996923828,2|0,3:2|1:0,0:0:0:0:
53,88,138234,1,2,3:2:0:0:
210,36,138734,6,0,P|278:45|319:113,1,151.199995385742,0|0,3:0|1:0,0:0:0:0:
302,210,139567,2,0,P|234:219|193:287,1,151.199995385742,2|2,3:2|0:0,0:0:0:0:
239,374,140400,1,0,3:0:0:0:
339,376,140734,2,0,B|398:377|411:343|405:342|418:314|477:314,1,151.199995385742,0|0,3:0|1:0,0:0:0:0:
510,221,141567,5,6,3:2:0:0:
410,206,141900,1,0,1:0:0:0:
372,111,142234,2,0,P|335:53|256:42,1,151.199995385742,2|0,3:2|3:0,0:0:0:0:
163,74,143066,1,2,0:0:0:0:
201,169,143400,2,0,P|238:227|317:238,1,151.199995385742,2|0,0:0|1:0,0:0:0:0:
378,317,144234,5,2,3:2:0:0:
289,364,144567,2,0,B|226:389|189:357|190:353|157:318|91:340,1,201.599993847656,0|0,1:0|1:0,0:0:0:0:
79,238,145567,2,0,B|60:190|84:162|87:163|113:139|97:89,2,151.199995385742,6|6|0,3:2|3:2|3:0,0:0:0:0:
179,231,146900,6,0,P|278:181|320:90,1,201.599993847656,6|2,3:2|3:2,0:0:0:0:
239,39,147900,1,0,1:0:0:0:
139,21,148234,2,0,P|89:46|68:91,1,100.799996923828,2|0,3:2|1:0,0:0:0:0:
61,185,148900,1,2,3:2:0:0:
184,296,149400,6,0,B|238:281|254:310|250:311|272:340|342:312,1,151.199995385742,0|0,3:0|1:0,0:0:0:0:
415,365,150234,2,0,B|429:310|462:311|460:315|497:310|507:236,1,151.199995385742,2|2,3:2|0:0,0:0:0:0:
416,203,151067,1,0,3:0:0:0:
482,127,151400,2,0,P|478:50|413:17,1,151.199995385742,2|0,0:0|1:0,0:0:0:0:
317,18,152233,6,0,B|267:29|261:60|265:62|264:94|198:120,1,151.199995385742,6|6,3:2|3:2,0:0:0:0:
271,194,153067,1,0,3:0:0:0:
370,209,153400,2,0,B|420:220|426:251|422:253|423:285|489:311,1,151.199995385742,6|8,3:2|0:0,0:0:0:0:
394,365,154233,2,0,P|346:348|296:346,1,100.799996923828,2|2,0:3|0:3,0:0:0:0:
196,357,154900,5,6,1:2:0:0:
97,377,155233,1,6,1:2:0:0:
30,301,155567,2,0,P|4:244|32:161,1,151.199995385742,6|6,1:2|3:2,0:0:0:0:
191,124,156567,2,0,P|225:199|188:310,1,201.599993847656,6|2,3:2|0:0,0:0:0:0:
111,363,157567,5,6,3:2:0:0:
111,363,160233,2,0,P|192:336|276:370,1,172.799994726563,0|0,3:0|3:0,0:0:0:0:
423,323,161400,2,0,P|445:214|538:141,1,192,2|2,0:0|3:2,0:0:0:0:
412,26,162567,1,2,0:0:0:0:
335,83,162900,5,6,3:2:0:0:
256,27,163233,2,0,P|208:18|147:24,2,96,0|0|0,1:0|1:0|1:0,0:0:0:0:
241,122,164233,2,0,P|232:170|238:231,1,96,0|0,1:0|1:0,0:0:0:0:
323,255,164900,1,0,1:0:0:0:
314,352,165233,1,0,1:0:0:0:
218,373,165567,6,0,B|164:383|145:363|150:360|129:333|71:335,1,144,6|6,3:2|3:2,0:0:0:0:
143,188,166567,2,0,B|97:190|76:162|81:160|62:140|8:150,2,144,6|6|6,3:2|3:2|3:2,0:0:0:0:
275,275,168067,6,0,P|336:301|416:278,1,144,6|0,3:2|1:0,0:0:0:0:
492,236,168900,1,0,3:0:0:0:
494,142,169233,1,0,1:0:0:0:
413,93,169567,2,0,P|352:67|272:90,1,144,2|2,3:2|0:0,0:0:0:0:
196,132,170400,1,0,3:0:0:0:
194,226,170733,1,2,3:2:0:0:
47,350,171400,6,0,B|56:315|29:285|26:286|2:256|10:207,1,144,2|0,0:0|1:0,0:0:0:0:
92,167,172233,2,0,B|83:132|110:102|113:103|137:73|129:24,2,144,0|2|0,3:0|3:2|1:0,0:0:0:0:
188,172,173567,6,0,P|272:183|331:207,2,144,2|2|0,3:2|3:2|1:0,0:0:0:0:
141,255,174900,1,2,3:2:0:0:
279,332,175400,2,0,P|346:357|417:365,1,144,2|0,3:2|1:0,0:0:0:0:
477,289,176233,6,0,P|495:140|395:49,1,288,2|2,3:2|1:2,0:0:0:0:
309,30,177567,1,0,3:0:0:0:
288,124,177900,1,0,1:0:0:0:
194,103,178233,2,0,L|97:80,1,96,2|0,3:2|1:0,0:0:0:0:
23,138,178900,6,0,P|46:222|147:237,1,192,6|0,3:2|3:0,0:0:0:0:
234,229,179900,1,0,1:0:0:0:
329,217,180233,2,0,B|379:193|401:215|398:218|422:241|469:214,2,144,0|2|0,3:0|0:0|1:0,0:0:0:0:
297,308,181567,1,2,3:2:0:0:
111,357,182233,6,0,P|69:319|44:182,1,192,2|2,0:0|3:2,0:0:0:0:
94,110,183233,2,0,P|120:101|186:124,1,96,0|0,1:0|3:0,0:0:0:0:
193,217,183900,1,0,1:0:0:0:
233,304,184233,6,0,B|308:262|373:329|376:328|429:387|501:341,1,288,6|0,3:2|1:0,0:0:0:0:
451,258,185567,2,0,P|443:191|464:117,2,144,2|2|0,3:2|3:2|1:0,0:0:0:0:
365,302,186900,6,0,B|323:292|325:253|323:252|324:205|283:194,1,144,6|6,3:2|3:2,0:0:0:0:
140,38,188067,2,0,B|98:49|99:96|97:97|100:136|58:145,1,144,6|2,3:2|3:2,0:0:0:0:
19,234,188900,2,0,P|9:281|29:328,1,96,0|2,1:0|0:3,0:0:0:0:
108,373,189567,5,6,3:2:0:0:
192,327,189900,1,0,1:0:0:0:
194,231,190233,2,0,B|170:182|190:158|195:161|210:133|188:84,2,144,2|6|2,3:2|3:2|3:2,0:0:0:0:
459,341,192233,5,6,0:0:0:0:
487,58,208232,5,6,3:2:0:0:
396,29,208566,1,6,3:2:0:0:
326,95,208899,1,0,1:0:0:0:
171,128,209399,2,0,B|121:112|99:136|101:140|84:167|35:150,2,144,6|2|0,3:2|3:2|3:0,0:0:0:0:
278,244,210899,5,2,3:2:0:0:
278,244,212065,1,2,3:2:0:0:
355,187,212399,1,2,3:2:0:0:
442,225,212732,2,0,P|484:282|458:351,1,144,2|8,3:2|0:1,0:0:0:0:
356,354,213565,6,0,P|305:352|251:362,1,105.600003222656,6|0,3:2|1:0,0:0:0:0:
147,373,214232,2,0,P|109:304|56:242,1,158.400004833985,2|2,3:2|0:0,0:0:0:0:
6,151,215065,1,0,3:0:0:0:
23,46,215398,2,0,B|65:18|96:39|96:46|124:62|182:32,1,158.400004833985,0|0,3:0|1:0,0:0:0:0:
256,103,216232,5,6,3:2:0:0:
338,36,216565,1,0,1:0:0:0:
437,73,216899,2,0,P|495:125|461:211,1,158.400004833985,2|0,3:2|3:0,0:0:0:0:
396,263,217732,1,2,0:0:0:0:
297,226,218066,2,0,P|239:174|273:88,1,158.400004833985,2|0,0:0|1:0,0:0:0:0:
163,50,218899,5,2,3:2:0:0:
62,82,219232,2,0,B|101:134|63:181|56:178|18:226|50:281,1,211.200006445313,0|0,1:0|1:0,0:0:0:0:
135,341,220232,2,0,P|206:357|293:330,2,158.400004833985,6|6|0,3:2|3:2|3:0,0:0:0:0:
149,236,221565,6,0,P|218:157|235:38,1,211.200006445313,6|2,3:2|3:2,0:0:0:0:
337,20,222565,1,0,1:0:0:0:
364,122,222899,2,0,P|380:171|428:208,1,105.600003222656,2|0,3:2|1:0,0:0:0:0:
505,268,223565,1,2,3:2:0:0:
361,366,224065,6,0,B|304:367|284:342|289:344|269:318|215:311,1,158.400004833985,0|0,3:0|1:0,0:0:0:0:
217,205,224899,2,0,B|215:148|240:128|238:133|264:113|271:59,1,158.400004833985,2|2,3:2|0:0,0:0:0:0:
174,17,225732,1,0,3:0:0:0:
68,28,226065,2,0,P|11:81|27:153,1,158.400004833985,2|0,0:0|1:0,0:0:0:0:
115,209,226898,6,0,B|157:180|190:201|189:207|219:226|280:192,1,158.400004833985,6|6,3:2|3:2,0:0:0:0:
356,142,227732,1,0,3:0:0:0:
461,141,228065,2,0,B|490:183|469:216|463:215|444:245|478:306,1,158.400004833985,6|0,3:2|1:0,0:0:0:0:
397,369,228898,2,0,P|346:363|306:319,1,105.600003222656,2|2,0:3|0:3,0:0:0:0:
256,233,229565,5,6,1:2:0:0:
239,128,229898,1,6,1:2:0:0:
152,65,230232,2,0,P|83:51|23:117,1,158.400004833985,6|6,1:2|3:2,0:0:0:0:
8,281,231232,2,0,P|77:355|177:339,1,211.200006445313,6|8,3:2|0:1,0:0:0:0:
190,238,232232,6,0,B|254:204|328:271|328:278|405:340|493:290,1,302.399990771485,6|0,3:2|1:0,0:0:0:0:
503,203,233565,2,0,P|500:129|491:39,2,151.199995385742,2|2|0,3:2|0:0|1:0,0:0:0:0:
402,195,234898,5,2,3:2:0:0:
344,278,235232,1,0,1:0:0:0:
243,269,235565,2,0,P|176:275|91:304,1,151.199995385742,0|2,3:0|0:0,0:0:0:0:
31,224,236398,2,0,P|25:157|-4:72,1,151.199995385742,2|0,0:0|3:0,0:0:0:0:
77,14,237232,1,0,1:0:0:0:
150,82,237565,6,0,P|227:94|309:8,1,201.599993847656,6|0,3:2|3:0,0:0:0:0:
474,15,238732,1,2,0:0:0:0:
462,115,239065,2,0,B|462:168|486:189|492:187|512:211|508:258,1,151.199995385742,2|2,0:0|3:2,0:0:0:0:
494,356,239898,1,8,0:0:0:0:
395,377,240232,6,0,B|333:378|327:348|329:345|325:315|254:309,1,151.199995385742,6|6,3:2|3:2,0:0:0:0:
139,203,241232,2,0,B|77:202|71:232|73:235|69:265|-2:271,2,151.199995385742,4|4|4,3:2|3:2|3:2,0:0:0:0:
223,148,242565,1,8,0:1:0:0:
294,218,242898,6,0,P|414:193|414:22,1,302.399990771485,6|0,3:2|1:0,0:0:0:0:
325,41,244232,2,0,P|256:36|175:20,2,151.199995385742,2|2|0,3:2|0:0|1:0,0:0:0:0:
331,142,245565,5,2,3:2:0:0:
230,148,245898,1,0,1:0:0:0:
184,238,246232,2,0,B|131:245|112:223|114:221|95:194|35:199,1,151.199995385742,0|2,3:0|0:0,0:0:0:0:
63,33,247232,1,6,1:2:0:0:
158,64,247565,2,0,B|193:68|205:54|204:52|217:34|257:38,1,100.799996923828,6|6,1:2|1:2,0:0:0:0:
347,68,248232,1,6,3:2:0:0:
256,192,248398,12,2,253565,0:0:0:0:
