osu file format v14

[General]
AudioFilename: audio.mp3
AudioLeadIn: 0
PreviewTime: 192956
Countdown: 0
SampleSet: Soft
StackLeniency: 0.7
Mode: 3
LetterboxInBreaks: 0
SpecialStyle: 0
WidescreenStoryboard: 1

[Editor]
DistanceSpacing: 0.8
BeatDivisor: 4
GridSize: 8
TimelineZoom: 2.86

[Metadata]
Title:Ultimate Weapon -the Last Ruling-
TitleUnicode:Ultimate Weapon -the Last Ruling-
Artist:polysha
ArtistUnicode:polysha
Creator:ruka
Version:Armageddon
Source:VOEZ
Tags:Pengdoll LCH 7K MWC 2023 Grand Final LN mixed osu!mania World Cup BMS TetraElemental Wire Puller 3 Hybrid Vivid Shooter electronic instrumental video game long note collaboration
BeatmapID:4224583
BeatmapSetID:1939252

[Difficulty]
HPDrainRate:8
CircleSize:7
OverallDifficulty:6.5
ApproachRate:5
SliderMultiplier:1.4
SliderTickRate:1

[Events]
//Background and Video events
0,0,"bg.jpg",0,0
//Break Periods
//Storyboard Layer 0 (Background)
//Storyboard Layer 1 (Fail)
//Storyboard Layer 2 (Pass)
//Storyboard Layer 3 (Foreground)
//Storyboard Layer 4 (Overlay)
//Storyboard Sound Samples

[TimingPoints]
389,324.324324324324,4,2,1,50,1,0
84713,-100,4,2,1,50,0,1
126226,-100,4,2,1,50,0,0
193686,-100,4,2,1,50,0,1
214443,379.746835443038,4,2,1,50,1,0
214443,-85.4054054054054,4,2,1,50,0,0
215012,413.793103448276,4,2,1,50,1,0
215012,-78.3783783783784,4,2,1,50,0,0
215632,444.444444444444,4,2,1,50,1,0
215632,-72.972972972973,4,2,1,50,0,0
216076,483.870967741935,4,2,1,50,1,0
216076,-67.027027027027,4,2,1,50,0,0
217043,697.674418604651,4,2,1,50,1,0
217043,-46.4864864864865,4,2,1,50,0,0
218438,705.882352941176,4,2,1,50,1,0
218438,-45.945945945946,4,2,1,50,0,0

[HitObjects]
256,192,389,128,0,1361:0:0:0:0:
109,192,389,1,0,0:0:0:0:
36,192,389,1,0,0:0:0:0:
475,192,389,1,0,0:0:0:0:
182,192,551,1,0,0:0:0:0:
36,192,551,1,0,0:0:0:0:
329,192,632,1,0,0:0:0:0:
182,192,713,1,0,0:0:0:0:
329,192,794,1,0,0:0:0:0:
182,192,875,1,0,0:0:0:0:
475,192,875,1,0,0:0:0:0:
109,192,875,1,0,0:0:0:0:
109,192,1037,1,0,0:0:0:0:
402,192,1118,1,0,0:0:0:0:
109,192,1199,1,0,0:0:0:0:
402,192,1280,1,0,0:0:0:0:
109,192,1361,1,0,0:0:0:0:
182,192,1361,1,0,0:0:0:0:
475,192,1361,1,0,0:0:0:0:
36,192,1361,1,0,0:0:0:0:
329,192,1361,1,0,0:0:0:0:
36,192,1686,128,0,1929:0:0:0:0:
402,192,1686,128,0,1767:0:0:0:0:
109,192,1686,1,0,0:0:0:0:
256,192,1686,1,0,0:0:0:0:
329,192,1686,128,0,1767:0:0:0:0:
475,192,1686,1,0,0:0:0:0:
182,192,1848,1,0,0:0:0:0:
329,192,1848,1,0,0:0:0:0:
402,192,2010,1,0,0:0:0:0:
36,192,2010,1,0,0:0:0:0:
256,192,2010,1,0,0:0:0:0:
182,192,2172,128,0,2416:0:0:0:0:
109,192,2172,1,0,0:0:0:0:
402,192,2172,128,0,2253:0:0:0:0:
475,192,2172,128,0,2253:0:0:0:0:
256,192,2253,1,0,0:0:0:0:
475,192,2334,1,0,0:0:0:0:
36,192,2334,1,0,0:0:0:0:
329,192,2416,1,0,0:0:0:0:
182,192,2497,1,0,0:0:0:0:
475,192,2497,128,0,2659:0:0:0:0:
36,192,2659,128,0,2902:0:0:0:0:
109,192,2659,1,0,0:0:0:0:
329,192,2659,128,0,2740:0:0:0:0:
256,192,2659,128,0,2740:0:0:0:0:
402,192,2740,1,0,0:0:0:0:
329,192,2821,1,0,0:0:0:0:
182,192,2821,1,0,0:0:0:0:
475,192,2902,1,0,0:0:0:0:
36,192,2983,1,0,0:0:0:0:
329,192,2983,128,0,3145:0:0:0:0:
182,192,3145,128,0,3388:0:0:0:0:
402,192,3145,128,0,3226:0:0:0:0:
475,192,3145,128,0,3226:0:0:0:0:
109,192,3145,1,0,0:0:0:0:
329,192,3226,1,0,0:0:0:0:
475,192,3307,1,0,0:0:0:0:
36,192,3307,1,0,0:0:0:0:
256,192,3388,1,0,0:0:0:0:
182,192,3470,1,0,0:0:0:0:
475,192,3470,128,0,3632:0:0:0:0:
109,192,3632,128,0,3875:0:0:0:0:
36,192,3632,1,0,0:0:0:0:
329,192,3632,128,0,3672:0:0:0:0:
402,192,3632,128,0,3672:0:0:0:0:
475,192,3713,128,0,3753:0:0:0:0:
256,192,3794,128,0,3997:0:0:0:0:
402,192,3794,128,0,3956:0:0:0:0:
109,192,3956,128,0,4361:0:0:0:0:
182,192,3956,1,0,0:0:0:0:
329,192,3956,128,0,3997:0:0:0:0:
36,192,3956,128,0,3997:0:0:0:0:
402,192,4037,128,0,4078:0:0:0:0:
256,192,4118,128,0,4199:0:0:0:0:
329,192,4118,128,0,4199:0:0:0:0:
475,192,4199,128,0,4280:0:0:0:0:
329,192,4280,128,0,4524:0:0:0:0:
402,192,4280,1,0,0:0:0:0:
182,192,4280,128,0,4361:0:0:0:0:
36,192,4280,128,0,4361:0:0:0:0:
475,192,4443,1,0,0:0:0:0:
109,192,4443,1,0,0:0:0:0:
329,192,4605,1,0,0:0:0:0:
182,192,4605,1,0,0:0:0:0:
36,192,4605,1,0,0:0:0:0:
475,192,4767,128,0,5010:0:0:0:0:
402,192,4767,1,0,0:0:0:0:
182,192,4767,128,0,4848:0:0:0:0:
256,192,4767,128,0,4848:0:0:0:0:
36,192,4848,1,0,0:0:0:0:
329,192,4929,1,0,0:0:0:0:
182,192,4929,1,0,0:0:0:0:
109,192,5010,1,0,0:0:0:0:
475,192,5091,1,0,0:0:0:0:
182,192,5091,128,0,5253:0:0:0:0:
329,192,5253,128,0,5497:0:0:0:0:
402,192,5253,1,0,0:0:0:0:
109,192,5253,128,0,5334:0:0:0:0:
36,192,5253,128,0,5334:0:0:0:0:
182,192,5334,1,0,0:0:0:0:
475,192,5416,1,0,0:0:0:0:
109,192,5416,1,0,0:0:0:0:
256,192,5497,1,0,0:0:0:0:
329,192,5578,1,0,0:0:0:0:
109,192,5578,128,0,5740:0:0:0:0:
475,192,5740,128,0,5983:0:0:0:0:
402,192,5740,1,0,0:0:0:0:
182,192,5740,128,0,5821:0:0:0:0:
256,192,5740,128,0,5821:0:0:0:0:
109,192,5821,1,0,0:0:0:0:
329,192,5902,1,0,0:0:0:0:
182,192,5902,1,0,0:0:0:0:
36,192,5983,1,0,0:0:0:0:
475,192,6064,1,0,0:0:0:0:
182,192,6064,128,0,6226:0:0:0:0:
402,192,6226,128,0,6470:0:0:0:0:
329,192,6226,1,0,0:0:0:0:
109,192,6226,128,0,6267:0:0:0:0:
36,192,6226,128,0,6267:0:0:0:0:
182,192,6307,128,0,6388:0:0:0:0:
329,192,6388,128,0,6591:0:0:0:0:
109,192,6388,128,0,6794:0:0:0:0:
256,192,6551,128,0,6875:0:0:0:0:
36,192,6551,128,0,7118:0:0:0:0:
182,192,6551,128,0,6591:0:0:0:0:
402,192,6551,128,0,6591:0:0:0:0:
475,192,6632,128,0,6713:0:0:0:0:
182,192,6713,128,0,6794:0:0:0:0:
329,192,6713,128,0,6794:0:0:0:0:
402,192,6794,128,0,6875:0:0:0:0:
109,192,6875,128,0,7118:0:0:0:0:
182,192,6875,1,0,0:0:0:0:
329,192,6875,1,0,0:0:0:0:
475,192,6875,128,0,6956:0:0:0:0:
402,192,6956,128,0,7037:0:0:0:0:
329,192,7037,128,0,7280:0:0:0:0:
256,192,7037,128,0,7118:0:0:0:0:
402,192,7118,128,0,7280:0:0:0:0:
109,192,7199,128,0,7280:0:0:0:0:
475,192,7199,128,0,7280:0:0:0:0:
256,192,7280,128,0,7361:0:0:0:0:
36,192,7361,128,0,7605:0:0:0:0:
109,192,7361,1,0,0:0:0:0:
329,192,7361,128,0,7443:0:0:0:0:
402,192,7361,1,0,0:0:0:0:
256,192,7443,128,0,7524:0:0:0:0:
182,192,7524,128,0,7767:0:0:0:0:
475,192,7524,128,0,8091:0:0:0:0:
256,192,7605,128,0,7848:0:0:0:0:
36,192,7686,128,0,7767:0:0:0:0:
329,192,7686,128,0,7767:0:0:0:0:
109,192,7767,128,0,7848:0:0:0:0:
182,192,7848,1,0,0:0:0:0:
36,192,7848,128,0,7929:0:0:0:0:
402,192,7848,128,0,8091:0:0:0:0:
329,192,7848,1,0,0:0:0:0:
109,192,7929,128,0,8010:0:0:0:0:
256,192,8010,128,0,8091:0:0:0:0:
182,192,8010,128,0,8253:0:0:0:0:
109,192,8091,128,0,8253:0:0:0:0:
36,192,8172,128,0,8253:0:0:0:0:
402,192,8172,128,0,8253:0:0:0:0:
256,192,8253,128,0,8334:0:0:0:0:
182,192,8334,128,0,8416:0:0:0:0:
109,192,8334,1,0,0:0:0:0:
475,192,8334,128,0,8578:0:0:0:0:
402,192,8334,1,0,0:0:0:0:
256,192,8416,128,0,8497:0:0:0:0:
329,192,8497,128,0,8740:0:0:0:0:
36,192,8497,128,0,8821:0:0:0:0:
256,192,8578,128,0,8740:0:0:0:0:
182,192,8659,128,0,8740:0:0:0:0:
475,192,8659,128,0,8740:0:0:0:0:
402,192,8740,128,0,8821:0:0:0:0:
182,192,8821,128,0,9064:0:0:0:0:
256,192,8821,1,0,0:0:0:0:
475,192,8821,1,0,0:0:0:0:
329,192,8821,128,0,8902:0:0:0:0:
36,192,8902,1,0,0:0:0:0:
402,192,8902,128,0,8983:0:0:0:0:
329,192,8983,1,0,0:0:0:0:
109,192,8983,128,0,9226:0:0:0:0:
475,192,9037,1,0,0:0:0:0:
402,192,9091,1,0,0:0:0:0:
329,192,9145,128,0,9388:0:0:0:0:
256,192,9145,1,0,0:0:0:0:
36,192,9145,1,0,0:0:0:0:
182,192,9145,128,0,9226:0:0:0:0:
402,192,9226,128,0,9307:0:0:0:0:
475,192,9226,128,0,9307:0:0:0:0:
256,192,9307,128,0,9632:0:0:0:0:
182,192,9307,1,0,0:0:0:0:
109,192,9307,1,0,0:0:0:0:
402,192,9388,1,0,0:0:0:0:
475,192,9388,1,0,0:0:0:0:
182,192,9470,128,0,9632:0:0:0:0:
109,192,9470,128,0,9510:0:0:0:0:
36,192,9470,128,0,9510:0:0:0:0:
329,192,9470,128,0,9510:0:0:0:0:
402,192,9551,128,0,9794:0:0:0:0:
475,192,9551,1,0,0:0:0:0:
109,192,9632,128,0,9713:0:0:0:0:
329,192,9632,1,0,0:0:0:0:
36,192,9713,128,0,9794:0:0:0:0:
182,192,9713,1,0,0:0:0:0:
109,192,9794,128,0,9956:0:0:0:0:
329,192,9794,128,0,9875:0:0:0:0:
256,192,9794,1,0,0:0:0:0:
182,192,9875,128,0,10118:0:0:0:0:
402,192,9875,128,0,9956:0:0:0:0:
475,192,9956,128,0,10361:0:0:0:0:
36,192,9956,128,0,9997:0:0:0:0:
256,192,9956,128,0,9997:0:0:0:0:
329,192,9956,128,0,9997:0:0:0:0:
109,192,10037,128,0,10118:0:0:0:0:
402,192,10037,1,0,0:0:0:0:
329,192,10118,128,0,10199:0:0:0:0:
36,192,10118,128,0,10280:0:0:0:0:
256,192,10118,1,0,0:0:0:0:
402,192,10199,128,0,10361:0:0:0:0:
109,192,10199,1,0,0:0:0:0:
256,192,10280,128,0,10605:0:0:0:0:
329,192,10280,1,0,0:0:0:0:
182,192,10280,128,0,10361:0:0:0:0:
109,192,10361,128,0,10443:0:0:0:0:
36,192,10361,128,0,10443:0:0:0:0:
475,192,10443,128,0,10483:0:0:0:0:
329,192,10443,128,0,10605:0:0:0:0:
402,192,10443,128,0,10483:0:0:0:0:
182,192,10443,128,0,10483:0:0:0:0:
109,192,10524,128,0,10767:0:0:0:0:
36,192,10524,1,0,0:0:0:0:
182,192,10605,1,0,0:0:0:0:
402,192,10605,128,0,10686:0:0:0:0:
475,192,10686,128,0,10767:0:0:0:0:
329,192,10686,1,0,0:0:0:0:
402,192,10767,128,0,10929:0:0:0:0:
182,192,10767,128,0,10848:0:0:0:0:
256,192,10767,1,0,0:0:0:0:
109,192,10848,128,0,10929:0:0:0:0:
329,192,10848,128,0,11091:0:0:0:0:
36,192,10929,128,0,11253:0:0:0:0:
475,192,10929,128,0,10970:0:0:0:0:
256,192,10929,128,0,10970:0:0:0:0:
182,192,10929,128,0,10970:0:0:0:0:
402,192,11010,128,0,11091:0:0:0:0:
109,192,11010,1,0,0:0:0:0:
475,192,11091,128,0,11253:0:0:0:0:
182,192,11091,128,0,11172:0:0:0:0:
256,192,11091,1,0,0:0:0:0:
109,192,11172,128,0,11253:0:0:0:0:
402,192,11172,1,0,0:0:0:0:
182,192,11253,1,0,0:0:0:0:
256,192,11253,128,0,11334:0:0:0:0:
329,192,11253,128,0,11334:0:0:0:0:
402,192,11334,128,0,11578:0:0:0:0:
475,192,11334,128,0,11416:0:0:0:0:
329,192,11416,1,0,0:0:0:0:
36,192,11416,128,0,11578:0:0:0:0:
182,192,11416,128,0,11456:0:0:0:0:
256,192,11416,128,0,11456:0:0:0:0:
109,192,11497,128,0,11983:0:0:0:0:
475,192,11497,1,0,0:0:0:0:
182,192,11578,128,0,11659:0:0:0:0:
329,192,11578,1,0,0:0:0:0:
36,192,11659,1,0,0:0:0:0:
182,192,11740,1,0,0:0:0:0:
475,192,11740,128,0,11902:0:0:0:0:
256,192,11740,128,0,11780:0:0:0:0:
329,192,11740,128,0,11780:0:0:0:0:
36,192,11821,128,0,11902:0:0:0:0:
402,192,11821,128,0,12064:0:0:0:0:
329,192,11902,1,0,0:0:0:0:
182,192,11902,128,0,11983:0:0:0:0:
475,192,11983,1,0,0:0:0:0:
109,192,12064,1,0,0:0:0:0:
256,192,12064,128,0,12105:0:0:0:0:
329,192,12064,128,0,12470:0:0:0:0:
182,192,12064,128,0,12105:0:0:0:0:
36,192,12064,128,0,12267:0:0:0:0:
402,192,12226,128,0,12267:0:0:0:0:
109,192,12226,128,0,12267:0:0:0:0:
256,192,12226,1,0,0:0:0:0:
182,192,12307,1,0,0:0:0:0:
256,192,12388,128,0,12470:0:0:0:0:
109,192,12388,1,0,0:0:0:0:
36,192,12388,128,0,12551:0:0:0:0:
402,192,12551,128,0,12591:0:0:0:0:
182,192,12551,128,0,12956:0:0:0:0:
109,192,12551,128,0,12713:0:0:0:0:
329,192,12551,1,0,0:0:0:0:
475,192,12551,128,0,12591:0:0:0:0:
256,192,12551,1,0,0:0:0:0:
402,192,12713,1,0,0:0:0:0:
329,192,12713,128,0,12753:0:0:0:0:
36,192,12713,128,0,12753:0:0:0:0:
256,192,12794,1,0,0:0:0:0:
109,192,12875,128,0,12956:0:0:0:0:
475,192,12875,1,0,0:0:0:0:
329,192,12875,1,0,0:0:0:0:
402,192,12875,128,0,13037:0:0:0:0:
36,192,13037,128,0,13524:0:0:0:0:
109,192,13037,1,0,0:0:0:0:
475,192,13037,1,0,0:0:0:0:
256,192,13037,128,0,13159:0:0:0:0:
329,192,13037,128,0,13443:0:0:0:0:
182,192,13037,1,0,0:0:0:0:
402,192,13199,1,0,0:0:0:0:
256,192,13199,1,0,0:0:0:0:
182,192,13280,1,0,0:0:0:0:
475,192,13361,128,0,13443:0:0:0:0:
402,192,13361,128,0,13443:0:0:0:0:
256,192,13361,1,0,0:0:0:0:
182,192,13524,128,0,13645:0:0:0:0:
256,192,13524,128,0,13929:0:0:0:0:
109,192,13524,1,0,0:0:0:0:
402,192,13524,1,0,0:0:0:0:
475,192,13524,1,0,0:0:0:0:
182,192,13686,1,0,0:0:0:0:
329,192,13686,1,0,0:0:0:0:
109,192,13767,1,0,0:0:0:0:
182,192,13848,1,0,0:0:0:0:
402,192,13848,128,0,13929:0:0:0:0:
475,192,13848,128,0,14618:0:0:0:0:
329,192,13848,128,0,13929:0:0:0:0:
109,192,14010,128,0,14132:0:0:0:0:
329,192,14010,1,0,0:0:0:0:
36,192,14010,1,0,0:0:0:0:
402,192,14010,1,0,0:0:0:0:
182,192,14010,128,0,14294:0:0:0:0:
256,192,14091,1,0,0:0:0:0:
329,192,14172,1,0,0:0:0:0:
402,192,14172,1,0,0:0:0:0:
109,192,14172,1,0,0:0:0:0:
182,192,14334,1,0,0:0:0:0:
36,192,14334,1,0,0:0:0:0:
109,192,14334,128,0,14618:0:0:0:0:
256,192,14334,128,0,14456:0:0:0:0:
402,192,14334,1,0,0:0:0:0:
329,192,14416,128,0,14537:0:0:0:0:
182,192,14497,128,0,14618:0:0:0:0:
256,192,14578,128,0,14699:0:0:0:0:
109,192,14659,1,0,0:0:0:0:
36,192,14659,128,0,15388:0:0:0:0:
329,192,14659,128,0,14740:0:0:0:0:
402,192,14659,128,0,14902:0:0:0:0:
475,192,14659,1,0,0:0:0:0:
182,192,14659,1,0,0:0:0:0:
329,192,14780,128,0,15105:0:0:0:0:
256,192,14821,128,0,15186:0:0:0:0:
182,192,14861,128,0,15105:0:0:0:0:
402,192,14983,1,0,0:0:0:0:
182,192,15145,128,0,15226:0:0:0:0:
109,192,15145,128,0,15388:0:0:0:0:
402,192,15145,1,0,0:0:0:0:
475,192,15145,128,0,15429:0:0:0:0:
329,192,15145,1,0,0:0:0:0:
182,192,15267,128,0,15591:0:0:0:0:
256,192,15307,128,0,15672:0:0:0:0:
329,192,15348,128,0,15591:0:0:0:0:
36,192,15470,1,0,0:0:0:0:
475,192,15470,128,0,15875:0:0:0:0:
329,192,15632,128,0,15713:0:0:0:0:
402,192,15632,128,0,15875:0:0:0:0:
36,192,15632,1,0,0:0:0:0:
109,192,15632,128,0,16361:0:0:0:0:
182,192,15632,1,0,0:0:0:0:
329,192,15753,128,0,16159:0:0:0:0:
256,192,15794,128,0,16078:0:0:0:0:
182,192,15834,128,0,16078:0:0:0:0:
402,192,15956,128,0,16078:0:0:0:0:
256,192,16118,128,0,16199:0:0:0:0:
182,192,16118,128,0,16361:0:0:0:0:
402,192,16118,1,0,0:0:0:0:
475,192,16118,128,0,16564:0:0:0:0:
36,192,16118,128,0,16361:0:0:0:0:
256,192,16240,128,0,16564:0:0:0:0:
329,192,16280,128,0,16564:0:0:0:0:
402,192,16321,128,0,16645:0:0:0:0:
36,192,16443,1,0,0:0:0:0:
109,192,16443,128,0,16483:0:0:0:0:
475,192,16605,128,0,16686:0:0:0:0:
329,192,16605,1,0,0:0:0:0:
256,192,16605,1,0,0:0:0:0:
182,192,16605,128,0,17199:0:0:0:0:
36,192,16605,128,0,16875:0:0:0:0:
109,192,16605,1,0,0:0:0:0:
475,192,16726,128,0,16888:0:0:0:0:
402,192,16767,128,0,16888:0:0:0:0:
329,192,16807,128,0,16888:0:0:0:0:
329,192,16929,1,0,0:0:0:0:
402,192,16929,1,0,0:0:0:0:
475,192,16929,1,0,0:0:0:0:
109,192,16929,128,0,17199:0:0:0:0:
36,192,16929,1,0,0:0:0:0:
256,192,16929,128,0,17199:0:0:0:0:
475,192,17253,1,0,0:0:0:0:
182,192,17253,1,0,0:0:0:0:
36,192,17253,1,0,0:0:0:0:
329,192,17253,1,0,0:0:0:0:
402,192,17253,128,0,17699:0:0:0:0:
256,192,17253,128,0,17375:0:0:0:0:
109,192,17253,128,0,17375:0:0:0:0:
329,192,17416,128,0,17537:0:0:0:0:
475,192,17416,128,0,17537:0:0:0:0:
256,192,17416,1,0,0:0:0:0:
182,192,17416,128,0,17537:0:0:0:0:
109,192,17578,128,0,17699:0:0:0:0:
256,192,17578,128,0,17699:0:0:0:0:
329,192,17578,1,0,0:0:0:0:
36,192,17578,1,0,0:0:0:0:
475,192,17740,128,0,17780:0:0:0:0:
402,192,17740,128,0,17780:0:0:0:0:
182,192,17740,1,0,0:0:0:0:
109,192,17740,1,0,0:0:0:0:
329,192,17740,128,0,18024:0:0:0:0:
402,192,17902,128,0,17943:0:0:0:0:
182,192,17902,128,0,18186:0:0:0:0:
475,192,17902,1,0,0:0:0:0:
36,192,17902,128,0,18024:0:0:0:0:
256,192,17902,128,0,17943:0:0:0:0:
256,192,18064,128,0,18105:0:0:0:0:
329,192,18064,1,0,0:0:0:0:
475,192,18064,128,0,18186:0:0:0:0:
402,192,18064,128,0,18348:0:0:0:0:
109,192,18064,128,0,18105:0:0:0:0:
36,192,18226,128,0,18348:0:0:0:0:
182,192,18226,1,0,0:0:0:0:
475,192,18226,1,0,0:0:0:0:
329,192,18226,128,0,18348:0:0:0:0:
109,192,18226,128,0,18834:0:0:0:0:
402,192,18388,1,0,0:0:0:0:
256,192,18388,1,0,0:0:0:0:
329,192,18388,1,0,0:0:0:0:
475,192,18388,1,0,0:0:0:0:
182,192,18470,1,0,0:0:0:0:
36,192,18470,1,0,0:0:0:0:
475,192,18551,1,0,0:0:0:0:
256,192,18551,128,0,18672:0:0:0:0:
402,192,18551,128,0,18672:0:0:0:0:
329,192,18551,1,0,0:0:0:0:
36,192,18713,128,0,18834:0:0:0:0:
256,192,18713,1,0,0:0:0:0:
182,192,18713,128,0,18834:0:0:0:0:
329,192,18713,128,0,18997:0:0:0:0:
182,192,18875,1,0,0:0:0:0:
402,192,18875,128,0,18997:0:0:0:0:
256,192,18875,128,0,18997:0:0:0:0:
475,192,18875,1,0,0:0:0:0:
109,192,19037,1,0,0:0:0:0:
329,192,19037,1,0,0:0:0:0:
402,192,19037,1,0,0:0:0:0:
182,192,19037,128,0,19118:0:0:0:0:
36,192,19037,128,0,19118:0:0:0:0:
256,192,19199,128,0,19321:0:0:0:0:
36,192,19199,1,0,0:0:0:0:
182,192,19199,1,0,0:0:0:0:
475,192,19199,128,0,19321:0:0:0:0:
109,192,19199,128,0,19321:0:0:0:0:
329,192,19199,128,0,19483:0:0:0:0:
475,192,19361,1,0,0:0:0:0:
109,192,19361,1,0,0:0:0:0:
36,192,19361,128,0,19564:0:0:0:0:
402,192,19361,128,0,19483:0:0:0:0:
182,192,19443,128,0,19564:0:0:0:0:
256,192,19443,128,0,19767:0:0:0:0:
329,192,19524,1,0,0:0:0:0:
402,192,19524,1,0,0:0:0:0:
475,192,19524,1,0,0:0:0:0:
182,192,19605,1,0,0:0:0:0:
36,192,19605,1,0,0:0:0:0:
109,192,19605,1,0,0:0:0:0:
402,192,19686,1,0,0:0:0:0:
475,192,19686,1,0,0:0:0:0:
329,192,19686,128,0,19767:0:0:0:0:
109,192,19767,1,0,0:0:0:0:
182,192,19767,1,0,0:0:0:0:
36,192,19767,1,0,0:0:0:0:
329,192,19848,128,0,20010:0:0:0:0:
475,192,19848,128,0,19929:0:0:0:0:
256,192,19848,128,0,19929:0:0:0:0:
402,192,19848,128,0,19929:0:0:0:0:
182,192,19929,1,0,0:0:0:0:
109,192,19929,1,0,0:0:0:0:
36,192,20010,1,0,0:0:0:0:
402,192,20010,128,0,20091:0:0:0:0:
256,192,20010,128,0,20172:0:0:0:0:
475,192,20010,128,0,20091:0:0:0:0:
329,192,20091,128,0,20172:0:0:0:0:
182,192,20091,1,0,0:0:0:0:
109,192,20172,1,0,0:0:0:0:
402,192,20172,128,0,20334:0:0:0:0:
475,192,20172,128,0,20253:0:0:0:0:
36,192,20172,1,0,0:0:0:0:
256,192,20253,128,0,20497:0:0:0:0:
329,192,20253,128,0,20334:0:0:0:0:
36,192,20334,1,0,0:0:0:0:
475,192,20334,128,0,20416:0:0:0:0:
109,192,20334,1,0,0:0:0:0:
182,192,20334,1,0,0:0:0:0:
329,192,20416,128,0,20497:0:0:0:0:
402,192,20416,128,0,20497:0:0:0:0:
475,192,20497,1,0,0:0:0:0:
182,192,20497,128,0,20659:0:0:0:0:
36,192,20497,128,0,20578:0:0:0:0:
109,192,20497,128,0,20578:0:0:0:0:
329,192,20578,1,0,0:0:0:0:
256,192,20578,128,0,20659:0:0:0:0:
402,192,20578,1,0,0:0:0:0:
109,192,20659,128,0,20740:0:0:0:0:
36,192,20659,128,0,20740:0:0:0:0:
475,192,20659,1,0,0:0:0:0:
182,192,20740,128,0,20821:0:0:0:0:
256,192,20740,128,0,20821:0:0:0:0:
329,192,20740,1,0,0:0:0:0:
475,192,20821,1,0,0:0:0:0:
109,192,20821,128,0,20983:0:0:0:0:
36,192,20821,128,0,20902:0:0:0:0:
402,192,20821,1,0,0:0:0:0:
329,192,20902,1,0,0:0:0:0:
182,192,20902,128,0,21064:0:0:0:0:
256,192,20902,128,0,20983:0:0:0:0:
402,192,20983,1,0,0:0:0:0:
36,192,20983,128,0,21064:0:0:0:0:
475,192,20983,1,0,0:0:0:0:
329,192,21064,1,0,0:0:0:0:
256,192,21064,128,0,21145:0:0:0:0:
109,192,21064,128,0,21145:0:0:0:0:
36,192,21145,1,0,0:0:0:0:
475,192,21145,1,0,0:0:0:0:
182,192,21145,1,0,0:0:0:0:
402,192,21145,128,0,21307:0:0:0:0:
329,192,21199,128,0,21524:0:0:0:0:
256,192,21253,128,0,21578:0:0:0:0:
182,192,21307,128,0,21361:0:0:0:0:
402,192,21361,128,0,21470:0:0:0:0:
109,192,21416,128,0,21578:0:0:0:0:
36,192,21470,128,0,21578:0:0:0:0:
475,192,21470,128,0,21524:0:0:0:0:
402,192,21524,128,0,21578:0:0:0:0:
329,192,21578,128,0,21632:0:0:0:0:
256,192,21632,1,0,0:0:0:0:
109,192,21632,1,0,0:0:0:0:
329,192,21686,1,0,0:0:0:0:
475,192,21686,1,0,0:0:0:0:
182,192,21740,1,0,0:0:0:0:
109,192,21740,1,0,0:0:0:0:
402,192,21794,128,0,21956:0:0:0:0:
475,192,21794,128,0,21956:0:0:0:0:
329,192,21875,128,0,21956:0:0:0:0:
109,192,21956,1,0,0:0:0:0:
36,192,21956,1,0,0:0:0:0:
256,192,21956,128,0,22240:0:0:0:0:
329,192,22010,1,0,0:0:0:0:
402,192,22010,1,0,0:0:0:0:
36,192,22064,1,0,0:0:0:0:
182,192,22064,1,0,0:0:0:0:
475,192,22118,128,0,22280:0:0:0:0:
329,192,22118,128,0,22280:0:0:0:0:
109,192,22199,128,0,22280:0:0:0:0:
256,192,22280,1,0,0:0:0:0:
182,192,22307,1,0,0:0:0:0:
109,192,22334,1,0,0:0:0:0:
36,192,22361,1,0,0:0:0:0:
475,192,22361,1,0,0:0:0:0:
402,192,22388,1,0,0:0:0:0:
329,192,22416,1,0,0:0:0:0:
256,192,22443,1,0,0:0:0:0:
182,192,22443,128,0,23740:0:0:0:0:
36,192,22443,128,0,24388:0:0:0:0:
475,192,22443,1,0,0:0:0:0:
402,192,23091,1,0,0:0:0:0:
329,192,23740,1,0,0:0:0:0:
475,192,23740,1,0,0:0:0:0:
256,192,24226,1,0,0:0:0:0:
402,192,24388,1,0,0:0:0:0:
329,192,24551,1,0,0:0:0:0:
182,192,24713,1,0,0:0:0:0:
36,192,24713,1,0,0:0:0:0:
36,192,24875,1,0,0:0:0:0:
109,192,25037,128,0,26172:0:0:0:0:
256,192,25037,1,0,0:0:0:0:
329,192,25037,1,0,0:0:0:0:
402,192,25361,1,0,0:0:0:0:
402,192,25524,128,0,26172:0:0:0:0:
475,192,25524,128,0,26334:0:0:0:0:
36,192,25686,1,0,0:0:0:0:
182,192,25848,1,0,0:0:0:0:
329,192,26010,1,0,0:0:0:0:
182,192,26172,1,0,0:0:0:0:
256,192,26253,1,0,0:0:0:0:
329,192,26334,1,0,0:0:0:0:
402,192,26334,1,0,0:0:0:0:
36,192,26578,1,0,0:0:0:0:
329,192,26821,1,0,0:0:0:0:
475,192,26983,1,0,0:0:0:0:
109,192,26983,1,0,0:0:0:0:
182,192,27226,1,0,0:0:0:0:
475,192,27470,1,0,0:0:0:0:
109,192,27632,1,0,0:0:0:0:
256,192,27632,128,0,28280:0:0:0:0:
402,192,27632,1,0,0:0:0:0:
36,192,28118,1,0,0:0:0:0:
182,192,28199,1,0,0:0:0:0:
329,192,28280,128,0,28767:0:0:0:0:
402,192,28280,1,0,0:0:0:0:
109,192,28767,1,0,0:0:0:0:
256,192,28848,1,0,0:0:0:0:
36,192,28929,128,0,29578:0:0:0:0:
475,192,28929,1,0,0:0:0:0:
402,192,28929,1,0,0:0:0:0:
109,192,29253,1,0,0:0:0:0:
256,192,29334,1,0,0:0:0:0:
329,192,29416,1,0,0:0:0:0:
475,192,29497,1,0,0:0:0:0:
402,192,29578,128,0,30226:0:0:0:0:
256,192,29578,1,0,0:0:0:0:
109,192,29578,1,0,0:0:0:0:
329,192,29740,1,0,0:0:0:0:
182,192,29821,1,0,0:0:0:0:
182,192,29983,1,0,0:0:0:0:
36,192,30064,1,0,0:0:0:0:
109,192,30226,128,0,31524:0:0:0:0:
329,192,30226,1,0,0:0:0:0:
475,192,30226,1,0,0:0:0:0:
256,192,30470,1,0,0:0:0:0:
182,192,30713,1,0,0:0:0:0:
256,192,30794,1,0,0:0:0:0:
182,192,30875,1,0,0:0:0:0:
36,192,31118,1,0,0:0:0:0:
182,192,31361,1,0,0:0:0:0:
256,192,31524,1,0,0:0:0:0:
329,192,31524,128,0,32497:0:0:0:0:
475,192,31524,1,0,0:0:0:0:
109,192,31686,1,0,0:0:0:0:
402,192,31740,1,0,0:0:0:0:
182,192,31794,1,0,0:0:0:0:
475,192,31848,1,0,0:0:0:0:
109,192,32010,1,0,0:0:0:0:
36,192,32172,128,0,32821:0:0:0:0:
256,192,32334,1,0,0:0:0:0:
402,192,32497,128,0,32821:0:0:0:0:
182,192,32497,1,0,0:0:0:0:
329,192,32659,1,0,0:0:0:0:
182,192,32821,1,0,0:0:0:0:
256,192,32821,1,0,0:0:0:0:
475,192,32821,1,0,0:0:0:0:
109,192,32821,1,0,0:0:0:0:
402,192,33145,1,0,0:0:0:0:
329,192,33226,1,0,0:0:0:0:
109,192,33307,1,0,0:0:0:0:
36,192,33307,1,0,0:0:0:0:
475,192,33388,1,0,0:0:0:0:
182,192,33470,1,0,0:0:0:0:
329,192,33551,1,0,0:0:0:0:
256,192,33632,1,0,0:0:0:0:
256,192,33794,1,0,0:0:0:0:
36,192,33875,1,0,0:0:0:0:
475,192,33956,1,0,0:0:0:0:
256,192,34037,1,0,0:0:0:0:
402,192,34118,1,0,0:0:0:0:
109,192,34118,1,0,0:0:0:0:
329,192,34118,1,0,0:0:0:0:
182,192,34280,1,0,0:0:0:0:
475,192,34443,1,0,0:0:0:0:
36,192,34605,1,0,0:0:0:0:
109,192,34767,1,0,0:0:0:0:
182,192,34767,1,0,0:0:0:0:
329,192,34767,1,0,0:0:0:0:
256,192,34848,1,0,0:0:0:0:
402,192,34929,1,0,0:0:0:0:
36,192,35091,1,0,0:0:0:0:
182,192,35172,1,0,0:0:0:0:
36,192,35253,1,0,0:0:0:0:
329,192,35334,1,0,0:0:0:0:
402,192,35416,1,0,0:0:0:0:
475,192,35416,1,0,0:0:0:0:
256,192,35416,1,0,0:0:0:0:
36,192,35578,1,0,0:0:0:0:
402,192,35740,1,0,0:0:0:0:
182,192,35902,1,0,0:0:0:0:
329,192,35902,1,0,0:0:0:0:
109,192,35902,1,0,0:0:0:0:
256,192,36064,1,0,0:0:0:0:
329,192,36145,1,0,0:0:0:0:
475,192,36226,1,0,0:0:0:0:
256,192,36388,1,0,0:0:0:0:
109,192,36388,1,0,0:0:0:0:
36,192,36388,1,0,0:0:0:0:
475,192,36470,1,0,0:0:0:0:
182,192,36551,1,0,0:0:0:0:
329,192,36632,1,0,0:0:0:0:
402,192,36713,1,0,0:0:0:0:
256,192,36713,1,0,0:0:0:0:
475,192,36713,1,0,0:0:0:0:
182,192,36875,1,0,0:0:0:0:
36,192,36956,1,0,0:0:0:0:
475,192,37037,1,0,0:0:0:0:
109,192,37118,1,0,0:0:0:0:
402,192,37199,1,0,0:0:0:0:
36,192,37280,1,0,0:0:0:0:
475,192,37361,1,0,0:0:0:0:
329,192,37361,1,0,0:0:0:0:
256,192,37361,1,0,0:0:0:0:
109,192,37443,1,0,0:0:0:0:
402,192,37524,1,0,0:0:0:0:
182,192,37605,1,0,0:0:0:0:
256,192,37686,1,0,0:0:0:0:
36,192,37767,1,0,0:0:0:0:
329,192,37848,1,0,0:0:0:0:
109,192,37929,1,0,0:0:0:0:
475,192,38010,1,0,0:0:0:0:
36,192,38010,1,0,0:0:0:0:
329,192,38010,1,0,0:0:0:0:
256,192,38010,128,0,39145:0:0:0:0:
402,192,38010,128,0,39226:0:0:0:0:
109,192,38172,128,0,38253:0:0:0:0:
182,192,38172,1,0,0:0:0:0:
475,192,38334,1,0,0:0:0:0:
329,192,38334,128,0,38416:0:0:0:0:
109,192,38334,1,0,0:0:0:0:
36,192,38497,1,0,0:0:0:0:
329,192,38497,1,0,0:0:0:0:
182,192,38659,128,0,38821:0:0:0:0:
475,192,38659,1,0,0:0:0:0:
329,192,38740,1,0,0:0:0:0:
109,192,38821,1,0,0:0:0:0:
475,192,38821,1,0,0:0:0:0:
182,192,38983,128,0,39064:0:0:0:0:
329,192,38983,1,0,0:0:0:0:
36,192,39064,1,0,0:0:0:0:
182,192,39145,1,0,0:0:0:0:
475,192,39145,128,0,39226:0:0:0:0:
256,192,39226,1,0,0:0:0:0:
329,192,39267,1,0,0:0:0:0:
109,192,39307,128,0,40524:0:0:0:0:
402,192,39307,1,0,0:0:0:0:
36,192,39307,1,0,0:0:0:0:
182,192,39307,1,0,0:0:0:0:
475,192,39307,1,0,0:0:0:0:
475,192,39470,128,0,39632:0:0:0:0:
402,192,39470,128,0,39632:0:0:0:0:
36,192,39632,1,0,0:0:0:0:
256,192,39632,1,0,0:0:0:0:
329,192,39632,1,0,0:0:0:0:
475,192,39794,128,0,39956:0:0:0:0:
402,192,39794,128,0,39956:0:0:0:0:
256,192,39794,1,0,0:0:0:0:
329,192,39956,128,0,40037:0:0:0:0:
182,192,39956,1,0,0:0:0:0:
402,192,40037,1,0,0:0:0:0:
256,192,40118,128,0,40199:0:0:0:0:
329,192,40118,1,0,0:0:0:0:
36,192,40118,1,0,0:0:0:0:
182,192,40280,128,0,40361:0:0:0:0:
256,192,40280,1,0,0:0:0:0:
475,192,40280,128,0,40361:0:0:0:0:
402,192,40280,1,0,0:0:0:0:
329,192,40361,1,0,0:0:0:0:
36,192,40443,128,0,40524:0:0:0:0:
182,192,40443,1,0,0:0:0:0:
402,192,40443,128,0,40524:0:0:0:0:
329,192,40524,1,0,0:0:0:0:
256,192,40605,1,0,0:0:0:0:
109,192,40605,1,0,0:0:0:0:
36,192,40605,1,0,0:0:0:0:
475,192,40605,1,0,0:0:0:0:
402,192,40605,1,0,0:0:0:0:
475,192,40767,128,0,41091:0:0:0:0:
329,192,40767,1,0,0:0:0:0:
182,192,40767,128,0,40848:0:0:0:0:
36,192,40848,1,0,0:0:0:0:
109,192,40848,128,0,40929:0:0:0:0:
402,192,40929,1,0,0:0:0:0:
256,192,40929,1,0,0:0:0:0:
182,192,40929,128,0,41010:0:0:0:0:
36,192,41010,1,0,0:0:0:0:
402,192,41091,1,0,0:0:0:0:
182,192,41091,1,0,0:0:0:0:
36,192,41172,1,0,0:0:0:0:
475,192,41253,1,0,0:0:0:0:
182,192,41253,1,0,0:0:0:0:
256,192,41253,1,0,0:0:0:0:
402,192,41253,1,0,0:0:0:0:
109,192,41253,128,0,41416:0:0:0:0:
36,192,41334,1,0,0:0:0:0:
329,192,41334,1,0,0:0:0:0:
256,192,41416,1,0,0:0:0:0:
475,192,41416,1,0,0:0:0:0:
182,192,41416,1,0,0:0:0:0:
329,192,41497,1,0,0:0:0:0:
402,192,41578,1,0,0:0:0:0:
475,192,41578,1,0,0:0:0:0:
36,192,41578,1,0,0:0:0:0:
109,192,41578,128,0,41659:0:0:0:0:
329,192,41659,1,0,0:0:0:0:
182,192,41659,1,0,0:0:0:0:
402,192,41740,128,0,41902:0:0:0:0:
256,192,41740,1,0,0:0:0:0:
109,192,41740,1,0,0:0:0:0:
329,192,41821,1,0,0:0:0:0:
182,192,41902,1,0,0:0:0:0:
36,192,41902,1,0,0:0:0:0:
109,192,41902,1,0,0:0:0:0:
256,192,41902,1,0,0:0:0:0:
475,192,41902,128,0,42064:0:0:0:0:
402,192,41983,128,0,42064:0:0:0:0:
329,192,42064,128,0,42307:0:0:0:0:
256,192,42064,1,0,0:0:0:0:
182,192,42145,128,0,42307:0:0:0:0:
475,192,42145,1,0,0:0:0:0:
36,192,42145,1,0,0:0:0:0:
402,192,42145,128,0,42226:0:0:0:0:
109,192,42226,128,0,42307:0:0:0:0:
36,192,42307,128,0,42551:0:0:0:0:
256,192,42307,1,0,0:0:0:0:
182,192,42388,1,0,0:0:0:0:
402,192,42388,128,0,42551:0:0:0:0:
475,192,42388,1,0,0:0:0:0:
109,192,42388,128,0,42470:0:0:0:0:
329,192,42470,128,0,42551:0:0:0:0:
256,192,42551,128,0,42632:0:0:0:0:
475,192,42551,1,0,0:0:0:0:
182,192,42591,128,0,42794:0:0:0:0:
109,192,42632,128,0,42794:0:0:0:0:
402,192,42632,1,0,0:0:0:0:
329,192,42632,1,0,0:0:0:0:
36,192,42632,1,0,0:0:0:0:
475,192,42713,128,0,42794:0:0:0:0:
256,192,42713,128,0,42794:0:0:0:0:
402,192,42753,128,0,42956:0:0:0:0:
329,192,42794,128,0,42956:0:0:0:0:
256,192,42875,1,0,0:0:0:0:
182,192,42875,128,0,42956:0:0:0:0:
475,192,42875,128,0,42956:0:0:0:0:
109,192,42916,128,0,43159:0:0:0:0:
36,192,42956,128,0,43159:0:0:0:0:
402,192,43037,1,0,0:0:0:0:
182,192,43037,128,0,43159:0:0:0:0:
256,192,43037,128,0,43159:0:0:0:0:
329,192,43037,1,0,0:0:0:0:
475,192,43037,1,0,0:0:0:0:
182,192,43199,1,0,0:0:0:0:
256,192,43240,1,0,0:0:0:0:
329,192,43280,128,0,43645:0:0:0:0:
402,192,43524,128,0,43767:0:0:0:0:
182,192,43524,128,0,43605:0:0:0:0:
109,192,43524,128,0,43645:0:0:0:0:
36,192,43524,128,0,43686:0:0:0:0:
256,192,43524,128,0,43564:0:0:0:0:
475,192,43524,128,0,43645:0:0:0:0:
182,192,43686,128,0,43767:0:0:0:0:
329,192,43686,1,0,0:0:0:0:
475,192,43686,128,0,43767:0:0:0:0:
109,192,43726,128,0,44091:0:0:0:0:
36,192,43767,128,0,44091:0:0:0:0:
182,192,43848,128,0,44253:0:0:0:0:
329,192,43848,128,0,44051:0:0:0:0:
256,192,43848,128,0,44010:0:0:0:0:
402,192,43848,1,0,0:0:0:0:
475,192,43848,1,0,0:0:0:0:
402,192,44010,128,0,44091:0:0:0:0:
475,192,44010,128,0,44091:0:0:0:0:
475,192,44172,1,0,0:0:0:0:
256,192,44172,128,0,44253:0:0:0:0:
109,192,44172,1,0,0:0:0:0:
36,192,44172,128,0,44375:0:0:0:0:
329,192,44213,128,0,44416:0:0:0:0:
402,192,44253,128,0,44416:0:0:0:0:
256,192,44334,128,0,44699:0:0:0:0:
182,192,44334,128,0,44456:0:0:0:0:
109,192,44334,128,0,44416:0:0:0:0:
36,192,44497,128,0,44578:0:0:0:0:
475,192,44497,128,0,44780:0:0:0:0:
402,192,44497,1,0,0:0:0:0:
329,192,44497,1,0,0:0:0:0:
109,192,44537,128,0,44740:0:0:0:0:
182,192,44578,128,0,44740:0:0:0:0:
36,192,44659,128,0,45226:0:0:0:0:
402,192,44659,128,0,44780:0:0:0:0:
329,192,44659,128,0,44740:0:0:0:0:
109,192,44821,128,0,45024:0:0:0:0:
256,192,44821,1,0,0:0:0:0:
182,192,44821,1,0,0:0:0:0:
402,192,44821,128,0,45105:0:0:0:0:
475,192,44821,128,0,44902:0:0:0:0:
256,192,44983,128,0,45105:0:0:0:0:
182,192,44983,128,0,45064:0:0:0:0:
329,192,44983,128,0,45105:0:0:0:0:
109,192,45145,128,0,45226:0:0:0:0:
329,192,45145,1,0,0:0:0:0:
402,192,45145,128,0,45226:0:0:0:0:
475,192,45145,128,0,45388:0:0:0:0:
182,192,45186,128,0,45388:0:0:0:0:
256,192,45226,128,0,45388:0:0:0:0:
36,192,45307,128,0,45388:0:0:0:0:
109,192,45307,128,0,45875:0:0:0:0:
402,192,45307,128,0,45551:0:0:0:0:
256,192,45470,1,0,0:0:0:0:
36,192,45470,128,0,45551:0:0:0:0:
329,192,45470,128,0,45672:0:0:0:0:
475,192,45470,128,0,45551:0:0:0:0:
182,192,45470,1,0,0:0:0:0:
402,192,45632,128,0,45713:0:0:0:0:
475,192,45632,128,0,45753:0:0:0:0:
182,192,45632,128,0,45713:0:0:0:0:
475,192,45794,128,0,45875:0:0:0:0:
256,192,45794,1,0,0:0:0:0:
182,192,45794,128,0,46037:0:0:0:0:
36,192,45794,128,0,46240:0:0:0:0:
402,192,45834,128,0,46037:0:0:0:0:
329,192,45875,128,0,46037:0:0:0:0:
475,192,45956,128,0,46361:0:0:0:0:
109,192,45956,128,0,46037:0:0:0:0:
256,192,46118,128,0,46240:0:0:0:0:
182,192,46118,128,0,46361:0:0:0:0:
109,192,46118,128,0,46240:0:0:0:0:
329,192,46118,128,0,46199:0:0:0:0:
402,192,46118,128,0,46159:0:0:0:0:
256,192,46280,128,0,46361:0:0:0:0:
109,192,46280,1,0,0:0:0:0:
329,192,46321,128,0,46564:0:0:0:0:
402,192,46361,128,0,46686:0:0:0:0:
256,192,46443,128,0,46848:0:0:0:0:
109,192,46443,128,0,46645:0:0:0:0:
182,192,46443,128,0,46564:0:0:0:0:
36,192,46443,128,0,46605:0:0:0:0:
475,192,46443,1,0,0:0:0:0:
182,192,46605,128,0,46686:0:0:0:0:
475,192,46605,128,0,46686:0:0:0:0:
36,192,46767,128,0,46848:0:0:0:0:
402,192,46767,1,0,0:0:0:0:
475,192,46767,1,0,0:0:0:0:
329,192,46767,128,0,46848:0:0:0:0:
109,192,46807,128,0,47010:0:0:0:0:
182,192,46848,128,0,47010:0:0:0:0:
36,192,46929,128,0,47375:0:0:0:0:
329,192,46929,128,0,47051:0:0:0:0:
402,192,46929,128,0,47010:0:0:0:0:
475,192,47091,128,0,47172:0:0:0:0:
256,192,47091,1,0,0:0:0:0:
182,192,47091,1,0,0:0:0:0:
109,192,47091,128,0,47172:0:0:0:0:
402,192,47132,128,0,47334:0:0:0:0:
329,192,47172,128,0,47334:0:0:0:0:
475,192,47253,128,0,47699:0:0:0:0:
109,192,47253,128,0,47375:0:0:0:0:
182,192,47253,128,0,47334:0:0:0:0:
109,192,47416,128,0,47497:0:0:0:0:
329,192,47416,1,0,0:0:0:0:
36,192,47416,1,0,0:0:0:0:
402,192,47416,128,0,47497:0:0:0:0:
182,192,47456,128,0,47699:0:0:0:0:
256,192,47497,128,0,47618:0:0:0:0:
109,192,47578,128,0,47821:0:0:0:0:
402,192,47578,128,0,47699:0:0:0:0:
329,192,47578,128,0,47659:0:0:0:0:
402,192,47740,128,0,47821:0:0:0:0:
182,192,47740,1,0,0:0:0:0:
475,192,47740,1,0,0:0:0:0:
36,192,47740,128,0,47821:0:0:0:0:
329,192,47780,128,0,47983:0:0:0:0:
256,192,47821,128,0,47983:0:0:0:0:
36,192,47902,128,0,48024:0:0:0:0:
402,192,47902,128,0,48145:0:0:0:0:
109,192,47902,128,0,47983:0:0:0:0:
36,192,48064,128,0,48145:0:0:0:0:
256,192,48064,1,0,0:0:0:0:
475,192,48064,128,0,48348:0:0:0:0:
329,192,48064,1,0,0:0:0:0:
109,192,48105,128,0,48348:0:0:0:0:
182,192,48145,128,0,48267:0:0:0:0:
36,192,48226,128,0,48470:0:0:0:0:
256,192,48226,128,0,48307:0:0:0:0:
329,192,48226,128,0,48348:0:0:0:0:
109,192,48388,1,0,0:0:0:0:
475,192,48388,1,0,0:0:0:0:
329,192,48388,128,0,48470:0:0:0:0:
402,192,48388,1,0,0:0:0:0:
256,192,48429,128,0,48632:0:0:0:0:
182,192,48470,128,0,48956:0:0:0:0:
329,192,48551,128,0,48753:0:0:0:0:
36,192,48551,128,0,48632:0:0:0:0:
36,192,48713,128,0,48956:0:0:0:0:
256,192,48713,1,0,0:0:0:0:
109,192,48713,1,0,0:0:0:0:
402,192,48713,128,0,48753:0:0:0:0:
475,192,48713,128,0,48753:0:0:0:0:
329,192,48875,128,0,49118:0:0:0:0:
256,192,48875,128,0,48956:0:0:0:0:
36,192,49037,128,0,49118:0:0:0:0:
256,192,49037,1,0,0:0:0:0:
475,192,49037,1,0,0:0:0:0:
402,192,49037,1,0,0:0:0:0:
109,192,49078,128,0,49280:0:0:0:0:
182,192,49118,128,0,49605:0:0:0:0:
36,192,49199,128,0,49402:0:0:0:0:
329,192,49199,128,0,49280:0:0:0:0:
329,192,49361,128,0,49564:0:0:0:0:
256,192,49361,1,0,0:0:0:0:
109,192,49361,1,0,0:0:0:0:
402,192,49361,128,0,49402:0:0:0:0:
475,192,49361,128,0,49402:0:0:0:0:
402,192,49524,128,0,49605:0:0:0:0:
475,192,49524,128,0,49645:0:0:0:0:
36,192,49524,128,0,49970:0:0:0:0:
475,192,49686,128,0,49767:0:0:0:0:
256,192,49686,1,0,0:0:0:0:
109,192,49686,1,0,0:0:0:0:
182,192,49686,1,0,0:0:0:0:
402,192,49726,128,0,49929:0:0:0:0:
329,192,49767,128,0,50213:0:0:0:0:
475,192,49848,128,0,49929:0:0:0:0:
182,192,49848,128,0,49929:0:0:0:0:
109,192,49848,128,0,49970:0:0:0:0:
256,192,50010,1,0,0:0:0:0:
109,192,50010,128,0,50051:0:0:0:0:
36,192,50010,128,0,50051:0:0:0:0:
402,192,50010,1,0,0:0:0:0:
475,192,50010,1,0,0:0:0:0:
182,192,50172,128,0,50294:0:0:0:0:
256,192,50172,128,0,50253:0:0:0:0:
36,192,50172,128,0,50618:0:0:0:0:
182,192,50334,128,0,50416:0:0:0:0:
109,192,50334,1,0,0:0:0:0:
402,192,50334,1,0,0:0:0:0:
475,192,50334,1,0,0:0:0:0:
256,192,50375,128,0,50618:0:0:0:0:
329,192,50416,128,0,50943:0:0:0:0:
182,192,50497,128,0,50618:0:0:0:0:
109,192,50497,128,0,50618:0:0:0:0:
475,192,50497,128,0,50578:0:0:0:0:
36,192,50659,128,0,50699:0:0:0:0:
109,192,50659,128,0,50699:0:0:0:0:
256,192,50659,1,0,0:0:0:0:
402,192,50659,1,0,0:0:0:0:
475,192,50659,1,0,0:0:0:0:
256,192,50821,128,0,50902:0:0:0:0:
402,192,50821,128,0,51105:0:0:0:0:
182,192,50821,128,0,50861:0:0:0:0:
329,192,50983,128,0,51105:0:0:0:0:
109,192,50983,1,0,0:0:0:0:
36,192,50983,1,0,0:0:0:0:
475,192,50983,1,0,0:0:0:0:
256,192,51024,128,0,51267:0:0:0:0:
182,192,51064,128,0,51916:0:0:0:0:
329,192,51145,128,0,51267:0:0:0:0:
475,192,51145,128,0,51591:0:0:0:0:
256,192,51307,1,0,0:0:0:0:
329,192,51307,1,0,0:0:0:0:
109,192,51307,128,0,51348:0:0:0:0:
36,192,51307,128,0,51348:0:0:0:0:
402,192,51307,128,0,51429:0:0:0:0:
402,192,51470,128,0,51753:0:0:0:0:
109,192,51470,128,0,51591:0:0:0:0:
256,192,51632,1,0,0:0:0:0:
109,192,51632,1,0,0:0:0:0:
36,192,51632,1,0,0:0:0:0:
329,192,51632,128,0,51672:0:0:0:0:
475,192,51632,128,0,51672:0:0:0:0:
256,192,51794,128,0,52037:0:0:0:0:
402,192,51794,128,0,51834:0:0:0:0:
36,192,51794,128,0,51834:0:0:0:0:
182,192,51956,128,0,52037:0:0:0:0:
329,192,51956,128,0,52037:0:0:0:0:
109,192,51956,1,0,0:0:0:0:
402,192,51956,1,0,0:0:0:0:
475,192,51956,1,0,0:0:0:0:
36,192,51956,128,0,52334:0:0:0:0:
256,192,52118,1,0,0:0:0:0:
329,192,52118,128,0,52659:0:0:0:0:
109,192,52118,1,0,0:0:0:0:
402,192,52118,128,0,52388:0:0:0:0:
475,192,52118,128,0,52172:0:0:0:0:
182,192,52172,128,0,52334:0:0:0:0:
109,192,52226,128,0,52334:0:0:0:0:
36,192,52443,128,0,52929:0:0:0:0:
256,192,52443,1,0,0:0:0:0:
402,192,52443,1,0,0:0:0:0:
182,192,52443,128,0,52497:0:0:0:0:
109,192,52443,128,0,52713:0:0:0:0:
475,192,52497,128,0,52659:0:0:0:0:
402,192,52551,128,0,52659:0:0:0:0:
329,192,52767,128,0,52929:0:0:0:0:
182,192,52767,1,0,0:0:0:0:
109,192,52767,1,0,0:0:0:0:
402,192,52767,128,0,52821:0:0:0:0:
475,192,52767,128,0,53037:0:0:0:0:
256,192,52821,128,0,52929:0:0:0:0:
182,192,52875,128,0,52929:0:0:0:0:
256,192,53091,128,0,53199:0:0:0:0:
329,192,53091,1,0,0:0:0:0:
109,192,53091,1,0,0:0:0:0:
475,192,53091,1,0,0:0:0:0:
402,192,53091,128,0,53470:0:0:0:0:
36,192,53091,128,0,53470:0:0:0:0:
182,192,53145,128,0,53253:0:0:0:0:
109,192,53199,128,0,53307:0:0:0:0:
329,192,53253,128,0,53361:0:0:0:0:
475,192,53253,128,0,53470:0:0:0:0:
256,192,53307,128,0,53416:0:0:0:0:
182,192,53361,128,0,53470:0:0:0:0:
109,192,53416,128,0,53470:0:0:0:0:
329,192,53470,128,0,53524:0:0:0:0:
256,192,53524,128,0,53578:0:0:0:0:
475,192,53578,1,0,0:0:0:0:
182,192,53578,1,0,0:0:0:0:
36,192,53578,1,0,0:0:0:0:
109,192,53578,128,0,53983:0:0:0:0:
402,192,53578,128,0,53659:0:0:0:0:
329,192,53618,128,0,53821:0:0:0:0:
256,192,53659,128,0,53821:0:0:0:0:
402,192,53740,128,0,54145:0:0:0:0:
475,192,53740,128,0,53821:0:0:0:0:
256,192,53902,1,0,0:0:0:0:
475,192,53902,1,0,0:0:0:0:
36,192,53902,128,0,54024:0:0:0:0:
182,192,53902,128,0,53943:0:0:0:0:
329,192,53902,128,0,54024:0:0:0:0:
36,192,54064,128,0,54145:0:0:0:0:
329,192,54064,128,0,54145:0:0:0:0:
475,192,54064,128,0,54145:0:0:0:0:
109,192,54105,128,0,54470:0:0:0:0:
182,192,54145,128,0,54429:0:0:0:0:
36,192,54226,128,0,54632:0:0:0:0:
256,192,54226,1,0,0:0:0:0:
475,192,54226,1,0,0:0:0:0:
329,192,54226,1,0,0:0:0:0:
402,192,54226,128,0,54510:0:0:0:0:
329,192,54388,128,0,54510:0:0:0:0:
256,192,54388,128,0,54470:0:0:0:0:
402,192,54551,1,0,0:0:0:0:
475,192,54551,1,0,0:0:0:0:
329,192,54551,128,0,54632:0:0:0:0:
109,192,54551,1,0,0:0:0:0:
256,192,54591,128,0,54834:0:0:0:0:
182,192,54632,128,0,54794:0:0:0:0:
329,192,54713,128,0,54875:0:0:0:0:
36,192,54713,128,0,54794:0:0:0:0:
475,192,54713,128,0,54834:0:0:0:0:
182,192,54875,128,0,54956:0:0:0:0:
475,192,54875,1,0,0:0:0:0:
402,192,54875,1,0,0:0:0:0:
36,192,54875,1,0,0:0:0:0:
109,192,54875,128,0,54956:0:0:0:0:
256,192,54916,128,0,55118:0:0:0:0:
329,192,54956,128,0,55118:0:0:0:0:
182,192,55037,128,0,55605:0:0:0:0:
109,192,55037,128,0,55118:0:0:0:0:
36,192,55037,128,0,55159:0:0:0:0:
475,192,55037,128,0,55159:0:0:0:0:
36,192,55199,128,0,55280:0:0:0:0:
402,192,55199,128,0,55402:0:0:0:0:
475,192,55199,128,0,55280:0:0:0:0:
329,192,55199,1,0,0:0:0:0:
256,192,55199,1,0,0:0:0:0:
256,192,55361,128,0,55483:0:0:0:0:
329,192,55361,128,0,55443:0:0:0:0:
109,192,55361,128,0,55483:0:0:0:0:
256,192,55524,128,0,55605:0:0:0:0:
36,192,55524,1,0,0:0:0:0:
475,192,55524,1,0,0:0:0:0:
109,192,55524,128,0,55605:0:0:0:0:
329,192,55564,128,0,55767:0:0:0:0:
402,192,55605,128,0,55767:0:0:0:0:
256,192,55686,128,0,56253:0:0:0:0:
182,192,55686,128,0,55767:0:0:0:0:
36,192,55686,128,0,55929:0:0:0:0:
109,192,55848,128,0,55929:0:0:0:0:
182,192,55848,128,0,56051:0:0:0:0:
329,192,55848,1,0,0:0:0:0:
475,192,55848,128,0,56091:0:0:0:0:
402,192,55848,1,0,0:0:0:0:
36,192,56010,128,0,56132:0:0:0:0:
109,192,56010,128,0,56091:0:0:0:0:
329,192,56010,128,0,56091:0:0:0:0:
36,192,56172,128,0,56253:0:0:0:0:
402,192,56172,1,0,0:0:0:0:
475,192,56172,1,0,0:0:0:0:
329,192,56172,128,0,56253:0:0:0:0:
109,192,56213,128,0,56416:0:0:0:0:
182,192,56253,128,0,56416:0:0:0:0:
36,192,56334,128,0,56740:0:0:0:0:
329,192,56334,128,0,56537:0:0:0:0:
402,192,56334,128,0,56416:0:0:0:0:
182,192,56497,128,0,56618:0:0:0:0:
256,192,56497,128,0,56578:0:0:0:0:
109,192,56497,1,0,0:0:0:0:
402,192,56497,1,0,0:0:0:0:
475,192,56497,1,0,0:0:0:0:
182,192,56659,128,0,56740:0:0:0:0:
109,192,56659,128,0,56740:0:0:0:0:
475,192,56659,128,0,56780:0:0:0:0:
256,192,56699,128,0,56902:0:0:0:0:
329,192,56740,128,0,56902:0:0:0:0:
182,192,56821,128,0,57226:0:0:0:0:
475,192,56821,128,0,57024:0:0:0:0:
402,192,56821,1,0,0:0:0:0:
36,192,56821,1,0,0:0:0:0:
109,192,56821,128,0,56902:0:0:0:0:
329,192,56983,128,0,57105:0:0:0:0:
402,192,56983,128,0,57064:0:0:0:0:
36,192,56983,128,0,57105:0:0:0:0:
329,192,57145,128,0,57226:0:0:0:0:
256,192,57145,1,0,0:0:0:0:
36,192,57145,1,0,0:0:0:0:
109,192,57145,1,0,0:0:0:0:
402,192,57186,128,0,57429:0:0:0:0:
475,192,57226,128,0,57388:0:0:0:0:
329,192,57307,128,0,57470:0:0:0:0:
182,192,57307,128,0,57429:0:0:0:0:
109,192,57307,128,0,57753:0:0:0:0:
475,192,57470,128,0,57551:0:0:0:0:
182,192,57470,1,0,0:0:0:0:
36,192,57470,1,0,0:0:0:0:
256,192,57470,1,0,0:0:0:0:
402,192,57510,128,0,57753:0:0:0:0:
329,192,57551,128,0,57672:0:0:0:0:
475,192,57632,128,0,57875:0:0:0:0:
182,192,57632,128,0,57753:0:0:0:0:
256,192,57632,128,0,57713:0:0:0:0:
182,192,57794,128,0,57875:0:0:0:0:
402,192,57794,1,0,0:0:0:0:
36,192,57794,1,0,0:0:0:0:
109,192,57794,128,0,57875:0:0:0:0:
256,192,57834,128,0,58078:0:0:0:0:
329,192,57875,128,0,58037:0:0:0:0:
182,192,57956,128,0,58118:0:0:0:0:
475,192,57956,128,0,58402:0:0:0:0:
36,192,57956,128,0,58078:0:0:0:0:
329,192,58118,128,0,58199:0:0:0:0:
109,192,58118,1,0,0:0:0:0:
36,192,58118,1,0,0:0:0:0:
402,192,58118,1,0,0:0:0:0:
256,192,58159,128,0,58402:0:0:0:0:
182,192,58199,128,0,58321:0:0:0:0:
329,192,58280,128,0,58524:0:0:0:0:
36,192,58280,128,0,58402:0:0:0:0:
109,192,58280,128,0,58361:0:0:0:0:
36,192,58443,128,0,58524:0:0:0:0:
256,192,58443,1,0,0:0:0:0:
475,192,58443,1,0,0:0:0:0:
402,192,58443,128,0,58524:0:0:0:0:
109,192,58483,128,0,58686:0:0:0:0:
182,192,58524,128,0,58686:0:0:0:0:
36,192,58605,128,0,58848:0:0:0:0:
402,192,58605,128,0,58686:0:0:0:0:
475,192,58605,128,0,58726:0:0:0:0:
256,192,58767,1,0,0:0:0:0:
329,192,58767,1,0,0:0:0:0:
402,192,58767,1,0,0:0:0:0:
475,192,58767,1,0,0:0:0:0:
182,192,58767,128,0,59294:0:0:0:0:
109,192,58767,128,0,58848:0:0:0:0:
402,192,58929,1,0,0:0:0:0:
329,192,58929,1,0,0:0:0:0:
256,192,58929,1,0,0:0:0:0:
36,192,58929,128,0,59051:0:0:0:0:
36,192,59091,1,0,0:0:0:0:
256,192,59091,1,0,0:0:0:0:
329,192,59091,1,0,0:0:0:0:
402,192,59091,1,0,0:0:0:0:
475,192,59091,1,0,0:0:0:0:
329,192,59253,128,0,59780:0:0:0:0:
256,192,59253,128,0,59294:0:0:0:0:
109,192,59253,128,0,59294:0:0:0:0:
402,192,59253,128,0,59294:0:0:0:0:
256,192,59416,1,0,0:0:0:0:
182,192,59416,1,0,0:0:0:0:
109,192,59416,1,0,0:0:0:0:
475,192,59416,128,0,59537:0:0:0:0:
109,192,59578,1,0,0:0:0:0:
182,192,59578,1,0,0:0:0:0:
256,192,59578,1,0,0:0:0:0:
475,192,59578,1,0,0:0:0:0:
256,192,59740,128,0,59780:0:0:0:0:
182,192,59740,128,0,59780:0:0:0:0:
109,192,59740,128,0,59780:0:0:0:0:
36,192,59740,128,0,59780:0:0:0:0:
402,192,59740,128,0,59780:0:0:0:0:
475,192,59902,1,0,0:0:0:0:
36,192,59902,1,0,0:0:0:0:
109,192,59902,1,0,0:0:0:0:
402,192,59902,1,0,0:0:0:0:
182,192,59983,1,0,0:0:0:0:
256,192,59983,1,0,0:0:0:0:
475,192,60064,128,0,60834:0:0:0:0:
402,192,60064,1,0,0:0:0:0:
329,192,60064,1,0,0:0:0:0:
109,192,60064,128,0,60145:0:0:0:0:
36,192,60064,128,0,60145:0:0:0:0:
182,192,60226,1,0,0:0:0:0:
109,192,60226,1,0,0:0:0:0:
36,192,60226,1,0,0:0:0:0:
256,192,60226,128,0,60348:0:0:0:0:
36,192,60388,1,0,0:0:0:0:
329,192,60388,1,0,0:0:0:0:
402,192,60388,1,0,0:0:0:0:
256,192,60388,1,0,0:0:0:0:
182,192,60388,1,0,0:0:0:0:
36,192,60551,1,0,0:0:0:0:
109,192,60551,1,0,0:0:0:0:
182,192,60551,1,0,0:0:0:0:
329,192,60551,128,0,60672:0:0:0:0:
36,192,60713,128,0,61483:0:0:0:0:
402,192,60713,128,0,60834:0:0:0:0:
109,192,60713,1,0,0:0:0:0:
256,192,60713,128,0,60794:0:0:0:0:
182,192,60713,128,0,60794:0:0:0:0:
329,192,60875,1,0,0:0:0:0:
402,192,60875,1,0,0:0:0:0:
475,192,60875,1,0,0:0:0:0:
109,192,60875,128,0,60997:0:0:0:0:
475,192,61037,1,0,0:0:0:0:
109,192,61037,1,0,0:0:0:0:
182,192,61037,1,0,0:0:0:0:
256,192,61037,1,0,0:0:0:0:
329,192,61118,1,0,0:0:0:0:
402,192,61118,1,0,0:0:0:0:
182,192,61199,1,0,0:0:0:0:
475,192,61199,1,0,0:0:0:0:
329,192,61280,1,0,0:0:0:0:
256,192,61280,1,0,0:0:0:0:
182,192,61361,1,0,0:0:0:0:
109,192,61361,128,0,61483:0:0:0:0:
402,192,61361,128,0,61402:0:0:0:0:
475,192,61361,128,0,61402:0:0:0:0:
256,192,61443,1,0,0:0:0:0:
329,192,61443,128,0,61605:0:0:0:0:
36,192,61524,1,0,0:0:0:0:
475,192,61524,128,0,61807:0:0:0:0:
182,192,61524,128,0,61564:0:0:0:0:
109,192,61524,128,0,61564:0:0:0:0:
256,192,61605,128,0,61686:0:0:0:0:
329,192,61686,1,0,0:0:0:0:
402,192,61686,128,0,61807:0:0:0:0:
109,192,61686,128,0,61726:0:0:0:0:
36,192,61686,128,0,61726:0:0:0:0:
256,192,61767,1,0,0:0:0:0:
182,192,61767,128,0,61929:0:0:0:0:
475,192,61848,1,0,0:0:0:0:
329,192,61848,128,0,61888:0:0:0:0:
402,192,61848,128,0,61888:0:0:0:0:
36,192,61848,128,0,62132:0:0:0:0:
256,192,61929,128,0,62010:0:0:0:0:
329,192,62010,128,0,62091:0:0:0:0:
109,192,62010,1,0,0:0:0:0:
182,192,62010,1,0,0:0:0:0:
475,192,62091,1,0,0:0:0:0:
256,192,62091,128,0,62172:0:0:0:0:
402,192,62091,128,0,62172:0:0:0:0:
36,192,62172,1,0,0:0:0:0:
329,192,62172,128,0,62334:0:0:0:0:
109,192,62172,128,0,62253:0:0:0:0:
475,192,62253,128,0,62416:0:0:0:0:
182,192,62253,128,0,62334:0:0:0:0:
402,192,62253,1,0,0:0:0:0:
256,192,62334,128,0,62416:0:0:0:0:
109,192,62334,1,0,0:0:0:0:
36,192,62334,1,0,0:0:0:0:
402,192,62416,1,0,0:0:0:0:
182,192,62416,128,0,62497:0:0:0:0:
329,192,62416,128,0,62497:0:0:0:0:
256,192,62497,128,0,62902:0:0:0:0:
109,192,62497,128,0,62537:0:0:0:0:
36,192,62497,128,0,62537:0:0:0:0:
182,192,62578,1,0,0:0:0:0:
402,192,62578,128,0,62740:0:0:0:0:
329,192,62578,1,0,0:0:0:0:
475,192,62659,128,0,62740:0:0:0:0:
109,192,62659,1,0,0:0:0:0:
36,192,62659,1,0,0:0:0:0:
109,192,62740,128,0,62902:0:0:0:0:
36,192,62740,128,0,62902:0:0:0:0:
402,192,62821,1,0,0:0:0:0:
475,192,62821,1,0,0:0:0:0:
402,192,62902,128,0,63064:0:0:0:0:
475,192,62902,128,0,63064:0:0:0:0:
109,192,62983,1,0,0:0:0:0:
36,192,62983,1,0,0:0:0:0:
182,192,62983,128,0,63307:0:0:0:0:
329,192,62983,128,0,63105:0:0:0:0:
256,192,62983,128,0,63145:0:0:0:0:
109,192,63145,128,0,63348:0:0:0:0:
36,192,63145,128,0,63388:0:0:0:0:
402,192,63145,1,0,0:0:0:0:
475,192,63145,128,0,63186:0:0:0:0:
329,192,63186,1,0,0:0:0:0:
256,192,63226,128,0,63307:0:0:0:0:
475,192,63267,1,0,0:0:0:0:
402,192,63307,1,0,0:0:0:0:
329,192,63348,128,0,63551:0:0:0:0:
182,192,63388,1,0,0:0:0:0:
475,192,63388,128,0,63713:0:0:0:0:
256,192,63388,128,0,63429:0:0:0:0:
109,192,63429,1,0,0:0:0:0:
36,192,63470,128,0,63551:0:0:0:0:
256,192,63510,1,0,0:0:0:0:
182,192,63551,1,0,0:0:0:0:
109,192,63591,128,0,63713:0:0:0:0:
36,192,63632,128,0,63672:0:0:0:0:
329,192,63632,1,0,0:0:0:0:
402,192,63632,128,0,63672:0:0:0:0:
182,192,63672,128,0,63834:0:0:0:0:
256,192,63713,128,0,63794:0:0:0:0:
402,192,63753,128,0,63875:0:0:0:0:
475,192,63794,128,0,63834:0:0:0:0:
36,192,63794,1,0,0:0:0:0:
109,192,63794,128,0,63875:0:0:0:0:
329,192,63834,128,0,63997:0:0:0:0:
256,192,63875,128,0,63997:0:0:0:0:
182,192,63916,128,0,63997:0:0:0:0:
402,192,63956,128,0,63997:0:0:0:0:
475,192,63956,128,0,63997:0:0:0:0:
109,192,63956,128,0,63997:0:0:0:0:
36,192,63956,128,0,63997:0:0:0:0:
402,192,64605,5,0,0:0:0:0:
475,192,64605,1,0,0:0:0:0:
182,192,65091,1,0,0:0:0:0:
256,192,65091,1,0,0:0:0:0:
402,192,65172,1,0,0:0:0:0:
182,192,65253,128,0,65902:0:0:0:0:
36,192,65253,1,0,0:0:0:0:
329,192,65578,1,0,0:0:0:0:
109,192,65578,1,0,0:0:0:0:
475,192,65902,1,0,0:0:0:0:
256,192,65902,1,0,0:0:0:0:
256,192,66226,1,0,0:0:0:0:
402,192,66226,1,0,0:0:0:0:
402,192,66388,1,0,0:0:0:0:
256,192,66388,128,0,66551:0:0:0:0:
36,192,66713,1,0,0:0:0:0:
182,192,66713,1,0,0:0:0:0:
182,192,66875,1,0,0:0:0:0:
36,192,66875,128,0,67199:0:0:0:0:
329,192,67199,1,0,0:0:0:0:
475,192,67199,1,0,0:0:0:0:
109,192,67361,1,0,0:0:0:0:
36,192,67361,1,0,0:0:0:0:
182,192,67524,1,0,0:0:0:0:
256,192,67524,1,0,0:0:0:0:
402,192,67686,1,0,0:0:0:0:
329,192,67686,128,0,68497:0:0:0:0:
256,192,67848,1,0,0:0:0:0:
36,192,68172,1,0,0:0:0:0:
182,192,68334,1,0,0:0:0:0:
256,192,68416,1,0,0:0:0:0:
402,192,68497,1,0,0:0:0:0:
475,192,68497,1,0,0:0:0:0:
109,192,68821,1,0,0:0:0:0:
256,192,68821,1,0,0:0:0:0:
256,192,69145,1,0,0:0:0:0:
402,192,69145,128,0,70118:0:0:0:0:
182,192,69632,1,0,0:0:0:0:
36,192,69632,128,0,70118:0:0:0:0:
329,192,69794,1,0,0:0:0:0:
256,192,70118,1,0,0:0:0:0:
475,192,70118,1,0,0:0:0:0:
109,192,70443,128,0,71740:0:0:0:0:
36,192,70443,1,0,0:0:0:0:
182,192,70767,1,0,0:0:0:0:
256,192,70929,1,0,0:0:0:0:
329,192,71091,128,0,71740:0:0:0:0:
402,192,71091,1,0,0:0:0:0:
475,192,71253,1,0,0:0:0:0:
402,192,71416,1,0,0:0:0:0:
256,192,71578,1,0,0:0:0:0:
402,192,71740,1,0,0:0:0:0:
182,192,71740,1,0,0:0:0:0:
475,192,72064,1,0,0:0:0:0:
402,192,72064,128,0,74172:0:0:0:0:
36,192,72226,1,0,0:0:0:0:
329,192,72388,1,0,0:0:0:0:
182,192,72388,1,0,0:0:0:0:
256,192,72632,1,0,0:0:0:0:
109,192,72632,1,0,0:0:0:0:
475,192,72713,1,0,0:0:0:0:
36,192,72875,1,0,0:0:0:0:
182,192,72875,1,0,0:0:0:0:
329,192,73037,1,0,0:0:0:0:
109,192,73037,128,0,74253:0:0:0:0:
256,192,73037,1,0,0:0:0:0:
475,192,73686,1,0,0:0:0:0:
182,192,73686,128,0,74253:0:0:0:0:
329,192,73929,1,0,0:0:0:0:
36,192,74172,1,0,0:0:0:0:
109,192,74334,1,0,0:0:0:0:
182,192,74334,1,0,0:0:0:0:
475,192,74334,1,0,0:0:0:0:
329,192,74334,128,0,74740:0:0:0:0:
402,192,74334,128,0,74416:0:0:0:0:
402,192,74497,1,0,0:0:0:0:
256,192,74578,1,0,0:0:0:0:
36,192,74578,1,0,0:0:0:0:
109,192,74578,1,0,0:0:0:0:
475,192,74578,1,0,0:0:0:0:
182,192,74578,128,0,74740:0:0:0:0:
329,192,74821,1,0,0:0:0:0:
475,192,74821,1,0,0:0:0:0:
182,192,74821,1,0,0:0:0:0:
402,192,74821,1,0,0:0:0:0:
36,192,74821,1,0,0:0:0:0:
475,192,74902,128,0,75226:0:0:0:0:
402,192,74902,128,0,75226:0:0:0:0:
256,192,74983,1,0,0:0:0:0:
109,192,75145,1,0,0:0:0:0:
36,192,75145,1,0,0:0:0:0:
109,192,75226,1,0,0:0:0:0:
36,192,75226,1,0,0:0:0:0:
475,192,75307,1,0,0:0:0:0:
402,192,75307,1,0,0:0:0:0:
182,192,75307,1,0,0:0:0:0:
329,192,75307,1,0,0:0:0:0:
256,192,75307,1,0,0:0:0:0:
402,192,75470,1,0,0:0:0:0:
109,192,75470,1,0,0:0:0:0:
329,192,75510,1,0,0:0:0:0:
256,192,75551,1,0,0:0:0:0:
36,192,75551,1,0,0:0:0:0:
182,192,75591,1,0,0:0:0:0:
109,192,75632,1,0,0:0:0:0:
329,192,75632,1,0,0:0:0:0:
402,192,75632,1,0,0:0:0:0:
475,192,75632,128,0,75956:0:0:0:0:
36,192,75794,1,0,0:0:0:0:
329,192,75794,1,0,0:0:0:0:
109,192,75794,1,0,0:0:0:0:
182,192,75875,128,0,75956:0:0:0:0:
402,192,75956,1,0,0:0:0:0:
256,192,75956,1,0,0:0:0:0:
36,192,75956,1,0,0:0:0:0:
109,192,75997,1,0,0:0:0:0:
182,192,76037,1,0,0:0:0:0:
329,192,76037,1,0,0:0:0:0:
402,192,76078,1,0,0:0:0:0:
256,192,76118,1,0,0:0:0:0:
475,192,76118,1,0,0:0:0:0:
36,192,76118,1,0,0:0:0:0:
182,192,76199,1,0,0:0:0:0:
329,192,76199,1,0,0:0:0:0:
475,192,76280,128,0,76524:0:0:0:0:
109,192,76280,128,0,76524:0:0:0:0:
36,192,76280,1,0,0:0:0:0:
256,192,76280,128,0,76361:0:0:0:0:
402,192,76280,128,0,76361:0:0:0:0:
256,192,76443,1,0,0:0:0:0:
402,192,76443,1,0,0:0:0:0:
182,192,76524,1,0,0:0:0:0:
329,192,76524,128,0,76848:0:0:0:0:
256,192,76605,1,0,0:0:0:0:
402,192,76605,1,0,0:0:0:0:
475,192,76605,1,0,0:0:0:0:
36,192,76605,128,0,76848:0:0:0:0:
109,192,76605,128,0,76686:0:0:0:0:
109,192,76767,1,0,0:0:0:0:
182,192,76767,128,0,76848:0:0:0:0:
402,192,76767,128,0,76848:0:0:0:0:
109,192,76929,128,0,76983:0:0:0:0:
182,192,76929,128,0,76983:0:0:0:0:
256,192,76929,128,0,76983:0:0:0:0:
329,192,76929,128,0,76983:0:0:0:0:
475,192,76929,128,0,76983:0:0:0:0:
402,192,76929,1,0,0:0:0:0:
402,192,77145,128,0,77199:0:0:0:0:
256,192,77145,128,0,77199:0:0:0:0:
182,192,77145,128,0,77199:0:0:0:0:
36,192,77145,128,0,77199:0:0:0:0:
109,192,77145,128,0,77199:0:0:0:0:
329,192,77145,1,0,0:0:0:0:
36,192,77361,128,0,77524:0:0:0:0:
109,192,77361,128,0,77524:0:0:0:0:
256,192,77361,128,0,77524:0:0:0:0:
182,192,77361,128,0,77524:0:0:0:0:
402,192,77361,128,0,77524:0:0:0:0:
475,192,77361,128,0,77524:0:0:0:0:
182,192,77578,128,0,77632:0:0:0:0:
109,192,77578,128,0,77632:0:0:0:0:
36,192,77578,128,0,77632:0:0:0:0:
402,192,77578,128,0,77632:0:0:0:0:
475,192,77578,128,0,77632:0:0:0:0:
256,192,77578,1,0,0:0:0:0:
475,192,77794,128,0,77848:0:0:0:0:
402,192,77794,128,0,77848:0:0:0:0:
329,192,77794,128,0,77848:0:0:0:0:
256,192,77794,128,0,77848:0:0:0:0:
36,192,77794,128,0,77848:0:0:0:0:
109,192,77794,1,0,0:0:0:0:
329,192,78010,1,0,0:0:0:0:
182,192,78010,128,0,78064:0:0:0:0:
109,192,78010,128,0,78064:0:0:0:0:
36,192,78010,128,0,78064:0:0:0:0:
402,192,78010,128,0,78064:0:0:0:0:
475,192,78010,128,0,78064:0:0:0:0:
256,192,78064,1,0,0:0:0:0:
329,192,78118,1,0,0:0:0:0:
256,192,78226,1,0,0:0:0:0:
402,192,78226,1,0,0:0:0:0:
475,192,78226,1,0,0:0:0:0:
36,192,78226,1,0,0:0:0:0:
109,192,78226,128,0,78632:0:0:0:0:
182,192,78388,1,0,0:0:0:0:
329,192,78388,1,0,0:0:0:0:
36,192,78388,128,0,79118:0:0:0:0:
402,192,78388,128,0,78632:0:0:0:0:
475,192,78388,128,0,78632:0:0:0:0:
256,192,78388,128,0,78510:0:0:0:0:
256,192,78551,1,0,0:0:0:0:
182,192,78591,1,0,0:0:0:0:
329,192,78632,1,0,0:0:0:0:
256,192,78672,1,0,0:0:0:0:
182,192,78713,1,0,0:0:0:0:
402,192,78713,1,0,0:0:0:0:
475,192,78713,1,0,0:0:0:0:
109,192,78713,128,0,78834:0:0:0:0:
256,192,78875,128,0,78997:0:0:0:0:
402,192,78875,128,0,79118:0:0:0:0:
475,192,78875,128,0,79240:0:0:0:0:
182,192,78875,128,0,78916:0:0:0:0:
109,192,78875,128,0,78916:0:0:0:0:
256,192,79037,1,0,0:0:0:0:
329,192,79078,1,0,0:0:0:0:
182,192,79118,1,0,0:0:0:0:
256,192,79159,1,0,0:0:0:0:
329,192,79199,128,0,79240:0:0:0:0:
109,192,79199,1,0,0:0:0:0:
36,192,79199,1,0,0:0:0:0:
402,192,79199,128,0,79240:0:0:0:0:
182,192,79524,1,0,0:0:0:0:
256,192,79524,128,0,79605:0:0:0:0:
475,192,79524,128,0,79605:0:0:0:0:
109,192,79524,1,0,0:0:0:0:
36,192,79605,1,0,0:0:0:0:
329,192,79605,128,0,79686:0:0:0:0:
402,192,79605,128,0,79686:0:0:0:0:
256,192,79686,128,0,79767:0:0:0:0:
475,192,79686,128,0,79767:0:0:0:0:
182,192,79686,1,0,0:0:0:0:
402,192,79767,128,0,79929:0:0:0:0:
109,192,79767,1,0,0:0:0:0:
36,192,79767,128,0,79929:0:0:0:0:
329,192,79848,1,0,0:0:0:0:
182,192,79848,1,0,0:0:0:0:
475,192,79848,1,0,0:0:0:0:
256,192,79848,1,0,0:0:0:0:
109,192,79929,1,0,0:0:0:0:
36,192,80010,1,0,0:0:0:0:
402,192,80010,128,0,80051:0:0:0:0:
475,192,80010,128,0,80051:0:0:0:0:
256,192,80010,1,0,0:0:0:0:
329,192,80091,1,0,0:0:0:0:
475,192,80172,128,0,80416:0:0:0:0:
256,192,80172,128,0,80416:0:0:0:0:
182,192,80172,128,0,80253:0:0:0:0:
36,192,80172,128,0,80416:0:0:0:0:
329,192,80253,1,0,0:0:0:0:
402,192,80334,1,0,0:0:0:0:
109,192,80334,1,0,0:0:0:0:
182,192,80334,1,0,0:0:0:0:
329,192,80416,1,0,0:0:0:0:
256,192,80497,1,0,0:0:0:0:
475,192,80497,1,0,0:0:0:0:
182,192,80497,128,0,80578:0:0:0:0:
109,192,80497,128,0,80578:0:0:0:0:
402,192,80578,1,0,0:0:0:0:
256,192,80659,128,0,80740:0:0:0:0:
109,192,80659,1,0,0:0:0:0:
36,192,80659,1,0,0:0:0:0:
329,192,80659,1,0,0:0:0:0:
182,192,80740,1,0,0:0:0:0:
402,192,80740,1,0,0:0:0:0:
36,192,80821,1,0,0:0:0:0:
256,192,80821,1,0,0:0:0:0:
475,192,80821,128,0,81064:0:0:0:0:
329,192,80821,1,0,0:0:0:0:
109,192,80821,128,0,80902:0:0:0:0:
402,192,80902,1,0,0:0:0:0:
256,192,80983,1,0,0:0:0:0:
109,192,80983,1,0,0:0:0:0:
182,192,80983,1,0,0:0:0:0:
36,192,81064,128,0,81307:0:0:0:0:
402,192,81064,1,0,0:0:0:0:
329,192,81064,128,0,81145:0:0:0:0:
256,192,81145,1,0,0:0:0:0:
182,192,81145,1,0,0:0:0:0:
109,192,81145,1,0,0:0:0:0:
475,192,81145,1,0,0:0:0:0:
329,192,81226,1,0,0:0:0:0:
402,192,81307,1,0,0:0:0:0:
475,192,81307,1,0,0:0:0:0:
182,192,81307,128,0,81361:0:0:0:0:
256,192,81361,128,0,81416:0:0:0:0:
109,192,81416,128,0,81470:0:0:0:0:
402,192,81470,128,0,81713:0:0:0:0:
329,192,81470,1,0,0:0:0:0:
475,192,81470,128,0,81713:0:0:0:0:
182,192,81470,128,0,81551:0:0:0:0:
36,192,81551,1,0,0:0:0:0:
256,192,81632,1,0,0:0:0:0:
329,192,81632,1,0,0:0:0:0:
182,192,81632,1,0,0:0:0:0:
109,192,81632,1,0,0:0:0:0:
36,192,81713,1,0,0:0:0:0:
402,192,81794,1,0,0:0:0:0:
475,192,81794,1,0,0:0:0:0:
182,192,81794,128,0,81875:0:0:0:0:
109,192,81794,128,0,81875:0:0:0:0:
36,192,81875,1,0,0:0:0:0:
256,192,81875,1,0,0:0:0:0:
329,192,81875,1,0,0:0:0:0:
182,192,81956,1,0,0:0:0:0:
402,192,81956,1,0,0:0:0:0:
475,192,81956,128,0,82037:0:0:0:0:
109,192,82037,1,0,0:0:0:0:
36,192,82037,1,0,0:0:0:0:
329,192,82037,1,0,0:0:0:0:
256,192,82118,1,0,0:0:0:0:
182,192,82118,1,0,0:0:0:0:
402,192,82118,1,0,0:0:0:0:
475,192,82118,1,0,0:0:0:0:
109,192,82199,1,0,0:0:0:0:
36,192,82199,1,0,0:0:0:0:
402,192,82199,128,0,82280:0:0:0:0:
182,192,82280,1,0,0:0:0:0:
256,192,82280,1,0,0:0:0:0:
329,192,82280,1,0,0:0:0:0:
402,192,82361,1,0,0:0:0:0:
475,192,82361,1,0,0:0:0:0:
182,192,82361,128,0,82443:0:0:0:0:
109,192,82443,1,0,0:0:0:0:
36,192,82443,1,0,0:0:0:0:
256,192,82443,1,0,0:0:0:0:
329,192,82443,1,0,0:0:0:0:
475,192,82524,1,0,0:0:0:0:
182,192,82524,1,0,0:0:0:0:
402,192,82524,128,0,82605:0:0:0:0:
256,192,82605,1,0,0:0:0:0:
329,192,82605,1,0,0:0:0:0:
36,192,82605,128,0,82686:0:0:0:0:
182,192,82686,1,0,0:0:0:0:
109,192,82686,1,0,0:0:0:0:
475,192,82767,1,0,0:0:0:0:
329,192,82767,1,0,0:0:0:0:
402,192,82767,1,0,0:0:0:0:
256,192,82767,128,0,83010:0:0:0:0:
329,192,82848,128,0,83091:0:0:0:0:
402,192,82848,128,0,82888:0:0:0:0:
475,192,82848,128,0,82888:0:0:0:0:
182,192,82929,1,0,0:0:0:0:
109,192,82929,128,0,82970:0:0:0:0:
36,192,82929,128,0,82970:0:0:0:0:
182,192,83010,128,0,83091:0:0:0:0:
402,192,83010,128,0,83091:0:0:0:0:
475,192,83010,128,0,83091:0:0:0:0:
109,192,83091,128,0,83172:0:0:0:0:
256,192,83091,128,0,83172:0:0:0:0:
36,192,83091,128,0,83172:0:0:0:0:
182,192,83172,128,0,83253:0:0:0:0:
329,192,83172,128,0,83253:0:0:0:0:
256,192,83253,128,0,83334:0:0:0:0:
402,192,83253,128,0,83334:0:0:0:0:
329,192,83334,128,0,83416:0:0:0:0:
475,192,83334,128,0,83416:0:0:0:0:
182,192,83416,128,0,83497:0:0:0:0:
256,192,83416,1,0,0:0:0:0:
36,192,83416,128,0,83497:0:0:0:0:
402,192,83416,1,0,0:0:0:0:
109,192,83416,1,0,0:0:0:0:
109,192,83537,128,0,83821:0:0:0:0:
475,192,83659,1,0,0:0:0:0:
36,192,83659,1,0,0:0:0:0:
182,192,83659,128,0,83821:0:0:0:0:
256,192,83659,1,0,0:0:0:0:
329,192,83659,128,0,83740:0:0:0:0:
402,192,83659,128,0,83740:0:0:0:0:
256,192,83780,128,0,83983:0:0:0:0:
402,192,83902,128,0,83983:0:0:0:0:
36,192,83902,1,0,0:0:0:0:
109,192,83902,1,0,0:0:0:0:
182,192,83902,1,0,0:0:0:0:
475,192,83902,128,0,83983:0:0:0:0:
329,192,83902,1,0,0:0:0:0:
329,192,84024,128,0,84307:0:0:0:0:
475,192,84145,1,0,0:0:0:0:
256,192,84145,128,0,84307:0:0:0:0:
402,192,84145,1,0,0:0:0:0:
182,192,84145,1,0,0:0:0:0:
109,192,84145,128,0,84226:0:0:0:0:
36,192,84145,128,0,84226:0:0:0:0:
182,192,84267,128,0,84470:0:0:0:0:
109,192,84388,1,0,0:0:0:0:
329,192,84388,128,0,84470:0:0:0:0:
402,192,84388,128,0,84470:0:0:0:0:
475,192,84388,128,0,84470:0:0:0:0:
256,192,84388,1,0,0:0:0:0:
36,192,84388,1,0,0:0:0:0:
109,192,84551,128,0,84632:0:0:0:0:
182,192,84551,128,0,84632:0:0:0:0:
36,192,84551,128,0,84632:0:0:0:0:
402,192,84551,1,0,0:0:0:0:
256,192,84551,1,0,0:0:0:0:
475,192,84551,1,0,0:0:0:0:
402,192,84713,128,0,84794:0:0:0:0:
475,192,84713,128,0,84794:0:0:0:0:
329,192,84713,128,0,84997:0:0:0:0:
109,192,84713,1,0,0:0:0:0:
36,192,84713,1,0,0:0:0:0:
256,192,84713,1,0,0:0:0:0:
182,192,84794,128,0,84875:0:0:0:0:
109,192,84875,128,0,84916:0:0:0:0:
36,192,84875,128,0,84916:0:0:0:0:
475,192,84875,128,0,84916:0:0:0:0:
256,192,84956,128,0,85159:0:0:0:0:
182,192,84956,128,0,85159:0:0:0:0:
109,192,85037,1,0,0:0:0:0:
36,192,85037,1,0,0:0:0:0:
402,192,85037,128,0,85078:0:0:0:0:
475,192,85037,128,0,85078:0:0:0:0:
329,192,85118,128,0,85443:0:0:0:0:
402,192,85199,1,0,0:0:0:0:
475,192,85199,1,0,0:0:0:0:
182,192,85199,1,0,0:0:0:0:
256,192,85199,1,0,0:0:0:0:
475,192,85280,128,0,85605:0:0:0:0:
36,192,85280,128,0,85443:0:0:0:0:
402,192,85280,128,0,85443:0:0:0:0:
109,192,85280,128,0,85361:0:0:0:0:
182,192,85361,128,0,85443:0:0:0:0:
256,192,85361,128,0,85443:0:0:0:0:
109,192,85443,1,0,0:0:0:0:
402,192,85524,128,0,85605:0:0:0:0:
329,192,85524,128,0,85686:0:0:0:0:
182,192,85524,1,0,0:0:0:0:
109,192,85605,128,0,85686:0:0:0:0:
36,192,85605,128,0,85686:0:0:0:0:
402,192,85686,128,0,85726:0:0:0:0:
475,192,85686,128,0,85726:0:0:0:0:
182,192,85686,128,0,85929:0:0:0:0:
109,192,85767,128,0,85929:0:0:0:0:
256,192,85767,1,0,0:0:0:0:
402,192,85848,128,0,85929:0:0:0:0:
475,192,85848,128,0,85929:0:0:0:0:
36,192,85848,1,0,0:0:0:0:
256,192,85929,128,0,86010:0:0:0:0:
329,192,85929,128,0,86010:0:0:0:0:
475,192,86010,128,0,86294:0:0:0:0:
182,192,86010,1,0,0:0:0:0:
109,192,86010,1,0,0:0:0:0:
402,192,86010,1,0,0:0:0:0:
36,192,86091,128,0,86172:0:0:0:0:
182,192,86172,128,0,86213:0:0:0:0:
402,192,86172,128,0,86213:0:0:0:0:
256,192,86172,128,0,86213:0:0:0:0:
36,192,86253,128,0,86456:0:0:0:0:
109,192,86253,128,0,86456:0:0:0:0:
329,192,86334,128,0,86375:0:0:0:0:
402,192,86334,128,0,86375:0:0:0:0:
182,192,86334,1,0,0:0:0:0:
256,192,86334,1,0,0:0:0:0:
475,192,86416,128,0,86902:0:0:0:0:
329,192,86497,1,0,0:0:0:0:
402,192,86497,1,0,0:0:0:0:
109,192,86497,1,0,0:0:0:0:
36,192,86497,1,0,0:0:0:0:
329,192,86578,128,0,86740:0:0:0:0:
256,192,86578,128,0,86740:0:0:0:0:
182,192,86578,128,0,86659:0:0:0:0:
402,192,86578,128,0,86740:0:0:0:0:
109,192,86659,128,0,86740:0:0:0:0:
36,192,86659,128,0,86740:0:0:0:0:
182,192,86740,1,0,0:0:0:0:
329,192,86821,128,0,86983:0:0:0:0:
402,192,86821,128,0,86902:0:0:0:0:
109,192,86821,1,0,0:0:0:0:
36,192,86821,1,0,0:0:0:0:
182,192,86902,128,0,86983:0:0:0:0:
256,192,86902,128,0,87064:0:0:0:0:
402,192,86983,128,0,87226:0:0:0:0:
109,192,86983,128,0,87024:0:0:0:0:
36,192,86983,128,0,87024:0:0:0:0:
475,192,86983,1,0,0:0:0:0:
182,192,87064,128,0,87226:0:0:0:0:
329,192,87064,1,0,0:0:0:0:
109,192,87145,1,0,0:0:0:0:
475,192,87145,128,0,87226:0:0:0:0:
256,192,87226,128,0,87470:0:0:0:0:
329,192,87226,128,0,87307:0:0:0:0:
109,192,87307,128,0,87388:0:0:0:0:
36,192,87307,128,0,87388:0:0:0:0:
182,192,87307,128,0,87591:0:0:0:0:
402,192,87307,1,0,0:0:0:0:
475,192,87307,1,0,0:0:0:0:
329,192,87388,128,0,87470:0:0:0:0:
402,192,87470,128,0,87510:0:0:0:0:
475,192,87470,128,0,87510:0:0:0:0:
36,192,87470,128,0,87510:0:0:0:0:
256,192,87551,128,0,87753:0:0:0:0:
329,192,87551,128,0,87753:0:0:0:0:
402,192,87632,1,0,0:0:0:0:
475,192,87632,1,0,0:0:0:0:
109,192,87632,128,0,87672:0:0:0:0:
36,192,87632,128,0,87672:0:0:0:0:
182,192,87713,128,0,88037:0:0:0:0:
109,192,87794,1,0,0:0:0:0:
36,192,87794,1,0,0:0:0:0:
256,192,87794,1,0,0:0:0:0:
329,192,87794,1,0,0:0:0:0:
36,192,87875,128,0,88199:0:0:0:0:
475,192,87875,128,0,88037:0:0:0:0:
109,192,87875,128,0,88037:0:0:0:0:
402,192,87875,128,0,87956:0:0:0:0:
329,192,87956,128,0,88037:0:0:0:0:
256,192,87956,128,0,88037:0:0:0:0:
402,192,88037,1,0,0:0:0:0:
109,192,88118,128,0,88199:0:0:0:0:
182,192,88118,128,0,88280:0:0:0:0:
329,192,88118,1,0,0:0:0:0:
402,192,88199,128,0,88280:0:0:0:0:
475,192,88199,128,0,88280:0:0:0:0:
109,192,88280,128,0,88321:0:0:0:0:
36,192,88280,128,0,88321:0:0:0:0:
329,192,88280,128,0,88524:0:0:0:0:
402,192,88361,128,0,88524:0:0:0:0:
256,192,88361,1,0,0:0:0:0:
109,192,88443,128,0,88524:0:0:0:0:
36,192,88443,128,0,88524:0:0:0:0:
475,192,88443,1,0,0:0:0:0:
182,192,88524,128,0,88605:0:0:0:0:
256,192,88524,128,0,88605:0:0:0:0:
36,192,88605,128,0,88888:0:0:0:0:
329,192,88605,1,0,0:0:0:0:
402,192,88605,1,0,0:0:0:0:
109,192,88605,1,0,0:0:0:0:
475,192,88686,128,0,88767:0:0:0:0:
329,192,88767,128,0,88807:0:0:0:0:
109,192,88767,128,0,88807:0:0:0:0:
256,192,88767,128,0,88807:0:0:0:0:
475,192,88848,128,0,89051:0:0:0:0:
402,192,88848,128,0,89051:0:0:0:0:
182,192,88929,128,0,88970:0:0:0:0:
109,192,88929,128,0,88970:0:0:0:0:
329,192,88929,1,0,0:0:0:0:
256,192,88929,1,0,0:0:0:0:
36,192,89010,128,0,89497:0:0:0:0:
182,192,89091,1,0,0:0:0:0:
109,192,89091,1,0,0:0:0:0:
402,192,89091,1,0,0:0:0:0:
475,192,89091,1,0,0:0:0:0:
182,192,89172,128,0,89334:0:0:0:0:
109,192,89172,128,0,89334:0:0:0:0:
256,192,89172,128,0,89334:0:0:0:0:
329,192,89172,128,0,89253:0:0:0:0:
402,192,89253,128,0,89334:0:0:0:0:
475,192,89253,128,0,89334:0:0:0:0:
329,192,89334,1,0,0:0:0:0:
182,192,89416,128,0,89578:0:0:0:0:
109,192,89416,128,0,89497:0:0:0:0:
402,192,89416,1,0,0:0:0:0:
329,192,89497,128,0,89578:0:0:0:0:
256,192,89497,128,0,89659:0:0:0:0:
109,192,89578,128,0,89821:0:0:0:0:
402,192,89578,128,0,89618:0:0:0:0:
475,192,89578,128,0,89618:0:0:0:0:
36,192,89578,1,0,0:0:0:0:
329,192,89659,128,0,89821:0:0:0:0:
182,192,89659,1,0,0:0:0:0:
402,192,89740,1,0,0:0:0:0:
36,192,89740,128,0,89821:0:0:0:0:
475,192,89740,1,0,0:0:0:0:
182,192,89821,128,0,89902:0:0:0:0:
256,192,89821,128,0,90064:0:0:0:0:
402,192,89902,128,0,89983:0:0:0:0:
475,192,89902,128,0,89983:0:0:0:0:
329,192,89902,128,0,90186:0:0:0:0:
109,192,89902,1,0,0:0:0:0:
36,192,89902,1,0,0:0:0:0:
182,192,89983,128,0,90064:0:0:0:0:
109,192,90064,128,0,90105:0:0:0:0:
36,192,90064,128,0,90105:0:0:0:0:
475,192,90064,128,0,90105:0:0:0:0:
256,192,90145,128,0,90348:0:0:0:0:
182,192,90145,128,0,90348:0:0:0:0:
109,192,90226,1,0,0:0:0:0:
36,192,90226,1,0,0:0:0:0:
402,192,90226,128,0,90267:0:0:0:0:
475,192,90226,128,0,90267:0:0:0:0:
329,192,90307,128,0,90632:0:0:0:0:
402,192,90388,1,0,0:0:0:0:
475,192,90388,1,0,0:0:0:0:
256,192,90388,1,0,0:0:0:0:
182,192,90388,1,0,0:0:0:0:
475,192,90470,128,0,90794:0:0:0:0:
36,192,90470,128,0,90632:0:0:0:0:
402,192,90470,128,0,90632:0:0:0:0:
109,192,90470,128,0,90551:0:0:0:0:
182,192,90551,128,0,90632:0:0:0:0:
256,192,90551,128,0,90632:0:0:0:0:
109,192,90632,1,0,0:0:0:0:
402,192,90713,128,0,90794:0:0:0:0:
329,192,90713,128,0,90875:0:0:0:0:
182,192,90713,1,0,0:0:0:0:
109,192,90794,128,0,90875:0:0:0:0:
36,192,90794,128,0,90875:0:0:0:0:
402,192,90875,128,0,90916:0:0:0:0:
475,192,90875,128,0,90916:0:0:0:0:
182,192,90875,128,0,91118:0:0:0:0:
109,192,90956,128,0,91118:0:0:0:0:
256,192,90956,1,0,0:0:0:0:
402,192,91037,128,0,91118:0:0:0:0:
475,192,91037,128,0,91118:0:0:0:0:
36,192,91037,1,0,0:0:0:0:
329,192,91118,128,0,91199:0:0:0:0:
256,192,91118,128,0,91199:0:0:0:0:
475,192,91199,128,0,91483:0:0:0:0:
182,192,91199,1,0,0:0:0:0:
109,192,91199,1,0,0:0:0:0:
402,192,91199,1,0,0:0:0:0:
36,192,91280,128,0,91361:0:0:0:0:
182,192,91361,128,0,91402:0:0:0:0:
402,192,91361,128,0,91402:0:0:0:0:
256,192,91361,128,0,91402:0:0:0:0:
36,192,91443,128,0,91645:0:0:0:0:
109,192,91443,128,0,91645:0:0:0:0:
329,192,91524,128,0,91564:0:0:0:0:
402,192,91524,128,0,91564:0:0:0:0:
182,192,91524,1,0,0:0:0:0:
256,192,91524,1,0,0:0:0:0:
475,192,91605,128,0,92091:0:0:0:0:
329,192,91686,1,0,0:0:0:0:
402,192,91686,1,0,0:0:0:0:
109,192,91686,1,0,0:0:0:0:
36,192,91686,1,0,0:0:0:0:
329,192,91767,128,0,91929:0:0:0:0:
256,192,91767,128,0,91929:0:0:0:0:
182,192,91767,128,0,91848:0:0:0:0:
402,192,91767,128,0,91929:0:0:0:0:
109,192,91848,128,0,91929:0:0:0:0:
36,192,91848,128,0,91929:0:0:0:0:
182,192,91929,1,0,0:0:0:0:
329,192,92010,128,0,92172:0:0:0:0:
402,192,92010,128,0,92091:0:0:0:0:
109,192,92010,1,0,0:0:0:0:
36,192,92010,1,0,0:0:0:0:
182,192,92091,128,0,92172:0:0:0:0:
256,192,92091,128,0,92253:0:0:0:0:
402,192,92172,128,0,92416:0:0:0:0:
109,192,92172,128,0,92213:0:0:0:0:
36,192,92172,128,0,92213:0:0:0:0:
475,192,92172,1,0,0:0:0:0:
182,192,92253,128,0,92416:0:0:0:0:
329,192,92253,1,0,0:0:0:0:
109,192,92334,1,0,0:0:0:0:
475,192,92334,128,0,92416:0:0:0:0:
256,192,92416,128,0,92659:0:0:0:0:
329,192,92416,128,0,92497:0:0:0:0:
109,192,92497,128,0,92578:0:0:0:0:
36,192,92497,128,0,92578:0:0:0:0:
182,192,92497,128,0,92780:0:0:0:0:
402,192,92497,1,0,0:0:0:0:
475,192,92497,1,0,0:0:0:0:
329,192,92578,128,0,92659:0:0:0:0:
402,192,92659,128,0,92699:0:0:0:0:
475,192,92659,128,0,92699:0:0:0:0:
36,192,92659,128,0,92699:0:0:0:0:
256,192,92740,128,0,92943:0:0:0:0:
329,192,92740,128,0,92943:0:0:0:0:
402,192,92821,1,0,0:0:0:0:
475,192,92821,1,0,0:0:0:0:
109,192,92821,128,0,92861:0:0:0:0:
36,192,92821,128,0,92861:0:0:0:0:
182,192,92902,128,0,93226:0:0:0:0:
109,192,92983,1,0,0:0:0:0:
36,192,92983,1,0,0:0:0:0:
256,192,92983,1,0,0:0:0:0:
329,192,92983,1,0,0:0:0:0:
36,192,93064,128,0,93388:0:0:0:0:
475,192,93064,128,0,93226:0:0:0:0:
109,192,93064,128,0,93226:0:0:0:0:
402,192,93064,128,0,93145:0:0:0:0:
329,192,93145,128,0,93226:0:0:0:0:
256,192,93145,128,0,93226:0:0:0:0:
402,192,93226,1,0,0:0:0:0:
109,192,93307,128,0,93388:0:0:0:0:
182,192,93307,128,0,93470:0:0:0:0:
329,192,93307,1,0,0:0:0:0:
402,192,93388,128,0,93470:0:0:0:0:
475,192,93388,128,0,93470:0:0:0:0:
109,192,93470,128,0,93510:0:0:0:0:
36,192,93470,128,0,93510:0:0:0:0:
329,192,93470,128,0,93713:0:0:0:0:
402,192,93551,128,0,93713:0:0:0:0:
256,192,93551,1,0,0:0:0:0:
109,192,93632,128,0,93713:0:0:0:0:
36,192,93632,128,0,93713:0:0:0:0:
475,192,93632,1,0,0:0:0:0:
182,192,93713,128,0,93794:0:0:0:0:
256,192,93713,128,0,93794:0:0:0:0:
36,192,93794,128,0,94078:0:0:0:0:
329,192,93794,1,0,0:0:0:0:
402,192,93794,1,0,0:0:0:0:
109,192,93794,1,0,0:0:0:0:
475,192,93875,128,0,93956:0:0:0:0:
329,192,93956,128,0,93997:0:0:0:0:
109,192,93956,128,0,93997:0:0:0:0:
256,192,93956,128,0,93997:0:0:0:0:
475,192,94037,128,0,94240:0:0:0:0:
402,192,94037,128,0,94240:0:0:0:0:
182,192,94118,128,0,94159:0:0:0:0:
109,192,94118,128,0,94159:0:0:0:0:
329,192,94118,1,0,0:0:0:0:
256,192,94118,1,0,0:0:0:0:
36,192,94199,128,0,94686:0:0:0:0:
182,192,94280,1,0,0:0:0:0:
109,192,94280,1,0,0:0:0:0:
402,192,94280,1,0,0:0:0:0:
475,192,94280,1,0,0:0:0:0:
182,192,94361,128,0,94524:0:0:0:0:
109,192,94361,128,0,94524:0:0:0:0:
256,192,94361,128,0,94524:0:0:0:0:
329,192,94361,128,0,94443:0:0:0:0:
402,192,94443,128,0,94524:0:0:0:0:
475,192,94443,128,0,94524:0:0:0:0:
329,192,94524,1,0,0:0:0:0:
182,192,94605,128,0,94767:0:0:0:0:
109,192,94605,128,0,94686:0:0:0:0:
402,192,94605,1,0,0:0:0:0:
256,192,94686,128,0,94767:0:0:0:0:
329,192,94686,128,0,94807:0:0:0:0:
402,192,94767,128,0,94807:0:0:0:0:
475,192,94767,128,0,94807:0:0:0:0:
109,192,94767,1,0,0:0:0:0:
36,192,94767,1,0,0:0:0:0:
329,192,94848,1,0,0:0:0:0:
109,192,94848,1,0,0:0:0:0:
36,192,94848,1,0,0:0:0:0:
182,192,94929,128,0,94970:0:0:0:0:
256,192,94929,128,0,94970:0:0:0:0:
402,192,95010,1,0,0:0:0:0:
475,192,95010,1,0,0:0:0:0:
109,192,95010,1,0,0:0:0:0:
402,192,95091,128,0,95172:0:0:0:0:
475,192,95091,128,0,95375:0:0:0:0:
36,192,95091,1,0,0:0:0:0:
256,192,95091,1,0,0:0:0:0:
329,192,95091,1,0,0:0:0:0:
109,192,95172,128,0,95253:0:0:0:0:
182,192,95172,128,0,95253:0:0:0:0:
36,192,95253,128,0,95334:0:0:0:0:
256,192,95253,128,0,95294:0:0:0:0:
329,192,95253,128,0,95294:0:0:0:0:
109,192,95334,128,0,95497:0:0:0:0:
182,192,95334,128,0,95497:0:0:0:0:
402,192,95416,128,0,95497:0:0:0:0:
329,192,95416,128,0,95497:0:0:0:0:
256,192,95416,1,0,0:0:0:0:
475,192,95416,1,0,0:0:0:0:
36,192,95497,128,0,95578:0:0:0:0:
329,192,95578,1,0,0:0:0:0:
109,192,95578,1,0,0:0:0:0:
182,192,95578,1,0,0:0:0:0:
402,192,95578,128,0,95659:0:0:0:0:
256,192,95659,128,0,95740:0:0:0:0:
329,192,95659,128,0,95740:0:0:0:0:
36,192,95659,128,0,96024:0:0:0:0:
109,192,95659,128,0,95821:0:0:0:0:
402,192,95740,128,0,95821:0:0:0:0:
475,192,95740,128,0,95821:0:0:0:0:
182,192,95740,128,0,95821:0:0:0:0:
256,192,95821,128,0,95861:0:0:0:0:
109,192,95902,128,0,96145:0:0:0:0:
182,192,95902,128,0,95983:0:0:0:0:
475,192,95902,1,0,0:0:0:0:
329,192,95983,128,0,96064:0:0:0:0:
402,192,95983,128,0,96064:0:0:0:0:
256,192,96064,128,0,96145:0:0:0:0:
182,192,96064,128,0,96307:0:0:0:0:
475,192,96064,128,0,96145:0:0:0:0:
36,192,96064,1,0,0:0:0:0:
329,192,96145,128,0,96186:0:0:0:0:
402,192,96145,128,0,96470:0:0:0:0:
475,192,96226,1,0,0:0:0:0:
109,192,96226,128,0,96307:0:0:0:0:
36,192,96226,128,0,96307:0:0:0:0:
256,192,96307,128,0,96388:0:0:0:0:
329,192,96307,128,0,96388:0:0:0:0:
109,192,96388,128,0,96470:0:0:0:0:
36,192,96388,128,0,96672:0:0:0:0:
182,192,96388,1,0,0:0:0:0:
475,192,96388,128,0,96470:0:0:0:0:
256,192,96470,128,0,96551:0:0:0:0:
329,192,96470,128,0,96551:0:0:0:0:
182,192,96551,128,0,96632:0:0:0:0:
402,192,96551,128,0,96591:0:0:0:0:
475,192,96551,128,0,96591:0:0:0:0:
256,192,96632,128,0,96794:0:0:0:0:
329,192,96632,128,0,96794:0:0:0:0:
36,192,96713,1,0,0:0:0:0:
109,192,96713,128,0,96794:0:0:0:0:
402,192,96713,128,0,96794:0:0:0:0:
475,192,96713,1,0,0:0:0:0:
182,192,96794,128,0,96875:0:0:0:0:
256,192,96875,1,0,0:0:0:0:
329,192,96875,1,0,0:0:0:0:
402,192,96875,1,0,0:0:0:0:
109,192,96875,128,0,96956:0:0:0:0:
402,192,96956,128,0,97118:0:0:0:0:
475,192,96956,128,0,97321:0:0:0:0:
182,192,96956,128,0,97037:0:0:0:0:
256,192,96956,128,0,97037:0:0:0:0:
109,192,97037,128,0,97280:0:0:0:0:
36,192,97037,128,0,97118:0:0:0:0:
329,192,97037,128,0,97118:0:0:0:0:
182,192,97118,128,0,97159:0:0:0:0:
402,192,97199,1,0,0:0:0:0:
329,192,97199,1,0,0:0:0:0:
36,192,97199,128,0,97280:0:0:0:0:
256,192,97280,128,0,97361:0:0:0:0:
182,192,97280,128,0,97361:0:0:0:0:
475,192,97361,1,0,0:0:0:0:
109,192,97361,128,0,97443:0:0:0:0:
402,192,97361,128,0,97443:0:0:0:0:
36,192,97361,128,0,97443:0:0:0:0:
329,192,97443,128,0,97483:0:0:0:0:
182,192,97443,128,0,97483:0:0:0:0:
256,192,97443,128,0,97767:0:0:0:0:
475,192,97524,128,0,97605:0:0:0:0:
36,192,97524,1,0,0:0:0:0:
109,192,97524,1,0,0:0:0:0:
329,192,97605,128,0,97686:0:0:0:0:
402,192,97605,128,0,97686:0:0:0:0:
109,192,97686,128,0,97767:0:0:0:0:
36,192,97686,128,0,97970:0:0:0:0:
475,192,97686,1,0,0:0:0:0:
182,192,97686,1,0,0:0:0:0:
402,192,97767,128,0,97848:0:0:0:0:
329,192,97767,128,0,97848:0:0:0:0:
475,192,97848,128,0,97929:0:0:0:0:
256,192,97848,128,0,97888:0:0:0:0:
182,192,97848,128,0,97888:0:0:0:0:
402,192,97929,128,0,98091:0:0:0:0:
329,192,97929,128,0,98091:0:0:0:0:
109,192,98010,128,0,98091:0:0:0:0:
182,192,98010,128,0,98091:0:0:0:0:
256,192,98010,1,0,0:0:0:0:
36,192,98010,1,0,0:0:0:0:
475,192,98091,128,0,98172:0:0:0:0:
182,192,98172,1,0,0:0:0:0:
402,192,98172,1,0,0:0:0:0:
329,192,98172,1,0,0:0:0:0:
109,192,98172,128,0,98253:0:0:0:0:
256,192,98253,128,0,98334:0:0:0:0:
182,192,98253,128,0,98334:0:0:0:0:
475,192,98253,128,0,98618:0:0:0:0:
402,192,98253,128,0,98416:0:0:0:0:
109,192,98334,128,0,98416:0:0:0:0:
36,192,98334,128,0,98416:0:0:0:0:
329,192,98334,128,0,98416:0:0:0:0:
256,192,98416,128,0,98456:0:0:0:0:
402,192,98497,128,0,98740:0:0:0:0:
329,192,98497,128,0,98578:0:0:0:0:
36,192,98497,1,0,0:0:0:0:
182,192,98578,128,0,98659:0:0:0:0:
109,192,98578,128,0,98659:0:0:0:0:
256,192,98659,128,0,98740:0:0:0:0:
329,192,98659,128,0,98902:0:0:0:0:
36,192,98659,128,0,98740:0:0:0:0:
475,192,98659,1,0,0:0:0:0:
182,192,98740,128,0,98780:0:0:0:0:
109,192,98740,128,0,99064:0:0:0:0:
36,192,98821,1,0,0:0:0:0:
402,192,98821,128,0,98902:0:0:0:0:
475,192,98821,128,0,98902:0:0:0:0:
256,192,98902,128,0,98983:0:0:0:0:
182,192,98902,128,0,98983:0:0:0:0:
402,192,98983,128,0,99064:0:0:0:0:
475,192,98983,128,0,99267:0:0:0:0:
329,192,98983,1,0,0:0:0:0:
36,192,98983,128,0,99064:0:0:0:0:
256,192,99064,128,0,99145:0:0:0:0:
182,192,99064,128,0,99145:0:0:0:0:
329,192,99145,128,0,99226:0:0:0:0:
109,192,99145,128,0,99186:0:0:0:0:
36,192,99145,128,0,99186:0:0:0:0:
256,192,99226,128,0,99388:0:0:0:0:
182,192,99226,128,0,99388:0:0:0:0:
475,192,99307,1,0,0:0:0:0:
402,192,99307,128,0,99388:0:0:0:0:
109,192,99307,128,0,99388:0:0:0:0:
36,192,99307,1,0,0:0:0:0:
329,192,99388,128,0,99470:0:0:0:0:
256,192,99470,1,0,0:0:0:0:
182,192,99470,1,0,0:0:0:0:
109,192,99470,1,0,0:0:0:0:
402,192,99470,128,0,99551:0:0:0:0:
109,192,99551,128,0,99713:0:0:0:0:
36,192,99551,128,0,99916:0:0:0:0:
329,192,99551,128,0,99632:0:0:0:0:
256,192,99551,128,0,99632:0:0:0:0:
402,192,99632,128,0,99875:0:0:0:0:
475,192,99632,128,0,99713:0:0:0:0:
182,192,99632,128,0,99713:0:0:0:0:
329,192,99713,128,0,99753:0:0:0:0:
109,192,99794,1,0,0:0:0:0:
182,192,99794,1,0,0:0:0:0:
475,192,99794,128,0,99875:0:0:0:0:
256,192,99875,128,0,99956:0:0:0:0:
329,192,99875,128,0,99956:0:0:0:0:
36,192,99956,1,0,0:0:0:0:
402,192,99956,128,0,100037:0:0:0:0:
109,192,99956,128,0,100037:0:0:0:0:
475,192,99956,128,0,100037:0:0:0:0:
182,192,100037,128,0,100078:0:0:0:0:
256,192,100037,128,0,100280:0:0:0:0:
329,192,100037,128,0,100078:0:0:0:0:
36,192,100118,128,0,100199:0:0:0:0:
475,192,100118,1,0,0:0:0:0:
402,192,100118,1,0,0:0:0:0:
109,192,100199,128,0,100280:0:0:0:0:
182,192,100199,128,0,100280:0:0:0:0:
36,192,100280,128,0,100686:0:0:0:0:
329,192,100280,128,0,100402:0:0:0:0:
402,192,100280,128,0,100361:0:0:0:0:
475,192,100280,1,0,0:0:0:0:
182,192,100361,128,0,100564:0:0:0:0:
256,192,100361,128,0,100402:0:0:0:0:
109,192,100443,128,0,100483:0:0:0:0:
402,192,100443,128,0,100483:0:0:0:0:
329,192,100524,128,0,100605:0:0:0:0:
256,192,100524,128,0,100929:0:0:0:0:
182,192,100605,1,0,0:0:0:0:
109,192,100605,128,0,100686:0:0:0:0:
402,192,100605,128,0,100686:0:0:0:0:
475,192,100605,128,0,100686:0:0:0:0:
329,192,100686,128,0,100767:0:0:0:0:
109,192,100767,1,0,0:0:0:0:
36,192,100767,1,0,0:0:0:0:
475,192,100767,128,0,100807:0:0:0:0:
109,192,100848,128,0,101091:0:0:0:0:
329,192,100848,128,0,101091:0:0:0:0:
182,192,100848,128,0,100929:0:0:0:0:
475,192,100929,1,0,0:0:0:0:
36,192,100929,128,0,101010:0:0:0:0:
402,192,100929,128,0,101010:0:0:0:0:
256,192,101010,128,0,101091:0:0:0:0:
182,192,101010,128,0,101172:0:0:0:0:
36,192,101091,1,0,0:0:0:0:
402,192,101091,1,0,0:0:0:0:
475,192,101091,128,0,101334:0:0:0:0:
109,192,101172,128,0,101253:0:0:0:0:
329,192,101172,128,0,101253:0:0:0:0:
36,192,101253,128,0,101537:0:0:0:0:
182,192,101253,128,0,101294:0:0:0:0:
402,192,101253,128,0,101334:0:0:0:0:
256,192,101253,128,0,101294:0:0:0:0:
109,192,101334,128,0,101416:0:0:0:0:
329,192,101334,128,0,101578:0:0:0:0:
475,192,101416,1,0,0:0:0:0:
402,192,101416,1,0,0:0:0:0:
182,192,101416,1,0,0:0:0:0:
256,192,101497,128,0,101578:0:0:0:0:
109,192,101578,128,0,101659:0:0:0:0:
36,192,101578,1,0,0:0:0:0:
475,192,101578,128,0,101983:0:0:0:0:
182,192,101578,128,0,101699:0:0:0:0:
329,192,101659,128,0,101861:0:0:0:0:
256,192,101659,128,0,101699:0:0:0:0:
402,192,101740,128,0,101780:0:0:0:0:
109,192,101740,128,0,101780:0:0:0:0:
182,192,101821,128,0,101902:0:0:0:0:
256,192,101821,128,0,102226:0:0:0:0:
109,192,101902,128,0,101983:0:0:0:0:
36,192,101902,128,0,101983:0:0:0:0:
402,192,101902,128,0,101983:0:0:0:0:
329,192,101902,1,0,0:0:0:0:
182,192,101983,128,0,102064:0:0:0:0:
402,192,102064,1,0,0:0:0:0:
475,192,102064,1,0,0:0:0:0:
36,192,102064,128,0,102105:0:0:0:0:
329,192,102145,128,0,102226:0:0:0:0:
402,192,102145,128,0,102388:0:0:0:0:
182,192,102145,128,0,102388:0:0:0:0:
475,192,102226,128,0,102307:0:0:0:0:
109,192,102226,128,0,102307:0:0:0:0:
36,192,102226,1,0,0:0:0:0:
256,192,102307,128,0,102388:0:0:0:0:
329,192,102307,128,0,102470:0:0:0:0:
475,192,102388,1,0,0:0:0:0:
36,192,102388,128,0,102632:0:0:0:0:
109,192,102388,1,0,0:0:0:0:
402,192,102470,128,0,102551:0:0:0:0:
182,192,102470,128,0,102551:0:0:0:0:
329,192,102551,128,0,102591:0:0:0:0:
256,192,102551,128,0,102591:0:0:0:0:
109,192,102551,128,0,102632:0:0:0:0:
475,192,102551,128,0,102834:0:0:0:0:
182,192,102632,128,0,102794:0:0:0:0:
402,192,102632,128,0,102713:0:0:0:0:
36,192,102713,1,0,0:0:0:0:
109,192,102713,1,0,0:0:0:0:
329,192,102713,1,0,0:0:0:0:
256,192,102794,128,0,102875:0:0:0:0:
475,192,102875,1,0,0:0:0:0:
182,192,102875,1,0,0:0:0:0:
109,192,102875,1,0,0:0:0:0:
36,192,102875,1,0,0:0:0:0:
402,192,102875,128,0,102956:0:0:0:0:
256,192,102956,1,0,0:0:0:0:
329,192,102956,128,0,103037:0:0:0:0:
109,192,103037,128,0,103118:0:0:0:0:
36,192,103037,128,0,103280:0:0:0:0:
402,192,103037,1,0,0:0:0:0:
475,192,103037,128,0,103118:0:0:0:0:
256,192,103118,1,0,0:0:0:0:
182,192,103118,128,0,103199:0:0:0:0:
402,192,103199,1,0,0:0:0:0:
109,192,103199,128,0,103280:0:0:0:0:
475,192,103199,1,0,0:0:0:0:
329,192,103199,128,0,103280:0:0:0:0:
182,192,103280,1,0,0:0:0:0:
256,192,103280,128,0,103361:0:0:0:0:
36,192,103361,1,0,0:0:0:0:
109,192,103361,128,0,103443:0:0:0:0:
402,192,103361,128,0,103443:0:0:0:0:
329,192,103361,1,0,0:0:0:0:
182,192,103443,1,0,0:0:0:0:
256,192,103443,128,0,103605:0:0:0:0:
475,192,103443,128,0,103605:0:0:0:0:
109,192,103524,1,0,0:0:0:0:
36,192,103524,1,0,0:0:0:0:
402,192,103524,1,0,0:0:0:0:
329,192,103524,128,0,103605:0:0:0:0:
182,192,103605,1,0,0:0:0:0:
329,192,103686,1,0,0:0:0:0:
475,192,103686,1,0,0:0:0:0:
36,192,103686,128,0,103929:0:0:0:0:
256,192,103686,128,0,103767:0:0:0:0:
182,192,103767,1,0,0:0:0:0:
109,192,103767,1,0,0:0:0:0:
475,192,103848,1,0,0:0:0:0:
402,192,103848,1,0,0:0:0:0:
256,192,103848,1,0,0:0:0:0:
109,192,103929,1,0,0:0:0:0:
475,192,104010,128,0,104091:0:0:0:0:
36,192,104010,1,0,0:0:0:0:
256,192,104010,128,0,104091:0:0:0:0:
329,192,104010,1,0,0:0:0:0:
109,192,104091,1,0,0:0:0:0:
182,192,104091,1,0,0:0:0:0:
36,192,104172,1,0,0:0:0:0:
402,192,104172,1,0,0:0:0:0:
475,192,104172,1,0,0:0:0:0:
329,192,104172,128,0,104253:0:0:0:0:
256,192,104213,128,0,104294:0:0:0:0:
182,192,104253,128,0,104334:0:0:0:0:
402,192,104294,1,0,0:0:0:0:
329,192,104334,1,0,0:0:0:0:
182,192,104416,1,0,0:0:0:0:
475,192,104416,128,0,104497:0:0:0:0:
109,192,104456,1,0,0:0:0:0:
402,192,104456,128,0,104537:0:0:0:0:
36,192,104497,1,0,0:0:0:0:
329,192,104497,128,0,104578:0:0:0:0:
182,192,104537,128,0,104618:0:0:0:0:
256,192,104537,1,0,0:0:0:0:
329,192,104659,1,0,0:0:0:0:
475,192,104659,128,0,104699:0:0:0:0:
402,192,104659,128,0,104699:0:0:0:0:
109,192,104659,1,0,0:0:0:0:
36,192,104740,1,0,0:0:0:0:
182,192,104740,1,0,0:0:0:0:
256,192,104740,1,0,0:0:0:0:
109,192,104821,128,0,104902:0:0:0:0:
36,192,104902,1,0,0:0:0:0:
256,192,104902,1,0,0:0:0:0:
329,192,104902,1,0,0:0:0:0:
402,192,104902,1,0,0:0:0:0:
475,192,104902,1,0,0:0:0:0:
182,192,104983,128,0,105064:0:0:0:0:
402,192,105024,1,0,0:0:0:0:
329,192,105064,1,0,0:0:0:0:
36,192,105145,128,0,105267:0:0:0:0:
402,192,105145,128,0,105267:0:0:0:0:
109,192,105145,128,0,105267:0:0:0:0:
475,192,105145,128,0,105267:0:0:0:0:
256,192,105145,128,0,105267:0:0:0:0:
182,192,105186,1,0,0:0:0:0:
36,192,105307,1,0,0:0:0:0:
109,192,105307,1,0,0:0:0:0:
182,192,105307,1,0,0:0:0:0:
329,192,105307,1,0,0:0:0:0:
475,192,105307,1,0,0:0:0:0:
402,192,105470,1,0,0:0:0:0:
475,192,105470,1,0,0:0:0:0:
329,192,105470,128,0,105632:0:0:0:0:
256,192,105470,128,0,105632:0:0:0:0:
182,192,105470,128,0,105632:0:0:0:0:
109,192,105470,128,0,105632:0:0:0:0:
36,192,105470,128,0,105632:0:0:0:0:
475,192,105551,128,0,105875:0:0:0:0:
109,192,105713,1,0,0:0:0:0:
36,192,105713,1,0,0:0:0:0:
182,192,105713,128,0,105875:0:0:0:0:
256,192,105713,128,0,105875:0:0:0:0:
329,192,105713,128,0,105875:0:0:0:0:
36,192,105794,128,0,106199:0:0:0:0:
402,192,105956,1,0,0:0:0:0:
182,192,105956,128,0,106361:0:0:0:0:
256,192,105956,128,0,106199:0:0:0:0:
329,192,105956,128,0,106361:0:0:0:0:
475,192,105956,128,0,106199:0:0:0:0:
36,192,106280,1,0,0:0:0:0:
475,192,106280,1,0,0:0:0:0:
256,192,106280,1,0,0:0:0:0:
36,192,106361,1,0,0:0:0:0:
475,192,106361,1,0,0:0:0:0:
256,192,106361,1,0,0:0:0:0:
109,192,106443,128,0,106483:0:0:0:0:
182,192,106443,128,0,106483:0:0:0:0:
329,192,106443,128,0,106483:0:0:0:0:
402,192,106443,128,0,106483:0:0:0:0:
256,192,106605,1,0,0:0:0:0:
109,192,106605,1,0,0:0:0:0:
402,192,106605,1,0,0:0:0:0:
402,192,106767,1,0,0:0:0:0:
475,192,106767,1,0,0:0:0:0:
182,192,106767,128,0,106848:0:0:0:0:
36,192,106767,128,0,106929:0:0:0:0:
256,192,106767,1,0,0:0:0:0:
329,192,106767,128,0,106929:0:0:0:0:
109,192,106848,1,0,0:0:0:0:
182,192,106929,1,0,0:0:0:0:
475,192,106929,128,0,107497:0:0:0:0:
36,192,107010,1,0,0:0:0:0:
109,192,107010,128,0,107659:0:0:0:0:
329,192,107010,1,0,0:0:0:0:
182,192,107091,1,0,0:0:0:0:
256,192,107091,128,0,107172:0:0:0:0:
402,192,107091,1,0,0:0:0:0:
402,192,107253,128,0,107659:0:0:0:0:
256,192,107253,1,0,0:0:0:0:
36,192,107253,1,0,0:0:0:0:
256,192,107334,1,0,0:0:0:0:
36,192,107416,128,0,107659:0:0:0:0:
182,192,107416,128,0,107497:0:0:0:0:
329,192,107416,1,0,0:0:0:0:
256,192,107578,128,0,107943:0:0:0:0:
475,192,107578,128,0,107659:0:0:0:0:
182,192,107578,1,0,0:0:0:0:
402,192,107740,1,0,0:0:0:0:
109,192,107740,1,0,0:0:0:0:
36,192,107740,128,0,107821:0:0:0:0:
329,192,107740,128,0,107821:0:0:0:0:
36,192,107902,1,0,0:0:0:0:
475,192,107902,1,0,0:0:0:0:
182,192,107983,1,0,0:0:0:0:
256,192,107983,1,0,0:0:0:0:
402,192,108064,128,0,108145:0:0:0:0:
109,192,108064,128,0,108267:0:0:0:0:
329,192,108064,1,0,0:0:0:0:
475,192,108064,128,0,108145:0:0:0:0:
36,192,108145,128,0,108186:0:0:0:0:
182,192,108145,128,0,108388:0:0:0:0:
256,192,108145,128,0,108186:0:0:0:0:
329,192,108226,128,0,108267:0:0:0:0:
475,192,108226,128,0,108267:0:0:0:0:
402,192,108226,1,0,0:0:0:0:
36,192,108307,128,0,108470:0:0:0:0:
256,192,108307,128,0,108551:0:0:0:0:
109,192,108307,1,0,0:0:0:0:
402,192,108388,1,0,0:0:0:0:
329,192,108388,128,0,108470:0:0:0:0:
475,192,108388,128,0,108632:0:0:0:0:
182,192,108470,128,0,108551:0:0:0:0:
36,192,108551,128,0,108632:0:0:0:0:
329,192,108551,128,0,108753:0:0:0:0:
109,192,108551,128,0,108632:0:0:0:0:
256,192,108632,128,0,108875:0:0:0:0:
402,192,108632,128,0,108672:0:0:0:0:
182,192,108632,128,0,108672:0:0:0:0:
36,192,108713,1,0,0:0:0:0:
109,192,108713,128,0,108753:0:0:0:0:
475,192,108713,128,0,108753:0:0:0:0:
182,192,108794,128,0,109037:0:0:0:0:
402,192,108794,128,0,109037:0:0:0:0:
329,192,108794,1,0,0:0:0:0:
109,192,108875,128,0,108956:0:0:0:0:
36,192,108875,1,0,0:0:0:0:
475,192,108875,128,0,108956:0:0:0:0:
329,192,108956,128,0,109037:0:0:0:0:
36,192,109037,128,0,109118:0:0:0:0:
256,192,109037,128,0,109240:0:0:0:0:
475,192,109037,1,0,0:0:0:0:
109,192,109037,128,0,109118:0:0:0:0:
182,192,109118,128,0,109159:0:0:0:0:
402,192,109118,1,0,0:0:0:0:
329,192,109118,128,0,109159:0:0:0:0:
475,192,109199,128,0,109240:0:0:0:0:
36,192,109199,1,0,0:0:0:0:
109,192,109199,128,0,109240:0:0:0:0:
256,192,109280,1,0,0:0:0:0:
182,192,109280,128,0,109361:0:0:0:0:
402,192,109280,128,0,109321:0:0:0:0:
36,192,109361,1,0,0:0:0:0:
109,192,109361,128,0,109402:0:0:0:0:
475,192,109361,128,0,109443:0:0:0:0:
329,192,109361,128,0,109443:0:0:0:0:
182,192,109443,128,0,109483:0:0:0:0:
256,192,109443,128,0,109848:0:0:0:0:
402,192,109443,128,0,109564:0:0:0:0:
36,192,109524,128,0,109564:0:0:0:0:
475,192,109524,128,0,109686:0:0:0:0:
329,192,109524,128,0,109645:0:0:0:0:
109,192,109605,128,0,109645:0:0:0:0:
182,192,109605,128,0,109767:0:0:0:0:
402,192,109686,128,0,109726:0:0:0:0:
329,192,109686,1,0,0:0:0:0:
36,192,109686,1,0,0:0:0:0:
475,192,109767,128,0,109807:0:0:0:0:
109,192,109767,128,0,109888:0:0:0:0:
329,192,109848,128,0,109888:0:0:0:0:
182,192,109848,128,0,109970:0:0:0:0:
36,192,109848,128,0,109970:0:0:0:0:
402,192,109929,128,0,109970:0:0:0:0:
475,192,109929,128,0,110294:0:0:0:0:
256,192,109929,128,0,110010:0:0:0:0:
182,192,110010,1,0,0:0:0:0:
329,192,110010,128,0,110091:0:0:0:0:
36,192,110010,1,0,0:0:0:0:
109,192,110010,128,0,110132:0:0:0:0:
256,192,110091,128,0,110132:0:0:0:0:
402,192,110091,1,0,0:0:0:0:
329,192,110172,128,0,110294:0:0:0:0:
109,192,110172,1,0,0:0:0:0:
36,192,110172,128,0,110213:0:0:0:0:
182,192,110253,128,0,110618:0:0:0:0:
256,192,110253,1,0,0:0:0:0:
329,192,110334,1,0,0:0:0:0:
475,192,110334,1,0,0:0:0:0:
36,192,110334,128,0,110416:0:0:0:0:
402,192,110334,128,0,110456:0:0:0:0:
109,192,110416,1,0,0:0:0:0:
256,192,110416,128,0,110456:0:0:0:0:
36,192,110497,128,0,110618:0:0:0:0:
402,192,110497,1,0,0:0:0:0:
475,192,110497,128,0,110537:0:0:0:0:
256,192,110578,1,0,0:0:0:0:
329,192,110578,128,0,110659:0:0:0:0:
36,192,110659,1,0,0:0:0:0:
182,192,110659,1,0,0:0:0:0:
475,192,110659,1,0,0:0:0:0:
109,192,110659,128,0,111105:0:0:0:0:
402,192,110659,128,0,110821:0:0:0:0:
256,192,110740,1,0,0:0:0:0:
182,192,110821,128,0,110902:0:0:0:0:
329,192,110821,128,0,110902:0:0:0:0:
402,192,110902,128,0,110983:0:0:0:0:
36,192,110902,128,0,111105:0:0:0:0:
182,192,110983,1,0,0:0:0:0:
475,192,110983,128,0,111267:0:0:0:0:
329,192,110983,128,0,111267:0:0:0:0:
256,192,111064,128,0,111145:0:0:0:0:
402,192,111064,1,0,0:0:0:0:
109,192,111145,1,0,0:0:0:0:
36,192,111145,1,0,0:0:0:0:
256,192,111226,1,0,0:0:0:0:
182,192,111226,128,0,111307:0:0:0:0:
329,192,111307,1,0,0:0:0:0:
475,192,111307,1,0,0:0:0:0:
36,192,111307,1,0,0:0:0:0:
402,192,111307,128,0,111753:0:0:0:0:
109,192,111307,128,0,111470:0:0:0:0:
256,192,111388,1,0,0:0:0:0:
329,192,111470,128,0,111551:0:0:0:0:
182,192,111470,128,0,111551:0:0:0:0:
109,192,111551,128,0,111632:0:0:0:0:
475,192,111551,128,0,111753:0:0:0:0:
329,192,111632,1,0,0:0:0:0:
36,192,111632,128,0,111916:0:0:0:0:
182,192,111632,128,0,111916:0:0:0:0:
256,192,111713,128,0,111794:0:0:0:0:
109,192,111713,1,0,0:0:0:0:
402,192,111794,1,0,0:0:0:0:
475,192,111794,1,0,0:0:0:0:
256,192,111875,1,0,0:0:0:0:
329,192,111875,128,0,111956:0:0:0:0:
182,192,111956,1,0,0:0:0:0:
36,192,111956,1,0,0:0:0:0:
475,192,111956,128,0,112402:0:0:0:0:
402,192,111956,128,0,112159:0:0:0:0:
109,192,111956,128,0,112280:0:0:0:0:
329,192,112037,1,0,0:0:0:0:
256,192,112118,128,0,112199:0:0:0:0:
182,192,112118,128,0,112280:0:0:0:0:
402,192,112199,1,0,0:0:0:0:
256,192,112280,1,0,0:0:0:0:
329,192,112280,128,0,112402:0:0:0:0:
36,192,112280,128,0,112524:0:0:0:0:
182,192,112361,128,0,112443:0:0:0:0:
109,192,112361,1,0,0:0:0:0:
475,192,112443,1,0,0:0:0:0:
329,192,112443,1,0,0:0:0:0:
256,192,112524,128,0,112605:0:0:0:0:
182,192,112524,1,0,0:0:0:0:
109,192,112605,128,0,112807:0:0:0:0:
475,192,112605,1,0,0:0:0:0:
36,192,112605,128,0,113051:0:0:0:0:
402,192,112605,128,0,112929:0:0:0:0:
329,192,112605,1,0,0:0:0:0:
182,192,112686,1,0,0:0:0:0:
256,192,112767,128,0,112848:0:0:0:0:
329,192,112767,128,0,112929:0:0:0:0:
109,192,112848,1,0,0:0:0:0:
182,192,112929,128,0,113051:0:0:0:0:
256,192,112929,1,0,0:0:0:0:
475,192,112929,128,0,113172:0:0:0:0:
402,192,113010,1,0,0:0:0:0:
329,192,113010,128,0,113091:0:0:0:0:
182,192,113091,1,0,0:0:0:0:
36,192,113091,1,0,0:0:0:0:
329,192,113172,1,0,0:0:0:0:
256,192,113172,128,0,113253:0:0:0:0:
475,192,113253,128,0,113497:0:0:0:0:
402,192,113253,128,0,113334:0:0:0:0:
182,192,113253,128,0,113416:0:0:0:0:
36,192,113253,128,0,113699:0:0:0:0:
109,192,113253,1,0,0:0:0:0:
329,192,113334,128,0,113497:0:0:0:0:
256,192,113334,128,0,113416:0:0:0:0:
109,192,113416,128,0,113497:0:0:0:0:
402,192,113416,128,0,113497:0:0:0:0:
182,192,113497,128,0,113578:0:0:0:0:
256,192,113497,128,0,113578:0:0:0:0:
329,192,113578,128,0,113699:0:0:0:0:
402,192,113578,128,0,113699:0:0:0:0:
475,192,113578,128,0,113699:0:0:0:0:
109,192,113578,128,0,113740:0:0:0:0:
182,192,113659,128,0,113740:0:0:0:0:
475,192,113740,1,0,0:0:0:0:
402,192,113740,1,0,0:0:0:0:
36,192,113740,1,0,0:0:0:0:
256,192,113740,1,0,0:0:0:0:
329,192,113821,128,0,114064:0:0:0:0:
182,192,113821,1,0,0:0:0:0:
109,192,113821,128,0,113902:0:0:0:0:
402,192,113902,1,0,0:0:0:0:
36,192,113902,128,0,114064:0:0:0:0:
256,192,113902,128,0,113983:0:0:0:0:
475,192,113983,128,0,114226:0:0:0:0:
109,192,113983,128,0,114145:0:0:0:0:
256,192,114064,128,0,114105:0:0:0:0:
402,192,114064,128,0,114105:0:0:0:0:
182,192,114064,1,0,0:0:0:0:
329,192,114145,128,0,114307:0:0:0:0:
36,192,114145,1,0,0:0:0:0:
109,192,114226,1,0,0:0:0:0:
182,192,114226,128,0,114388:0:0:0:0:
256,192,114226,1,0,0:0:0:0:
402,192,114226,128,0,114388:0:0:0:0:
36,192,114307,128,0,114551:0:0:0:0:
475,192,114307,128,0,114388:0:0:0:0:
109,192,114388,128,0,114429:0:0:0:0:
256,192,114388,128,0,114429:0:0:0:0:
329,192,114388,1,0,0:0:0:0:
182,192,114470,128,0,114551:0:0:0:0:
475,192,114470,1,0,0:0:0:0:
402,192,114551,1,0,0:0:0:0:
109,192,114551,1,0,0:0:0:0:
329,192,114551,128,0,114794:0:0:0:0:
256,192,114551,128,0,114632:0:0:0:0:
475,192,114632,1,0,0:0:0:0:
36,192,114632,1,0,0:0:0:0:
182,192,114713,1,0,0:0:0:0:
256,192,114713,1,0,0:0:0:0:
109,192,114713,128,0,114794:0:0:0:0:
402,192,114713,128,0,114794:0:0:0:0:
36,192,114794,1,0,0:0:0:0:
475,192,114794,1,0,0:0:0:0:
182,192,114875,128,0,115199:0:0:0:0:
256,192,114875,128,0,114916:0:0:0:0:
329,192,114875,128,0,114916:0:0:0:0:
109,192,114875,128,0,114916:0:0:0:0:
402,192,114875,128,0,114916:0:0:0:0:
109,192,115037,1,0,0:0:0:0:
402,192,115037,1,0,0:0:0:0:
36,192,115118,1,0,0:0:0:0:
475,192,115118,1,0,0:0:0:0:
256,192,115118,1,0,0:0:0:0:
109,192,115199,1,0,0:0:0:0:
329,192,115199,1,0,0:0:0:0:
402,192,115199,1,0,0:0:0:0:
109,192,115280,128,0,115361:0:0:0:0:
329,192,115280,128,0,115361:0:0:0:0:
402,192,115280,128,0,115361:0:0:0:0:
475,192,115361,1,0,0:0:0:0:
182,192,115361,1,0,0:0:0:0:
329,192,115443,1,0,0:0:0:0:
256,192,115443,1,0,0:0:0:0:
36,192,115443,1,0,0:0:0:0:
36,192,115524,128,0,115564:0:0:0:0:
256,192,115524,128,0,115564:0:0:0:0:
109,192,115524,128,0,115564:0:0:0:0:
402,192,115524,128,0,115564:0:0:0:0:
475,192,115524,128,0,115564:0:0:0:0:
182,192,115686,1,0,0:0:0:0:
109,192,115686,1,0,0:0:0:0:
329,192,115686,1,0,0:0:0:0:
402,192,115686,1,0,0:0:0:0:
256,192,115767,1,0,0:0:0:0:
402,192,115848,1,0,0:0:0:0:
475,192,115848,128,0,116213:0:0:0:0:
182,192,115848,128,0,116375:0:0:0:0:
36,192,115848,1,0,0:0:0:0:
329,192,115848,128,0,116091:0:0:0:0:
109,192,115848,128,0,115888:0:0:0:0:
256,192,115929,128,0,115970:0:0:0:0:
36,192,116010,128,0,116456:0:0:0:0:
109,192,116010,128,0,116091:0:0:0:0:
256,192,116091,128,0,116172:0:0:0:0:
402,192,116172,1,0,0:0:0:0:
109,192,116172,1,0,0:0:0:0:
329,192,116172,128,0,116294:0:0:0:0:
475,192,116253,1,0,0:0:0:0:
256,192,116253,128,0,116416:0:0:0:0:
402,192,116334,128,0,116416:0:0:0:0:
329,192,116334,1,0,0:0:0:0:
109,192,116416,128,0,116902:0:0:0:0:
182,192,116416,1,0,0:0:0:0:
36,192,116497,1,0,0:0:0:0:
475,192,116497,128,0,116740:0:0:0:0:
402,192,116497,1,0,0:0:0:0:
256,192,116497,128,0,116537:0:0:0:0:
329,192,116578,128,0,116618:0:0:0:0:
182,192,116618,128,0,116780:0:0:0:0:
402,192,116659,128,0,116740:0:0:0:0:
36,192,116659,128,0,116699:0:0:0:0:
329,192,116740,128,0,116902:0:0:0:0:
256,192,116740,128,0,116821:0:0:0:0:
475,192,116821,128,0,116902:0:0:0:0:
402,192,116821,1,0,0:0:0:0:
182,192,116821,1,0,0:0:0:0:
36,192,116821,128,0,117024:0:0:0:0:
256,192,116902,128,0,116983:0:0:0:0:
329,192,116983,128,0,117105:0:0:0:0:
109,192,116983,128,0,117024:0:0:0:0:
402,192,116983,128,0,117024:0:0:0:0:
256,192,117064,128,0,117388:0:0:0:0:
182,192,117064,128,0,117186:0:0:0:0:
36,192,117145,128,0,117267:0:0:0:0:
109,192,117145,128,0,117632:0:0:0:0:
475,192,117145,1,0,0:0:0:0:
402,192,117145,128,0,117348:0:0:0:0:
329,192,117145,1,0,0:0:0:0:
182,192,117226,1,0,0:0:0:0:
475,192,117307,128,0,117388:0:0:0:0:
36,192,117307,1,0,0:0:0:0:
402,192,117388,1,0,0:0:0:0:
182,192,117388,128,0,117470:0:0:0:0:
475,192,117470,128,0,117632:0:0:0:0:
36,192,117470,128,0,117551:0:0:0:0:
329,192,117470,128,0,117510:0:0:0:0:
256,192,117470,1,0,0:0:0:0:
182,192,117551,128,0,117753:0:0:0:0:
256,192,117632,128,0,117713:0:0:0:0:
329,192,117632,128,0,117713:0:0:0:0:
402,192,117632,1,0,0:0:0:0:
36,192,117713,128,0,118037:0:0:0:0:
109,192,117713,128,0,117875:0:0:0:0:
475,192,117713,1,0,0:0:0:0:
182,192,117794,1,0,0:0:0:0:
329,192,117794,128,0,117997:0:0:0:0:
402,192,117794,128,0,117834:0:0:0:0:
256,192,117875,128,0,117956:0:0:0:0:
109,192,117956,128,0,118199:0:0:0:0:
402,192,117956,128,0,118280:0:0:0:0:
475,192,117956,128,0,117997:0:0:0:0:
182,192,118037,128,0,118118:0:0:0:0:
256,192,118037,128,0,118118:0:0:0:0:
475,192,118118,1,0,0:0:0:0:
36,192,118118,128,0,118199:0:0:0:0:
329,192,118118,128,0,118199:0:0:0:0:
256,192,118199,1,0,0:0:0:0:
182,192,118199,128,0,118443:0:0:0:0:
329,192,118280,1,0,0:0:0:0:
475,192,118280,128,0,118361:0:0:0:0:
109,192,118280,128,0,118361:0:0:0:0:
402,192,118361,1,0,0:0:0:0:
256,192,118361,128,0,118443:0:0:0:0:
109,192,118443,1,0,0:0:0:0:
36,192,118443,128,0,118726:0:0:0:0:
329,192,118443,128,0,118564:0:0:0:0:
475,192,118443,128,0,118564:0:0:0:0:
256,192,118524,1,0,0:0:0:0:
182,192,118524,128,0,118645:0:0:0:0:
329,192,118605,1,0,0:0:0:0:
402,192,118605,128,0,118686:0:0:0:0:
109,192,118605,128,0,118726:0:0:0:0:
182,192,118686,1,0,0:0:0:0:
256,192,118686,128,0,118767:0:0:0:0:
36,192,118767,1,0,0:0:0:0:
402,192,118767,1,0,0:0:0:0:
475,192,118767,128,0,118929:0:0:0:0:
329,192,118767,128,0,118848:0:0:0:0:
109,192,118767,1,0,0:0:0:0:
256,192,118848,128,0,118929:0:0:0:0:
402,192,118929,128,0,119051:0:0:0:0:
109,192,118929,128,0,119213:0:0:0:0:
182,192,118929,1,0,0:0:0:0:
256,192,119010,128,0,119132:0:0:0:0:
329,192,119010,1,0,0:0:0:0:
36,192,119010,128,0,119132:0:0:0:0:
402,192,119091,1,0,0:0:0:0:
182,192,119091,128,0,119375:0:0:0:0:
475,192,119091,128,0,119172:0:0:0:0:
256,192,119172,1,0,0:0:0:0:
329,192,119172,128,0,119253:0:0:0:0:
109,192,119253,1,0,0:0:0:0:
475,192,119253,128,0,119416:0:0:0:0:
402,192,119253,128,0,119294:0:0:0:0:
256,192,119334,128,0,119416:0:0:0:0:
329,192,119334,128,0,119740:0:0:0:0:
182,192,119416,1,0,0:0:0:0:
402,192,119416,1,0,0:0:0:0:
109,192,119416,128,0,119578:0:0:0:0:
36,192,119416,128,0,119456:0:0:0:0:
475,192,119497,128,0,119578:0:0:0:0:
182,192,119578,128,0,119740:0:0:0:0:
36,192,119578,1,0,0:0:0:0:
256,192,119578,128,0,119618:0:0:0:0:
402,192,119659,128,0,119740:0:0:0:0:
109,192,119740,128,0,119821:0:0:0:0:
256,192,119740,1,0,0:0:0:0:
475,192,119740,128,0,120064:0:0:0:0:
36,192,119740,128,0,119821:0:0:0:0:
182,192,119821,128,0,119902:0:0:0:0:
329,192,119821,1,0,0:0:0:0:
402,192,119902,128,0,119983:0:0:0:0:
109,192,119902,128,0,120064:0:0:0:0:
256,192,119902,1,0,0:0:0:0:
329,192,119983,128,0,120226:0:0:0:0:
182,192,119983,1,0,0:0:0:0:
402,192,120064,1,0,0:0:0:0:
256,192,120064,128,0,120145:0:0:0:0:
36,192,120064,128,0,120307:0:0:0:0:
475,192,120145,1,0,0:0:0:0:
109,192,120145,128,0,120226:0:0:0:0:
256,192,120226,1,0,0:0:0:0:
402,192,120226,128,0,120470:0:0:0:0:
182,192,120226,128,0,120307:0:0:0:0:
109,192,120307,128,0,120551:0:0:0:0:
329,192,120307,1,0,0:0:0:0:
182,192,120388,1,0,0:0:0:0:
36,192,120388,128,0,120470:0:0:0:0:
475,192,120388,128,0,120632:0:0:0:0:
256,192,120470,1,0,0:0:0:0:
329,192,120470,128,0,120551:0:0:0:0:
36,192,120551,1,0,0:0:0:0:
182,192,120551,128,0,120713:0:0:0:0:
402,192,120551,128,0,120713:0:0:0:0:
329,192,120632,128,0,120875:0:0:0:0:
109,192,120632,128,0,120875:0:0:0:0:
256,192,120713,128,0,120794:0:0:0:0:
475,192,120713,1,0,0:0:0:0:
36,192,120713,128,0,120794:0:0:0:0:
402,192,120794,128,0,121037:0:0:0:0:
182,192,120794,128,0,120956:0:0:0:0:
256,192,120875,1,0,0:0:0:0:
475,192,120875,128,0,120956:0:0:0:0:
36,192,120875,1,0,0:0:0:0:
109,192,120956,128,0,121037:0:0:0:0:
329,192,120956,128,0,121037:0:0:0:0:
475,192,121037,1,0,0:0:0:0:
182,192,121037,128,0,121118:0:0:0:0:
256,192,121037,128,0,121524:0:0:0:0:
36,192,121037,128,0,121078:0:0:0:0:
329,192,121118,1,0,0:0:0:0:
109,192,121118,128,0,121159:0:0:0:0:
402,192,121199,1,0,0:0:0:0:
475,192,121199,1,0,0:0:0:0:
182,192,121199,128,0,121240:0:0:0:0:
36,192,121280,1,0,0:0:0:0:
329,192,121280,128,0,121321:0:0:0:0:
109,192,121361,1,0,0:0:0:0:
182,192,121361,1,0,0:0:0:0:
402,192,121361,128,0,121402:0:0:0:0:
36,192,121443,1,0,0:0:0:0:
475,192,121443,128,0,121483:0:0:0:0:
329,192,121524,128,0,121605:0:0:0:0:
182,192,121524,128,0,121605:0:0:0:0:
109,192,121524,1,0,0:0:0:0:
402,192,121524,1,0,0:0:0:0:
256,192,121605,128,0,121686:0:0:0:0:
36,192,121605,1,0,0:0:0:0:
475,192,121605,1,0,0:0:0:0:
182,192,121686,128,0,121767:0:0:0:0:
109,192,121686,1,0,0:0:0:0:
329,192,121686,128,0,121767:0:0:0:0:
402,192,121686,1,0,0:0:0:0:
256,192,121767,1,0,0:0:0:0:
36,192,121767,1,0,0:0:0:0:
329,192,121848,1,0,0:0:0:0:
109,192,121848,1,0,0:0:0:0:
475,192,121848,1,0,0:0:0:0:
256,192,121929,128,0,122010:0:0:0:0:
402,192,121929,128,0,122010:0:0:0:0:
182,192,121929,1,0,0:0:0:0:
475,192,122010,1,0,0:0:0:0:
329,192,122010,1,0,0:0:0:0:
109,192,122010,1,0,0:0:0:0:
36,192,122010,1,0,0:0:0:0:
402,192,122091,1,0,0:0:0:0:
182,192,122091,1,0,0:0:0:0:
329,192,122172,128,0,122253:0:0:0:0:
475,192,122172,128,0,122253:0:0:0:0:
256,192,122172,1,0,0:0:0:0:
109,192,122172,1,0,0:0:0:0:
402,192,122253,1,0,0:0:0:0:
36,192,122253,1,0,0:0:0:0:
475,192,122334,1,0,0:0:0:0:
329,192,122334,128,0,122902:0:0:0:0:
109,192,122334,1,0,0:0:0:0:
256,192,122334,128,0,122375:0:0:0:0:
182,192,122334,128,0,122375:0:0:0:0:
402,192,122416,1,0,0:0:0:0:
36,192,122416,128,0,122497:0:0:0:0:
475,192,122497,1,0,0:0:0:0:
256,192,122497,1,0,0:0:0:0:
182,192,122497,128,0,122659:0:0:0:0:
109,192,122578,1,0,0:0:0:0:
36,192,122578,128,0,122740:0:0:0:0:
475,192,122659,128,0,122699:0:0:0:0:
256,192,122659,128,0,122821:0:0:0:0:
402,192,122659,128,0,122699:0:0:0:0:
109,192,122740,128,0,122821:0:0:0:0:
182,192,122740,1,0,0:0:0:0:
475,192,122821,1,0,0:0:0:0:
402,192,122821,1,0,0:0:0:0:
36,192,122821,128,0,122902:0:0:0:0:
256,192,122902,1,0,0:0:0:0:
109,192,122902,128,0,122983:0:0:0:0:
182,192,122983,128,0,123551:0:0:0:0:
36,192,122983,1,0,0:0:0:0:
329,192,122983,128,0,123024:0:0:0:0:
402,192,122983,128,0,123024:0:0:0:0:
109,192,123064,1,0,0:0:0:0:
475,192,123064,128,0,123145:0:0:0:0:
256,192,123145,1,0,0:0:0:0:
329,192,123145,128,0,123307:0:0:0:0:
36,192,123145,128,0,123226:0:0:0:0:
402,192,123226,1,0,0:0:0:0:
475,192,123226,128,0,123388:0:0:0:0:
109,192,123307,128,0,123348:0:0:0:0:
36,192,123307,128,0,123348:0:0:0:0:
256,192,123307,128,0,123470:0:0:0:0:
329,192,123388,1,0,0:0:0:0:
402,192,123388,128,0,123470:0:0:0:0:
36,192,123470,1,0,0:0:0:0:
475,192,123470,128,0,123551:0:0:0:0:
109,192,123470,128,0,123551:0:0:0:0:
256,192,123551,1,0,0:0:0:0:
402,192,123551,128,0,123713:0:0:0:0:
182,192,123632,1,0,0:0:0:0:
329,192,123632,128,0,123713:0:0:0:0:
109,192,123632,128,0,123713:0:0:0:0:
36,192,123632,128,0,123834:0:0:0:0:
475,192,123632,1,0,0:0:0:0:
256,192,123713,1,0,0:0:0:0:
329,192,123794,1,0,0:0:0:0:
109,192,123794,1,0,0:0:0:0:
475,192,123794,128,0,123997:0:0:0:0:
182,192,123794,128,0,123834:0:0:0:0:
402,192,123794,128,0,123875:0:0:0:0:
256,192,123875,1,0,0:0:0:0:
36,192,123956,1,0,0:0:0:0:
402,192,123956,1,0,0:0:0:0:
109,192,123956,128,0,124159:0:0:0:0:
329,192,123956,128,0,124037:0:0:0:0:
182,192,123956,128,0,124037:0:0:0:0:
256,192,124037,1,0,0:0:0:0:
475,192,124118,1,0,0:0:0:0:
182,192,124118,1,0,0:0:0:0:
402,192,124118,128,0,124321:0:0:0:0:
36,192,124118,128,0,124159:0:0:0:0:
329,192,124118,128,0,124199:0:0:0:0:
256,192,124199,1,0,0:0:0:0:
475,192,124280,128,0,124321:0:0:0:0:
109,192,124280,1,0,0:0:0:0:
36,192,124280,128,0,124361:0:0:0:0:
329,192,124361,1,0,0:0:0:0:
256,192,124361,128,0,124564:0:0:0:0:
182,192,124361,128,0,124443:0:0:0:0:
402,192,124443,1,0,0:0:0:0:
36,192,124443,1,0,0:0:0:0:
475,192,124443,128,0,124524:0:0:0:0:
182,192,124524,1,0,0:0:0:0:
109,192,124524,128,0,124605:0:0:0:0:
329,192,124524,128,0,124564:0:0:0:0:
475,192,124605,1,0,0:0:0:0:
36,192,124605,128,0,124686:0:0:0:0:
402,192,124605,128,0,124767:0:0:0:0:
329,192,124686,1,0,0:0:0:0:
182,192,124686,128,0,124767:0:0:0:0:
256,192,124686,128,0,124767:0:0:0:0:
36,192,124767,1,0,0:0:0:0:
109,192,124767,128,0,124807:0:0:0:0:
475,192,124767,128,0,124848:0:0:0:0:
402,192,124848,1,0,0:0:0:0:
182,192,124848,128,0,124888:0:0:0:0:
329,192,124848,128,0,124929:0:0:0:0:
109,192,124929,1,0,0:0:0:0:
256,192,124929,128,0,124970:0:0:0:0:
475,192,124929,128,0,125091:0:0:0:0:
36,192,124929,128,0,125010:0:0:0:0:
182,192,125010,128,0,125051:0:0:0:0:
402,192,125010,128,0,125091:0:0:0:0:
109,192,125091,128,0,125253:0:0:0:0:
256,192,125091,128,0,125132:0:0:0:0:
36,192,125091,1,0,0:0:0:0:
182,192,125172,128,0,125334:0:0:0:0:
329,192,125172,128,0,125213:0:0:0:0:
402,192,125172,128,0,125334:0:0:0:0:
475,192,125172,128,0,125253:0:0:0:0:
36,192,125253,128,0,125294:0:0:0:0:
256,192,125253,128,0,125334:0:0:0:0:
109,192,125334,128,0,125375:0:0:0:0:
329,192,125334,128,0,125578:0:0:0:0:
475,192,125334,1,0,0:0:0:0:
182,192,125416,1,0,0:0:0:0:
36,192,125416,128,0,125578:0:0:0:0:
402,192,125416,128,0,125456:0:0:0:0:
256,192,125416,128,0,125497:0:0:0:0:
109,192,125497,128,0,125578:0:0:0:0:
475,192,125497,128,0,125537:0:0:0:0:
182,192,125578,128,0,125659:0:0:0:0:
256,192,125578,1,0,0:0:0:0:
402,192,125578,128,0,125618:0:0:0:0:
36,192,125659,1,0,0:0:0:0:
475,192,125659,128,0,125821:0:0:0:0:
109,192,125659,128,0,125821:0:0:0:0:
329,192,125659,128,0,125699:0:0:0:0:
402,192,125740,128,0,125821:0:0:0:0:
256,192,125740,128,0,125780:0:0:0:0:
182,192,125740,1,0,0:0:0:0:
329,192,125821,128,0,125983:0:0:0:0:
36,192,125821,128,0,125902:0:0:0:0:
256,192,125902,128,0,126064:0:0:0:0:
402,192,125902,1,0,0:0:0:0:
475,192,125902,128,0,125983:0:0:0:0:
109,192,125902,1,0,0:0:0:0:
182,192,125983,128,0,126145:0:0:0:0:
36,192,125983,1,0,0:0:0:0:
109,192,126064,128,0,126145:0:0:0:0:
475,192,126064,1,0,0:0:0:0:
402,192,126064,128,0,126145:0:0:0:0:
329,192,126064,1,0,0:0:0:0:
36,192,126145,128,0,126226:0:0:0:0:
256,192,126145,128,0,126226:0:0:0:0:
182,192,126226,1,0,0:0:0:0:
109,192,126226,1,0,0:0:0:0:
402,192,126226,1,0,0:0:0:0:
329,192,126226,128,0,126551:0:0:0:0:
475,192,126226,128,0,131361:0:0:0:0:
256,192,126334,1,0,0:0:0:0:
109,192,126443,1,0,0:0:0:0:
182,192,126551,1,0,0:0:0:0:
256,192,126551,1,0,0:0:0:0:
402,192,126875,1,0,0:0:0:0:
182,192,126875,128,0,127199:0:0:0:0:
256,192,126983,1,0,0:0:0:0:
109,192,127091,1,0,0:0:0:0:
256,192,127199,1,0,0:0:0:0:
329,192,127199,1,0,0:0:0:0:
402,192,127524,1,0,0:0:0:0:
329,192,127524,128,0,127848:0:0:0:0:
256,192,127632,1,0,0:0:0:0:
109,192,127740,1,0,0:0:0:0:
256,192,127848,1,0,0:0:0:0:
182,192,127848,1,0,0:0:0:0:
402,192,128172,1,0,0:0:0:0:
182,192,128172,128,0,128821:0:0:0:0:
256,192,128280,1,0,0:0:0:0:
109,192,128388,1,0,0:0:0:0:
329,192,128497,1,0,0:0:0:0:
256,192,128497,1,0,0:0:0:0:
36,192,128605,1,0,0:0:0:0:
256,192,128713,1,0,0:0:0:0:
329,192,128821,1,0,0:0:0:0:
109,192,128821,128,0,129145:0:0:0:0:
182,192,128929,1,0,0:0:0:0:
36,192,129037,1,0,0:0:0:0:
182,192,129145,1,0,0:0:0:0:
402,192,129145,1,0,0:0:0:0:
329,192,129470,1,0,0:0:0:0:
256,192,129470,128,0,129794:0:0:0:0:
182,192,129578,1,0,0:0:0:0:
36,192,129686,1,0,0:0:0:0:
109,192,129794,1,0,0:0:0:0:
329,192,129794,1,0,0:0:0:0:
329,192,130118,1,0,0:0:0:0:
109,192,130118,128,0,130443:0:0:0:0:
182,192,130226,1,0,0:0:0:0:
36,192,130334,1,0,0:0:0:0:
182,192,130443,1,0,0:0:0:0:
402,192,130443,1,0,0:0:0:0:
256,192,130767,128,0,131416:0:0:0:0:
329,192,130767,1,0,0:0:0:0:
182,192,130875,1,0,0:0:0:0:
36,192,130983,1,0,0:0:0:0:
109,192,131091,1,0,0:0:0:0:
329,192,131091,1,0,0:0:0:0:
402,192,131199,1,0,0:0:0:0:
182,192,131307,1,0,0:0:0:0:
475,192,131416,1,0,0:0:0:0:
36,192,131416,128,0,136551:0:0:0:0:
402,192,131416,128,0,131740:0:0:0:0:
329,192,131524,1,0,0:0:0:0:
182,192,131632,1,0,0:0:0:0:
329,192,131740,1,0,0:0:0:0:
256,192,131740,1,0,0:0:0:0:
475,192,132064,1,0,0:0:0:0:
256,192,132064,128,0,132388:0:0:0:0:
329,192,132172,1,0,0:0:0:0:
182,192,132280,1,0,0:0:0:0:
329,192,132388,1,0,0:0:0:0:
402,192,132388,1,0,0:0:0:0:
475,192,132713,1,0,0:0:0:0:
402,192,132713,128,0,133037:0:0:0:0:
329,192,132821,1,0,0:0:0:0:
182,192,132929,1,0,0:0:0:0:
329,192,133037,1,0,0:0:0:0:
256,192,133037,1,0,0:0:0:0:
475,192,133361,1,0,0:0:0:0:
256,192,133361,128,0,134010:0:0:0:0:
329,192,133470,1,0,0:0:0:0:
182,192,133578,1,0,0:0:0:0:
402,192,133686,1,0,0:0:0:0:
329,192,133686,1,0,0:0:0:0:
475,192,133794,1,0,0:0:0:0:
109,192,133902,1,0,0:0:0:0:
402,192,134010,1,0,0:0:0:0:
329,192,134010,128,0,134334:0:0:0:0:
256,192,134118,1,0,0:0:0:0:
109,192,134226,1,0,0:0:0:0:
256,192,134334,1,0,0:0:0:0:
182,192,134334,1,0,0:0:0:0:
402,192,134659,1,0,0:0:0:0:
182,192,134659,128,0,134983:0:0:0:0:
256,192,134767,1,0,0:0:0:0:
109,192,134875,1,0,0:0:0:0:
256,192,134983,1,0,0:0:0:0:
329,192,134983,1,0,0:0:0:0:
402,192,135307,1,0,0:0:0:0:
329,192,135307,128,0,135632:0:0:0:0:
256,192,135416,1,0,0:0:0:0:
109,192,135524,1,0,0:0:0:0:
256,192,135632,1,0,0:0:0:0:
182,192,135632,1,0,0:0:0:0:
402,192,135956,1,0,0:0:0:0:
182,192,135956,128,0,136280:0:0:0:0:
475,192,135956,128,0,136551:0:0:0:0:
256,192,136064,1,0,0:0:0:0:
109,192,136172,1,0,0:0:0:0:
256,192,136280,1,0,0:0:0:0:
329,192,136280,1,0,0:0:0:0:
402,192,136388,1,0,0:0:0:0:
256,192,136497,1,0,0:0:0:0:
475,192,136605,1,0,0:0:0:0:
402,192,136605,1,0,0:0:0:0:
182,192,136605,1,0,0:0:0:0:
109,192,136605,1,0,0:0:0:0:
36,192,136605,1,0,0:0:0:0:
256,192,136605,1,0,0:0:0:0:
329,192,136605,128,0,136929:0:0:0:0:
182,192,136713,1,0,0:0:0:0:
402,192,136713,1,0,0:0:0:0:
109,192,136821,1,0,0:0:0:0:
36,192,136821,1,0,0:0:0:0:
182,192,136929,1,0,0:0:0:0:
402,192,136929,1,0,0:0:0:0:
475,192,136929,1,0,0:0:0:0:
36,192,137037,1,0,0:0:0:0:
256,192,137145,1,0,0:0:0:0:
402,192,137253,1,0,0:0:0:0:
475,192,137253,1,0,0:0:0:0:
182,192,137253,128,0,137578:0:0:0:0:
329,192,137361,1,0,0:0:0:0:
109,192,137361,1,0,0:0:0:0:
36,192,137470,1,0,0:0:0:0:
256,192,137470,1,0,0:0:0:0:
109,192,137578,1,0,0:0:0:0:
329,192,137578,1,0,0:0:0:0:
402,192,137578,1,0,0:0:0:0:
256,192,137686,1,0,0:0:0:0:
36,192,137794,1,0,0:0:0:0:
475,192,137902,1,0,0:0:0:0:
256,192,137902,1,0,0:0:0:0:
329,192,137902,128,0,138226:0:0:0:0:
182,192,138010,1,0,0:0:0:0:
402,192,138010,1,0,0:0:0:0:
109,192,138118,1,0,0:0:0:0:
36,192,138118,1,0,0:0:0:0:
182,192,138226,1,0,0:0:0:0:
402,192,138226,1,0,0:0:0:0:
475,192,138226,1,0,0:0:0:0:
36,192,138334,1,0,0:0:0:0:
256,192,138443,1,0,0:0:0:0:
402,192,138551,1,0,0:0:0:0:
475,192,138551,1,0,0:0:0:0:
182,192,138551,128,0,138875:0:0:0:0:
329,192,138659,1,0,0:0:0:0:
109,192,138659,1,0,0:0:0:0:
36,192,138767,1,0,0:0:0:0:
256,192,138767,1,0,0:0:0:0:
109,192,138875,1,0,0:0:0:0:
329,192,138875,1,0,0:0:0:0:
402,192,138875,1,0,0:0:0:0:
475,192,138983,1,0,0:0:0:0:
182,192,138983,1,0,0:0:0:0:
36,192,139091,1,0,0:0:0:0:
109,192,139091,1,0,0:0:0:0:
402,192,139199,128,0,139524:0:0:0:0:
329,192,139199,1,0,0:0:0:0:
475,192,139199,1,0,0:0:0:0:
256,192,139307,1,0,0:0:0:0:
182,192,139307,1,0,0:0:0:0:
109,192,139416,1,0,0:0:0:0:
36,192,139416,1,0,0:0:0:0:
329,192,139524,1,0,0:0:0:0:
475,192,139524,1,0,0:0:0:0:
256,192,139524,1,0,0:0:0:0:
36,192,139632,1,0,0:0:0:0:
329,192,139740,1,0,0:0:0:0:
109,192,139848,128,0,140172:0:0:0:0:
402,192,139848,1,0,0:0:0:0:
475,192,139848,1,0,0:0:0:0:
256,192,139956,1,0,0:0:0:0:
329,192,139956,1,0,0:0:0:0:
36,192,140064,1,0,0:0:0:0:
182,192,140064,1,0,0:0:0:0:
256,192,140172,1,0,0:0:0:0:
402,192,140172,1,0,0:0:0:0:
475,192,140172,1,0,0:0:0:0:
329,192,140280,1,0,0:0:0:0:
36,192,140388,1,0,0:0:0:0:
402,192,140497,128,0,140821:0:0:0:0:
329,192,140497,1,0,0:0:0:0:
475,192,140497,1,0,0:0:0:0:
256,192,140605,1,0,0:0:0:0:
182,192,140605,1,0,0:0:0:0:
109,192,140713,1,0,0:0:0:0:
36,192,140713,1,0,0:0:0:0:
329,192,140821,1,0,0:0:0:0:
475,192,140821,1,0,0:0:0:0:
256,192,140821,1,0,0:0:0:0:
36,192,140929,1,0,0:0:0:0:
329,192,141037,1,0,0:0:0:0:
109,192,141145,128,0,141794:0:0:0:0:
402,192,141145,1,0,0:0:0:0:
475,192,141145,1,0,0:0:0:0:
256,192,141253,1,0,0:0:0:0:
329,192,141253,1,0,0:0:0:0:
36,192,141361,1,0,0:0:0:0:
182,192,141361,1,0,0:0:0:0:
256,192,141470,1,0,0:0:0:0:
402,192,141470,1,0,0:0:0:0:
329,192,141470,1,0,0:0:0:0:
475,192,141578,1,0,0:0:0:0:
36,192,141578,1,0,0:0:0:0:
182,192,141686,1,0,0:0:0:0:
329,192,141686,1,0,0:0:0:0:
475,192,141794,128,0,144280:0:0:0:0:
256,192,141794,1,0,0:0:0:0:
402,192,141794,1,0,0:0:0:0:
36,192,141794,1,0,0:0:0:0:
329,192,141902,1,0,0:0:0:0:
182,192,141902,1,0,0:0:0:0:
109,192,142010,1,0,0:0:0:0:
36,192,142010,1,0,0:0:0:0:
256,192,142118,1,0,0:0:0:0:
402,192,142118,1,0,0:0:0:0:
182,192,142118,128,0,142443:0:0:0:0:
36,192,142226,1,0,0:0:0:0:
36,192,142334,1,0,0:0:0:0:
329,192,142443,1,0,0:0:0:0:
402,192,142443,1,0,0:0:0:0:
256,192,142551,1,0,0:0:0:0:
109,192,142551,1,0,0:0:0:0:
182,192,142659,1,0,0:0:0:0:
36,192,142659,1,0,0:0:0:0:
402,192,142767,1,0,0:0:0:0:
256,192,142767,1,0,0:0:0:0:
329,192,142767,128,0,143091:0:0:0:0:
109,192,142875,1,0,0:0:0:0:
109,192,142983,1,0,0:0:0:0:
256,192,143091,1,0,0:0:0:0:
402,192,143091,1,0,0:0:0:0:
329,192,143199,1,0,0:0:0:0:
182,192,143199,1,0,0:0:0:0:
109,192,143307,1,0,0:0:0:0:
36,192,143307,1,0,0:0:0:0:
256,192,143416,1,0,0:0:0:0:
402,192,143416,1,0,0:0:0:0:
182,192,143416,128,0,143740:0:0:0:0:
36,192,143524,1,0,0:0:0:0:
36,192,143632,1,0,0:0:0:0:
329,192,143740,1,0,0:0:0:0:
402,192,143740,1,0,0:0:0:0:
256,192,143848,1,0,0:0:0:0:
109,192,143848,1,0,0:0:0:0:
182,192,143956,1,0,0:0:0:0:
36,192,143956,1,0,0:0:0:0:
329,192,144064,1,0,0:0:0:0:
109,192,144064,128,0,144145:0:0:0:0:
256,192,144064,128,0,144388:0:0:0:0:
329,192,144172,128,0,144280:0:0:0:0:
402,192,144172,1,0,0:0:0:0:
109,192,144280,1,0,0:0:0:0:
182,192,144280,128,0,144388:0:0:0:0:
109,192,144388,128,0,144497:0:0:0:0:
36,192,144388,128,0,146659:0:0:0:0:
329,192,144388,1,0,0:0:0:0:
475,192,144388,128,0,144605:0:0:0:0:
402,192,144497,128,0,144929:0:0:0:0:
256,192,144497,1,0,0:0:0:0:
182,192,144605,128,0,145037:0:0:0:0:
109,192,144605,1,0,0:0:0:0:
256,192,144713,128,0,145145:0:0:0:0:
475,192,144713,128,0,144929:0:0:0:0:
329,192,144713,1,0,0:0:0:0:
109,192,144821,1,0,0:0:0:0:
109,192,144929,128,0,145145:0:0:0:0:
402,192,145037,1,0,0:0:0:0:
475,192,145037,128,0,145253:0:0:0:0:
182,192,145145,128,0,145361:0:0:0:0:
329,192,145145,1,0,0:0:0:0:
109,192,145253,128,0,145578:0:0:0:0:
256,192,145253,1,0,0:0:0:0:
329,192,145361,128,0,145578:0:0:0:0:
475,192,145361,128,0,145578:0:0:0:0:
402,192,145361,1,0,0:0:0:0:
182,192,145470,1,0,0:0:0:0:
182,192,145578,128,0,145794:0:0:0:0:
329,192,145686,1,0,0:0:0:0:
475,192,145686,128,0,145902:0:0:0:0:
109,192,145686,128,0,145794:0:0:0:0:
256,192,145794,5,0,0:0:0:0:
402,192,145794,128,0,146226:0:0:0:0:
109,192,145902,1,0,0:0:0:0:
182,192,145902,128,0,146334:0:0:0:0:
256,192,146010,128,0,146443:0:0:0:0:
475,192,146010,128,0,146226:0:0:0:0:
329,192,146010,128,0,146334:0:0:0:0:
109,192,146118,1,0,0:0:0:0:
109,192,146226,128,0,146443:0:0:0:0:
402,192,146334,1,0,0:0:0:0:
475,192,146334,128,0,146551:0:0:0:0:
329,192,146443,1,0,0:0:0:0:
182,192,146443,128,0,146659:0:0:0:0:
402,192,146443,128,0,146551:0:0:0:0:
256,192,146551,1,0,0:0:0:0:
109,192,146551,128,0,146659:0:0:0:0:
329,192,146551,128,0,146659:0:0:0:0:
475,192,146659,1,0,0:0:0:0:
402,192,146659,1,0,0:0:0:0:
256,192,146659,1,0,0:0:0:0:
109,192,146767,1,0,0:0:0:0:
402,192,146875,1,0,0:0:0:0:
109,192,146983,1,0,0:0:0:0:
182,192,146983,1,0,0:0:0:0:
36,192,146983,128,0,147064:0:0:0:0:
256,192,146983,128,0,147348:0:0:0:0:
475,192,146983,128,0,147267:0:0:0:0:
402,192,146983,1,0,0:0:0:0:
329,192,146983,128,0,147267:0:0:0:0:
36,192,147145,1,0,0:0:0:0:
109,192,147307,128,0,147348:0:0:0:0:
329,192,147307,1,0,0:0:0:0:
182,192,147307,128,0,147348:0:0:0:0:
256,192,147470,128,0,147510:0:0:0:0:
109,192,147470,128,0,147753:0:0:0:0:
36,192,147470,128,0,147753:0:0:0:0:
402,192,147470,1,0,0:0:0:0:
182,192,147470,128,0,147510:0:0:0:0:
475,192,147632,1,0,0:0:0:0:
402,192,147632,128,0,147672:0:0:0:0:
329,192,147632,128,0,147672:0:0:0:0:
256,192,147794,128,0,147834:0:0:0:0:
329,192,147794,128,0,147834:0:0:0:0:
36,192,147794,1,0,0:0:0:0:
256,192,147956,128,0,148888:0:0:0:0:
402,192,147956,128,0,148240:0:0:0:0:
475,192,147956,128,0,148240:0:0:0:0:
109,192,147956,1,0,0:0:0:0:
329,192,148118,128,0,148240:0:0:0:0:
182,192,148118,1,0,0:0:0:0:
36,192,148118,1,0,0:0:0:0:
329,192,148280,1,0,0:0:0:0:
182,192,148443,128,0,148564:0:0:0:0:
109,192,148443,128,0,148726:0:0:0:0:
36,192,148443,128,0,148726:0:0:0:0:
402,192,148443,1,0,0:0:0:0:
182,192,148605,1,0,0:0:0:0:
329,192,148767,128,0,149213:0:0:0:0:
36,192,148767,1,0,0:0:0:0:
402,192,148929,128,0,149213:0:0:0:0:
475,192,148929,128,0,149213:0:0:0:0:
182,192,148929,128,0,149051:0:0:0:0:
256,192,148929,1,0,0:0:0:0:
256,192,149091,128,0,149213:0:0:0:0:
329,192,149253,128,0,149375:0:0:0:0:
109,192,149253,128,0,149537:0:0:0:0:
36,192,149253,128,0,149537:0:0:0:0:
402,192,149253,1,0,0:0:0:0:
402,192,149416,128,0,149537:0:0:0:0:
475,192,149578,128,0,150064:0:0:0:0:
109,192,149578,1,0,0:0:0:0:
182,192,149578,128,0,149861:0:0:0:0:
256,192,149578,128,0,149861:0:0:0:0:
36,192,149740,1,0,0:0:0:0:
256,192,149902,1,0,0:0:0:0:
402,192,149902,1,0,0:0:0:0:
36,192,150064,128,0,150551:0:0:0:0:
256,192,150064,128,0,150348:0:0:0:0:
329,192,150064,128,0,150348:0:0:0:0:
182,192,150064,1,0,0:0:0:0:
475,192,150145,1,0,0:0:0:0:
109,192,150226,1,0,0:0:0:0:
475,192,150307,1,0,0:0:0:0:
256,192,150388,1,0,0:0:0:0:
475,192,150551,128,0,150875:0:0:0:0:
182,192,150551,128,0,150834:0:0:0:0:
256,192,150551,128,0,150834:0:0:0:0:
329,192,150551,1,0,0:0:0:0:
36,192,150632,1,0,0:0:0:0:
402,192,150713,1,0,0:0:0:0:
36,192,150794,1,0,0:0:0:0:
109,192,150875,128,0,151524:0:0:0:0:
256,192,150875,1,0,0:0:0:0:
256,192,151037,128,0,151321:0:0:0:0:
329,192,151037,128,0,151321:0:0:0:0:
36,192,151037,1,0,0:0:0:0:
402,192,151118,1,0,0:0:0:0:
182,192,151199,1,0,0:0:0:0:
402,192,151280,1,0,0:0:0:0:
256,192,151361,1,0,0:0:0:0:
402,192,151524,128,0,152172:0:0:0:0:
329,192,151524,128,0,151807:0:0:0:0:
475,192,151524,128,0,151807:0:0:0:0:
182,192,151524,1,0,0:0:0:0:
109,192,151605,1,0,0:0:0:0:
182,192,151686,1,0,0:0:0:0:
182,192,151848,128,0,152132:0:0:0:0:
36,192,151848,128,0,152132:0:0:0:0:
329,192,151848,1,0,0:0:0:0:
256,192,151848,1,0,0:0:0:0:
109,192,151929,1,0,0:0:0:0:
329,192,152010,1,0,0:0:0:0:
475,192,152010,1,0,0:0:0:0:
256,192,152172,128,0,154726:0:0:0:0:
182,192,152172,1,0,0:0:0:0:
36,192,152172,1,0,0:0:0:0:
329,192,152172,128,0,152456:0:0:0:0:
475,192,152172,128,0,152456:0:0:0:0:
109,192,152334,128,0,152375:0:0:0:0:
36,192,152334,128,0,152375:0:0:0:0:
402,192,152334,1,0,0:0:0:0:
109,192,152497,128,0,152537:0:0:0:0:
182,192,152497,128,0,152537:0:0:0:0:
475,192,152497,1,0,0:0:0:0:
329,192,152659,128,0,152699:0:0:0:0:
402,192,152659,128,0,152699:0:0:0:0:
109,192,152659,128,0,152943:0:0:0:0:
36,192,152659,128,0,152943:0:0:0:0:
182,192,152659,1,0,0:0:0:0:
475,192,152821,128,0,152861:0:0:0:0:
402,192,152821,128,0,152861:0:0:0:0:
329,192,152821,1,0,0:0:0:0:
182,192,152983,128,0,153024:0:0:0:0:
36,192,152983,128,0,153024:0:0:0:0:
475,192,152983,1,0,0:0:0:0:
475,192,153145,128,0,153186:0:0:0:0:
329,192,153145,128,0,153429:0:0:0:0:
402,192,153145,128,0,153429:0:0:0:0:
36,192,153145,128,0,153186:0:0:0:0:
109,192,153145,1,0,0:0:0:0:
182,192,153307,128,0,153348:0:0:0:0:
109,192,153307,128,0,153753:0:0:0:0:
402,192,153470,1,0,0:0:0:0:
329,192,153551,1,0,0:0:0:0:
182,192,153632,128,0,153916:0:0:0:0:
36,192,153632,128,0,153916:0:0:0:0:
475,192,153632,1,0,0:0:0:0:
402,192,153632,128,0,153753:0:0:0:0:
329,192,153713,1,0,0:0:0:0:
475,192,153794,128,0,153834:0:0:0:0:
109,192,153794,1,0,0:0:0:0:
402,192,153875,1,0,0:0:0:0:
329,192,153956,128,0,154402:0:0:0:0:
109,192,153956,128,0,153997:0:0:0:0:
36,192,154037,1,0,0:0:0:0:
402,192,154118,128,0,154402:0:0:0:0:
475,192,154118,128,0,154402:0:0:0:0:
182,192,154118,1,0,0:0:0:0:
109,192,154199,1,0,0:0:0:0:
36,192,154280,128,0,154402:0:0:0:0:
182,192,154443,128,0,154726:0:0:0:0:
109,192,154443,128,0,154726:0:0:0:0:
402,192,154443,1,0,0:0:0:0:
36,192,154443,1,0,0:0:0:0:
475,192,154524,1,0,0:0:0:0:
329,192,154605,1,0,0:0:0:0:
475,192,154686,1,0,0:0:0:0:
329,192,154767,128,0,155051:0:0:0:0:
36,192,154767,128,0,154888:0:0:0:0:
109,192,154767,1,0,0:0:0:0:
402,192,154767,1,0,0:0:0:0:
182,192,154848,128,0,154970:0:0:0:0:
256,192,154929,1,0,0:0:0:0:
36,192,154929,1,0,0:0:0:0:
182,192,155010,1,0,0:0:0:0:
109,192,155010,128,0,155091:0:0:0:0:
329,192,155091,1,0,0:0:0:0:
475,192,155091,1,0,0:0:0:0:
256,192,155172,1,0,0:0:0:0:
109,192,155253,128,0,155375:0:0:0:0:
402,192,155253,128,0,155537:0:0:0:0:
182,192,155253,1,0,0:0:0:0:
475,192,155253,1,0,0:0:0:0:
256,192,155334,128,0,155456:0:0:0:0:
36,192,155416,128,0,156064:0:0:0:0:
329,192,155416,1,0,0:0:0:0:
109,192,155416,1,0,0:0:0:0:
256,192,155497,1,0,0:0:0:0:
475,192,155497,128,0,155578:0:0:0:0:
402,192,155578,1,0,0:0:0:0:
182,192,155578,1,0,0:0:0:0:
329,192,155659,1,0,0:0:0:0:
182,192,155740,128,0,156024:0:0:0:0:
475,192,155740,128,0,155861:0:0:0:0:
402,192,155740,1,0,0:0:0:0:
109,192,155740,1,0,0:0:0:0:
329,192,155821,128,0,155943:0:0:0:0:
256,192,155902,1,0,0:0:0:0:
475,192,155902,1,0,0:0:0:0:
329,192,155983,1,0,0:0:0:0:
402,192,155983,128,0,156064:0:0:0:0:
475,192,156064,128,0,156713:0:0:0:0:
182,192,156064,1,0,0:0:0:0:
109,192,156064,1,0,0:0:0:0:
256,192,156145,1,0,0:0:0:0:
402,192,156226,128,0,156348:0:0:0:0:
109,192,156226,128,0,156510:0:0:0:0:
329,192,156226,1,0,0:0:0:0:
36,192,156226,1,0,0:0:0:0:
256,192,156307,128,0,156429:0:0:0:0:
182,192,156388,1,0,0:0:0:0:
402,192,156388,1,0,0:0:0:0:
256,192,156470,1,0,0:0:0:0:
36,192,156470,128,0,156551:0:0:0:0:
109,192,156551,1,0,0:0:0:0:
329,192,156551,1,0,0:0:0:0:
182,192,156632,1,0,0:0:0:0:
109,192,156713,1,0,0:0:0:0:
256,192,156713,128,0,157321:0:0:0:0:
329,192,156713,128,0,156834:0:0:0:0:
36,192,156713,128,0,156997:0:0:0:0:
475,192,156794,1,0,0:0:0:0:
182,192,156794,128,0,156916:0:0:0:0:
109,192,156875,1,0,0:0:0:0:
329,192,156875,1,0,0:0:0:0:
402,192,156956,1,0,0:0:0:0:
182,192,156956,1,0,0:0:0:0:
475,192,157037,128,0,157159:0:0:0:0:
36,192,157037,1,0,0:0:0:0:
329,192,157037,128,0,157240:0:0:0:0:
109,192,157118,1,0,0:0:0:0:
475,192,157199,1,0,0:0:0:0:
402,192,157199,1,0,0:0:0:0:
182,192,157199,128,0,157321:0:0:0:0:
109,192,157280,128,0,157361:0:0:0:0:
329,192,157280,1,0,0:0:0:0:
182,192,157361,1,0,0:0:0:0:
256,192,157361,1,0,0:0:0:0:
475,192,157361,128,0,157645:0:0:0:0:
402,192,157361,128,0,157483:0:0:0:0:
36,192,157361,128,0,157645:0:0:0:0:
329,192,157443,128,0,157524:0:0:0:0:
182,192,157524,128,0,157645:0:0:0:0:
109,192,157524,128,0,157645:0:0:0:0:
402,192,157524,1,0,0:0:0:0:
329,192,157605,128,0,157686:0:0:0:0:
109,192,157686,128,0,157726:0:0:0:0:
36,192,157686,128,0,157726:0:0:0:0:
475,192,157686,1,0,0:0:0:0:
256,192,157767,128,0,157848:0:0:0:0:
475,192,157848,128,0,157888:0:0:0:0:
402,192,157848,128,0,157888:0:0:0:0:
36,192,157848,128,0,158132:0:0:0:0:
329,192,157848,1,0,0:0:0:0:
109,192,157848,128,0,157970:0:0:0:0:
182,192,157929,128,0,158010:0:0:0:0:
256,192,157929,128,0,158132:0:0:0:0:
402,192,158010,128,0,158132:0:0:0:0:
329,192,158010,128,0,158132:0:0:0:0:
109,192,158010,1,0,0:0:0:0:
182,192,158091,128,0,158334:0:0:0:0:
256,192,158172,128,0,158213:0:0:0:0:
329,192,158172,128,0,158213:0:0:0:0:
36,192,158172,1,0,0:0:0:0:
109,192,158253,128,0,158334:0:0:0:0:
475,192,158334,1,0,0:0:0:0:
256,192,158334,1,0,0:0:0:0:
402,192,158334,128,0,158780:0:0:0:0:
36,192,158334,128,0,158618:0:0:0:0:
109,192,158416,128,0,158497:0:0:0:0:
475,192,158497,128,0,158943:0:0:0:0:
256,192,158497,128,0,158537:0:0:0:0:
329,192,158497,128,0,158537:0:0:0:0:
36,192,158659,1,0,0:0:0:0:
182,192,158659,1,0,0:0:0:0:
36,192,158821,128,0,159267:0:0:0:0:
182,192,158821,128,0,158861:0:0:0:0:
256,192,158821,128,0,158861:0:0:0:0:
109,192,158821,128,0,159267:0:0:0:0:
402,192,158821,1,0,0:0:0:0:
475,192,158983,1,0,0:0:0:0:
329,192,158983,1,0,0:0:0:0:
475,192,159145,128,0,159591:0:0:0:0:
256,192,159145,128,0,159186:0:0:0:0:
329,192,159145,128,0,159186:0:0:0:0:
109,192,159307,1,0,0:0:0:0:
402,192,159307,128,0,159591:0:0:0:0:
36,192,159307,1,0,0:0:0:0:
256,192,159307,1,0,0:0:0:0:
182,192,159388,128,0,159470:0:0:0:0:
329,192,159388,1,0,0:0:0:0:
109,192,159470,1,0,0:0:0:0:
36,192,159470,128,0,159794:0:0:0:0:
182,192,159551,1,0,0:0:0:0:
402,192,159632,1,0,0:0:0:0:
475,192,159632,1,0,0:0:0:0:
256,192,159632,128,0,159916:0:0:0:0:
109,192,159632,1,0,0:0:0:0:
329,192,159713,1,0,0:0:0:0:
182,192,159794,128,0,159916:0:0:0:0:
475,192,159794,1,0,0:0:0:0:
329,192,159875,128,0,159956:0:0:0:0:
36,192,159875,1,0,0:0:0:0:
475,192,159956,128,0,160443:0:0:0:0:
109,192,159956,128,0,160240:0:0:0:0:
402,192,159956,1,0,0:0:0:0:
182,192,159956,128,0,160037:0:0:0:0:
256,192,159956,1,0,0:0:0:0:
36,192,160037,128,0,160118:0:0:0:0:
329,192,160037,1,0,0:0:0:0:
256,192,160118,1,0,0:0:0:0:
182,192,160199,128,0,160280:0:0:0:0:
329,192,160199,1,0,0:0:0:0:
109,192,160280,1,0,0:0:0:0:
402,192,160280,128,0,160361:0:0:0:0:
256,192,160280,128,0,160443:0:0:0:0:
182,192,160361,128,0,160443:0:0:0:0:
402,192,160443,128,0,160726:0:0:0:0:
36,192,160443,128,0,160929:0:0:0:0:
109,192,160443,1,0,0:0:0:0:
329,192,160443,128,0,160524:0:0:0:0:
475,192,160524,128,0,160605:0:0:0:0:
182,192,160524,1,0,0:0:0:0:
256,192,160605,1,0,0:0:0:0:
329,192,160686,128,0,160767:0:0:0:0:
182,192,160686,1,0,0:0:0:0:
402,192,160767,1,0,0:0:0:0:
256,192,160767,128,0,160929:0:0:0:0:
109,192,160767,128,0,160848:0:0:0:0:
329,192,160848,128,0,160929:0:0:0:0:
475,192,160929,128,0,161213:0:0:0:0:
182,192,160929,1,0,0:0:0:0:
402,192,160929,128,0,161010:0:0:0:0:
109,192,160929,128,0,161375:0:0:0:0:
36,192,161010,128,0,161091:0:0:0:0:
256,192,161010,1,0,0:0:0:0:
329,192,161091,1,0,0:0:0:0:
182,192,161091,128,0,161253:0:0:0:0:
256,192,161172,1,0,0:0:0:0:
402,192,161172,128,0,161253:0:0:0:0:
36,192,161253,128,0,161861:0:0:0:0:
475,192,161253,1,0,0:0:0:0:
329,192,161253,128,0,161416:0:0:0:0:
402,192,161334,128,0,161416:0:0:0:0:
475,192,161416,128,0,161497:0:0:0:0:
256,192,161416,1,0,0:0:0:0:
109,192,161416,1,0,0:0:0:0:
182,192,161416,128,0,161699:0:0:0:0:
329,192,161497,1,0,0:0:0:0:
402,192,161578,1,0,0:0:0:0:
256,192,161578,128,0,161740:0:0:0:0:
475,192,161659,128,0,161740:0:0:0:0:
329,192,161659,1,0,0:0:0:0:
182,192,161740,1,0,0:0:0:0:
402,192,161740,128,0,161821:0:0:0:0:
109,192,161740,128,0,161902:0:0:0:0:
475,192,161821,128,0,161902:0:0:0:0:
256,192,161902,128,0,162510:0:0:0:0:
402,192,161902,1,0,0:0:0:0:
36,192,161902,1,0,0:0:0:0:
329,192,161902,128,0,162024:0:0:0:0:
182,192,161902,128,0,162024:0:0:0:0:
109,192,161983,128,0,162064:0:0:0:0:
475,192,161983,128,0,162186:0:0:0:0:
402,192,162064,128,0,162226:0:0:0:0:
329,192,162064,1,0,0:0:0:0:
182,192,162064,1,0,0:0:0:0:
36,192,162145,128,0,162226:0:0:0:0:
475,192,162226,1,0,0:0:0:0:
109,192,162226,1,0,0:0:0:0:
329,192,162226,128,0,162348:0:0:0:0:
182,192,162226,128,0,162348:0:0:0:0:
402,192,162307,128,0,162388:0:0:0:0:
36,192,162307,128,0,162510:0:0:0:0:
329,192,162388,1,0,0:0:0:0:
109,192,162388,128,0,162551:0:0:0:0:
182,192,162388,1,0,0:0:0:0:
475,192,162470,128,0,162551:0:0:0:0:
329,192,162551,1,0,0:0:0:0:
402,192,162551,1,0,0:0:0:0:
256,192,162551,1,0,0:0:0:0:
36,192,162551,1,0,0:0:0:0:
182,192,162551,128,0,163118:0:0:0:0:
329,192,162713,128,0,162753:0:0:0:0:
475,192,162713,128,0,162753:0:0:0:0:
109,192,162713,1,0,0:0:0:0:
36,192,162713,1,0,0:0:0:0:
256,192,162875,128,0,162916:0:0:0:0:
109,192,162875,128,0,162916:0:0:0:0:
402,192,162875,1,0,0:0:0:0:
475,192,162875,1,0,0:0:0:0:
329,192,163037,128,0,163605:0:0:0:0:
256,192,163037,128,0,163118:0:0:0:0:
475,192,163037,1,0,0:0:0:0:
36,192,163037,1,0,0:0:0:0:
109,192,163037,128,0,163118:0:0:0:0:
402,192,163199,128,0,163240:0:0:0:0:
256,192,163199,128,0,163240:0:0:0:0:
182,192,163199,1,0,0:0:0:0:
109,192,163199,1,0,0:0:0:0:
182,192,163361,128,0,163402:0:0:0:0:
36,192,163361,128,0,163402:0:0:0:0:
475,192,163361,1,0,0:0:0:0:
402,192,163361,1,0,0:0:0:0:
475,192,163524,128,0,163807:0:0:0:0:
402,192,163524,128,0,163605:0:0:0:0:
109,192,163524,1,0,0:0:0:0:
256,192,163524,128,0,163605:0:0:0:0:
182,192,163524,1,0,0:0:0:0:
402,192,163686,1,0,0:0:0:0:
329,192,163686,1,0,0:0:0:0:
109,192,163686,1,0,0:0:0:0:
36,192,163686,1,0,0:0:0:0:
182,192,163767,1,0,0:0:0:0:
256,192,163767,1,0,0:0:0:0:
402,192,163848,128,0,164132:0:0:0:0:
109,192,163848,1,0,0:0:0:0:
36,192,163848,1,0,0:0:0:0:
329,192,163848,128,0,163970:0:0:0:0:
475,192,163848,1,0,0:0:0:0:
182,192,164010,128,0,164051:0:0:0:0:
475,192,164010,128,0,164051:0:0:0:0:
329,192,164010,1,0,0:0:0:0:
109,192,164010,1,0,0:0:0:0:
329,192,164172,128,0,164456:0:0:0:0:
256,192,164172,128,0,164294:0:0:0:0:
475,192,164172,1,0,0:0:0:0:
36,192,164172,1,0,0:0:0:0:
402,192,164172,1,0,0:0:0:0:
109,192,164334,128,0,164375:0:0:0:0:
402,192,164334,128,0,164375:0:0:0:0:
256,192,164334,1,0,0:0:0:0:
36,192,164334,1,0,0:0:0:0:
182,192,164497,128,0,164618:0:0:0:0:
256,192,164497,128,0,164861:0:0:0:0:
402,192,164497,1,0,0:0:0:0:
475,192,164497,1,0,0:0:0:0:
329,192,164497,1,0,0:0:0:0:
329,192,164659,128,0,164699:0:0:0:0:
36,192,164659,128,0,164699:0:0:0:0:
182,192,164659,1,0,0:0:0:0:
475,192,164659,1,0,0:0:0:0:
329,192,164821,1,0,0:0:0:0:
109,192,164821,128,0,165024:0:0:0:0:
36,192,164821,128,0,165186:0:0:0:0:
402,192,164821,128,0,164943:0:0:0:0:
475,192,164821,128,0,165105:0:0:0:0:
182,192,164902,1,0,0:0:0:0:
256,192,164902,128,0,164943:0:0:0:0:
329,192,164983,128,0,165024:0:0:0:0:
402,192,164983,1,0,0:0:0:0:
109,192,165064,1,0,0:0:0:0:
182,192,165064,128,0,165105:0:0:0:0:
329,192,165145,128,0,165388:0:0:0:0:
402,192,165145,128,0,165226:0:0:0:0:
256,192,165145,1,0,0:0:0:0:
475,192,165145,1,0,0:0:0:0:
109,192,165226,128,0,165307:0:0:0:0:
182,192,165226,128,0,165307:0:0:0:0:
36,192,165226,1,0,0:0:0:0:
256,192,165307,128,0,165551:0:0:0:0:
475,192,165307,128,0,165388:0:0:0:0:
402,192,165307,1,0,0:0:0:0:
36,192,165388,128,0,165470:0:0:0:0:
109,192,165388,128,0,165470:0:0:0:0:
182,192,165388,1,0,0:0:0:0:
475,192,165470,128,0,165551:0:0:0:0:
402,192,165470,128,0,165632:0:0:0:0:
329,192,165470,1,0,0:0:0:0:
182,192,165551,128,0,165713:0:0:0:0:
36,192,165551,128,0,165713:0:0:0:0:
109,192,165551,1,0,0:0:0:0:
475,192,165632,128,0,165794:0:0:0:0:
256,192,165632,128,0,165713:0:0:0:0:
329,192,165632,128,0,165794:0:0:0:0:
109,192,165713,128,0,165875:0:0:0:0:
402,192,165713,128,0,165794:0:0:0:0:
36,192,165794,128,0,165875:0:0:0:0:
182,192,165794,128,0,166037:0:0:0:0:
256,192,165794,128,0,165875:0:0:0:0:
329,192,165875,128,0,165956:0:0:0:0:
402,192,165875,128,0,165956:0:0:0:0:
475,192,165875,128,0,165956:0:0:0:0:
256,192,165956,128,0,166199:0:0:0:0:
109,192,165956,128,0,166037:0:0:0:0:
36,192,165956,128,0,166037:0:0:0:0:
329,192,166037,128,0,166118:0:0:0:0:
475,192,166037,128,0,166118:0:0:0:0:
402,192,166037,128,0,166118:0:0:0:0:
182,192,166118,128,0,166199:0:0:0:0:
36,192,166118,128,0,166280:0:0:0:0:
109,192,166118,128,0,166199:0:0:0:0:
402,192,166199,128,0,166361:0:0:0:0:
475,192,166199,128,0,166280:0:0:0:0:
329,192,166199,128,0,166361:0:0:0:0:
109,192,166280,128,0,166361:0:0:0:0:
182,192,166280,128,0,166361:0:0:0:0:
256,192,166280,128,0,166361:0:0:0:0:
36,192,166361,128,0,166443:0:0:0:0:
475,192,166361,128,0,166443:0:0:0:0:
256,192,166443,128,0,167740:0:0:0:0:
329,192,166443,1,0,0:0:0:0:
109,192,166443,1,0,0:0:0:0:
402,192,166443,1,0,0:0:0:0:
182,192,166443,1,0,0:0:0:0:
182,192,166605,1,0,0:0:0:0:
329,192,166605,128,0,166645:0:0:0:0:
109,192,166645,1,0,0:0:0:0:
475,192,166645,1,0,0:0:0:0:
36,192,166686,1,0,0:0:0:0:
402,192,166686,1,0,0:0:0:0:
329,192,166726,1,0,0:0:0:0:
182,192,166726,128,0,166767:0:0:0:0:
109,192,166767,128,0,166888:0:0:0:0:
475,192,166767,128,0,167051:0:0:0:0:
329,192,166848,128,0,166929:0:0:0:0:
182,192,166848,128,0,166929:0:0:0:0:
36,192,166929,128,0,167213:0:0:0:0:
402,192,166929,128,0,167051:0:0:0:0:
109,192,166929,1,0,0:0:0:0:
329,192,167010,128,0,167213:0:0:0:0:
182,192,167010,128,0,167091:0:0:0:0:
475,192,167091,1,0,0:0:0:0:
109,192,167091,1,0,0:0:0:0:
402,192,167091,128,0,167172:0:0:0:0:
182,192,167172,128,0,167294:0:0:0:0:
109,192,167253,128,0,167334:0:0:0:0:
402,192,167253,128,0,167375:0:0:0:0:
36,192,167294,128,0,167456:0:0:0:0:
475,192,167294,128,0,167334:0:0:0:0:
329,192,167334,128,0,167416:0:0:0:0:
182,192,167375,128,0,167537:0:0:0:0:
402,192,167416,1,0,0:0:0:0:
109,192,167416,128,0,167497:0:0:0:0:
475,192,167416,128,0,167537:0:0:0:0:
329,192,167497,128,0,167618:0:0:0:0:
109,192,167578,128,0,167699:0:0:0:0:
402,192,167578,128,0,167659:0:0:0:0:
475,192,167618,128,0,167699:0:0:0:0:
36,192,167618,128,0,167659:0:0:0:0:
182,192,167659,128,0,167740:0:0:0:0:
329,192,167699,128,0,167740:0:0:0:0:
402,192,167740,128,0,170334:0:0:0:0:
109,192,167740,1,0,0:0:0:0:
36,192,167740,128,0,170294:0:0:0:0:
475,192,167740,1,0,0:0:0:0:
109,192,168388,1,0,0:0:0:0:
109,192,168713,1,0,0:0:0:0:
475,192,169037,128,0,169605:0:0:0:0:
256,192,169524,1,0,0:0:0:0:
475,192,169686,1,0,0:0:0:0:
182,192,169686,128,0,170294:0:0:0:0:
475,192,170010,1,0,0:0:0:0:
36,192,170334,5,0,0:0:0:0:
329,192,170334,1,0,0:0:0:0:
182,192,170334,1,0,0:0:0:0:
109,192,170334,1,0,0:0:0:0:
109,192,172280,1,0,0:0:0:0:
182,192,172443,1,0,0:0:0:0:
329,192,172605,1,0,0:0:0:0:
402,192,172767,1,0,0:0:0:0:
182,192,172929,1,0,0:0:0:0:
475,192,172929,1,0,0:0:0:0:
329,192,172929,128,0,174267:0:0:0:0:
36,192,172929,1,0,0:0:0:0:
109,192,172929,128,0,173416:0:0:0:0:
256,192,173416,128,0,173902:0:0:0:0:
402,192,173740,1,0,0:0:0:0:
182,192,173902,1,0,0:0:0:0:
475,192,173902,128,0,174267:0:0:0:0:
109,192,174064,1,0,0:0:0:0:
36,192,174064,1,0,0:0:0:0:
256,192,174226,128,0,174267:0:0:0:0:
402,192,174226,128,0,174916:0:0:0:0:
182,192,174226,128,0,174267:0:0:0:0:
109,192,174388,1,0,0:0:0:0:
329,192,174470,1,0,0:0:0:0:
182,192,174551,1,0,0:0:0:0:
256,192,174632,1,0,0:0:0:0:
109,192,174713,1,0,0:0:0:0:
475,192,174794,1,0,0:0:0:0:
329,192,174875,128,0,174916:0:0:0:0:
256,192,174875,128,0,175564:0:0:0:0:
182,192,174875,128,0,174916:0:0:0:0:
36,192,174956,1,0,0:0:0:0:
329,192,175037,1,0,0:0:0:0:
109,192,175118,1,0,0:0:0:0:
402,192,175199,1,0,0:0:0:0:
182,192,175280,1,0,0:0:0:0:
329,192,175361,1,0,0:0:0:0:
475,192,175443,1,0,0:0:0:0:
182,192,175524,128,0,175564:0:0:0:0:
109,192,175524,128,0,176902:0:0:0:0:
36,192,175524,128,0,175564:0:0:0:0:
402,192,175605,1,0,0:0:0:0:
256,192,175686,1,0,0:0:0:0:
329,192,175767,1,0,0:0:0:0:
182,192,175848,1,0,0:0:0:0:
475,192,175929,1,0,0:0:0:0:
329,192,176010,128,0,176497:0:0:0:0:
256,192,176010,1,0,0:0:0:0:
402,192,176010,1,0,0:0:0:0:
36,192,176091,1,0,0:0:0:0:
182,192,176172,1,0,0:0:0:0:
475,192,176334,1,0,0:0:0:0:
475,192,176497,128,0,176902:0:0:0:0:
182,192,176497,1,0,0:0:0:0:
402,192,176497,1,0,0:0:0:0:
36,192,176578,1,0,0:0:0:0:
256,192,176578,1,0,0:0:0:0:
329,192,176659,1,0,0:0:0:0:
182,192,176740,1,0,0:0:0:0:
402,192,176821,128,0,176902:0:0:0:0:
256,192,176821,128,0,177145:0:0:0:0:
36,192,176821,128,0,176902:0:0:0:0:
329,192,176821,128,0,176902:0:0:0:0:
402,192,176983,1,0,0:0:0:0:
109,192,176983,1,0,0:0:0:0:
329,192,177064,1,0,0:0:0:0:
402,192,177145,128,0,177388:0:0:0:0:
36,192,177145,1,0,0:0:0:0:
109,192,177145,128,0,177226:0:0:0:0:
475,192,177145,1,0,0:0:0:0:
182,192,177145,1,0,0:0:0:0:
256,192,177226,1,0,0:0:0:0:
329,192,177307,1,0,0:0:0:0:
182,192,177307,1,0,0:0:0:0:
109,192,177388,1,0,0:0:0:0:
182,192,177470,128,0,177551:0:0:0:0:
36,192,177470,128,0,177551:0:0:0:0:
475,192,177470,1,0,0:0:0:0:
402,192,177470,1,0,0:0:0:0:
256,192,177470,128,0,177794:0:0:0:0:
109,192,177632,1,0,0:0:0:0:
475,192,177632,128,0,177713:0:0:0:0:
329,192,177632,1,0,0:0:0:0:
182,192,177713,1,0,0:0:0:0:
109,192,177794,128,0,178037:0:0:0:0:
402,192,177794,128,0,177875:0:0:0:0:
475,192,177794,1,0,0:0:0:0:
36,192,177794,1,0,0:0:0:0:
256,192,177875,1,0,0:0:0:0:
36,192,177956,128,0,178037:0:0:0:0:
182,192,177956,1,0,0:0:0:0:
329,192,177956,1,0,0:0:0:0:
402,192,178037,1,0,0:0:0:0:
475,192,178118,1,0,0:0:0:0:
36,192,178118,128,0,179334:0:0:0:0:
182,192,178118,1,0,0:0:0:0:
256,192,178118,1,0,0:0:0:0:
109,192,178118,1,0,0:0:0:0:
329,192,178199,1,0,0:0:0:0:
402,192,178280,1,0,0:0:0:0:
256,192,178280,1,0,0:0:0:0:
109,192,178280,128,0,178361:0:0:0:0:
329,192,178361,128,0,178443:0:0:0:0:
475,192,178443,1,0,0:0:0:0:
256,192,178524,1,0,0:0:0:0:
182,192,178605,128,0,178686:0:0:0:0:
329,192,178605,1,0,0:0:0:0:
256,192,178686,1,0,0:0:0:0:
475,192,178686,1,0,0:0:0:0:
402,192,178686,128,0,178767:0:0:0:0:
109,192,178767,1,0,0:0:0:0:
329,192,178767,128,0,179334:0:0:0:0:
182,192,178767,1,0,0:0:0:0:
256,192,178848,1,0,0:0:0:0:
402,192,178929,1,0,0:0:0:0:
109,192,178929,128,0,179010:0:0:0:0:
475,192,178929,128,0,179010:0:0:0:0:
256,192,179091,1,0,0:0:0:0:
182,192,179091,1,0,0:0:0:0:
402,192,179172,1,0,0:0:0:0:
256,192,179253,128,0,179334:0:0:0:0:
182,192,179253,128,0,179334:0:0:0:0:
109,192,179253,128,0,179334:0:0:0:0:
475,192,179253,1,0,0:0:0:0:
402,192,179416,1,0,0:0:0:0:
256,192,179416,1,0,0:0:0:0:
475,192,179416,128,0,180632:0:0:0:0:
36,192,179416,1,0,0:0:0:0:
182,192,179497,1,0,0:0:0:0:
329,192,179497,1,0,0:0:0:0:
256,192,179578,1,0,0:0:0:0:
109,192,179578,1,0,0:0:0:0:
402,192,179578,128,0,179659:0:0:0:0:
182,192,179659,128,0,179740:0:0:0:0:
329,192,179659,1,0,0:0:0:0:
402,192,179740,1,0,0:0:0:0:
36,192,179740,128,0,179821:0:0:0:0:
256,192,179821,1,0,0:0:0:0:
182,192,179902,1,0,0:0:0:0:
329,192,179902,128,0,179983:0:0:0:0:
256,192,179983,1,0,0:0:0:0:
36,192,179983,1,0,0:0:0:0:
109,192,179983,128,0,180064:0:0:0:0:
329,192,180064,1,0,0:0:0:0:
182,192,180064,128,0,180632:0:0:0:0:
402,192,180064,1,0,0:0:0:0:
256,192,180145,1,0,0:0:0:0:
109,192,180226,1,0,0:0:0:0:
402,192,180226,128,0,180307:0:0:0:0:
36,192,180226,128,0,180307:0:0:0:0:
256,192,180388,1,0,0:0:0:0:
329,192,180388,1,0,0:0:0:0:
109,192,180470,1,0,0:0:0:0:
256,192,180551,128,0,180632:0:0:0:0:
329,192,180551,128,0,180632:0:0:0:0:
402,192,180551,128,0,180632:0:0:0:0:
36,192,180551,1,0,0:0:0:0:
109,192,180713,1,0,0:0:0:0:
36,192,180713,1,0,0:0:0:0:
402,192,180713,128,0,181929:0:0:0:0:
475,192,180713,1,0,0:0:0:0:
256,192,180794,1,0,0:0:0:0:
329,192,180875,1,0,0:0:0:0:
109,192,180875,128,0,180956:0:0:0:0:
182,192,180875,1,0,0:0:0:0:
256,192,180956,128,0,181037:0:0:0:0:
475,192,181037,128,0,181118:0:0:0:0:
36,192,181037,1,0,0:0:0:0:
182,192,181118,1,0,0:0:0:0:
329,192,181199,128,0,181280:0:0:0:0:
256,192,181199,1,0,0:0:0:0:
109,192,181199,1,0,0:0:0:0:
182,192,181280,1,0,0:0:0:0:
475,192,181280,1,0,0:0:0:0:
36,192,181280,128,0,181361:0:0:0:0:
329,192,181361,1,0,0:0:0:0:
109,192,181443,1,0,0:0:0:0:
182,192,181524,1,0,0:0:0:0:
256,192,181524,128,0,181605:0:0:0:0:
329,192,181524,128,0,181605:0:0:0:0:
475,192,181524,1,0,0:0:0:0:
36,192,181605,1,0,0:0:0:0:
329,192,181686,1,0,0:0:0:0:
182,192,181686,1,0,0:0:0:0:
109,192,181767,1,0,0:0:0:0:
182,192,181848,128,0,181929:0:0:0:0:
256,192,181848,128,0,181929:0:0:0:0:
36,192,181848,128,0,181929:0:0:0:0:
475,192,181848,128,0,181929:0:0:0:0:
36,192,182010,1,0,0:0:0:0:
402,192,182010,1,0,0:0:0:0:
475,192,182010,1,0,0:0:0:0:
109,192,182010,128,0,182659:0:0:0:0:
256,192,182091,1,0,0:0:0:0:
182,192,182172,1,0,0:0:0:0:
329,192,182172,1,0,0:0:0:0:
36,192,182172,128,0,182253:0:0:0:0:
256,192,182253,128,0,182334:0:0:0:0:
475,192,182334,1,0,0:0:0:0:
402,192,182334,128,0,182416:0:0:0:0:
329,192,182416,1,0,0:0:0:0:
256,192,182497,1,0,0:0:0:0:
402,192,182497,1,0,0:0:0:0:
36,192,182497,128,0,182659:0:0:0:0:
329,192,182578,1,0,0:0:0:0:
182,192,182578,1,0,0:0:0:0:
256,192,182659,128,0,182740:0:0:0:0:
402,192,182659,128,0,182983:0:0:0:0:
475,192,182659,128,0,182821:0:0:0:0:
109,192,182740,1,0,0:0:0:0:
182,192,182821,128,0,182902:0:0:0:0:
329,192,182821,128,0,183145:0:0:0:0:
36,192,182821,1,0,0:0:0:0:
475,192,182902,1,0,0:0:0:0:
182,192,182983,1,0,0:0:0:0:
109,192,182983,128,0,183064:0:0:0:0:
256,192,182983,128,0,183307:0:0:0:0:
402,192,183064,1,0,0:0:0:0:
182,192,183145,128,0,183307:0:0:0:0:
36,192,183145,128,0,183226:0:0:0:0:
475,192,183145,1,0,0:0:0:0:
329,192,183226,1,0,0:0:0:0:
109,192,183307,128,0,183956:0:0:0:0:
402,192,183307,1,0,0:0:0:0:
36,192,183307,1,0,0:0:0:0:
475,192,183307,1,0,0:0:0:0:
182,192,183470,128,0,183632:0:0:0:0:
256,192,183470,128,0,183632:0:0:0:0:
475,192,183470,128,0,183632:0:0:0:0:
329,192,183470,1,0,0:0:0:0:
402,192,183632,1,0,0:0:0:0:
256,192,183794,128,0,183956:0:0:0:0:
182,192,183794,128,0,183956:0:0:0:0:
475,192,183794,128,0,183956:0:0:0:0:
36,192,183794,128,0,184443:0:0:0:0:
329,192,183794,1,0,0:0:0:0:
402,192,183956,1,0,0:0:0:0:
329,192,184118,128,0,184280:0:0:0:0:
402,192,184118,128,0,184280:0:0:0:0:
182,192,184118,128,0,184280:0:0:0:0:
109,192,184118,1,0,0:0:0:0:
475,192,184280,1,0,0:0:0:0:
109,192,184280,128,0,184767:0:0:0:0:
256,192,184443,1,0,0:0:0:0:
329,192,184443,128,0,184605:0:0:0:0:
402,192,184443,128,0,184605:0:0:0:0:
182,192,184443,128,0,184605:0:0:0:0:
256,192,184605,128,0,185416:0:0:0:0:
475,192,184605,1,0,0:0:0:0:
36,192,184767,128,0,184929:0:0:0:0:
329,192,184767,128,0,184929:0:0:0:0:
402,192,184767,1,0,0:0:0:0:
182,192,184767,128,0,184929:0:0:0:0:
109,192,184929,1,0,0:0:0:0:
475,192,185091,1,0,0:0:0:0:
182,192,185091,128,0,185253:0:0:0:0:
329,192,185091,128,0,185253:0:0:0:0:
36,192,185091,128,0,185253:0:0:0:0:
402,192,185253,128,0,186064:0:0:0:0:
109,192,185253,1,0,0:0:0:0:
182,192,185416,128,0,185578:0:0:0:0:
109,192,185416,128,0,185578:0:0:0:0:
475,192,185416,128,0,185578:0:0:0:0:
329,192,185416,1,0,0:0:0:0:
36,192,185578,1,0,0:0:0:0:
256,192,185740,1,0,0:0:0:0:
182,192,185740,128,0,185902:0:0:0:0:
109,192,185740,128,0,185902:0:0:0:0:
475,192,185740,128,0,185902:0:0:0:0:
329,192,185902,128,0,186551:0:0:0:0:
36,192,185902,1,0,0:0:0:0:
256,192,186064,128,0,186226:0:0:0:0:
36,192,186064,128,0,186226:0:0:0:0:
182,192,186064,1,0,0:0:0:0:
109,192,186064,128,0,186226:0:0:0:0:
475,192,186226,1,0,0:0:0:0:
182,192,186388,128,0,187037:0:0:0:0:
109,192,186388,128,0,186551:0:0:0:0:
402,192,186388,1,0,0:0:0:0:
256,192,186388,128,0,186551:0:0:0:0:
36,192,186388,128,0,186551:0:0:0:0:
475,192,186551,1,0,0:0:0:0:
109,192,186713,128,0,186875:0:0:0:0:
329,192,186713,1,0,0:0:0:0:
256,192,186713,128,0,186875:0:0:0:0:
402,192,186713,128,0,186875:0:0:0:0:
475,192,186875,128,0,187361:0:0:0:0:
36,192,186875,1,0,0:0:0:0:
402,192,187037,128,0,187199:0:0:0:0:
329,192,187037,1,0,0:0:0:0:
256,192,187037,128,0,187199:0:0:0:0:
109,192,187037,128,0,187199:0:0:0:0:
36,192,187199,128,0,187686:0:0:0:0:
182,192,187199,1,0,0:0:0:0:
329,192,187361,128,0,187524:0:0:0:0:
256,192,187361,128,0,187524:0:0:0:0:
182,192,187361,128,0,187524:0:0:0:0:
109,192,187361,1,0,0:0:0:0:
402,192,187524,128,0,188010:0:0:0:0:
475,192,187524,1,0,0:0:0:0:
109,192,187686,1,0,0:0:0:0:
182,192,187686,128,0,187848:0:0:0:0:
329,192,187686,128,0,187848:0:0:0:0:
256,192,187686,128,0,187848:0:0:0:0:
36,192,187848,1,0,0:0:0:0:
109,192,187848,128,0,188416:0:0:0:0:
36,192,188010,128,0,188172:0:0:0:0:
329,192,188010,128,0,188172:0:0:0:0:
256,192,188010,1,0,0:0:0:0:
475,192,188010,128,0,188172:0:0:0:0:
182,192,188172,128,0,188416:0:0:0:0:
402,192,188172,1,0,0:0:0:0:
475,192,188334,128,0,188416:0:0:0:0:
329,192,188334,128,0,188416:0:0:0:0:
36,192,188334,128,0,188416:0:0:0:0:
256,192,188334,1,0,0:0:0:0:
475,192,188497,128,0,188983:0:0:0:0:
402,192,188497,1,0,0:0:0:0:
256,192,188497,1,0,0:0:0:0:
329,192,188497,1,0,0:0:0:0:
36,192,188497,1,0,0:0:0:0:
182,192,188578,1,0,0:0:0:0:
109,192,188659,1,0,0:0:0:0:
402,192,188659,1,0,0:0:0:0:
182,192,188740,1,0,0:0:0:0:
256,192,188821,1,0,0:0:0:0:
329,192,188821,1,0,0:0:0:0:
182,192,188902,1,0,0:0:0:0:
329,192,188983,128,0,189470:0:0:0:0:
36,192,188983,1,0,0:0:0:0:
182,192,189064,1,0,0:0:0:0:
475,192,189145,1,0,0:0:0:0:
256,192,189145,1,0,0:0:0:0:
182,192,189226,1,0,0:0:0:0:
475,192,189307,1,0,0:0:0:0:
109,192,189307,1,0,0:0:0:0:
182,192,189388,1,0,0:0:0:0:
36,192,189470,128,0,189794:0:0:0:0:
402,192,189470,1,0,0:0:0:0:
256,192,189470,1,0,0:0:0:0:
182,192,189551,1,0,0:0:0:0:
109,192,189632,1,0,0:0:0:0:
475,192,189632,1,0,0:0:0:0:
402,192,189632,1,0,0:0:0:0:
256,192,189632,128,0,189713:0:0:0:0:
329,192,189713,1,0,0:0:0:0:
109,192,189794,128,0,190443:0:0:0:0:
256,192,189794,1,0,0:0:0:0:
402,192,189794,1,0,0:0:0:0:
475,192,189794,1,0,0:0:0:0:
182,192,189794,1,0,0:0:0:0:
329,192,189875,1,0,0:0:0:0:
36,192,189956,1,0,0:0:0:0:
256,192,189956,1,0,0:0:0:0:
329,192,190037,1,0,0:0:0:0:
475,192,190118,1,0,0:0:0:0:
182,192,190118,1,0,0:0:0:0:
329,192,190199,1,0,0:0:0:0:
256,192,190280,1,0,0:0:0:0:
182,192,190280,1,0,0:0:0:0:
329,192,190361,1,0,0:0:0:0:
402,192,190443,128,0,191091:0:0:0:0:
475,192,190443,1,0,0:0:0:0:
36,192,190443,1,0,0:0:0:0:
182,192,190443,1,0,0:0:0:0:
329,192,190524,1,0,0:0:0:0:
182,192,190605,1,0,0:0:0:0:
36,192,190605,128,0,190686:0:0:0:0:
329,192,190686,1,0,0:0:0:0:
256,192,190767,1,0,0:0:0:0:
109,192,190767,128,0,190848:0:0:0:0:
329,192,190848,1,0,0:0:0:0:
36,192,190929,1,0,0:0:0:0:
109,192,190929,1,0,0:0:0:0:
182,192,190929,128,0,191010:0:0:0:0:
329,192,191010,1,0,0:0:0:0:
256,192,191091,128,0,192470:0:0:0:0:
475,192,191091,1,0,0:0:0:0:
36,192,191091,128,0,191132:0:0:0:0:
109,192,191091,128,0,191132:0:0:0:0:
182,192,191091,128,0,191132:0:0:0:0:
402,192,191172,1,0,0:0:0:0:
329,192,191253,1,0,0:0:0:0:
182,192,191253,1,0,0:0:0:0:
109,192,191334,1,0,0:0:0:0:
402,192,191416,1,0,0:0:0:0:
182,192,191416,1,0,0:0:0:0:
36,192,191497,1,0,0:0:0:0:
475,192,191578,1,0,0:0:0:0:
182,192,191578,1,0,0:0:0:0:
329,192,191578,1,0,0:0:0:0:
402,192,191578,128,0,191659:0:0:0:0:
36,192,191659,1,0,0:0:0:0:
109,192,191659,1,0,0:0:0:0:
182,192,191740,1,0,0:0:0:0:
475,192,191740,128,0,191780:0:0:0:0:
402,192,191740,128,0,191780:0:0:0:0:
329,192,191740,128,0,191780:0:0:0:0:
109,192,191821,1,0,0:0:0:0:
182,192,191902,1,0,0:0:0:0:
475,192,191902,1,0,0:0:0:0:
402,192,191983,1,0,0:0:0:0:
109,192,192064,1,0,0:0:0:0:
475,192,192064,1,0,0:0:0:0:
329,192,192145,1,0,0:0:0:0:
182,192,192226,1,0,0:0:0:0:
36,192,192226,1,0,0:0:0:0:
109,192,192226,128,0,192307:0:0:0:0:
402,192,192226,1,0,0:0:0:0:
329,192,192307,1,0,0:0:0:0:
109,192,192388,1,0,0:0:0:0:
402,192,192388,1,0,0:0:0:0:
182,192,192388,128,0,192551:0:0:0:0:
475,192,192388,128,0,192470:0:0:0:0:
36,192,192388,128,0,192470:0:0:0:0:
329,192,192470,128,0,192632:0:0:0:0:
256,192,192551,128,0,192794:0:0:0:0:
475,192,192551,1,0,0:0:0:0:
36,192,192551,1,0,0:0:0:0:
402,192,192551,128,0,192632:0:0:0:0:
109,192,192551,128,0,192632:0:0:0:0:
182,192,192632,128,0,192713:0:0:0:0:
402,192,192713,1,0,0:0:0:0:
109,192,192713,1,0,0:0:0:0:
329,192,192713,128,0,192875:0:0:0:0:
36,192,192713,128,0,192794:0:0:0:0:
475,192,192713,128,0,192794:0:0:0:0:
182,192,192794,128,0,192956:0:0:0:0:
475,192,192875,1,0,0:0:0:0:
36,192,192875,1,0,0:0:0:0:
109,192,192875,128,0,192956:0:0:0:0:
402,192,192875,128,0,192956:0:0:0:0:
256,192,192875,128,0,193078:0:0:0:0:
329,192,192956,128,0,193037:0:0:0:0:
475,192,193037,128,0,193280:0:0:0:0:
182,192,193037,128,0,193118:0:0:0:0:
402,192,193037,1,0,0:0:0:0:
109,192,193037,128,0,193280:0:0:0:0:
36,192,193037,1,0,0:0:0:0:
329,192,193118,128,0,193159:0:0:0:0:
402,192,193199,128,0,193280:0:0:0:0:
182,192,193199,1,0,0:0:0:0:
36,192,193199,128,0,193280:0:0:0:0:
256,192,193240,1,0,0:0:0:0:
329,192,193280,1,0,0:0:0:0:
402,192,193361,128,0,193605:0:0:0:0:
36,192,193361,128,0,193605:0:0:0:0:
109,192,193361,128,0,193443:0:0:0:0:
182,192,193361,128,0,193402:0:0:0:0:
475,192,193361,128,0,193443:0:0:0:0:
256,192,193443,128,0,193483:0:0:0:0:
109,192,193524,1,0,0:0:0:0:
329,192,193524,128,0,193605:0:0:0:0:
475,192,193524,1,0,0:0:0:0:
182,192,193564,1,0,0:0:0:0:
256,192,193605,1,0,0:0:0:0:
402,192,193686,1,0,0:0:0:0:
475,192,193686,128,0,193929:0:0:0:0:
36,192,193686,128,0,193848:0:0:0:0:
182,192,193686,1,0,0:0:0:0:
109,192,193767,128,0,193929:0:0:0:0:
329,192,193767,128,0,193848:0:0:0:0:
256,192,193767,1,0,0:0:0:0:
402,192,193848,128,0,194091:0:0:0:0:
182,192,193848,128,0,194010:0:0:0:0:
256,192,193929,128,0,194010:0:0:0:0:
329,192,193929,1,0,0:0:0:0:
36,192,194010,1,0,0:0:0:0:
109,192,194010,128,0,194253:0:0:0:0:
475,192,194010,128,0,194091:0:0:0:0:
329,192,194091,128,0,194334:0:0:0:0:
182,192,194091,128,0,194172:0:0:0:0:
256,192,194091,1,0,0:0:0:0:
36,192,194172,128,0,194416:0:0:0:0:
475,192,194172,1,0,0:0:0:0:
402,192,194172,128,0,194253:0:0:0:0:
182,192,194253,1,0,0:0:0:0:
256,192,194253,128,0,194497:0:0:0:0:
475,192,194334,128,0,194578:0:0:0:0:
109,192,194334,128,0,194416:0:0:0:0:
402,192,194334,1,0,0:0:0:0:
182,192,194416,128,0,194659:0:0:0:0:
329,192,194416,128,0,194497:0:0:0:0:
36,192,194497,128,0,194578:0:0:0:0:
402,192,194497,128,0,194740:0:0:0:0:
109,192,194497,1,0,0:0:0:0:
256,192,194578,128,0,194659:0:0:0:0:
329,192,194578,1,0,0:0:0:0:
36,192,194659,1,0,0:0:0:0:
109,192,194659,128,0,194902:0:0:0:0:
475,192,194659,128,0,194740:0:0:0:0:
329,192,194740,128,0,194902:0:0:0:0:
256,192,194740,1,0,0:0:0:0:
182,192,194740,128,0,194821:0:0:0:0:
36,192,194821,128,0,194902:0:0:0:0:
402,192,194821,1,0,0:0:0:0:
475,192,194821,128,0,194983:0:0:0:0:
256,192,194902,128,0,194983:0:0:0:0:
402,192,194983,128,0,195226:0:0:0:0:
329,192,194983,1,0,0:0:0:0:
109,192,194983,128,0,195064:0:0:0:0:
36,192,194983,1,0,0:0:0:0:
182,192,194983,128,0,195226:0:0:0:0:
475,192,195064,128,0,195145:0:0:0:0:
256,192,195064,1,0,0:0:0:0:
329,192,195145,128,0,195388:0:0:0:0:
36,192,195145,128,0,195307:0:0:0:0:
109,192,195145,1,0,0:0:0:0:
256,192,195226,128,0,195307:0:0:0:0:
475,192,195226,1,0,0:0:0:0:
109,192,195307,128,0,195388:0:0:0:0:
182,192,195307,128,0,195551:0:0:0:0:
402,192,195307,128,0,195388:0:0:0:0:
256,192,195388,1,0,0:0:0:0:
475,192,195388,128,0,195470:0:0:0:0:
36,192,195388,128,0,195632:0:0:0:0:
329,192,195470,128,0,195551:0:0:0:0:
109,192,195470,1,0,0:0:0:0:
402,192,195470,128,0,195713:0:0:0:0:
256,192,195551,128,0,195794:0:0:0:0:
475,192,195551,1,0,0:0:0:0:
329,192,195632,1,0,0:0:0:0:
182,192,195632,128,0,195713:0:0:0:0:
109,192,195632,128,0,195875:0:0:0:0:
475,192,195713,128,0,195956:0:0:0:0:
36,192,195713,128,0,195794:0:0:0:0:
182,192,195794,1,0,0:0:0:0:
402,192,195794,128,0,195875:0:0:0:0:
329,192,195794,128,0,196037:0:0:0:0:
36,192,195875,128,0,196037:0:0:0:0:
256,192,195875,1,0,0:0:0:0:
109,192,195956,1,0,0:0:0:0:
402,192,195956,1,0,0:0:0:0:
182,192,195956,128,0,196199:0:0:0:0:
256,192,196037,128,0,196118:0:0:0:0:
475,192,196037,128,0,196199:0:0:0:0:
36,192,196118,1,0,0:0:0:0:
109,192,196118,128,0,196199:0:0:0:0:
402,192,196118,128,0,196280:0:0:0:0:
256,192,196199,1,0,0:0:0:0:
329,192,196199,128,0,196280:0:0:0:0:
36,192,196280,128,0,196443:0:0:0:0:
182,192,196280,1,0,0:0:0:0:
109,192,196280,128,0,196361:0:0:0:0:
475,192,196280,128,0,196321:0:0:0:0:
329,192,196361,128,0,196605:0:0:0:0:
256,192,196361,1,0,0:0:0:0:
402,192,196361,128,0,196402:0:0:0:0:
182,192,196443,128,0,196524:0:0:0:0:
109,192,196443,1,0,0:0:0:0:
475,192,196443,128,0,196483:0:0:0:0:
402,192,196524,128,0,196686:0:0:0:0:
256,192,196524,128,0,196767:0:0:0:0:
36,192,196524,128,0,196605:0:0:0:0:
475,192,196605,128,0,196848:0:0:0:0:
109,192,196605,128,0,196767:0:0:0:0:
182,192,196605,1,0,0:0:0:0:
329,192,196686,1,0,0:0:0:0:
182,192,196767,128,0,196929:0:0:0:0:
402,192,196767,128,0,196848:0:0:0:0:
36,192,196767,128,0,196807:0:0:0:0:
256,192,196848,128,0,197091:0:0:0:0:
329,192,196848,128,0,196929:0:0:0:0:
109,192,196848,128,0,196888:0:0:0:0:
475,192,196929,1,0,0:0:0:0:
402,192,196929,128,0,197010:0:0:0:0:
36,192,196929,128,0,196970:0:0:0:0:
329,192,197010,128,0,197253:0:0:0:0:
109,192,197010,128,0,197253:0:0:0:0:
182,192,197010,128,0,197091:0:0:0:0:
402,192,197091,1,0,0:0:0:0:
475,192,197091,128,0,197172:0:0:0:0:
36,192,197091,1,0,0:0:0:0:
182,192,197172,1,0,0:0:0:0:
475,192,197253,1,0,0:0:0:0:
402,192,197253,128,0,197497:0:0:0:0:
36,192,197253,128,0,197334:0:0:0:0:
256,192,197253,128,0,197294:0:0:0:0:
109,192,197334,128,0,197497:0:0:0:0:
182,192,197334,128,0,197375:0:0:0:0:
329,192,197334,128,0,197375:0:0:0:0:
475,192,197416,128,0,197497:0:0:0:0:
36,192,197416,1,0,0:0:0:0:
256,192,197416,128,0,197456:0:0:0:0:
329,192,197497,128,0,197578:0:0:0:0:
182,192,197497,128,0,197659:0:0:0:0:
36,192,197578,128,0,197821:0:0:0:0:
402,192,197578,1,0,0:0:0:0:
475,192,197578,128,0,197861:0:0:0:0:
109,192,197578,1,0,0:0:0:0:
256,192,197659,1,0,0:0:0:0:
329,192,197659,128,0,197780:0:0:0:0:
402,192,197740,128,0,198024:0:0:0:0:
109,192,197740,128,0,197902:0:0:0:0:
182,192,197740,1,0,0:0:0:0:
256,192,197821,128,0,197943:0:0:0:0:
329,192,197821,1,0,0:0:0:0:
182,192,197902,128,0,198145:0:0:0:0:
36,192,197902,1,0,0:0:0:0:
475,192,197902,1,0,0:0:0:0:
329,192,197983,128,0,198186:0:0:0:0:
109,192,197983,128,0,198105:0:0:0:0:
256,192,197983,1,0,0:0:0:0:
36,192,198064,128,0,198307:0:0:0:0:
475,192,198064,128,0,198307:0:0:0:0:
402,192,198064,1,0,0:0:0:0:
256,192,198145,128,0,198388:0:0:0:0:
109,192,198145,1,0,0:0:0:0:
182,192,198226,128,0,198307:0:0:0:0:
402,192,198226,128,0,198388:0:0:0:0:
329,192,198226,1,0,0:0:0:0:
109,192,198307,128,0,198551:0:0:0:0:
329,192,198388,128,0,198632:0:0:0:0:
182,192,198388,1,0,0:0:0:0:
475,192,198388,1,0,0:0:0:0:
36,192,198388,128,0,198470:0:0:0:0:
402,192,198470,1,0,0:0:0:0:
256,192,198470,128,0,198551:0:0:0:0:
182,192,198551,128,0,198713:0:0:0:0:
475,192,198551,128,0,198632:0:0:0:0:
36,192,198551,1,0,0:0:0:0:
109,192,198632,128,0,198794:0:0:0:0:
402,192,198632,128,0,198794:0:0:0:0:
256,192,198632,1,0,0:0:0:0:
329,192,198713,128,0,198875:0:0:0:0:
36,192,198713,128,0,198794:0:0:0:0:
475,192,198713,1,0,0:0:0:0:
182,192,198794,1,0,0:0:0:0:
256,192,198794,128,0,198875:0:0:0:0:
109,192,198875,1,0,0:0:0:0:
36,192,198875,128,0,199037:0:0:0:0:
475,192,198875,128,0,198956:0:0:0:0:
402,192,198875,128,0,199037:0:0:0:0:
256,192,198956,1,0,0:0:0:0:
182,192,198956,128,0,199118:0:0:0:0:
109,192,199037,128,0,199199:0:0:0:0:
329,192,199037,128,0,199199:0:0:0:0:
475,192,199037,1,0,0:0:0:0:
256,192,199118,128,0,199443:0:0:0:0:
36,192,199118,128,0,199280:0:0:0:0:
402,192,199118,128,0,199280:0:0:0:0:
475,192,199199,128,0,199443:0:0:0:0:
182,192,199199,1,0,0:0:0:0:
329,192,199280,1,0,0:0:0:0:
109,192,199280,128,0,199361:0:0:0:0:
182,192,199361,128,0,199443:0:0:0:0:
402,192,199361,128,0,199524:0:0:0:0:
36,192,199361,1,0,0:0:0:0:
329,192,199443,128,0,199524:0:0:0:0:
109,192,199443,128,0,199605:0:0:0:0:
182,192,199524,128,0,199686:0:0:0:0:
36,192,199524,128,0,199605:0:0:0:0:
256,192,199524,1,0,0:0:0:0:
475,192,199524,128,0,199686:0:0:0:0:
329,192,199605,1,0,0:0:0:0:
402,192,199605,128,0,199767:0:0:0:0:
36,192,199686,128,0,199848:0:0:0:0:
256,192,199686,128,0,199848:0:0:0:0:
109,192,199686,1,0,0:0:0:0:
329,192,199767,128,0,200091:0:0:0:0:
182,192,199767,128,0,199929:0:0:0:0:
475,192,199767,128,0,199929:0:0:0:0:
402,192,199848,1,0,0:0:0:0:
109,192,199848,128,0,200172:0:0:0:0:
36,192,199929,1,0,0:0:0:0:
256,192,199929,128,0,200010:0:0:0:0:
402,192,200010,128,0,200091:0:0:0:0:
475,192,200010,128,0,200091:0:0:0:0:
182,192,200010,1,0,0:0:0:0:
36,192,200091,128,0,200172:0:0:0:0:
256,192,200091,128,0,200253:0:0:0:0:
402,192,200172,128,0,200334:0:0:0:0:
182,192,200172,128,0,200334:0:0:0:0:
475,192,200172,1,0,0:0:0:0:
329,192,200172,128,0,200253:0:0:0:0:
109,192,200253,128,0,200416:0:0:0:0:
36,192,200253,1,0,0:0:0:0:
475,192,200334,128,0,200497:0:0:0:0:
256,192,200334,128,0,200497:0:0:0:0:
329,192,200334,1,0,0:0:0:0:
402,192,200416,128,0,200578:0:0:0:0:
36,192,200416,128,0,200740:0:0:0:0:
182,192,200416,128,0,200578:0:0:0:0:
329,192,200497,128,0,200740:0:0:0:0:
109,192,200497,1,0,0:0:0:0:
256,192,200578,128,0,200659:0:0:0:0:
475,192,200578,1,0,0:0:0:0:
402,192,200659,128,0,200821:0:0:0:0:
109,192,200659,128,0,200740:0:0:0:0:
182,192,200659,128,0,200740:0:0:0:0:
475,192,200740,128,0,200983:0:0:0:0:
256,192,200740,1,0,0:0:0:0:
36,192,200821,128,0,200983:0:0:0:0:
182,192,200821,128,0,200861:0:0:0:0:
109,192,200821,1,0,0:0:0:0:
329,192,200821,1,0,0:0:0:0:
402,192,200902,128,0,201064:0:0:0:0:
256,192,200902,128,0,200943:0:0:0:0:
109,192,200983,128,0,201145:0:0:0:0:
182,192,200983,1,0,0:0:0:0:
329,192,200983,128,0,201024:0:0:0:0:
36,192,201064,128,0,201226:0:0:0:0:
256,192,201064,128,0,201105:0:0:0:0:
475,192,201064,128,0,201145:0:0:0:0:
402,192,201145,128,0,201226:0:0:0:0:
182,192,201145,128,0,201307:0:0:0:0:
329,192,201145,1,0,0:0:0:0:
475,192,201226,128,0,201388:0:0:0:0:
256,192,201226,128,0,201307:0:0:0:0:
109,192,201226,1,0,0:0:0:0:
402,192,201307,1,0,0:0:0:0:
36,192,201307,128,0,201388:0:0:0:0:
329,192,201307,128,0,201388:0:0:0:0:
256,192,201388,128,0,201591:0:0:0:0:
182,192,201388,1,0,0:0:0:0:
109,192,201470,1,0,0:0:0:0:
36,192,201470,128,0,201672:0:0:0:0:
475,192,201470,128,0,201591:0:0:0:0:
402,192,201470,128,0,201510:0:0:0:0:
182,192,201551,128,0,201834:0:0:0:0:
329,192,201551,128,0,201591:0:0:0:0:
475,192,201632,1,0,0:0:0:0:
256,192,201632,1,0,0:0:0:0:
109,192,201632,128,0,201672:0:0:0:0:
402,192,201632,128,0,201834:0:0:0:0:
36,192,201713,1,0,0:0:0:0:
329,192,201713,128,0,201753:0:0:0:0:
109,192,201794,128,0,202078:0:0:0:0:
475,192,201794,128,0,201916:0:0:0:0:
256,192,201794,128,0,201916:0:0:0:0:
329,192,201875,128,0,202159:0:0:0:0:
182,192,201875,1,0,0:0:0:0:
36,192,201875,128,0,201916:0:0:0:0:
256,192,201956,1,0,0:0:0:0:
475,192,201956,1,0,0:0:0:0:
402,192,201956,128,0,202078:0:0:0:0:
182,192,202037,128,0,202078:0:0:0:0:
36,192,202037,128,0,202402:0:0:0:0:
109,192,202118,1,0,0:0:0:0:
402,192,202118,1,0,0:0:0:0:
475,192,202118,128,0,202321:0:0:0:0:
256,192,202118,128,0,202321:0:0:0:0:
329,192,202199,1,0,0:0:0:0:
182,192,202199,128,0,202321:0:0:0:0:
402,192,202280,128,0,202402:0:0:0:0:
109,192,202280,128,0,202564:0:0:0:0:
182,192,202361,1,0,0:0:0:0:
329,192,202361,128,0,202483:0:0:0:0:
36,192,202443,128,0,202483:0:0:0:0:
475,192,202443,128,0,202645:0:0:0:0:
402,192,202443,1,0,0:0:0:0:
256,192,202443,128,0,202483:0:0:0:0:
182,192,202524,128,0,202888:0:0:0:0:
329,192,202524,1,0,0:0:0:0:
402,192,202605,128,0,202970:0:0:0:0:
109,192,202605,1,0,0:0:0:0:
36,192,202605,128,0,202726:0:0:0:0:
256,192,202605,128,0,202726:0:0:0:0:
475,192,202686,1,0,0:0:0:0:
329,192,202686,128,0,202726:0:0:0:0:
109,192,202767,128,0,203051:0:0:0:0:
256,192,202767,1,0,0:0:0:0:
36,192,202767,128,0,202807:0:0:0:0:
329,192,202848,128,0,203132:0:0:0:0:
475,192,202848,128,0,202888:0:0:0:0:
182,192,202929,128,0,202970:0:0:0:0:
256,192,202929,128,0,203010:0:0:0:0:
36,192,203010,128,0,203213:0:0:0:0:
402,192,203010,128,0,203091:0:0:0:0:
475,192,203010,128,0,203051:0:0:0:0:
256,192,203091,128,0,203375:0:0:0:0:
109,192,203091,128,0,203172:0:0:0:0:
182,192,203091,128,0,203132:0:0:0:0:
475,192,203172,128,0,203537:0:0:0:0:
329,192,203172,128,0,203213:0:0:0:0:
402,192,203172,128,0,203253:0:0:0:0:
109,192,203253,128,0,203537:0:0:0:0:
36,192,203253,128,0,203294:0:0:0:0:
182,192,203253,128,0,203334:0:0:0:0:
329,192,203334,128,0,203456:0:0:0:0:
36,192,203416,128,0,203780:0:0:0:0:
402,192,203416,128,0,203699:0:0:0:0:
256,192,203416,1,0,0:0:0:0:
329,192,203497,1,0,0:0:0:0:
182,192,203497,128,0,203618:0:0:0:0:
256,192,203578,128,0,203943:0:0:0:0:
475,192,203578,1,0,0:0:0:0:
109,192,203578,1,0,0:0:0:0:
329,192,203659,128,0,203780:0:0:0:0:
402,192,203740,1,0,0:0:0:0:
109,192,203740,128,0,203821:0:0:0:0:
475,192,203740,128,0,203861:0:0:0:0:
182,192,203740,128,0,203780:0:0:0:0:
36,192,203821,1,0,0:0:0:0:
329,192,203821,1,0,0:0:0:0:
475,192,203902,1,0,0:0:0:0:
109,192,203902,128,0,203943:0:0:0:0:
402,192,203902,128,0,204024:0:0:0:0:
182,192,203902,128,0,203983:0:0:0:0:
256,192,203983,1,0,0:0:0:0:
329,192,204064,128,0,204226:0:0:0:0:
36,192,204064,128,0,204348:0:0:0:0:
402,192,204064,1,0,0:0:0:0:
475,192,204064,128,0,204105:0:0:0:0:
182,192,204064,1,0,0:0:0:0:
109,192,204145,128,0,204267:0:0:0:0:
256,192,204145,128,0,204186:0:0:0:0:
182,192,204226,128,0,204510:0:0:0:0:
402,192,204226,128,0,204388:0:0:0:0:
475,192,204226,1,0,0:0:0:0:
109,192,204307,1,0,0:0:0:0:
329,192,204307,128,0,204348:0:0:0:0:
256,192,204307,128,0,204429:0:0:0:0:
36,192,204388,1,0,0:0:0:0:
475,192,204388,128,0,204429:0:0:0:0:
109,192,204470,128,0,204753:0:0:0:0:
329,192,204470,128,0,204672:0:0:0:0:
256,192,204470,1,0,0:0:0:0:
402,192,204470,128,0,204510:0:0:0:0:
182,192,204551,1,0,0:0:0:0:
475,192,204551,128,0,204834:0:0:0:0:
36,192,204551,128,0,204591:0:0:0:0:
402,192,204632,1,0,0:0:0:0:
36,192,204713,128,0,204997:0:0:0:0:
182,192,204713,128,0,204753:0:0:0:0:
329,192,204713,1,0,0:0:0:0:
256,192,204713,128,0,204916:0:0:0:0:
402,192,204794,128,0,205078:0:0:0:0:
109,192,204794,1,0,0:0:0:0:
329,192,204875,128,0,204916:0:0:0:0:
475,192,204875,1,0,0:0:0:0:
182,192,204875,128,0,205159:0:0:0:0:
109,192,204956,128,0,204997:0:0:0:0:
256,192,204956,1,0,0:0:0:0:
36,192,205037,1,0,0:0:0:0:
329,192,205037,128,0,205280:0:0:0:0:
475,192,205037,128,0,205078:0:0:0:0:
109,192,205118,128,0,205443:0:0:0:0:
402,192,205118,1,0,0:0:0:0:
256,192,205118,128,0,205159:0:0:0:0:
182,192,205199,1,0,0:0:0:0:
36,192,205199,128,0,205240:0:0:0:0:
475,192,205199,128,0,205280:0:0:0:0:
256,192,205280,128,0,205361:0:0:0:0:
329,192,205361,1,0,0:0:0:0:
182,192,205361,128,0,205443:0:0:0:0:
402,192,205361,128,0,205605:0:0:0:0:
36,192,205361,128,0,205767:0:0:0:0:
475,192,205443,128,0,205524:0:0:0:0:
256,192,205443,1,0,0:0:0:0:
329,192,205524,128,0,205767:0:0:0:0:
109,192,205524,1,0,0:0:0:0:
182,192,205524,128,0,205686:0:0:0:0:
475,192,205605,1,0,0:0:0:0:
256,192,205605,128,0,205686:0:0:0:0:
402,192,205686,128,0,205767:0:0:0:0:
109,192,205686,128,0,205929:0:0:0:0:
256,192,205767,1,0,0:0:0:0:
182,192,205767,128,0,205848:0:0:0:0:
475,192,205767,128,0,206010:0:0:0:0:
36,192,205848,128,0,206091:0:0:0:0:
402,192,205848,1,0,0:0:0:0:
329,192,205848,128,0,205929:0:0:0:0:
256,192,205929,128,0,206172:0:0:0:0:
182,192,205929,1,0,0:0:0:0:
402,192,206010,128,0,206253:0:0:0:0:
109,192,206010,128,0,206091:0:0:0:0:
329,192,206010,1,0,0:0:0:0:
182,192,206091,128,0,206253:0:0:0:0:
475,192,206091,128,0,206172:0:0:0:0:
36,192,206172,128,0,206253:0:0:0:0:
109,192,206172,1,0,0:0:0:0:
329,192,206172,128,0,206416:0:0:0:0:
475,192,206253,1,0,0:0:0:0:
256,192,206253,128,0,206334:0:0:0:0:
36,192,206334,128,0,206497:0:0:0:0:
182,192,206334,1,0,0:0:0:0:
402,192,206334,128,0,206416:0:0:0:0:
109,192,206416,128,0,206578:0:0:0:0:
475,192,206416,128,0,206497:0:0:0:0:
256,192,206416,1,0,0:0:0:0:
329,192,206497,128,0,206659:0:0:0:0:
182,192,206497,128,0,206578:0:0:0:0:
402,192,206497,1,0,0:0:0:0:
36,192,206578,1,0,0:0:0:0:
256,192,206578,128,0,206659:0:0:0:0:
402,192,206659,1,0,0:0:0:0:
475,192,206659,128,0,206943:0:0:0:0:
182,192,206659,128,0,206780:0:0:0:0:
109,192,206659,1,0,0:0:0:0:
256,192,206740,1,0,0:0:0:0:
329,192,206740,128,0,206861:0:0:0:0:
36,192,206740,128,0,206780:0:0:0:0:
182,192,206821,1,0,0:0:0:0:
109,192,206821,128,0,206943:0:0:0:0:
402,192,206821,128,0,206943:0:0:0:0:
329,192,206902,1,0,0:0:0:0:
256,192,206902,128,0,207024:0:0:0:0:
36,192,206983,128,0,207267:0:0:0:0:
182,192,206983,128,0,207024:0:0:0:0:
402,192,206983,1,0,0:0:0:0:
475,192,206983,128,0,207024:0:0:0:0:
109,192,206983,1,0,0:0:0:0:
256,192,207064,1,0,0:0:0:0:
402,192,207145,128,0,207429:0:0:0:0:
329,192,207145,1,0,0:0:0:0:
109,192,207145,128,0,207186:0:0:0:0:
475,192,207226,128,0,207267:0:0:0:0:
182,192,207226,128,0,207348:0:0:0:0:
256,192,207226,1,0,0:0:0:0:
36,192,207307,1,0,0:0:0:0:
109,192,207307,128,0,207429:0:0:0:0:
329,192,207307,128,0,207591:0:0:0:0:
475,192,207388,128,0,207591:0:0:0:0:
182,192,207388,1,0,0:0:0:0:
256,192,207388,128,0,207510:0:0:0:0:
402,192,207470,1,0,0:0:0:0:
36,192,207470,128,0,207672:0:0:0:0:
109,192,207470,1,0,0:0:0:0:
182,192,207551,128,0,207956:0:0:0:0:
256,192,207551,1,0,0:0:0:0:
109,192,207632,128,0,207672:0:0:0:0:
329,192,207632,128,0,207672:0:0:0:0:
475,192,207632,1,0,0:0:0:0:
402,192,207632,128,0,207834:0:0:0:0:
36,192,207713,1,0,0:0:0:0:
256,192,207713,128,0,207875:0:0:0:0:
329,192,207794,1,0,0:0:0:0:
475,192,207794,128,0,207834:0:0:0:0:
109,192,207875,128,0,207956:0:0:0:0:
402,192,207956,128,0,208037:0:0:0:0:
36,192,207956,128,0,208280:0:0:0:0:
475,192,207956,1,0,0:0:0:0:
256,192,207956,1,0,0:0:0:0:
329,192,208037,128,0,208118:0:0:0:0:
182,192,208037,1,0,0:0:0:0:
109,192,208118,128,0,208199:0:0:0:0:
402,192,208118,128,0,208280:0:0:0:0:
256,192,208118,1,0,0:0:0:0:
475,192,208118,128,0,208199:0:0:0:0:
182,192,208199,128,0,208443:0:0:0:0:
329,192,208199,1,0,0:0:0:0:
109,192,208280,1,0,0:0:0:0:
256,192,208280,128,0,208361:0:0:0:0:
475,192,208280,128,0,208524:0:0:0:0:
402,192,208361,128,0,208443:0:0:0:0:
36,192,208361,128,0,208524:0:0:0:0:
256,192,208443,1,0,0:0:0:0:
109,192,208443,128,0,208686:0:0:0:0:
329,192,208443,128,0,208524:0:0:0:0:
402,192,208524,128,0,208767:0:0:0:0:
182,192,208524,128,0,208605:0:0:0:0:
475,192,208605,128,0,208686:0:0:0:0:
36,192,208605,128,0,208848:0:0:0:0:
329,192,208605,128,0,208686:0:0:0:0:
182,192,208686,128,0,208767:0:0:0:0:
256,192,208686,128,0,208848:0:0:0:0:
329,192,208767,128,0,208929:0:0:0:0:
109,192,208767,128,0,208929:0:0:0:0:
475,192,208767,128,0,208848:0:0:0:0:
182,192,208848,128,0,209091:0:0:0:0:
402,192,208848,128,0,209091:0:0:0:0:
256,192,208929,128,0,209010:0:0:0:0:
475,192,208929,128,0,209010:0:0:0:0:
36,192,208929,128,0,209010:0:0:0:0:
109,192,209010,128,0,209334:0:0:0:0:
329,192,209010,128,0,209172:0:0:0:0:
475,192,209091,128,0,209172:0:0:0:0:
36,192,209091,128,0,209172:0:0:0:0:
256,192,209091,128,0,209172:0:0:0:0:
402,192,209172,128,0,209253:0:0:0:0:
182,192,209172,128,0,209253:0:0:0:0:
256,192,209253,128,0,209740:0:0:0:0:
329,192,209253,1,0,0:0:0:0:
36,192,209253,128,0,209334:0:0:0:0:
475,192,209253,128,0,209334:0:0:0:0:
182,192,209334,1,0,0:0:0:0:
402,192,209334,128,0,209416:0:0:0:0:
109,192,209416,1,0,0:0:0:0:
36,192,209416,128,0,209497:0:0:0:0:
329,192,209416,128,0,209497:0:0:0:0:
475,192,209497,1,0,0:0:0:0:
182,192,209497,128,0,209578:0:0:0:0:
329,192,209578,1,0,0:0:0:0:
402,192,209578,128,0,209659:0:0:0:0:
109,192,209578,128,0,209659:0:0:0:0:
475,192,209659,1,0,0:0:0:0:
36,192,209659,128,0,209740:0:0:0:0:
109,192,209740,1,0,0:0:0:0:
182,192,209740,128,0,209821:0:0:0:0:
402,192,209740,1,0,0:0:0:0:
329,192,209740,128,0,209821:0:0:0:0:
475,192,209821,128,0,209902:0:0:0:0:
256,192,209821,128,0,209902:0:0:0:0:
36,192,209821,1,0,0:0:0:0:
329,192,209902,128,0,210064:0:0:0:0:
182,192,209902,1,0,0:0:0:0:
402,192,209902,1,0,0:0:0:0:
109,192,209902,128,0,209983:0:0:0:0:
256,192,209983,128,0,210064:0:0:0:0:
475,192,209983,128,0,210145:0:0:0:0:
109,192,210064,1,0,0:0:0:0:
36,192,210064,128,0,210145:0:0:0:0:
402,192,210064,128,0,210145:0:0:0:0:
182,192,210145,128,0,210226:0:0:0:0:
256,192,210145,128,0,210307:0:0:0:0:
329,192,210145,1,0,0:0:0:0:
36,192,210226,1,0,0:0:0:0:
109,192,210226,128,0,210307:0:0:0:0:
475,192,210226,128,0,210307:0:0:0:0:
402,192,210226,1,0,0:0:0:0:
329,192,210307,128,0,210470:0:0:0:0:
182,192,210307,1,0,0:0:0:0:
256,192,210388,128,0,210470:0:0:0:0:
109,192,210388,1,0,0:0:0:0:
36,192,210388,128,0,210470:0:0:0:0:
475,192,210388,1,0,0:0:0:0:
182,192,210470,1,0,0:0:0:0:
402,192,210470,1,0,0:0:0:0:
36,192,210551,1,0,0:0:0:0:
109,192,210551,128,0,211118:0:0:0:0:
256,192,210551,128,0,210632:0:0:0:0:
475,192,210551,128,0,210713:0:0:0:0:
329,192,210551,1,0,0:0:0:0:
402,192,210632,128,0,210713:0:0:0:0:
182,192,210632,128,0,210794:0:0:0:0:
256,192,210713,1,0,0:0:0:0:
329,192,210713,128,0,210875:0:0:0:0:
36,192,210713,128,0,210794:0:0:0:0:
402,192,210794,1,0,0:0:0:0:
475,192,210794,128,0,210956:0:0:0:0:
36,192,210875,1,0,0:0:0:0:
182,192,210875,128,0,210956:0:0:0:0:
256,192,210875,128,0,211037:0:0:0:0:
329,192,210956,128,0,211118:0:0:0:0:
402,192,210956,128,0,211037:0:0:0:0:
475,192,211037,128,0,211118:0:0:0:0:
36,192,211037,128,0,211199:0:0:0:0:
182,192,211037,1,0,0:0:0:0:
256,192,211118,128,0,211280:0:0:0:0:
402,192,211118,1,0,0:0:0:0:
182,192,211199,128,0,211361:0:0:0:0:
109,192,211199,128,0,211280:0:0:0:0:
329,192,211199,128,0,211280:0:0:0:0:
475,192,211199,128,0,211280:0:0:0:0:
36,192,211280,128,0,211361:0:0:0:0:
402,192,211280,128,0,211443:0:0:0:0:
109,192,211361,128,0,211524:0:0:0:0:
256,192,211361,128,0,211443:0:0:0:0:
475,192,211361,128,0,211605:0:0:0:0:
329,192,211361,128,0,211443:0:0:0:0:
36,192,211443,128,0,211605:0:0:0:0:
182,192,211443,128,0,211524:0:0:0:0:
256,192,211524,128,0,211686:0:0:0:0:
402,192,211524,128,0,211767:0:0:0:0:
329,192,211524,128,0,211605:0:0:0:0:
109,192,211605,128,0,211767:0:0:0:0:
182,192,211605,128,0,211686:0:0:0:0:
36,192,211686,128,0,211767:0:0:0:0:
329,192,211686,128,0,211767:0:0:0:0:
475,192,211686,128,0,211767:0:0:0:0:
182,192,211767,128,0,211929:0:0:0:0:
256,192,211767,128,0,211848:0:0:0:0:
329,192,211848,1,0,0:0:0:0:
402,192,211848,128,0,211929:0:0:0:0:
475,192,211848,128,0,212051:0:0:0:0:
36,192,211848,1,0,0:0:0:0:
109,192,211848,128,0,211929:0:0:0:0:
256,192,211929,1,0,0:0:0:0:
182,192,212010,1,0,0:0:0:0:
402,192,212010,1,0,0:0:0:0:
36,192,212010,128,0,212213:0:0:0:0:
329,192,212010,128,0,212051:0:0:0:0:
109,192,212010,128,0,212091:0:0:0:0:
256,192,212091,1,0,0:0:0:0:
475,192,212172,1,0,0:0:0:0:
109,192,212172,1,0,0:0:0:0:
402,192,212172,128,0,212375:0:0:0:0:
182,192,212172,128,0,212253:0:0:0:0:
329,192,212172,128,0,212253:0:0:0:0:
256,192,212253,1,0,0:0:0:0:
36,192,212334,1,0,0:0:0:0:
329,192,212334,1,0,0:0:0:0:
109,192,212334,128,0,212537:0:0:0:0:
475,192,212334,128,0,212375:0:0:0:0:
182,192,212334,128,0,212416:0:0:0:0:
256,192,212416,1,0,0:0:0:0:
36,192,212497,128,0,212537:0:0:0:0:
402,192,212497,1,0,0:0:0:0:
475,192,212497,128,0,212578:0:0:0:0:
182,192,212578,1,0,0:0:0:0:
256,192,212578,128,0,212780:0:0:0:0:
329,192,212578,128,0,212659:0:0:0:0:
109,192,212659,1,0,0:0:0:0:
475,192,212659,1,0,0:0:0:0:
36,192,212659,128,0,212740:0:0:0:0:
329,192,212740,1,0,0:0:0:0:
402,192,212740,128,0,212821:0:0:0:0:
182,192,212740,128,0,212780:0:0:0:0:
475,192,212821,128,0,212902:0:0:0:0:
36,192,212821,1,0,0:0:0:0:
109,192,212821,128,0,213064:0:0:0:0:
329,192,212902,128,0,213064:0:0:0:0:
256,192,212902,1,0,0:0:0:0:
182,192,212902,128,0,212983:0:0:0:0:
475,192,212983,1,0,0:0:0:0:
402,192,212983,128,0,213064:0:0:0:0:
36,192,212983,128,0,213064:0:0:0:0:
256,192,213064,1,0,0:0:0:0:
36,192,213145,128,0,213348:0:0:0:0:
475,192,213145,128,0,213348:0:0:0:0:
109,192,213145,128,0,213267:0:0:0:0:
182,192,213145,1,0,0:0:0:0:
329,192,213145,128,0,213186:0:0:0:0:
402,192,213226,128,0,213429:0:0:0:0:
256,192,213226,128,0,213267:0:0:0:0:
329,192,213307,128,0,213510:0:0:0:0:
182,192,213307,128,0,213348:0:0:0:0:
109,192,213307,128,0,213348:0:0:0:0:
475,192,213388,128,0,213429:0:0:0:0:
36,192,213388,128,0,213429:0:0:0:0:
256,192,213388,128,0,213510:0:0:0:0:
109,192,213470,128,0,213672:0:0:0:0:
402,192,213470,128,0,213510:0:0:0:0:
182,192,213470,1,0,0:0:0:0:
36,192,213551,128,0,213753:0:0:0:0:
329,192,213551,128,0,213591:0:0:0:0:
256,192,213551,128,0,213591:0:0:0:0:
475,192,213551,128,0,213753:0:0:0:0:
182,192,213632,128,0,213672:0:0:0:0:
402,192,213632,128,0,213753:0:0:0:0:
109,192,213713,128,0,213753:0:0:0:0:
256,192,213713,128,0,213916:0:0:0:0:
329,192,213713,1,0,0:0:0:0:
36,192,213794,128,0,213834:0:0:0:0:
182,192,213794,128,0,213997:0:0:0:0:
402,192,213794,128,0,213834:0:0:0:0:
475,192,213794,128,0,213834:0:0:0:0:
109,192,213875,128,0,214078:0:0:0:0:
329,192,213875,128,0,213916:0:0:0:0:
256,192,213956,128,0,213997:0:0:0:0:
36,192,213956,128,0,214078:0:0:0:0:
402,192,213956,128,0,214078:0:0:0:0:
475,192,213956,1,0,0:0:0:0:
182,192,214037,128,0,214078:0:0:0:0:
329,192,214037,128,0,214280:0:0:0:0:
36,192,214118,1,0,0:0:0:0:
402,192,214118,1,0,0:0:0:0:
475,192,214118,128,0,214240:0:0:0:0:
109,192,214118,128,0,214240:0:0:0:0:
256,192,214118,128,0,214199:0:0:0:0:
182,192,214199,128,0,214443:0:0:0:0:
402,192,214280,128,0,214402:0:0:0:0:
475,192,214280,1,0,0:0:0:0:
109,192,214280,1,0,0:0:0:0:
36,192,214280,128,0,214402:0:0:0:0:
256,192,214280,128,0,214321:0:0:0:0:
329,192,214361,128,0,214443:0:0:0:0:
475,192,214443,5,0,0:0:0:0:
109,192,214443,1,0,0:0:0:0:
36,192,214443,1,0,0:0:0:0:
256,192,214443,1,0,0:0:0:0:
402,192,214443,1,0,0:0:0:0:
182,192,215012,1,0,0:0:0:0:
402,192,215632,1,0,0:0:0:0:
402,192,216076,1,0,0:0:0:0:
329,192,216136,128,0,217043:0:0:0:0:
182,192,216196,128,0,218438:0:0:0:0:
36,192,216257,128,0,218438:0:0:0:0:
475,192,217043,1,0,0:0:0:0:
256,192,218438,1,0,0:0:0:0:
109,192,218438,1,0,0:0:0:0:
402,192,218438,128,0,224085:0:0:0:0:
36,192,218790,128,0,218967:0:0:0:0:
475,192,218967,1,0,0:0:0:0:
182,192,219143,128,0,219320:0:0:0:0:
475,192,219320,1,0,0:0:0:0:
182,192,219496,1,0,0:0:0:0:
109,192,219673,128,0,219849:0:0:0:0:
475,192,219849,1,0,0:0:0:0:
109,192,220026,128,0,220202:0:0:0:0:
475,192,220202,1,0,0:0:0:0:
109,192,220379,1,0,0:0:0:0:
182,192,220555,1,0,0:0:0:0:
256,192,220732,1,0,0:0:0:0:
329,192,220908,1,0,0:0:0:0:
475,192,221085,1,0,0:0:0:0:
256,192,221261,1,0,0:0:0:0:
182,192,221438,1,0,0:0:0:0:
109,192,221614,128,0,221790:0:0:0:0:
475,192,221790,1,0,0:0:0:0:
182,192,221967,128,0,222143:0:0:0:0:
475,192,222143,1,0,0:0:0:0:
182,192,222320,1,0,0:0:0:0:
109,192,222496,128,0,222673:0:0:0:0:
475,192,222673,1,0,0:0:0:0:
109,192,222849,128,0,223026:0:0:0:0:
475,192,223026,1,0,0:0:0:0:
109,192,223202,1,0,0:0:0:0:
36,192,223379,128,0,224085:0:0:0:0:
182,192,223555,128,0,224085:0:0:0:0:
329,192,223732,128,0,224085:0:0:0:0:
475,192,223908,128,0,224085:0:0:0:0:
