osu file format v14

[General]
AudioFilename: audio.mp3
AudioLeadIn: 0
PreviewTime: 87728
Countdown: 0
SampleSet: Soft
StackLeniency: 0.7
Mode: 3
LetterboxInBreaks: 0
SpecialStyle: 0
WidescreenStoryboard: 0

[Editor]
Bookmarks: 1028,6513,10628,13370,18856,27085,29828,35313,38056,40799,46285,51770,57256,62742,68228,70970,76456,79028,81942,87428,90170,98399,99770,109370,114856
DistanceSpacing: 0.8
BeatDivisor: 4
GridSize: 16
TimelineZoom: 1.8

[Metadata]
Title:TAKEMIKADUCHI
TitleUnicode:TAKEMIKADUCHI
Artist:polysha
ArtistUnicode:polysha
Creator:FAMoss
Version:KASHIMA
Source:
Tags:masamune electronic instrumental freeform hardcore piano chime タケミカヅチ takemikazuchi たけみかずち
BeatmapID:2810330
BeatmapSetID:1357994

[Difficulty]
HPDrainRate:8.5
CircleSize:4
OverallDifficulty:8.5
ApproachRate:5
SliderMultiplier:1.4
SliderTickRate:1

[Events]
//Background and Video events
0,0,"PiNe(54367864).jpg",0,0
//Break Periods
//Storyboard Layer 0 (Background)
//Storyboard Layer 1 (Fail)
//Storyboard Layer 2 (Pass)
//Storyboard Layer 3 (Foreground)
//Storyboard Layer 4 (Overlay)
//Storyboard Sound Samples

[TimingPoints]
1028,342.857142857143,4,2,1,70,1,0
30170,-100,4,2,1,70,0,1
35313,-100,4,2,1,70,0,0
40799,-100,4,2,1,70,0,1
46285,-100,4,2,1,70,0,0
52113,-100,4,2,1,70,0,1
57256,-100,4,2,1,70,0,0
63085,-100,4,2,1,70,0,1
68228,-100,4,2,1,70,0,0
90170,-100,4,2,1,70,0,1
98399,-100,4,2,1,70,0,0
99770,-100,4,2,1,70,0,1
109028,-100,4,2,1,70,0,0

[HitObjects]
448,192,513,5,0,0:0:0:0:
320,192,685,1,0,0:0:0:0:
192,192,856,1,0,0:0:0:0:
64,192,1028,1,2,0:0:0:0:
320,192,1028,1,0,0:0:0:70:LR_Chm Echo long.wav
448,192,1028,1,0,0:0:0:0:
192,192,1199,1,0,0:0:0:0:
320,192,1370,1,0,0:0:0:0:
448,192,1370,1,0,0:0:0:0:
192,192,1542,1,0,0:0:0:0:
64,192,1713,1,0,0:0:0:0:
448,192,1713,1,0,0:0:0:0:
320,192,1885,1,0,0:0:0:0:
64,192,2056,1,0,0:0:0:0:
192,192,2056,1,0,0:0:0:0:
64,192,2228,1,0,0:0:0:0:
320,192,2399,1,0,0:0:0:0:
448,192,2399,1,0,0:0:0:0:
192,192,2570,1,0,0:0:0:0:
320,192,2656,1,0,0:0:0:0:
64,192,2742,1,0,0:0:0:0:
448,192,2742,1,0,0:0:0:0:
192,192,2913,1,0,0:0:0:0:
448,192,3085,1,0,0:0:0:0:
320,192,3170,1,0,0:0:0:0:
64,192,3256,1,0,0:0:0:0:
192,192,3342,1,0,0:0:0:0:
448,192,3428,1,0,0:0:0:0:
320,192,3599,1,0,0:0:0:0:
192,192,3685,1,0,0:0:0:0:
64,192,3770,1,0,0:0:0:0:
448,192,3770,1,0,0:0:0:0:
320,192,3942,1,0,0:0:0:0:
64,192,4113,1,0,0:0:0:0:
192,192,4113,1,0,0:0:0:0:
320,192,4285,1,0,0:0:0:0:
64,192,4456,1,0,0:0:0:0:
448,192,4456,1,0,0:0:0:0:
192,192,4628,1,0,0:0:0:0:
320,192,4799,1,0,0:0:0:0:
448,192,4799,1,0,0:0:0:0:
448,192,4970,1,0,0:0:0:0:
64,192,5142,1,0,0:0:0:0:
192,192,5142,1,0,0:0:0:0:
320,192,5313,1,0,0:0:0:0:
192,192,5399,1,0,0:0:0:0:
64,192,5485,1,0,0:0:0:0:
448,192,5485,1,0,0:0:0:0:
64,192,5656,1,0,0:0:0:0:
320,192,5828,1,0,0:0:0:0:
448,192,5828,1,0,0:0:0:0:
448,192,5999,1,0,0:0:0:0:
64,192,6170,1,0,0:0:0:0:
192,192,6170,1,0,0:0:0:0:
192,192,6342,1,0,0:0:0:0:
64,192,6513,1,2,0:0:0:0:
320,192,6513,1,4,0:0:0:0:
448,192,6513,1,0,0:0:0:0:
192,192,6685,1,0,0:0:0:0:
320,192,6856,1,2,0:0:0:0:
448,192,6856,1,0,0:0:0:0:
192,192,7028,1,0,0:0:0:0:
64,192,7199,1,0,0:0:0:50:VEC3 Snares 014.wav
320,192,7199,1,0,0:0:0:0:
448,192,7199,1,0,0:0:0:0:
320,192,7370,1,0,0:0:0:0:
64,192,7542,1,0,0:0:0:0:
192,192,7542,1,0,0:0:0:0:
320,192,7713,1,2,0:0:0:0:
448,192,7713,1,0,0:0:0:0:
64,192,7885,1,2,0:0:0:0:
448,192,7885,1,0,0:0:0:0:
192,192,8056,1,0,0:0:0:0:
448,192,8113,1,0,0:0:0:0:
320,192,8170,1,0,0:0:0:0:
64,192,8228,1,2,0:0:0:0:
192,192,8228,1,0,0:0:0:0:
320,192,8399,1,0,0:0:0:0:
64,192,8570,1,0,0:0:0:50:VEC3 Snares 014.wav
192,192,8570,1,0,0:0:0:0:
448,192,8570,1,0,0:0:0:0:
192,192,8742,1,0,0:0:0:0:
64,192,8828,1,0,0:0:0:0:
320,192,8913,1,0,0:0:0:0:
192,192,9085,1,0,0:0:0:0:
320,192,9170,1,0,0:0:0:0:
64,192,9256,1,2,0:0:0:0:
448,192,9256,1,0,0:0:0:0:
192,192,9428,1,0,0:0:0:0:
64,192,9599,1,2,0:0:0:0:
192,192,9599,1,0,0:0:0:0:
320,192,9770,1,0,0:0:0:0:
64,192,9942,1,0,0:0:0:50:VEC3 Snares 014.wav
320,192,9942,1,0,0:0:0:0:
448,192,9942,1,0,0:0:0:0:
192,192,10113,1,0,0:0:0:0:
320,192,10285,1,2,0:0:0:0:
448,192,10285,1,0,0:0:0:0:
320,192,10456,1,0,0:0:0:0:
64,192,10628,1,2,0:0:0:0:
192,192,10628,1,0,0:0:0:0:
448,192,10628,1,0,0:0:0:0:
320,192,10799,1,0,0:0:0:0:
64,192,10970,1,2,0:0:0:0:
192,192,10970,1,0,0:0:0:0:
320,192,11142,1,0,0:0:0:0:
64,192,11313,1,2,0:0:0:0:
448,192,11313,1,0,0:0:0:0:
192,192,11485,1,0,0:0:0:0:
320,192,11656,1,2,0:0:0:0:
448,192,11656,1,0,0:0:0:0:
192,192,11828,1,0,0:0:0:0:
320,192,11999,1,2,0:0:0:0:
448,192,11999,1,0,0:0:0:0:
448,192,12170,1,2,0:0:0:0:
320,192,12170,1,0,0:0:0:0:
64,192,12342,1,2,0:0:0:0:
192,192,12342,1,0,0:0:0:0:
192,192,12513,1,2,0:0:0:0:
64,192,12513,1,0,0:0:0:0:
320,192,12685,1,2,0:0:0:0:
448,192,12685,1,0,0:0:0:0:
64,192,12770,1,2,0:0:0:0:
192,192,12770,1,0,0:0:0:0:
320,192,12856,1,2,0:0:0:0:
448,192,12856,1,0,0:0:0:0:
192,192,12942,1,2,0:0:0:0:
64,192,13028,1,0,0:0:0:0:
448,192,13028,1,0,0:0:0:0:
320,192,13028,1,0,0:0:0:70:clapwet.wav
64,192,13370,1,2,0:0:0:0:
192,192,13370,1,4,0:0:0:0:
448,192,13370,1,0,0:0:0:0:
320,192,13542,1,0,0:0:0:0:
64,192,13713,1,8,0:0:0:0:
192,192,13713,1,0,0:0:0:0:
448,192,13713,1,0,0:0:0:0:
192,192,13885,1,0,0:0:0:0:
64,192,14056,1,8,0:0:0:0:
320,192,14056,1,0,0:0:0:0:
448,192,14056,1,0,0:0:0:0:
448,192,14228,1,0,0:0:0:0:
64,192,14399,1,8,0:0:0:0:
192,192,14399,1,0,0:0:0:0:
320,192,14399,1,0,0:0:0:0:
192,192,14570,1,0,0:0:0:0:
320,192,14742,1,8,0:0:0:0:
448,192,14742,1,0,0:0:0:0:
64,192,14913,1,0,0:0:0:0:
320,192,14913,1,8,0:0:0:0:
448,192,15085,1,8,0:0:0:0:
64,192,15085,1,0,0:0:0:0:
448,192,15256,1,0,0:0:0:0:
192,192,15256,1,8,0:0:0:0:
192,192,15428,1,8,0:0:0:0:
64,192,15428,1,0,0:0:0:0:
448,192,15599,1,0,0:0:0:0:
64,192,15599,1,8,0:0:0:0:
448,192,15770,1,0,0:0:0:0:
320,192,15770,1,8,0:0:0:0:
320,192,15942,1,0,0:0:0:0:
64,192,15942,1,8,0:0:0:0:
64,192,16113,1,8,0:0:0:0:
192,192,16113,1,0,0:0:0:0:
320,192,16199,1,8,0:0:0:0:
448,192,16285,1,8,0:0:0:0:
192,192,16370,1,8,0:0:0:0:
320,192,16456,1,8,0:0:0:0:
448,192,16456,1,0,0:0:0:0:
64,192,16542,1,8,0:0:0:0:
192,192,16628,1,8,0:0:0:0:
320,192,16713,1,8,0:0:0:0:
64,192,16799,1,8,0:0:0:0:
448,192,16799,1,0,0:0:0:0:
192,192,16885,1,8,0:0:0:0:
448,192,16970,1,8,0:0:0:0:
320,192,17056,1,8,0:0:0:0:
64,192,17142,1,8,0:0:0:0:
192,192,17142,1,0,0:0:0:0:
448,192,17228,1,8,0:0:0:0:
320,192,17313,1,8,0:0:0:0:
192,192,17399,1,8,0:0:0:0:
64,192,17485,1,4,0:0:0:0:
320,192,17485,1,2,0:0:0:0:
448,192,17485,1,0,0:0:0:0:
192,192,17656,1,0,0:0:0:0:
320,192,17742,1,0,0:0:0:0:
448,192,17828,1,0,0:0:0:0:
64,192,17913,1,0,0:0:0:0:
192,192,17999,1,0,0:0:0:0:
448,192,18085,1,0,0:0:0:0:
320,192,18170,1,0,0:0:0:0:
192,192,18256,1,0,0:0:0:0:
64,192,18342,1,0,0:0:0:0:
320,192,18428,1,0,0:0:0:0:
64,192,18513,1,0,0:0:0:70:h03+kick.wav
192,192,18513,1,0,0:0:0:0:
448,192,18513,1,0,0:0:0:0:
64,192,18685,1,0,0:0:0:70:h03+kick.wav
192,192,18685,1,0,0:0:0:0:
448,192,18685,1,0,0:0:0:0:
64,192,18856,128,2,19113:0:0:0:0:
448,192,18856,128,0,19113:0:0:0:50:wou_A#.wav
64,192,19199,1,2,0:0:0:0:
192,192,19199,1,0,0:0:0:50:LR_CymbalGs.wav
448,192,19199,1,0,0:0:0:0:
64,192,19542,1,2,0:0:0:0:
192,192,19542,1,0,0:0:0:50:LR_CymbalGs.wav
320,192,19542,1,0,0:0:0:0:
192,192,19885,1,2,0:0:0:0:
320,192,19885,1,0,0:0:0:50:LR_CymbalGs.wav
448,192,19885,1,0,0:0:0:0:
64,192,20228,1,2,0:0:0:0:
320,192,20228,1,0,0:0:0:0:
192,192,20228,1,0,0:0:0:0:
448,192,20228,1,4,0:0:0:0:
192,192,20399,1,0,0:0:0:0:
192,192,20570,1,0,0:0:0:0:
320,192,20742,1,2,0:0:0:0:
448,192,20742,1,0,0:0:0:0:
192,192,20828,1,0,0:0:0:0:
64,192,20913,1,8,0:0:0:0:
320,192,20913,1,0,0:0:0:0:
448,192,20913,1,0,0:0:0:0:
192,192,21085,1,0,0:0:0:0:
320,192,21256,1,2,0:0:0:0:
448,192,21256,1,0,0:0:0:0:
64,192,21428,1,8,0:0:0:0:
192,192,21428,1,0,0:0:0:0:
448,192,21428,1,0,0:0:0:0:
192,192,21599,1,2,0:0:0:0:
320,192,21599,1,0,0:0:0:0:
64,192,21942,1,2,0:0:0:0:
320,192,21942,1,0,0:0:0:50:LR_CymbalGs.wav
448,192,21942,1,0,0:0:0:0:
192,192,22285,1,2,0:0:0:0:
320,192,22285,1,0,0:0:0:50:LR_CymbalGs.wav
448,192,22285,1,0,0:0:0:0:
64,192,22628,1,2,0:0:0:0:
192,192,22628,1,0,0:0:0:50:LR_CymbalGs.wav
320,192,22628,1,0,0:0:0:0:
448,192,22970,1,4,0:0:0:0:
320,192,22970,1,0,0:0:0:0:
64,192,22970,1,2,0:0:0:0:
192,192,22970,1,0,0:0:0:0:
320,192,23142,1,0,0:0:0:0:
192,192,23228,1,0,0:0:0:0:
320,192,23313,1,0,0:0:0:0:
64,192,23485,1,2,0:0:0:0:
192,192,23485,1,0,0:0:0:0:
320,192,23570,1,0,0:0:0:0:
64,192,23656,1,8,0:0:0:0:
192,192,23656,1,0,0:0:0:0:
448,192,23656,1,0,0:0:0:0:
320,192,23828,1,0,0:0:0:0:
64,192,23999,1,2,0:0:0:0:
192,192,23999,1,0,0:0:0:0:
64,192,24170,1,8,0:0:0:0:
320,192,24170,1,0,0:0:0:0:
448,192,24170,1,0,0:0:0:0:
192,192,24342,1,2,0:0:0:0:
320,192,24342,1,0,0:0:0:0:
64,192,24685,1,2,0:0:0:0:
192,192,24685,1,0,0:0:0:50:LR_CymbalGs.wav
448,192,24685,1,0,0:0:0:0:
192,192,25028,1,2,0:0:0:0:
320,192,25028,1,0,0:0:0:50:LR_CymbalGs.wav
448,192,25028,1,0,0:0:0:0:
64,192,25370,1,2,0:0:0:0:
192,192,25370,1,0,0:0:0:50:LR_CymbalGs.wav
320,192,25370,1,0,0:0:0:0:
64,192,25713,1,2,0:0:0:0:
192,192,25713,1,0,0:0:0:0:
448,192,25713,1,4,0:0:0:0:
320,192,25713,1,0,0:0:0:0:
192,192,25885,1,0,0:0:0:0:
192,192,26056,1,0,0:0:0:0:
320,192,26228,1,2,0:0:0:0:
448,192,26228,1,0,0:0:0:0:
192,192,26313,1,0,0:0:0:0:
64,192,26399,1,8,0:0:0:0:
320,192,26399,1,0,0:0:0:0:
448,192,26399,1,0,0:0:0:0:
192,192,26570,1,0,0:0:0:0:
320,192,26742,1,2,0:0:0:0:
448,192,26742,1,0,0:0:0:0:
64,192,26913,1,8,0:0:0:0:
192,192,26913,1,0,0:0:0:0:
448,192,26913,1,0,0:0:0:0:
64,192,27085,1,2,0:0:0:0:
320,192,27085,1,0,0:0:0:50:LR_CymbalGs.wav
448,192,27085,1,0,0:0:0:0:
192,192,27256,1,0,0:0:0:0:
320,192,27342,1,0,0:0:0:0:
64,192,27428,1,8,0:0:0:0:
448,192,27428,1,0,0:0:0:0:
192,192,27513,1,0,0:0:0:0:
64,192,27599,1,2,0:0:0:0:
320,192,27599,1,0,0:0:0:50:LR_CymbalGs.wav
448,192,27599,1,0,0:0:0:0:
320,192,27770,1,0,0:0:0:0:
192,192,27856,1,0,0:0:0:0:
64,192,27942,1,8,0:0:0:0:
448,192,27942,1,0,0:0:0:0:
320,192,28028,1,0,0:0:0:0:
64,192,28113,1,2,0:0:0:0:
192,192,28113,1,0,0:0:0:50:LR_CymbalGs.wav
448,192,28113,1,0,0:0:0:0:
192,192,28285,1,0,0:0:0:0:
64,192,28456,1,8,0:0:0:0:
448,192,28456,1,0,0:0:0:0:
320,192,28542,1,0,0:0:0:0:
64,192,28628,1,2,0:0:0:0:
192,192,28628,1,0,0:0:0:50:LR_CymbalGs.wav
448,192,28628,1,0,0:0:0:0:
320,192,28713,1,0,0:0:0:0:
64,192,28799,1,8,0:0:0:0:
192,192,28799,1,0,0:0:0:0:
320,192,28885,1,0,0:0:0:0:
192,192,28970,1,8,0:0:0:0:
448,192,28970,1,0,0:0:0:0:
64,192,29056,1,0,0:0:0:0:
320,192,29142,1,8,0:0:0:0:
448,192,29142,1,0,0:0:0:0:
64,192,29228,1,8,0:0:0:0:
192,192,29228,1,0,0:0:0:0:
320,192,29313,1,8,0:0:0:0:
448,192,29313,1,0,0:0:0:0:
192,192,29399,1,8,0:0:0:0:
64,192,29485,1,0,0:0:0:0:
448,192,29485,1,0,0:0:0:0:
320,192,29485,1,0,0:0:0:70:clapwet.wav
64,192,29828,128,2,30085:0:0:0:0:
448,192,29828,128,0,30085:0:0:0:0:
64,192,30170,1,4,0:0:0:0:
192,192,30170,1,8,0:0:0:0:
448,192,30170,1,0,0:0:0:0:
192,192,30342,1,0,0:0:0:0:
320,192,30513,1,2,0:0:0:0:
448,192,30513,1,0,0:0:0:0:
192,192,30685,1,0,0:0:0:0:
64,192,30856,1,8,0:0:0:0:
320,192,30856,1,0,0:0:0:0:
448,192,30856,1,0,0:0:0:0:
320,192,31028,1,0,0:0:0:0:
64,192,31199,1,2,0:0:0:0:
448,192,31199,1,0,0:0:0:0:
192,192,31370,1,0,0:0:0:0:
64,192,31542,1,8,0:0:0:0:
192,192,31542,1,0,0:0:0:0:
448,192,31542,1,0,0:0:0:0:
320,192,31713,1,0,0:0:0:0:
192,192,31799,1,0,0:0:0:0:
320,192,31885,1,2,0:0:0:0:
448,192,31885,1,0,0:0:0:0:
192,192,32056,1,0,0:0:0:0:
64,192,32228,1,8,0:0:0:0:
320,192,32228,1,0,0:0:0:0:
448,192,32228,1,0,0:0:0:0:
320,192,32399,1,0,0:0:0:0:
64,192,32570,1,2,0:0:0:0:
448,192,32570,1,0,0:0:0:0:
192,192,32742,1,0,0:0:0:0:
64,192,32913,1,8,0:0:0:0:
320,192,32913,1,0,0:0:0:0:
448,192,32913,1,0,0:0:0:0:
320,192,33085,1,0,0:0:0:0:
64,192,33256,1,2,0:0:0:0:
192,192,33256,1,0,0:0:0:0:
320,192,33428,1,0,0:0:0:0:
64,192,33599,1,8,0:0:0:0:
192,192,33599,1,0,0:0:0:0:
448,192,33599,1,0,0:0:0:0:
192,192,33770,1,0,0:0:0:0:
64,192,33942,1,2,0:0:0:0:
448,192,33942,1,0,0:0:0:0:
320,192,34113,1,0,0:0:0:0:
192,192,34199,1,0,0:0:0:0:
64,192,34285,1,8,0:0:0:0:
320,192,34285,1,0,0:0:0:0:
448,192,34285,1,0,0:0:0:0:
192,192,34456,1,0,0:0:0:0:
320,192,34542,1,0,0:0:0:0:
64,192,34628,1,2,0:0:0:0:
192,192,34628,1,0,0:0:0:0:
320,192,34799,1,0,0:0:0:0:
64,192,34970,1,8,0:0:0:0:
192,192,34970,1,0,0:0:0:0:
320,192,35056,1,2,0:0:0:0:
448,192,35056,1,0,0:0:0:0:
64,192,35142,1,2,0:0:0:0:
192,192,35142,1,0,0:0:0:0:
320,192,35228,1,2,0:0:0:0:
448,192,35228,1,0,0:0:0:0:
64,192,35313,128,2,35485:0:0:0:0:
192,192,35313,1,0,0:0:0:70:scream_outA#.wav
320,192,35485,1,0,0:0:0:0:
64,192,35656,1,2,0:0:0:0:
192,192,35656,1,0,0:0:0:50:LR_CymbalGs.wav
448,192,35656,1,0,0:0:0:0:
64,192,35999,1,2,0:0:0:0:
192,192,35999,1,0,0:0:0:50:LR_CymbalGs.wav
320,192,35999,1,0,0:0:0:0:
192,192,36342,1,2,0:0:0:0:
320,192,36342,1,0,0:0:0:50:LR_CymbalGs.wav
448,192,36342,1,0,0:0:0:0:
448,192,36685,1,4,0:0:0:0:
320,192,36685,1,0,0:0:0:0:
64,192,36685,1,2,0:0:0:0:
192,192,36685,1,0,0:0:0:0:
192,192,36856,1,0,0:0:0:0:
192,192,37028,1,0,0:0:0:0:
320,192,37199,1,2,0:0:0:0:
448,192,37199,1,0,0:0:0:0:
192,192,37285,1,0,0:0:0:0:
64,192,37370,1,8,0:0:0:0:
320,192,37370,1,0,0:0:0:0:
448,192,37370,1,0,0:0:0:0:
192,192,37542,1,0,0:0:0:0:
320,192,37713,1,2,0:0:0:0:
448,192,37713,1,0,0:0:0:0:
64,192,37885,1,8,0:0:0:0:
192,192,37885,1,0,0:0:0:0:
448,192,37885,1,0,0:0:0:0:
64,192,38056,1,4,0:0:0:0:
320,192,38056,1,2,0:0:0:0:
448,192,38056,1,0,0:0:0:0:
448,192,38399,1,0,0:0:0:70:vexst__snaeregh.wav
320,192,38513,1,0,0:0:0:0:
192,192,38628,1,0,0:0:0:0:
448,192,38742,1,0,0:0:0:70:vexst__emn-snare-3.wav
64,192,38856,1,0,0:0:0:0:
320,192,38970,1,0,0:0:0:0:
192,192,39085,1,0,0:0:0:70:vexst__snaeregh.wav
448,192,39199,1,0,0:0:0:0:
192,192,39313,1,0,0:0:0:0:
64,192,39428,1,2,0:0:0:0:
320,192,39428,1,0,0:0:0:50:LR_CymbalGs.wav
448,192,39428,1,0,0:0:0:0:
192,192,39513,1,0,0:0:0:0:
320,192,39599,1,0,0:0:0:0:
64,192,39685,1,2,0:0:0:0:
448,192,39685,1,0,0:0:0:50:LR_CymbalGs.wav
192,192,39770,1,0,0:0:0:0:
320,192,39856,1,0,0:0:0:0:
64,192,39942,1,2,0:0:0:0:
192,192,39942,1,0,0:0:0:50:LR_CymbalGs.wav
448,192,39942,1,0,0:0:0:0:
320,192,40028,1,0,0:0:0:0:
192,192,40113,1,0,0:0:0:0:
64,192,40199,1,2,0:0:0:0:
448,192,40199,1,0,0:0:0:50:LR_CymbalGs.wav
320,192,40285,1,0,0:0:0:0:
192,192,40370,1,0,0:0:0:0:
64,192,40456,1,0,0:0:0:0:
448,192,40456,1,0,0:0:0:0:
320,192,40456,1,0,0:0:0:70:clap07.wav
64,192,40799,1,4,0:0:0:0:
192,192,40799,1,2,0:0:0:0:
448,192,40799,1,0,0:0:0:70:LR_Chm Echo long.wav
320,192,40970,1,0,0:0:0:0:
192,192,41142,1,0,0:0:0:0:
448,192,41313,1,0,0:0:0:0:
320,192,41356,1,0,0:0:0:0:
64,192,41399,1,0,0:0:0:0:
192,192,41442,1,0,0:0:0:0:
320,192,41485,1,0,0:0:0:50:VEC3 Snares 014.wav
448,192,41485,1,0,0:0:0:0:
192,192,41656,1,0,0:0:0:0:
320,192,41828,1,0,0:0:0:0:
64,192,41999,1,2,0:0:0:0:
192,192,41999,1,0,0:0:0:0:
320,192,42170,1,0,0:0:0:0:
448,192,42170,1,0,0:0:0:0:
192,192,42342,1,0,0:0:0:0:
320,192,42399,1,0,0:0:0:0:
64,192,42456,1,0,0:0:0:0:
448,192,42513,1,2,0:0:0:0:
320,192,42685,1,0,0:0:0:0:
64,192,42728,1,0,0:0:0:0:
192,192,42770,1,0,0:0:0:0:
320,192,42813,1,0,0:0:0:0:
64,192,42856,1,0,0:0:0:50:VEC3 Snares 014.wav
448,192,42856,1,0,0:0:0:0:
192,192,43028,1,0,0:0:0:0:
320,192,43199,1,0,0:0:0:0:
64,192,43370,1,0,0:0:0:0:
320,192,43542,1,2,0:0:0:0:
448,192,43542,1,0,0:0:0:0:
192,192,43713,1,0,0:0:0:0:
320,192,43885,1,0,0:0:0:0:
64,192,44056,1,0,0:0:0:0:
192,192,44099,1,0,0:0:0:0:
448,192,44142,1,0,0:0:0:0:
320,192,44185,1,0,0:0:0:0:
64,192,44228,1,0,0:0:0:50:VEC3 Snares 014.wav
192,192,44228,1,0,0:0:0:0:
320,192,44399,1,0,0:0:0:0:
192,192,44570,1,0,0:0:0:0:
320,192,44742,1,2,0:0:0:0:
448,192,44742,1,0,0:0:0:0:
64,192,44913,1,0,0:0:0:0:
192,192,44913,1,0,0:0:0:0:
320,192,45085,1,0,0:0:0:0:
192,192,45142,1,0,0:0:0:0:
448,192,45199,1,0,0:0:0:0:
64,192,45256,1,2,0:0:0:0:
192,192,45428,1,0,0:0:0:0:
448,192,45470,1,0,0:0:0:0:
320,192,45513,1,0,0:0:0:0:
192,192,45556,1,0,0:0:0:0:
64,192,45599,1,0,0:0:0:50:VEC3 Snares 014.wav
448,192,45599,1,0,0:0:0:0:
320,192,45770,1,0,0:0:0:0:
64,192,45828,1,0,0:0:0:0:
192,192,45885,1,0,0:0:0:0:
448,192,45942,1,0,0:0:0:0:
320,192,46113,1,0,0:0:0:0:
64,192,46285,1,8,0:0:0:0:
192,192,46285,1,4,0:0:0:0:
448,192,46285,1,0,0:0:0:0:
192,192,46456,1,0,0:0:0:0:
64,192,46628,1,8,0:0:0:0:
320,192,46628,1,0,0:0:0:0:
448,192,46628,1,0,0:0:0:0:
448,192,46799,1,0,0:0:0:0:
64,192,46970,1,8,0:0:0:0:
192,192,46970,1,0,0:0:0:0:
320,192,46970,1,0,0:0:0:0:
64,192,47142,1,0,0:0:0:0:
192,192,47313,1,8,0:0:0:0:
320,192,47313,1,0,0:0:0:0:
448,192,47313,1,0,0:0:0:0:
320,192,47485,1,0,0:0:0:0:
64,192,47656,1,8,0:0:0:0:
192,192,47656,1,0,0:0:0:0:
448,192,47656,1,0,0:0:0:0:
320,192,47828,1,0,0:0:0:0:
192,192,47913,1,0,0:0:0:0:
64,192,47999,1,8,0:0:0:0:
320,192,47999,1,0,0:0:0:0:
448,192,47999,1,0,0:0:0:0:
448,192,48170,1,0,0:0:0:0:
64,192,48342,1,8,0:0:0:0:
192,192,48342,1,0,0:0:0:0:
320,192,48342,1,0,0:0:0:0:
64,192,48513,1,0,0:0:0:0:
192,192,48685,1,8,0:0:0:0:
320,192,48685,1,0,0:0:0:0:
448,192,48685,1,0,0:0:0:0:
64,192,48856,1,2,0:0:0:0:
192,192,48856,1,0,0:0:0:50:LR_CymbalGs.wav
448,192,48856,1,0,0:0:0:0:
64,192,49028,1,0,0:0:0:0:
192,192,49199,1,2,0:0:0:0:
320,192,49199,1,0,0:0:0:50:LR_CymbalGs.wav
448,192,49199,1,0,0:0:0:0:
192,192,49370,1,0,0:0:0:0:
64,192,49542,1,2,0:0:0:0:
320,192,49542,1,0,0:0:0:50:LR_CymbalGs.wav
448,192,49542,1,0,0:0:0:0:
448,192,49713,1,0,0:0:0:0:
64,192,49885,1,2,0:0:0:0:
192,192,49885,1,0,0:0:0:50:LR_CymbalGs.wav
320,192,49885,1,0,0:0:0:0:
320,192,50056,1,0,0:0:0:0:
64,192,50228,1,2,0:0:0:0:
192,192,50228,1,0,0:0:0:50:LR_CymbalGs.wav
448,192,50228,1,0,0:0:0:0:
192,192,50399,1,0,0:0:0:0:
64,192,50570,1,2,0:0:0:0:
320,192,50570,1,0,0:0:0:50:LR_CymbalGs.wav
448,192,50570,1,0,0:0:0:0:
320,192,50742,1,0,0:0:0:0:
64,192,50913,1,2,0:0:0:0:
192,192,50913,1,0,0:0:0:50:LR_CymbalGs.wav
448,192,50913,1,0,0:0:0:0:
192,192,51085,1,0,0:0:0:0:
64,192,51256,1,2,0:0:0:0:
320,192,51256,1,0,0:0:0:50:LR_CymbalGs.wav
448,192,51256,1,0,0:0:0:0:
448,192,51428,1,0,0:0:0:0:
64,192,51428,1,0,0:0:0:0:
320,192,51428,1,0,0:0:0:100:Go_001.wav
192,192,51428,1,0,0:0:0:70:clapwet.wav
64,192,51770,128,2,52028:0:0:0:0:
448,192,51770,128,0,52028:0:0:0:0:
64,192,52113,1,8,0:0:0:0:
320,192,52113,1,4,0:0:0:0:
448,192,52113,1,0,0:0:0:0:
448,192,52285,1,0,0:0:0:0:
320,192,52370,1,0,0:0:0:0:
192,192,52456,1,2,0:0:0:0:
64,192,52456,1,0,0:0:0:0:
320,192,52628,1,0,0:0:0:0:
64,192,52799,1,8,0:0:0:0:
192,192,52799,1,0,0:0:0:0:
448,192,52799,1,0,0:0:0:0:
64,192,52970,1,2,0:0:0:0:
320,192,52970,1,4,0:0:0:0:
448,192,52970,128,0,53313:0:0:0:0:
64,192,53313,1,2,0:0:0:0:
192,192,53313,1,0,0:0:0:0:
64,192,53485,1,8,0:0:0:0:
320,192,53485,1,0,0:0:0:0:
448,192,53485,1,0,0:0:0:0:
320,192,53656,1,0,0:0:0:0:
192,192,53742,1,0,0:0:0:0:
64,192,53828,1,2,0:0:0:0:
448,192,53828,1,0,0:0:0:0:
192,192,53999,1,2,0:0:0:0:
320,192,53999,1,0,0:0:0:0:
64,192,54170,1,8,0:0:0:0:
192,192,54170,1,0,0:0:0:0:
448,192,54170,1,0,0:0:0:0:
64,192,54342,1,2,0:0:0:0:
320,192,54342,128,4,54685:0:0:0:0:
448,192,54342,1,0,0:0:0:0:
64,192,54685,1,2,0:0:0:0:
192,192,54685,1,0,0:0:0:0:
64,192,54856,1,8,0:0:0:0:
320,192,54856,1,0,0:0:0:0:
448,192,54856,1,0,0:0:0:0:
320,192,55028,1,0,0:0:0:0:
64,192,55199,1,2,0:0:0:0:
448,192,55199,1,0,0:0:0:0:
192,192,55370,1,0,0:0:0:0:
64,192,55542,1,8,0:0:0:0:
320,192,55542,1,0,0:0:0:0:
448,192,55542,1,0,0:0:0:0:
64,192,55713,1,2,0:0:0:0:
192,192,55713,1,0,0:0:0:50:LR_CymbalGs.wav
448,192,55713,1,0,0:0:0:0:
64,192,56056,1,2,0:0:0:0:
192,192,56056,1,0,0:0:0:50:LR_CymbalGs.wav
448,192,56056,1,0,0:0:0:0:
320,192,56228,1,0,0:0:0:0:
64,192,56399,1,2,0:0:0:0:
192,192,56399,1,0,0:0:0:50:LR_CymbalGs.wav
448,192,56399,1,0,0:0:0:0:
64,192,56742,1,2,0:0:0:0:
192,192,56742,1,0,0:0:0:50:LR_CymbalGs.wav
448,192,56742,1,0,0:0:0:0:
320,192,56913,1,0,0:0:0:0:
192,192,56999,1,0,0:0:0:0:
64,192,57085,1,2,0:0:0:0:
448,192,57085,1,0,0:0:0:50:LR_CymbalGs.wav
320,192,57170,1,0,0:0:0:0:
64,192,57256,1,0,0:0:0:0:
192,192,57342,1,0,0:0:0:0:
320,192,57428,1,2,0:0:0:0:
448,192,57428,1,0,0:0:0:0:
64,192,57599,1,8,0:0:0:0:
192,192,57599,1,4,0:0:0:0:
448,192,57599,1,0,0:0:0:0:
64,192,57770,1,0,0:0:0:0:
192,192,57856,1,0,0:0:0:0:
320,192,57942,1,2,0:0:0:0:
448,192,57942,1,0,0:0:0:0:
192,192,58113,1,0,0:0:0:0:
64,192,58285,1,8,0:0:0:0:
320,192,58285,1,0,0:0:0:0:
448,192,58285,1,0,0:0:0:0:
64,192,58456,128,2,58799:0:0:0:0:
192,192,58456,1,4,0:0:0:0:
448,192,58456,1,0,0:0:0:0:
320,192,58799,1,2,0:0:0:0:
448,192,58799,1,0,0:0:0:0:
64,192,58970,1,8,0:0:0:0:
192,192,58970,1,0,0:0:0:0:
448,192,58970,1,0,0:0:0:0:
192,192,59142,1,0,0:0:0:0:
320,192,59228,1,0,0:0:0:0:
64,192,59313,1,2,0:0:0:0:
448,192,59313,1,0,0:0:0:0:
192,192,59485,1,2,0:0:0:0:
320,192,59485,1,0,0:0:0:0:
64,192,59656,1,8,0:0:0:0:
320,192,59656,1,0,0:0:0:0:
448,192,59656,1,0,0:0:0:0:
64,192,59828,1,2,0:0:0:0:
192,192,59828,128,4,60170:0:0:0:0:
448,192,59828,1,0,0:0:0:0:
320,192,60170,1,2,0:0:0:0:
448,192,60170,1,0,0:0:0:0:
320,192,60342,1,2,0:0:0:0:
448,192,60342,1,0,0:0:0:0:
64,192,60513,1,8,0:0:0:0:
192,192,60513,1,4,0:0:0:0:
448,192,60513,1,0,0:0:0:0:
320,192,60685,1,0,0:0:0:0:
64,192,60856,1,2,0:0:0:0:
192,192,60856,1,0,0:0:0:0:
64,192,61028,1,2,0:0:0:0:
192,192,61028,1,0,0:0:0:0:
64,192,61199,1,4,0:0:0:0:
320,192,61199,1,8,0:0:0:0:
448,192,61199,1,0,0:0:0:0:
192,192,61370,1,0,0:0:0:0:
320,192,61456,1,0,0:0:0:0:
64,192,61542,1,2,0:0:0:0:
192,192,61542,1,0,0:0:0:0:
320,192,61628,1,0,0:0:0:0:
64,192,61713,1,8,0:0:0:0:
192,192,61713,1,4,0:0:0:0:
448,192,61713,1,0,0:0:0:0:
320,192,61885,1,2,0:0:0:0:
448,192,61885,1,0,0:0:0:0:
192,192,61970,1,0,0:0:0:0:
320,192,62056,1,8,0:0:0:0:
448,192,62056,1,4,0:0:0:0:
192,192,62142,1,8,0:0:0:0:
64,192,62228,1,0,0:0:0:0:
448,192,62228,1,0,0:0:0:0:
320,192,62313,1,0,0:0:0:0:
192,192,62399,1,0,0:0:0:70:h03+kick.wav
448,192,62399,1,0,0:0:0:0:
64,192,62399,1,0,0:0:0:0:
64,192,62742,128,2,62999:0:0:0:0:
448,192,62742,128,0,62999:0:0:0:50:wou_A#.wav
64,192,63085,1,4,0:0:0:0:
320,192,63085,1,8,0:0:0:0:
448,192,63085,1,0,0:0:0:0:
320,192,63256,1,0,0:0:0:0:
192,192,63342,1,0,0:0:0:0:
64,192,63428,1,2,0:0:0:0:
448,192,63428,1,0,0:0:0:0:
320,192,63599,1,0,0:0:0:0:
64,192,63770,1,8,0:0:0:0:
192,192,63770,1,0,0:0:0:0:
448,192,63770,1,0,0:0:0:0:
192,192,63942,1,0,0:0:0:0:
64,192,64113,1,2,0:0:0:0:
448,192,64113,1,0,0:0:0:0:
320,192,64285,1,0,0:0:0:0:
64,192,64456,1,8,0:0:0:0:
192,192,64456,1,0,0:0:0:0:
448,192,64456,1,0,0:0:0:0:
192,192,64628,1,0,0:0:0:0:
320,192,64713,1,0,0:0:0:0:
64,192,64799,1,2,0:0:0:0:
448,192,64799,1,0,0:0:0:0:
192,192,64970,1,0,0:0:0:0:
64,192,65142,1,8,0:0:0:0:
320,192,65142,1,0,0:0:0:0:
448,192,65142,1,0,0:0:0:0:
448,192,65313,1,0,0:0:0:0:
64,192,65485,1,2,0:0:0:0:
192,192,65485,1,0,0:0:0:0:
320,192,65656,1,0,0:0:0:0:
64,192,65828,1,8,0:0:0:0:
192,192,65828,1,0,0:0:0:0:
448,192,65828,1,0,0:0:0:0:
64,192,65999,1,0,0:0:0:0:
320,192,66170,1,2,0:0:0:0:
448,192,66170,1,0,0:0:0:0:
192,192,66342,1,0,0:0:0:0:
64,192,66513,1,8,0:0:0:0:
320,192,66513,1,0,0:0:0:0:
448,192,66513,1,0,0:0:0:0:
320,192,66685,1,0,0:0:0:0:
64,192,66856,1,2,0:0:0:0:
448,192,66856,1,0,0:0:0:0:
192,192,67028,1,0,0:0:0:0:
64,192,67199,1,8,0:0:0:0:
320,192,67199,1,0,0:0:0:0:
448,192,67199,1,0,0:0:0:0:
320,192,67370,1,0,0:0:0:0:
64,192,67542,1,2,0:0:0:0:
192,192,67542,1,0,0:0:0:0:
320,192,67713,1,0,0:0:0:0:
64,192,67885,1,8,0:0:0:0:
192,192,67885,1,0,0:0:0:0:
448,192,67885,1,0,0:0:0:0:
320,192,67970,1,0,0:0:0:0:
192,192,68056,1,0,0:0:0:0:
320,192,68142,1,0,0:0:0:0:
64,192,68228,128,4,68570:0:0:0:0:
192,192,68228,1,2,0:0:0:0:
448,192,68228,1,0,0:0:0:0:
320,192,68570,1,0,0:0:0:0:
192,192,68742,1,0,0:0:0:0:
320,192,68828,1,0,0:0:0:0:
64,192,68913,1,8,0:0:0:0:
192,192,68913,1,0,0:0:0:0:
448,192,68913,1,0,0:0:0:0:
448,192,69085,1,0,0:0:0:0:
320,192,69256,1,2,0:0:0:0:
192,192,69256,1,0,0:0:0:0:
64,192,69428,1,8,0:0:0:0:
320,192,69428,1,4,0:0:0:0:
448,192,69428,1,0,0:0:0:0:
192,192,69599,1,0,0:0:0:0:
64,192,69599,1,2,0:0:0:0:
64,192,69770,1,2,0:0:0:0:
192,192,69770,1,0,0:0:0:0:
320,192,69942,1,2,0:0:0:0:
448,192,69942,1,0,0:0:0:0:
320,192,70113,1,2,0:0:0:0:
448,192,70113,1,0,0:0:0:0:
64,192,70285,1,2,0:0:0:0:
192,192,70285,1,0,0:0:0:50:LR_CymbalGs.wav
64,192,70399,1,2,0:0:0:0:
192,192,70399,1,0,0:0:0:50:LR_CymbalGs.wav
320,192,70513,1,2,0:0:0:0:
448,192,70513,1,0,0:0:0:50:LR_CymbalGs.wav
192,192,70628,1,2,0:0:0:0:
64,192,70628,1,0,0:0:0:50:LR_CymbalGs.wav
448,192,70742,1,2,0:0:0:0:
320,192,70742,1,0,0:0:0:50:LR_CymbalGs.wav
448,192,70856,1,2,0:0:0:0:
320,192,70856,1,0,0:0:0:50:LR_CymbalGs.wav
64,192,70970,1,2,0:0:0:0:
192,192,70970,1,0,0:0:0:70:LR_Chm Echo long.wav
448,192,70970,1,4,0:0:0:0:
192,192,71428,1,0,0:0:0:0:
320,192,71542,1,0,0:0:0:0:
448,192,71656,1,0,0:0:0:0:
192,192,71885,1,0,0:0:0:0:
64,192,72113,1,0,0:0:0:0:
320,192,72342,1,0,0:0:0:0:
448,192,72342,1,0,0:0:0:0:
320,192,72799,1,0,0:0:0:0:
192,192,72913,1,0,0:0:0:0:
64,192,73028,1,0,0:0:0:0:
320,192,73256,1,0,0:0:0:0:
448,192,73485,1,0,0:0:0:0:
64,192,73713,1,0,0:0:0:0:
192,192,73713,1,0,0:0:0:0:
320,192,73942,1,0,0:0:0:0:
192,192,74170,1,0,0:0:0:0:
320,192,74399,1,0,0:0:0:0:
448,192,74399,1,0,0:0:0:0:
64,192,74628,1,0,0:0:0:0:
320,192,74856,1,0,0:0:0:0:
64,192,75085,1,0,0:0:0:0:
192,192,75085,1,0,0:0:0:0:
320,192,75313,1,0,0:0:0:0:
192,192,75542,1,0,0:0:0:0:
64,192,75770,1,0,0:0:0:0:
448,192,75770,1,0,0:0:0:0:
320,192,76113,1,0,0:0:0:0:
192,192,76199,1,0,0:0:0:0:
64,192,76285,1,0,0:0:0:0:
320,192,76370,1,0,0:0:0:0:
64,192,76456,1,2,0:0:0:0:
192,192,76456,1,0,0:0:0:50:LR_CymbalGs.wav
448,192,76456,1,0,0:0:0:0:
192,192,76628,1,0,0:0:0:0:
64,192,76799,1,8,0:0:0:0:
192,192,76799,1,0,0:0:0:0:
320,192,76799,1,0,0:0:0:0:
64,192,76970,1,2,0:0:0:0:
320,192,76970,1,0,0:0:0:50:LR_CymbalGs.wav
448,192,76970,1,0,0:0:0:0:
448,192,77142,1,0,0:0:0:0:
64,192,77313,1,8,0:0:0:0:
192,192,77313,1,0,0:0:0:0:
448,192,77313,1,0,0:0:0:0:
64,192,77485,1,2,0:0:0:0:
192,192,77485,1,0,0:0:0:50:LR_CymbalGs.wav
320,192,77485,1,0,0:0:0:0:
320,192,77656,1,0,0:0:0:0:
192,192,77828,1,8,0:0:0:0:
320,192,77828,1,0,0:0:0:0:
448,192,77828,1,0,0:0:0:0:
64,192,77999,1,2,0:0:0:0:
192,192,77999,1,0,0:0:0:50:LR_CymbalGs.wav
448,192,77999,1,0,0:0:0:0:
64,192,78170,1,0,0:0:0:0:
64,192,78342,1,8,0:0:0:0:
320,192,78342,1,0,0:0:0:0:
448,192,78342,1,0,0:0:0:0:
192,192,78513,1,2,0:0:0:0:
320,192,78513,1,0,0:0:0:50:LR_CymbalGs.wav
448,192,78513,1,0,0:0:0:0:
64,192,78685,1,2,0:0:0:0:
192,192,78685,1,0,0:0:0:50:LR_CymbalGs.wav
448,192,78685,1,0,0:0:0:0:
320,192,78856,1,0,0:0:0:0:
64,192,79028,1,2,0:0:0:0:
320,192,79028,1,4,0:0:0:0:
448,192,79028,1,0,0:0:0:0:
64,192,79199,1,2,0:0:0:0:
192,192,79199,1,0,0:0:0:0:
192,192,79370,1,2,0:0:0:0:
64,192,79370,1,0,0:0:0:0:
320,192,79542,1,2,0:0:0:0:
448,192,79542,1,0,0:0:0:0:
448,192,79713,1,2,0:0:0:0:
320,192,79713,1,0,0:0:0:0:
64,192,79885,1,2,0:0:0:0:
192,192,79885,1,0,0:0:0:0:
192,192,80056,1,2,0:0:0:0:
64,192,80056,1,0,0:0:0:0:
320,192,80228,1,2,0:0:0:0:
448,192,80228,1,0,0:0:0:0:
448,192,80399,1,2,0:0:0:0:
320,192,80399,1,0,0:0:0:0:
64,192,80570,1,2,0:0:0:0:
192,192,80570,1,0,0:0:0:0:
320,192,80656,1,2,0:0:0:0:
64,192,80742,1,2,0:0:0:0:
192,192,80742,1,0,0:0:0:0:
320,192,80828,1,2,0:0:0:0:
64,192,80913,1,2,0:0:0:0:
192,192,80913,1,0,0:0:0:0:
320,192,80999,1,2,0:0:0:0:
448,192,80999,1,0,0:0:0:0:
64,192,81085,1,2,0:0:0:0:
192,192,81085,1,0,0:0:0:0:
320,192,81170,1,2,0:0:0:0:
448,192,81170,1,0,0:0:0:0:
64,192,81256,1,2,0:0:0:0:
192,192,81256,1,0,0:0:0:0:
320,192,81342,1,2,0:0:0:0:
448,192,81342,1,0,0:0:0:0:
64,192,81428,1,2,0:0:0:0:
192,192,81428,1,0,0:0:0:0:
320,192,81513,1,2,0:0:0:0:
64,192,81599,1,0,0:0:0:0:
448,192,81599,1,0,0:0:0:0:
192,192,81599,1,0,0:0:0:70:clapwet.wav
320,192,81770,1,0,0:0:0:0:
64,192,81942,1,4,0:0:0:0:
192,192,81942,1,2,0:0:0:0:
448,192,81942,1,0,0:0:0:0:
320,192,82113,1,0,0:0:0:0:
64,192,82285,1,8,0:0:0:0:
192,192,82285,1,0,0:0:0:0:
448,192,82285,1,0,0:0:0:0:
192,192,82456,1,0,0:0:0:0:
64,192,82628,1,8,0:0:0:0:
320,192,82628,1,0,0:0:0:0:
448,192,82628,1,0,0:0:0:0:
448,192,82799,1,0,0:0:0:0:
64,192,82970,1,8,0:0:0:0:
192,192,82970,1,0,0:0:0:0:
320,192,82970,1,0,0:0:0:0:
192,192,83142,1,0,0:0:0:0:
320,192,83313,1,8,0:0:0:0:
448,192,83313,1,0,0:0:0:0:
64,192,83485,1,0,0:0:0:0:
320,192,83485,1,8,0:0:0:0:
448,192,83656,1,8,0:0:0:0:
64,192,83656,1,0,0:0:0:0:
448,192,83828,1,0,0:0:0:0:
192,192,83828,1,8,0:0:0:0:
192,192,83999,1,8,0:0:0:0:
64,192,83999,1,0,0:0:0:0:
448,192,84170,1,0,0:0:0:0:
64,192,84170,1,8,0:0:0:0:
448,192,84342,1,0,0:0:0:0:
320,192,84342,1,8,0:0:0:0:
320,192,84513,1,0,0:0:0:0:
64,192,84513,1,8,0:0:0:0:
64,192,84685,1,8,0:0:0:0:
448,192,84685,1,0,0:0:0:0:
192,192,84770,1,8,0:0:0:0:
448,192,84856,1,8,0:0:0:0:
320,192,84942,1,8,0:0:0:0:
64,192,85028,1,8,0:0:0:0:
192,192,85028,1,0,0:0:0:0:
448,192,85113,1,8,0:0:0:0:
320,192,85199,1,8,0:0:0:0:
192,192,85285,1,8,0:0:0:0:
64,192,85370,1,8,0:0:0:0:
448,192,85370,1,0,0:0:0:0:
320,192,85456,1,8,0:0:0:0:
64,192,85542,1,8,0:0:0:0:
192,192,85628,1,8,0:0:0:0:
320,192,85713,1,8,0:0:0:0:
448,192,85713,1,0,0:0:0:0:
64,192,85799,1,8,0:0:0:0:
192,192,85885,1,8,0:0:0:0:
320,192,85970,1,8,0:0:0:0:
64,192,86056,1,2,0:0:0:0:
192,192,86056,1,4,0:0:0:0:
448,192,86056,1,0,0:0:0:0:
192,192,86228,1,0,0:0:0:0:
320,192,86313,1,0,0:0:0:0:
448,192,86399,1,0,0:0:0:0:
64,192,86485,1,0,0:0:0:0:
192,192,86570,1,0,0:0:0:0:
448,192,86656,1,0,0:0:0:0:
320,192,86742,1,0,0:0:0:0:
192,192,86828,1,0,0:0:0:0:
64,192,86913,1,0,0:0:0:0:
320,192,86999,1,0,0:0:0:0:
64,192,87085,1,0,0:0:0:70:h03+kick.wav
448,192,87085,1,0,0:0:0:0:
192,192,87170,1,0,0:0:0:0:
320,192,87256,1,0,0:0:0:0:
192,192,87342,1,0,0:0:0:0:
64,192,87428,1,2,0:0:0:0:
320,192,87428,1,0,0:0:0:70:LR_Chm Echo long.wav
448,192,87428,1,0,0:0:0:0:
192,192,87770,1,0,0:0:0:0:
320,192,88113,1,0,0:0:0:0:
64,192,88370,1,0,0:0:0:0:
448,192,88456,1,0,0:0:0:0:
192,192,88628,1,0,0:0:0:0:
320,192,88799,1,0,0:0:0:0:
448,192,88799,1,0,0:0:0:0:
320,192,88970,1,0,0:0:0:0:
64,192,89142,1,0,0:0:0:0:
192,192,89142,1,0,0:0:0:0:
192,192,89313,1,0,0:0:0:0:
320,192,89485,1,0,0:0:0:0:
448,192,89485,1,0,0:0:0:0:
64,192,89656,1,0,0:0:0:0:
320,192,89713,1,0,0:0:0:0:
192,192,89770,1,0,0:0:0:0:
64,192,89828,1,0,0:0:0:70:clapwet.wav
320,192,89828,1,0,0:0:0:100:Go_001.wav
448,192,89828,1,0,0:0:0:0:
192,192,89999,1,0,0:0:0:0:
64,192,90170,1,2,0:0:0:0:
320,192,90170,1,4,0:0:0:0:
448,192,90170,1,0,0:0:0:0:
192,192,90342,1,0,0:0:0:0:
64,192,90513,1,8,0:0:0:0:
320,192,90513,1,0,0:0:0:0:
448,192,90513,1,0,0:0:0:0:
448,192,90685,1,0,0:0:0:0:
320,192,90770,1,0,0:0:0:0:
64,192,90856,1,2,0:0:0:0:
192,192,90856,1,0,0:0:0:0:
320,192,91028,1,0,0:0:0:0:
64,192,91199,1,8,0:0:0:0:
192,192,91199,1,0,0:0:0:0:
448,192,91199,1,0,0:0:0:0:
192,192,91370,1,0,0:0:0:0:
64,192,91542,1,2,0:0:0:0:
448,192,91542,1,0,0:0:0:0:
320,192,91713,1,0,0:0:0:0:
64,192,91885,1,8,0:0:0:0:
192,192,91885,1,0,0:0:0:0:
448,192,91885,1,0,0:0:0:0:
64,192,92056,1,0,0:0:0:0:
320,192,92228,1,2,0:0:0:0:
448,192,92228,1,0,0:0:0:0:
192,192,92399,1,0,0:0:0:0:
64,192,92570,1,8,0:0:0:0:
320,192,92570,1,0,0:0:0:0:
448,192,92570,1,0,0:0:0:0:
320,192,92742,1,0,0:0:0:0:
192,192,92828,1,0,0:0:0:0:
64,192,92913,1,2,0:0:0:0:
448,192,92913,1,0,0:0:0:0:
320,192,93085,1,0,0:0:0:0:
64,192,93256,1,8,0:0:0:0:
192,192,93256,1,0,0:0:0:0:
448,192,93256,1,0,0:0:0:0:
64,192,93428,1,0,0:0:0:0:
320,192,93599,1,2,0:0:0:0:
448,192,93599,1,0,0:0:0:0:
192,192,93770,128,0,93942:0:0:0:0:
64,192,93942,1,8,0:0:0:0:
320,192,93942,1,0,0:0:0:0:
448,192,93942,1,0,0:0:0:0:
192,192,94028,1,0,0:0:0:0:
320,192,94113,1,0,0:0:0:0:
192,192,94199,1,0,0:0:0:0:
64,192,94285,1,2,0:0:0:0:
448,192,94285,1,0,0:0:0:0:
64,192,94456,1,0,0:0:0:0:
320,192,94513,1,0,0:0:0:0:
192,192,94570,1,0,0:0:0:0:
64,192,94628,1,8,0:0:0:0:
320,192,94628,1,0,0:0:0:0:
448,192,94628,1,0,0:0:0:0:
448,192,94799,1,0,0:0:0:0:
192,192,94856,1,0,0:0:0:0:
320,192,94913,1,0,0:0:0:0:
64,192,94970,1,2,0:0:0:0:
448,192,94970,1,0,0:0:0:0:
192,192,95142,1,0,0:0:0:0:
64,192,95199,1,0,0:0:0:0:
320,192,95256,1,0,0:0:0:0:
64,192,95313,1,8,0:0:0:0:
192,192,95313,1,0,0:0:0:0:
448,192,95313,1,0,0:0:0:0:
320,192,95485,1,0,0:0:0:0:
64,192,95656,1,2,0:0:0:0:
448,192,95656,1,0,0:0:0:0:
192,192,95742,1,0,0:0:0:0:
320,192,95828,1,0,0:0:0:0:
192,192,95913,1,0,0:0:0:0:
64,192,95999,1,8,0:0:0:0:
320,192,95999,1,0,0:0:0:0:
448,192,95999,1,0,0:0:0:0:
192,192,96085,1,0,0:0:0:0:
448,192,96170,1,0,0:0:0:0:
192,192,96256,1,0,0:0:0:0:
64,192,96342,1,2,0:0:0:0:
448,192,96342,1,0,0:0:0:0:
320,192,96428,1,0,0:0:0:0:
192,192,96513,1,0,0:0:0:0:
320,192,96599,1,0,0:0:0:0:
64,192,96685,1,8,0:0:0:0:
448,192,96685,1,0,0:0:0:0:
192,192,96770,1,0,0:0:0:0:
64,192,96856,1,2,0:0:0:0:
320,192,96856,1,0,0:0:0:50:LR_CymbalGs.wav
448,192,96856,1,0,0:0:0:0:
192,192,97028,1,8,0:0:0:0:
448,192,97028,1,0,0:0:0:0:
320,192,97113,1,0,0:0:0:0:
64,192,97199,1,2,0:0:0:0:
192,192,97199,1,0,0:0:0:50:LR_CymbalGs.wav
448,192,97199,1,0,0:0:0:0:
64,192,97370,1,8,0:0:0:0:
320,192,97370,1,0,0:0:0:0:
192,192,97456,1,0,0:0:0:0:
64,192,97542,1,2,0:0:0:0:
320,192,97542,1,0,0:0:0:50:LR_CymbalGs.wav
448,192,97542,1,0,0:0:0:0:
64,192,97713,1,8,0:0:0:0:
192,192,97713,1,0,0:0:0:0:
320,192,97799,1,8,0:0:0:0:
448,192,97799,1,0,0:0:0:0:
64,192,97885,1,8,0:0:0:0:
192,192,97885,1,0,0:0:0:0:
320,192,97970,1,8,0:0:0:0:
64,192,98056,1,8,0:0:0:0:
448,192,98056,1,0,0:0:0:0:
192,192,98142,1,0,0:0:0:70:clap07.wav
320,192,98228,1,0,0:0:0:0:
192,192,98313,1,0,0:0:0:0:
64,192,98399,128,2,98656:0:0:0:0:
448,192,98399,128,0,98656:0:0:0:50:wou_A#.wav
64,192,98742,1,2,0:0:0:0:
192,192,98742,1,0,0:0:0:50:LR_CymbalGs.wav
448,192,98742,1,0,0:0:0:0:
64,192,99085,1,2,0:0:0:0:
192,192,99085,1,0,0:0:0:50:LR_CymbalGs.wav
320,192,99085,1,0,0:0:0:0:
192,192,99428,1,2,0:0:0:0:
320,192,99428,1,0,0:0:0:50:LR_CymbalGs.wav
448,192,99428,1,0,0:0:0:0:
64,192,99770,1,2,0:0:0:0:
320,192,99770,1,0,0:0:0:0:
192,192,99770,1,0,0:0:0:0:
448,192,99770,1,4,0:0:0:0:
192,192,99942,1,0,0:0:0:0:
64,192,100113,1,8,0:0:0:0:
320,192,100113,1,0,0:0:0:0:
448,192,100113,1,0,0:0:0:0:
320,192,100285,1,0,0:0:0:0:
64,192,100456,1,2,0:0:0:0:
192,192,100456,1,0,0:0:0:0:
448,192,100628,1,0,0:0:0:0:
192,192,100685,1,0,0:0:0:0:
320,192,100742,1,0,0:0:0:0:
64,192,100799,1,8,0:0:0:0:
192,192,100799,1,0,0:0:0:0:
448,192,100799,1,0,0:0:0:0:
320,192,100970,1,0,0:0:0:0:
64,192,101142,1,2,0:0:0:0:
448,192,101142,1,0,0:0:0:0:
192,192,101313,1,0,0:0:0:0:
320,192,101399,1,0,0:0:0:0:
64,192,101485,1,8,0:0:0:0:
192,192,101485,1,0,0:0:0:0:
448,192,101485,1,0,0:0:0:0:
320,192,101570,1,0,0:0:0:0:
64,192,101656,128,0,101828:0:0:0:0:
320,192,101828,1,2,0:0:0:0:
448,192,101828,1,0,0:0:0:0:
192,192,101913,1,0,0:0:0:0:
64,192,101999,1,0,0:0:0:0:
320,192,102085,1,0,0:0:0:0:
64,192,102170,1,8,0:0:0:0:
192,192,102170,1,0,0:0:0:0:
448,192,102170,1,0,0:0:0:0:
320,192,102256,1,0,0:0:0:0:
192,192,102342,1,0,0:0:0:0:
320,192,102513,1,2,0:0:0:0:
448,192,102513,1,0,0:0:0:0:
64,192,102685,1,0,0:0:0:0:
192,192,102742,1,0,0:0:0:0:
320,192,102799,1,0,0:0:0:0:
64,192,102856,1,8,0:0:0:0:
192,192,102856,1,0,0:0:0:0:
448,192,102856,1,0,0:0:0:0:
320,192,103028,1,0,0:0:0:0:
64,192,103199,1,2,0:0:0:0:
192,192,103199,1,0,0:0:0:0:
320,192,103370,1,0,0:0:0:0:
64,192,103542,1,8,0:0:0:0:
192,192,103542,1,0,0:0:0:0:
448,192,103542,1,0,0:0:0:0:
192,192,103713,1,0,0:0:0:0:
64,192,103885,1,4,0:0:0:0:
320,192,103885,1,2,0:0:0:0:
448,192,103885,1,0,0:0:0:0:
320,192,104056,1,0,0:0:0:0:
64,192,104228,1,8,0:0:0:0:
192,192,104228,1,0,0:0:0:0:
448,192,104228,1,0,0:0:0:0:
192,192,104399,1,0,0:0:0:0:
64,192,104570,1,8,0:0:0:0:
320,192,104570,1,0,0:0:0:0:
448,192,104570,1,0,0:0:0:0:
320,192,104742,1,0,0:0:0:0:
64,192,104913,1,8,0:0:0:0:
192,192,104913,1,0,0:0:0:0:
448,192,104913,1,0,0:0:0:0:
320,192,104999,1,0,0:0:0:0:
192,192,105085,1,0,0:0:0:0:
320,192,105170,1,0,0:0:0:0:
64,192,105256,1,8,0:0:0:0:
448,192,105256,1,0,0:0:0:0:
192,192,105342,1,0,0:0:0:0:
448,192,105428,1,0,0:0:0:0:
192,192,105513,1,0,0:0:0:0:
64,192,105599,1,8,0:0:0:0:
448,192,105599,1,0,0:0:0:0:
320,192,105685,1,0,0:0:0:0:
64,192,105770,1,0,0:0:0:0:
320,192,105856,1,0,0:0:0:0:
64,192,105942,1,8,0:0:0:0:
448,192,105942,1,0,0:0:0:0:
192,192,106028,1,0,0:0:0:0:
320,192,106113,1,0,0:0:0:0:
192,192,106199,1,0,0:0:0:0:
64,192,106285,1,8,0:0:0:0:
448,192,106285,1,0,0:0:0:0:
320,192,106370,1,0,0:0:0:0:
192,192,106456,1,0,0:0:0:0:
320,192,106542,1,0,0:0:0:0:
64,192,106628,1,8,0:0:0:0:
192,192,106628,1,0,0:0:0:0:
448,192,106628,1,0,0:0:0:0:
192,192,106799,1,8,0:0:0:0:
320,192,106799,1,0,0:0:0:0:
64,192,106970,1,8,0:0:0:0:
320,192,106970,1,0,0:0:0:0:
448,192,106970,1,0,0:0:0:0:
64,192,107142,1,8,0:0:0:0:
192,192,107142,1,0,0:0:0:0:
320,192,107313,1,8,0:0:0:0:
448,192,107313,1,0,0:0:0:0:
192,192,107399,1,8,0:0:0:0:
64,192,107485,1,8,0:0:0:0:
448,192,107485,1,0,0:0:0:0:
320,192,107570,1,8,0:0:0:0:
64,192,107656,1,8,0:0:0:0:
192,192,107656,1,0,0:0:0:0:
320,192,107742,1,8,0:0:0:0:
448,192,107742,1,0,0:0:0:0:
64,192,107828,1,8,0:0:0:0:
192,192,107828,1,0,0:0:0:0:
320,192,107913,1,8,0:0:0:0:
64,192,107999,1,2,0:0:0:0:
192,192,107999,1,0,0:0:0:50:LR_CymbalGs.wav
448,192,107999,1,0,0:0:0:0:
64,192,108513,1,2,0:0:0:0:
320,192,108513,1,0,0:0:0:50:LR_CymbalGs.wav
448,192,108513,1,0,0:0:0:0:
64,192,109028,1,0,0:0:0:0:
192,192,109028,1,0,0:0:0:0:
448,192,109028,1,0,0:0:0:0:
320,192,109028,1,0,0:0:0:70:h03+kick.wav
64,192,109370,128,6,109628:0:0:0:0:
448,192,109370,128,0,109628:0:0:0:70:scream_outA#.wav
64,192,109713,1,2,0:0:0:0:
192,192,109713,1,0,0:0:0:50:LR_CymbalGs.wav
448,192,109713,1,0,0:0:0:0:
64,192,110056,1,2,0:0:0:0:
192,192,110056,1,0,0:0:0:50:LR_CymbalGs.wav
320,192,110056,1,0,0:0:0:0:
192,192,110399,1,2,0:0:0:0:
320,192,110399,1,0,0:0:0:50:LR_CymbalGs.wav
448,192,110399,1,0,0:0:0:0:
448,192,110742,1,4,0:0:0:0:
320,192,110742,1,0,0:0:0:0:
64,192,110742,1,2,0:0:0:0:
192,192,110742,1,0,0:0:0:0:
192,192,110913,1,0,0:0:0:0:
192,192,111085,1,0,0:0:0:0:
320,192,111256,1,2,0:0:0:0:
448,192,111256,1,0,0:0:0:0:
192,192,111342,1,0,0:0:0:0:
64,192,111428,1,8,0:0:0:0:
320,192,111428,1,0,0:0:0:0:
448,192,111428,1,0,0:0:0:0:
192,192,111599,1,0,0:0:0:0:
320,192,111770,1,2,0:0:0:0:
448,192,111770,1,0,0:0:0:0:
64,192,111942,1,8,0:0:0:0:
192,192,111942,1,0,0:0:0:0:
448,192,111942,1,0,0:0:0:0:
192,192,112113,1,2,0:0:0:0:
320,192,112113,1,0,0:0:0:0:
64,192,112456,1,2,0:0:0:0:
320,192,112456,1,0,0:0:0:50:LR_CymbalGs.wav
448,192,112456,1,0,0:0:0:0:
192,192,112799,1,2,0:0:0:0:
320,192,112799,1,0,0:0:0:50:LR_CymbalGs.wav
448,192,112799,1,0,0:0:0:0:
64,192,113142,1,2,0:0:0:0:
192,192,113142,1,0,0:0:0:50:LR_CymbalGs.wav
320,192,113142,1,0,0:0:0:0:
64,192,113485,1,2,0:0:0:0:
192,192,113485,1,0,0:0:0:0:
448,192,113485,1,4,0:0:0:0:
320,192,113485,1,0,0:0:0:0:
320,192,113656,1,0,0:0:0:0:
192,192,113742,1,0,0:0:0:0:
320,192,113828,1,0,0:0:0:0:
64,192,113999,1,2,0:0:0:0:
192,192,113999,1,0,0:0:0:0:
320,192,114085,1,0,0:0:0:0:
64,192,114170,1,8,0:0:0:0:
192,192,114170,1,0,0:0:0:0:
448,192,114170,1,0,0:0:0:0:
320,192,114342,1,0,0:0:0:0:
64,192,114513,1,2,0:0:0:0:
192,192,114513,1,0,0:0:0:0:
64,192,114685,1,8,0:0:0:0:
320,192,114685,1,0,0:0:0:0:
448,192,114685,1,0,0:0:0:0:
64,192,114856,1,2,0:0:0:0:
320,192,114856,1,0,0:0:0:0:
192,192,114856,1,0,0:0:0:0:
448,192,114856,1,4,0:0:0:0:
