osu file format v14

[General]
AudioFilename: audio.mp3
AudioLeadIn: 0
PreviewTime: 29841
Countdown: 0
SampleSet: Normal
StackLeniency: 0.7
Mode: 1
LetterboxInBreaks: 0
WidescreenStoryboard: 1

[Editor]
Bookmarks: 526,1041,6526,13041,19212,30183,40812,46298,52126,63098,70983,81612,87441,90183,103898,109726,114869
DistanceSpacing: 1.8
BeatDivisor: 4
GridSize: 16
TimelineZoom: 3.099999

[Metadata]
Title:TAKEMIKADUCHI
TitleUnicode:TAKEMIKADUCHI
Artist:polysha
ArtistUnicode:polysha
Creator:- Lenkon
Version:yassu-'s Inner Oni
Source:
Tags:masamune electronic instrumental freeform hardcore piano chime タケミカヅチ takemikazuchi たけみかずち Hivie clockbite yassu- yassu featured artist fa
BeatmapID:3604757
BeatmapSetID:1655030

[Difficulty]
HPDrainRate:6
CircleSize:5
OverallDifficulty:6.5
ApproachRate:5
SliderMultiplier:1.4
SliderTickRate:1

[Events]
//Background and Video events
0,0,"bg.jpg",0,-10
//Break Periods
//Storyboard Layer 0 (Background)
//Storyboard Layer 1 (Fail)
//Storyboard Layer 2 (Pass)
//Storyboard Layer 3 (Foreground)
//Storyboard Layer 4 (Overlay)
//Storyboard Sound Samples

[TimingPoints]
526,342.857142857143,4,1,0,60,1,8
526,-133.333333333333,4,1,0,60,0,8
1041,342.857142857143,4,1,0,80,1,0
1041,-133.333333333333,4,1,0,80,0,0
6526,-125,4,1,0,80,0,0
10983,-121.212121212121,4,1,0,80,0,0
11326,-117.647058823529,4,1,0,80,0,0
11669,-114.285714285714,4,1,0,80,0,0
12012,-111.111111111111,4,1,0,80,0,0
12183,-109.58904109589,4,1,0,80,0,0
12355,-108.108108108108,4,1,0,80,0,0
12526,-106.666666666667,4,1,0,80,0,0
12698,-105.263157894737,4,1,0,80,0,0
12783,-104.575163398693,4,1,0,80,0,0
12869,-103.896103896104,4,1,0,80,0,0
12955,-103.225806451613,4,1,0,80,0,0
13041,-102.564102564103,4,1,0,80,0,0
13383,-100,4,1,0,70,0,0
16212,-98.7654320987654,4,1,0,70,0,0
16298,-97.5609756097561,4,1,0,70,0,0
16383,-96.3855421686747,4,1,0,70,0,0
16469,-95.2380952380952,4,1,0,70,0,0
16555,-94.1176470588235,4,1,0,70,0,0
16641,-93.0232558139535,4,1,0,70,0,0
16812,-90.9090909090909,4,1,0,70,0,0
16898,-89.8876404494382,4,1,0,70,0,0
16983,-88.8888888888889,4,1,0,70,0,0
17069,-87.9120879120879,4,1,0,70,0,0
17155,-86.9565217391304,4,1,0,70,0,0
17241,-86.0215053763441,4,1,0,70,0,0
17326,-85.1063829787234,4,1,0,70,0,0
17498,-83.3333333333333,4,1,0,70,0,0
17583,-84.2105263157895,4,1,0,70,0,0
17669,-85.1063829787234,4,1,0,70,0,0
17755,-86.0215053763441,4,1,0,70,0,0
17841,-86.9565217391304,4,1,0,70,0,0
17926,-87.9120879120879,4,1,0,70,0,0
18012,-88.8888888888889,4,1,0,70,0,0
18098,-89.8876404494382,4,1,0,70,0,0
18183,-90.9090909090909,4,1,0,70,0,0
18269,-91.9540229885057,4,1,0,70,0,0
18355,-93.0232558139535,4,1,0,70,0,0
18441,-94.1176470588235,4,1,0,70,0,0
18526,-95.2380952380952,4,1,0,70,0,0
18698,-97.5609756097561,4,1,0,70,0,0
18869,-100,4,1,0,70,0,0
19212,-76.9230769230769,4,1,0,80,0,0
19555,-83.3333333333333,4,1,0,80,0,0
19898,-90.9090909090909,4,1,0,80,0,0
20241,-100,4,1,0,80,0,0
21955,-76.9230769230769,4,1,0,80,0,0
22298,-83.3333333333333,4,1,0,80,0,0
22641,-90.9090909090909,4,1,0,80,0,0
22983,-100,4,1,0,80,0,0
24698,-76.9230769230769,4,1,0,80,0,0
25041,-83.3333333333333,4,1,0,80,0,0
25383,-90.9090909090909,4,1,0,80,0,0
25726,-100,4,1,0,80,0,0
30183,-95.2380952380952,4,1,0,90,0,1
35326,-95.2380952380952,4,1,0,90,0,0
35669,-74.0740740740741,4,1,0,90,0,0
36012,-80,4,1,0,90,0,0
36355,-86.9565217391304,4,1,0,90,0,0
36698,-95.2380952380952,4,1,0,90,0,1
38412,-100,4,1,0,90,0,1
39441,-83.3333333333333,4,1,0,90,0,1
39698,-88.8888888888889,4,1,0,90,0,1
39955,-95.2380952380952,4,1,0,90,0,1
40212,-102.564102564103,4,1,0,90,0,1
40469,-111.111111111111,4,1,0,90,0,1
40812,-125,4,1,0,60,0,0
46298,-117.647058823529,4,1,0,70,0,0
48869,-115.942028985507,4,1,0,70,0,0
49041,-114.285714285714,4,1,0,70,0,0
49212,-112.676056338028,4,1,0,70,0,0
49383,-111.111111111111,4,1,0,70,0,0
49555,-109.58904109589,4,1,0,70,0,0
49726,-108.108108108108,4,1,0,70,0,0
49898,-106.666666666667,4,1,0,70,0,0
50069,-105.263157894737,4,1,0,70,0,0
50241,-103.896103896104,4,1,0,70,0,0
50412,-102.564102564103,4,1,0,70,0,0
50583,-101.26582278481,4,1,0,70,0,0
52126,-100,4,1,0,80,0,0
63098,-95.2380952380952,4,1,0,90,0,1
68755,-100,4,1,0,90,0,1
70983,-100,4,1,0,60,0,0
71326,-133.333333333333,4,1,0,60,0,0
76469,-133.333333333333,4,1,0,70,0,0
76641,-131.147540983607,4,1,0,70,0,0
76812,-129.032258064516,4,1,0,70,0,0
76983,-126.984126984127,4,1,0,70,0,0
77155,-125,4,1,0,70,0,0
77241,-124.031007751938,4,1,0,70,0,0
77326,-123.076923076923,4,1,0,70,0,0
77498,-121.212121212121,4,1,0,70,0,0
77669,-119.402985074627,4,1,0,70,0,0
77840,-117.647058823529,4,1,0,70,0,0
77926,-116.788321167883,4,1,0,70,0,0
78012,-115.942028985507,4,1,0,70,0,0
78183,-114.285714285714,4,1,0,70,0,0
78269,-113.475177304965,4,1,0,70,0,0
78355,-112.676056338028,4,1,0,70,0,0
78441,-111.950741673664,4,1,0,70,0,0
78526,-111.111111111111,4,1,0,70,0,0
78698,-109.58904109589,4,1,0,70,0,0
79041,-97.5609756097561,4,1,0,70,0,0
79212,-100,4,1,0,70,0,0
79383,-102.564102564103,4,1,0,70,0,0
79555,-105.263157894737,4,1,0,70,0,0
79726,-108.108108108108,4,1,0,70,0,0
79898,-111.111111111111,4,1,0,70,0,0
79983,-112.676056338028,4,1,0,70,0,0
80069,-114.285714285714,4,1,0,70,0,0
80155,-115.942028985507,4,1,0,70,0,0
80241,-117.647058823529,4,1,0,70,0,0
80412,-121.212121212121,4,1,0,70,0,0
80583,-125,4,1,0,70,0,0
80669,-123.076923076923,4,1,0,70,0,0
80755,-121.212121212121,4,1,0,70,0,0
80841,-119.402985074627,4,1,0,70,0,0
80926,-117.647058823529,4,1,0,70,0,0
81012,-115.942028985507,4,1,0,70,0,0
81098,-114.285714285714,4,1,0,70,0,0
81183,-112.676056338028,4,1,0,70,0,0
81269,-111.111111111111,4,1,0,70,0,0
81355,-109.58904109589,4,1,0,70,0,0
81441,-108.108108108108,4,1,0,70,0,0
81612,-105.263157894737,4,1,0,70,0,0
81955,-100,4,1,0,80,0,0
84783,-98.7654320987654,4,1,0,70,0,0
84869,-97.5609756097561,4,1,0,70,0,0
84955,-96.3855421686747,4,1,0,70,0,0
85041,-95.2380952380952,4,1,0,70,0,0
85126,-94.1176470588235,4,1,0,70,0,0
85212,-93.0232558139535,4,1,0,70,0,0
85383,-90.9090909090909,4,1,0,70,0,0
85469,-89.8876404494382,4,1,0,70,0,0
85555,-88.8888888888889,4,1,0,70,0,0
85641,-87.9120879120879,4,1,0,70,0,0
85726,-86.9565217391304,4,1,0,70,0,0
85812,-86.0215053763441,4,1,0,70,0,0
85898,-85.1063829787234,4,1,0,70,0,0
86069,-83.3333333333333,4,1,0,70,0,0
86241,-85.1063829787234,4,1,0,70,0,0
86326,-86.0215053763441,4,1,0,70,0,0
86412,-86.9565217391304,4,1,0,70,0,0
86498,-87.9120879120879,4,1,0,70,0,0
86583,-88.8888888888889,4,1,0,70,0,0
86669,-89.8876404494382,4,1,0,70,0,0
86755,-90.9090909090909,4,1,0,70,0,0
86841,-91.9540229885057,4,1,0,70,0,0
86926,-93.0232558139535,4,1,0,70,0,0
87012,-94.1176470588235,4,1,0,70,0,0
87098,-95.2380952380952,4,1,0,70,0,0
87183,-96.3855421686747,4,1,0,70,0,0
87269,-97.5609756097561,4,1,0,70,0,0
87355,-98.7654320987654,4,1,0,70,0,0
87440,-100,4,1,0,70,0,0
87441,-100,4,1,0,70,0,0
90183,-95.2380952380952,4,1,0,90,0,1
98412,-95.2380952380952,4,1,0,90,0,0
98755,-74.0740740740741,4,1,0,90,0,0
99098,-80,4,1,0,90,0,0
99441,-86.9565217391304,4,1,0,90,0,0
99783,-95.2380952380952,4,1,0,90,0,1
103898,-100,4,1,0,90,0,0
109726,-76.9230769230769,4,1,0,80,0,0
110069,-83.3333333333333,4,1,0,80,0,0
110412,-90.9090909090909,4,1,0,80,0,0
110755,-100,4,1,0,80,0,0
112469,-76.9230769230769,4,1,0,80,0,0
112812,-83.3333333333333,4,1,0,80,0,0
113155,-90.9090909090909,4,1,0,80,0,0
113498,-100,4,1,0,80,0,0
114355,-95.2380952380952,4,1,0,80,0,0
114526,-90.9090909090909,4,1,0,80,0,0
114698,-86.9565217391304,4,1,0,80,0,0
114869,-83.3333333333333,4,1,0,80,0,0

[HitObjects]
259,194,526,5,2,0:0:0:0:
259,194,697,1,2,0:0:0:0:
259,194,868,1,2,0:0:0:0:
259,194,1041,1,4,0:0:0:0:
268,197,1383,1,2,0:0:0:0:
272,204,1726,1,0,0:0:0:0:
266,181,2069,1,0,0:0:0:0:
270,146,2241,1,0,0:0:0:0:
260,149,2412,1,2,0:0:0:0:
261,175,2583,1,0,0:0:0:0:
257,177,2669,1,0,0:0:0:0:
259,172,2755,1,2,0:0:0:0:
260,170,2926,1,2,0:0:0:0:
260,170,3098,1,0,0:0:0:0:
263,170,3783,1,0,0:0:0:0:
274,157,4126,1,2,0:0:0:0:
263,170,4469,1,0,0:0:0:0:
276,178,4812,1,0,0:0:0:0:
258,144,4983,1,0,0:0:0:0:
240,158,5155,1,2,0:0:0:0:
245,140,5326,1,0,0:0:0:0:
229,168,5412,1,0,0:0:0:0:
261,130,5498,1,2,0:0:0:0:
291,195,5669,1,0,0:0:0:0:
278,164,5841,1,2,0:0:0:0:
278,164,6012,1,0,0:0:0:0:
281,194,6183,1,2,0:0:0:0:
281,194,6355,1,2,0:0:0:0:
281,194,6526,1,4,0:0:0:0:
275,202,6869,1,0,0:0:0:0:
266,205,7041,1,0,0:0:0:0:
261,183,7098,1,0,0:0:0:0:
253,193,7155,1,0,0:0:0:0:
270,208,7212,1,2,0:0:0:0:
267,195,7555,1,2,0:0:0:0:
267,195,7726,1,2,0:0:0:0:
267,197,7898,1,0,0:0:0:0:
268,197,8069,1,2,0:0:0:0:
262,188,8126,1,2,0:0:0:0:
262,171,8183,1,2,0:0:0:0:
265,165,8241,1,0,0:0:0:0:
262,179,8412,1,0,0:0:0:0:
262,179,8583,1,2,0:0:0:0:
263,172,9269,1,0,0:0:0:0:
271,176,9441,1,2,0:0:0:0:
276,178,9612,1,0,0:0:0:0:
279,171,9783,1,0,0:0:0:0:
323,165,9841,1,0,0:0:0:0:
275,172,9898,1,0,0:0:0:0:
276,172,9955,1,2,0:0:0:0:
306,158,10126,1,2,0:0:0:0:
292,161,10298,1,0,0:0:0:0:
304,162,10469,1,2,0:0:0:0:
309,163,10641,1,0,0:0:0:0:
309,163,10983,1,0,0:0:0:0:
319,167,11326,1,2,0:0:0:0:
320,165,11669,1,2,0:0:0:0:
326,161,12012,1,0,0:0:0:0:
327,161,12183,1,0,0:0:0:0:
327,161,12355,1,2,0:0:0:0:
323,114,12526,1,2,0:0:0:0:
294,129,12698,1,0,0:0:0:0:
294,129,12783,1,0,0:0:0:0:
294,129,12869,1,0,0:0:0:0:
294,129,12955,1,0,0:0:0:0:
301,100,13041,1,2,0:0:0:0:
297,144,13383,1,4,0:0:0:0:
267,163,13555,1,0,0:0:0:0:
271,172,13641,1,0,0:0:0:0:
271,168,13726,1,2,0:0:0:0:
273,173,13898,1,0,0:0:0:0:
264,184,14069,1,2,0:0:0:0:
274,179,14155,1,2,0:0:0:0:
269,173,14241,1,0,0:0:0:0:
265,177,14412,1,2,0:0:0:0:
313,149,14498,1,0,0:0:0:0:
290,176,14583,1,2,0:0:0:0:
269,180,14669,1,2,0:0:0:0:
271,168,14755,1,0,0:0:0:0:
276,147,14926,1,0,0:0:0:0:
276,147,15012,1,0,0:0:0:0:
272,163,15098,1,2,0:0:0:0:
281,146,15269,1,0,0:0:0:0:
272,163,15441,1,2,0:0:0:0:
250,180,15526,1,2,0:0:0:0:
253,183,15612,1,0,0:0:0:0:
271,168,15783,1,2,0:0:0:0:
254,183,15869,1,0,0:0:0:0:
256,184,15955,1,2,0:0:0:0:
258,181,16126,1,0,0:0:0:0:
258,181,16212,1,0,0:0:0:0:
265,180,16298,1,2,0:0:0:0:
269,181,16383,1,0,0:0:0:0:
269,181,16469,1,2,0:0:0:0:
288,183,16555,1,2,0:0:0:0:
287,183,16641,1,0,0:0:0:0:
283,184,16812,1,2,0:0:0:0:
282,185,16898,1,2,0:0:0:0:
281,186,16983,1,0,0:0:0:0:
278,186,17069,1,2,0:0:0:0:
276,185,17155,1,0,0:0:0:0:
276,184,17241,1,0,0:0:0:0:
276,184,17326,1,2,0:0:0:0:
283,183,17498,1,0,0:0:0:0:
283,179,17583,1,0,0:0:0:0:
285,177,17669,1,0,0:0:0:0:
290,173,17755,1,0,0:0:0:0:
288,174,17841,1,2,0:0:0:0:
288,174,17926,1,2,0:0:0:0:
288,174,18012,1,0,0:0:0:0:
288,173,18098,1,0,0:0:0:0:
294,171,18183,1,2,0:0:0:0:
294,171,18269,1,2,0:0:0:0:
282,174,18355,1,2,0:0:0:0:
282,175,18441,1,2,0:0:0:0:
315,172,18526,1,0,0:0:0:0:
317,171,18698,1,0,0:0:0:0:
330,168,18869,1,6,0:0:0:0:
240,181,19212,1,4,0:0:0:0:
256,193,19555,1,4,0:0:0:0:
257,190,19898,1,4,0:0:0:0:
256,194,20241,1,6,0:0:0:0:
256,193,20412,1,0,0:0:0:0:
257,181,20583,1,2,0:0:0:0:
267,202,20755,1,0,0:0:0:0:
251,225,20841,1,0,0:0:0:0:
251,225,20926,1,2,0:0:0:0:
259,225,21098,1,2,0:0:0:0:
257,225,21269,1,0,0:0:0:0:
258,225,21441,1,2,0:0:0:0:
258,225,21612,1,0,0:0:0:0:
266,214,21955,1,6,0:0:0:0:
275,216,22298,1,6,0:0:0:0:
281,216,22641,1,6,0:0:0:0:
280,218,22983,1,4,0:0:0:0:
285,231,23155,1,2,0:0:0:0:
285,229,23241,1,2,0:0:0:0:
285,229,23326,1,2,0:0:0:0:
283,228,23498,1,0,0:0:0:0:
283,234,23583,1,0,0:0:0:0:
285,229,23669,1,2,0:0:0:0:
290,241,23841,1,2,0:0:0:0:
289,230,24012,1,0,0:0:0:0:
289,232,24183,1,2,0:0:0:0:
283,228,24355,1,0,0:0:0:0:
267,219,24698,1,4,0:0:0:0:
274,212,25041,1,4,0:0:0:0:
275,211,25383,1,4,0:0:0:0:
275,211,25726,1,6,0:0:0:0:
274,212,25898,1,0,0:0:0:0:
284,211,26069,1,2,0:0:0:0:
285,211,26241,1,0,0:0:0:0:
286,212,26326,1,0,0:0:0:0:
286,212,26412,1,2,0:0:0:0:
286,212,26583,1,2,0:0:0:0:
288,212,26755,1,0,0:0:0:0:
288,212,26926,1,2,0:0:0:0:
293,213,27098,1,0,0:0:0:0:
262,202,27269,1,0,0:0:0:0:
262,202,27355,1,0,0:0:0:0:
262,202,27441,1,2,0:0:0:0:
269,179,27526,1,2,0:0:0:0:
246,234,27612,1,0,0:0:0:0:
276,216,27783,1,2,0:0:0:0:
278,204,27869,1,2,0:0:0:0:
281,214,27955,1,0,0:0:0:0:
286,224,28041,1,0,0:0:0:0:
287,225,28126,1,2,0:0:0:0:
287,225,28298,1,0,0:0:0:0:
272,186,28469,1,2,0:0:0:0:
273,186,28555,1,2,0:0:0:0:
273,186,28641,1,0,0:0:0:0:
273,186,28726,1,0,0:0:0:0:
282,189,28812,1,2,0:0:0:0:
282,189,28898,1,0,0:0:0:0:
282,189,28983,1,2,0:0:0:0:
283,189,29069,1,2,0:0:0:0:
284,189,29155,1,0,0:0:0:0:
285,189,29241,1,2,0:0:0:0:
289,190,29326,1,0,0:0:0:0:
289,190,29412,1,0,0:0:0:0:
289,190,29498,1,2,0:0:0:0:
283,207,29583,1,2,0:0:0:0:
289,190,29669,1,2,0:0:0:0:
283,207,29755,1,2,0:0:0:0:
224,198,29841,1,0,0:0:0:0:
272,184,30183,1,6,0:0:0:0:
270,192,30355,1,0,0:0:0:0:
272,192,30441,1,0,0:0:0:0:
270,192,30526,1,2,0:0:0:0:
270,192,30698,1,0,0:0:0:0:
274,192,30869,1,2,0:0:0:0:
258,191,30955,1,2,0:0:0:0:
290,178,31041,1,0,0:0:0:0:
283,166,31126,1,0,0:0:0:0:
246,168,31212,1,2,0:0:0:0:
266,169,31383,1,0,0:0:0:0:
286,130,31555,1,2,0:0:0:0:
286,130,31726,1,0,0:0:0:0:
286,130,31812,1,0,0:0:0:0:
286,130,31898,1,2,0:0:0:0:
286,130,32069,1,2,0:0:0:0:
286,130,32241,1,0,0:0:0:0:
304,120,32412,1,2,0:0:0:0:
310,117,32583,1,0,0:0:0:0:
294,115,32755,1,0,0:0:0:0:
294,115,32926,1,2,0:0:0:0:
293,113,33098,1,0,0:0:0:0:
292,110,33183,1,0,0:0:0:0:
294,110,33269,1,2,0:0:0:0:
304,120,33355,1,2,0:0:0:0:
305,109,33441,1,0,0:0:0:0:
305,109,33612,1,2,0:0:0:0:
306,116,33783,1,2,0:0:0:0:
306,116,33869,1,2,0:0:0:0:
306,116,33955,1,0,0:0:0:0:
306,116,34126,1,2,0:0:0:0:
306,116,34212,1,2,0:0:0:0:
307,116,34298,1,2,0:0:0:0:
313,105,34469,1,0,0:0:0:0:
313,105,34555,1,0,0:0:0:0:
313,105,34641,1,2,0:0:0:0:
309,122,34812,1,0,0:0:0:0:
309,122,34983,1,2,0:0:0:0:
309,122,35069,1,2,0:0:0:0:
309,122,35155,1,2,0:0:0:0:
309,122,35241,1,2,0:0:0:0:
309,122,35326,1,0,0:0:0:0:
301,137,35669,1,6,0:0:0:0:
301,133,36012,1,4,0:0:0:0:
267,126,36355,1,6,0:0:0:0:
228,138,36698,1,4,0:0:0:0:
250,177,36869,1,0,0:0:0:0:
250,177,37041,1,2,0:0:0:0:
228,138,37212,1,0,0:0:0:0:
250,177,37298,1,0,0:0:0:0:
250,177,37383,1,2,0:0:0:0:
250,177,37555,1,2,0:0:0:0:
250,177,37726,1,0,0:0:0:0:
254,157,37898,1,2,0:0:0:0:
254,157,38069,1,0,0:0:0:0:
244,154,38526,1,2,0:0:0:0:
206,168,38641,1,2,0:0:0:0:
256,152,38755,1,2,0:0:0:0:
255,152,38983,1,2,0:0:0:0:
255,152,39212,1,2,0:0:0:0:
260,193,39441,1,4,0:0:0:0:
262,197,39698,1,4,0:0:0:0:
257,178,39955,1,4,0:0:0:0:
260,180,40212,1,4,0:0:0:0:
259,181,40469,1,6,0:0:0:0:
234,174,40812,1,0,0:0:0:0:
275,202,41155,1,0,0:0:0:0:
266,205,41327,1,0,0:0:0:0:
261,183,41384,1,0,0:0:0:0:
253,193,41441,1,0,0:0:0:0:
270,208,41498,1,2,0:0:0:0:
267,195,41841,1,2,0:0:0:0:
267,195,42012,1,2,0:0:0:0:
267,197,42184,1,0,0:0:0:0:
268,197,42355,1,2,0:0:0:0:
262,188,42412,1,2,0:0:0:0:
262,171,42469,1,2,0:0:0:0:
265,165,42527,1,0,0:0:0:0:
262,179,42698,1,0,0:0:0:0:
262,179,42869,1,2,0:0:0:0:
263,172,43555,1,0,0:0:0:0:
271,176,43727,1,2,0:0:0:0:
276,178,43898,1,0,0:0:0:0:
279,171,44069,1,0,0:0:0:0:
323,165,44127,1,0,0:0:0:0:
275,172,44184,1,0,0:0:0:0:
276,172,44241,1,2,0:0:0:0:
292,161,44584,1,2,0:0:0:0:
304,162,44755,1,2,0:0:0:0:
309,163,44927,1,0,0:0:0:0:
287,195,45098,1,2,0:0:0:0:
286,161,45155,1,2,0:0:0:0:
304,174,45212,1,2,0:0:0:0:
307,174,45269,1,0,0:0:0:0:
315,172,45441,1,0,0:0:0:0:
316,173,45612,1,2,0:0:0:0:
270,167,45783,1,0,0:0:0:0:
277,163,45841,1,0,0:0:0:0:
282,165,45898,1,2,0:0:0:0:
278,165,45955,1,2,0:0:0:0:
306,159,46126,1,0,0:0:0:0:
308,158,46298,1,6,0:0:0:0:
251,186,46641,1,2,0:0:0:0:
267,195,46812,1,0,0:0:0:0:
267,195,46983,1,2,0:0:0:0:
267,190,47155,1,0,0:0:0:0:
269,186,47241,1,0,0:0:0:0:
269,186,47326,1,2,0:0:0:0:
269,186,47498,1,0,0:0:0:0:
269,184,47669,1,2,0:0:0:0:
269,182,47841,1,2,0:0:0:0:
269,182,47926,1,0,0:0:0:0:
269,182,48012,1,2,0:0:0:0:
276,188,48098,1,2,0:0:0:0:
271,180,48183,1,0,0:0:0:0:
271,171,48355,1,2,0:0:0:0:
272,170,48526,1,0,0:0:0:0:
272,170,48612,1,0,0:0:0:0:
272,170,48698,1,2,0:0:0:0:
274,186,48869,1,4,0:0:0:0:
297,191,49041,1,2,0:0:0:0:
278,191,49212,1,4,0:0:0:0:
274,186,49383,1,2,0:0:0:0:
278,191,49555,1,4,0:0:0:0:
266,182,49726,1,2,0:0:0:0:
276,186,49898,1,4,0:0:0:0:
266,181,50069,1,2,0:0:0:0:
278,191,50241,1,4,0:0:0:0:
274,186,50412,1,2,0:0:0:0:
284,191,50583,1,0,0:0:0:0:
284,207,50669,1,0,0:0:0:0:
289,209,50755,1,2,0:0:0:0:
295,206,50841,1,0,0:0:0:0:
295,206,50926,1,2,0:0:0:0:
285,204,51012,1,2,0:0:0:0:
285,202,51098,1,0,0:0:0:0:
287,203,51183,1,2,0:0:0:0:
288,197,51269,1,0,0:0:0:0:
289,195,51355,1,0,0:0:0:0:
289,195,51441,1,2,0:0:0:0:
283,211,51612,1,2,0:0:0:0:
278,206,51783,1,0,0:0:0:0:
278,206,52126,1,6,0:0:0:0:
264,191,52298,1,2,0:0:0:0:
255,187,52383,1,2,0:0:0:0:
282,190,52469,1,0,0:0:0:0:
251,185,52641,1,0,0:0:0:0:
282,190,52812,1,2,0:0:0:0:
254,186,52983,1,4,0:0:0:0:
254,186,53326,1,0,0:0:0:0:
260,183,53498,1,2,0:0:0:0:
244,202,53669,1,2,0:0:0:0:
253,197,53755,1,2,0:0:0:0:
266,183,53841,1,0,0:0:0:0:
266,178,54012,1,0,0:0:0:0:
263,175,54183,1,2,0:0:0:0:
265,176,54355,1,4,0:0:0:0:
266,183,54612,1,2,0:0:0:0:
267,177,54698,1,0,0:0:0:0:
288,177,54869,1,2,0:0:0:0:
282,189,55041,1,2,0:0:0:0:
288,174,55212,1,0,0:0:0:0:
281,188,55383,1,0,0:0:0:0:
281,147,55469,1,0,0:0:0:0:
283,170,55555,1,2,0:0:0:0:
281,170,55726,1,0,0:0:0:0:
269,142,55812,1,2,0:0:0:0:
267,149,55983,1,2,0:0:0:0:
279,169,56069,1,0,0:0:0:0:
279,181,56241,1,2,0:0:0:0:
283,170,56412,1,0,0:0:0:0:
269,180,56498,1,2,0:0:0:0:
275,126,56583,1,2,0:0:0:0:
272,167,56755,1,0,0:0:0:0:
247,177,56926,1,2,0:0:0:0:
247,177,57012,1,2,0:0:0:0:
269,167,57098,1,0,0:0:0:0:
256,178,57183,1,0,0:0:0:0:
250,180,57269,1,2,0:0:0:0:
268,165,57441,1,0,0:0:0:0:
272,167,57612,1,6,0:0:0:0:
283,190,57783,1,2,0:0:0:0:
272,181,57869,1,2,0:0:0:0:
269,167,57955,1,0,0:0:0:0:
273,182,58126,1,0,0:0:0:0:
268,165,58298,1,2,0:0:0:0:
268,165,58469,1,4,0:0:0:0:
264,163,58812,1,0,0:0:0:0:
258,163,58983,1,2,0:0:0:0:
256,159,59155,1,2,0:0:0:0:
254,158,59241,1,2,0:0:0:0:
258,163,59326,1,0,0:0:0:0:
260,166,59498,1,0,0:0:0:0:
261,171,59669,1,2,0:0:0:0:
274,168,59841,1,4,0:0:0:0:
242,171,60098,1,2,0:0:0:0:
271,154,60183,1,0,0:0:0:0:
269,155,60355,1,0,0:0:0:0:
271,158,60526,1,6,0:0:0:0:
271,158,60869,1,0,0:0:0:0:
273,158,61041,1,0,0:0:0:0:
276,163,61212,1,2,0:0:0:0:
255,197,61298,1,0,0:0:0:0:
262,177,61469,1,0,0:0:0:0:
272,174,61555,1,2,0:0:0:0:
271,158,61726,1,2,0:0:0:0:
271,158,61812,1,2,0:0:0:0:
271,158,61898,1,0,0:0:0:0:
228,158,62069,1,2,0:0:0:0:
265,163,62155,1,2,0:0:0:0:
265,163,62241,1,0,0:0:0:0:
267,163,62326,1,0,0:0:0:0:
269,152,62412,1,0,0:0:0:0:
267,166,62498,1,2,0:0:0:0:
265,163,62583,1,2,0:0:0:0:
262,156,62669,1,2,0:0:0:0:
245,149,62755,1,0,0:0:0:0:
231,196,63098,1,6,0:0:0:0:
264,191,63270,1,2,0:0:0:0:
255,187,63355,1,2,0:0:0:0:
282,190,63441,1,0,0:0:0:0:
251,185,63613,1,0,0:0:0:0:
282,190,63784,1,2,0:0:0:0:
254,186,63955,1,0,0:0:0:0:
260,194,64041,1,0,0:0:0:0:
260,194,64126,1,2,0:0:0:0:
259,211,64212,1,2,0:0:0:0:
254,186,64298,1,0,0:0:0:0:
260,183,64470,1,2,0:0:0:0:
244,202,64641,1,2,0:0:0:0:
253,197,64727,1,2,0:0:0:0:
266,183,64813,1,0,0:0:0:0:
266,178,64984,1,0,0:0:0:0:
263,175,65155,1,2,0:0:0:0:
265,176,65327,1,0,0:0:0:0:
260,183,65412,1,2,0:0:0:0:
256,190,65583,1,2,0:0:0:0:
267,177,65670,1,0,0:0:0:0:
288,177,65841,1,2,0:0:0:0:
282,189,66013,1,0,0:0:0:0:
288,174,66184,1,2,0:0:0:0:
259,211,66269,1,2,0:0:0:0:
281,188,66355,1,0,0:0:0:0:
281,147,66441,1,0,0:0:0:0:
283,170,66527,1,2,0:0:0:0:
259,211,66698,1,2,0:0:0:0:
259,211,66869,1,0,0:0:0:0:
276,196,67041,1,0,0:0:0:0:
281,193,67126,1,0,0:0:0:0:
277,194,67212,1,2,0:0:0:0:
287,193,67383,1,0,0:0:0:0:
288,179,67555,1,2,0:0:0:0:
287,184,67726,1,0,0:0:0:0:
287,189,67812,1,0,0:0:0:0:
287,189,67898,1,2,0:0:0:0:
283,157,67983,1,0,0:0:0:0:
283,156,68069,1,2,0:0:0:0:
284,155,68155,1,2,0:0:0:0:
271,165,68241,1,0,0:0:0:0:
276,212,68755,1,0,0:0:0:0:
276,212,68841,1,0,0:0:0:0:
276,211,68926,1,2,0:0:0:0:
276,211,69098,1,2,0:0:0:0:
268,197,69269,1,0,0:0:0:0:
276,211,69441,1,2,0:0:0:0:
260,213,69526,1,2,0:0:0:0:
276,211,69612,1,0,0:0:0:0:
249,214,69698,1,0,0:0:0:0:
283,206,69783,1,2,0:0:0:0:
260,211,69869,1,0,0:0:0:0:
283,206,69955,1,2,0:0:0:0:
289,207,70041,1,2,0:0:0:0:
289,209,70126,1,0,0:0:0:0:
289,208,70212,1,2,0:0:0:0:
289,208,70298,1,0,0:0:0:0:
301,193,70412,1,0,0:0:0:0:
297,195,70526,1,0,0:0:0:0:
296,195,70641,1,2,0:0:0:0:
299,195,70755,1,2,0:0:0:0:
304,195,70869,1,2,0:0:0:0:
307,195,70983,1,4,0:0:0:0:
280,181,71441,1,2,0:0:0:0:
280,181,71555,1,2,0:0:0:0:
281,181,71669,1,0,0:0:0:0:
282,182,71898,1,2,0:0:0:0:
288,190,72126,1,2,0:0:0:0:
304,202,72241,1,0,0:0:0:0:
298,197,72355,1,0,0:0:0:0:
300,197,72812,1,2,0:0:0:0:
304,198,72926,1,2,0:0:0:0:
304,198,73041,1,0,0:0:0:0:
304,198,73269,1,2,0:0:0:0:
304,202,73383,1,0,0:0:0:0:
310,197,73498,1,2,0:0:0:0:
304,202,73612,1,2,0:0:0:0:
308,197,73726,1,0,0:0:0:0:
304,198,73955,1,0,0:0:0:0:
310,197,74183,1,2,0:0:0:0:
304,198,74412,1,0,0:0:0:0:
304,203,74526,1,0,0:0:0:0:
310,203,74641,1,2,0:0:0:0:
308,197,74755,1,0,0:0:0:0:
304,198,74869,1,2,0:0:0:0:
292,175,74983,1,2,0:0:0:0:
285,195,75098,1,0,0:0:0:0:
286,194,75326,1,2,0:0:0:0:
292,195,75555,1,2,0:0:0:0:
295,197,75783,1,0,0:0:0:0:
297,198,75898,1,0,0:0:0:0:
297,198,76012,1,2,0:0:0:0:
297,198,76126,1,0,0:0:0:0:
308,206,76212,1,0,0:0:0:0:
313,205,76298,1,2,0:0:0:0:
313,193,76383,1,2,0:0:0:0:
321,209,76469,1,0,0:0:0:0:
305,190,76641,1,0,0:0:0:0:
319,202,76812,1,2,0:0:0:0:
315,169,76983,1,0,0:0:0:0:
315,168,77155,1,2,0:0:0:0:
326,159,77241,1,0,0:0:0:0:
323,152,77326,1,2,0:0:0:0:
324,133,77498,1,0,0:0:0:0:
325,134,77669,1,0,0:0:0:0:
331,133,77841,1,2,0:0:0:0:
321,181,77926,1,2,0:0:0:0:
331,129,78012,1,0,0:0:0:0:
321,177,78183,1,2,0:0:0:0:
276,168,78269,1,0,0:0:0:0:
254,179,78355,1,2,0:0:0:0:
321,167,78441,1,2,0:0:0:0:
254,179,78526,1,0,0:0:0:0:
258,181,78698,1,0,0:0:0:0:
208,125,79041,1,6,0:0:0:0:
237,140,79212,1,0,0:0:0:0:
237,140,79383,1,0,0:0:0:0:
283,172,79555,1,0,0:0:0:0:
294,119,79726,1,2,0:0:0:0:
273,140,79898,1,2,0:0:0:0:
262,127,79983,1,2,0:0:0:0:
262,123,80069,1,2,0:0:0:0:
277,157,80155,1,2,0:0:0:0:
277,157,80241,1,0,0:0:0:0:
273,140,80412,1,2,0:0:0:0:
267,141,80583,1,0,0:0:0:0:
273,140,80669,1,0,0:0:0:0:
264,145,80755,1,0,0:0:0:0:
265,145,80841,1,0,0:0:0:0:
261,145,80926,1,2,0:0:0:0:
258,122,81012,1,0,0:0:0:0:
262,123,81098,1,2,0:0:0:0:
258,121,81183,1,2,0:0:0:0:
260,121,81269,1,0,0:0:0:0:
230,145,81355,1,2,0:0:0:0:
239,143,81441,1,0,0:0:0:0:
245,145,81612,1,6,0:0:0:0:
273,146,81955,1,4,0:0:0:0:
256,179,82126,1,0,0:0:0:0:
264,205,82212,1,0,0:0:0:0:
264,205,82298,1,2,0:0:0:0:
271,204,82469,1,0,0:0:0:0:
280,204,82641,1,2,0:0:0:0:
269,203,82726,1,2,0:0:0:0:
269,195,82812,1,0,0:0:0:0:
274,180,82983,1,2,0:0:0:0:
274,180,83069,1,0,0:0:0:0:
274,180,83155,1,2,0:0:0:0:
253,162,83241,1,2,0:0:0:0:
252,183,83326,1,0,0:0:0:0:
252,183,83498,1,0,0:0:0:0:
252,180,83583,1,0,0:0:0:0:
251,170,83669,1,2,0:0:0:0:
253,162,83841,1,0,0:0:0:0:
253,162,84012,1,2,0:0:0:0:
253,162,84098,1,2,0:0:0:0:
255,163,84183,1,0,0:0:0:0:
228,156,84355,1,2,0:0:0:0:
256,163,84441,1,0,0:0:0:0:
256,154,84526,1,2,0:0:0:0:
254,186,84698,1,0,0:0:0:0:
248,184,84783,1,0,0:0:0:0:
244,175,84869,1,2,0:0:0:0:
244,175,84955,1,0,0:0:0:0:
244,170,85041,1,2,0:0:0:0:
256,152,85126,1,2,0:0:0:0:
258,153,85212,1,0,0:0:0:0:
260,141,85383,1,2,0:0:0:0:
260,141,85469,1,2,0:0:0:0:
242,145,85555,1,0,0:0:0:0:
249,142,85641,1,2,0:0:0:0:
256,133,85726,1,0,0:0:0:0:
269,115,85812,1,0,0:0:0:0:
269,115,85898,1,2,0:0:0:0:
269,115,86069,1,4,0:0:0:0:
294,140,86241,1,2,0:0:0:0:
285,171,86326,1,2,0:0:0:0:
288,165,86412,1,0,0:0:0:0:
294,161,86498,1,0,0:0:0:0:
297,149,86583,1,2,0:0:0:0:
299,142,86669,1,2,0:0:0:0:
301,134,86755,1,0,0:0:0:0:
301,133,86841,1,0,0:0:0:0:
301,133,86926,1,0,0:0:0:0:
301,133,87012,1,0,0:0:0:0:
301,135,87098,1,2,0:0:0:0:
235,155,87183,1,2,0:0:0:0:
249,162,87269,1,2,0:0:0:0:
247,163,87355,1,2,0:0:0:0:
263,165,87441,1,0,0:0:0:0:
259,146,87783,1,2,0:0:0:0:
259,146,88126,1,2,0:0:0:0:
268,136,88383,1,2,0:0:0:0:
311,138,88641,1,2,0:0:0:0:
311,138,88812,1,0,0:0:0:0:
315,142,88983,1,0,0:0:0:0:
315,142,89155,1,2,0:0:0:0:
317,144,89326,1,0,0:0:0:0:
318,144,89498,1,2,0:0:0:0:
322,145,89669,1,2,0:0:0:0:
322,156,89726,1,2,0:0:0:0:
326,132,89783,1,0,0:0:0:0:
331,133,89841,1,2,0:0:0:0:
342,128,90183,1,4,0:0:0:0:
313,185,90526,1,2,0:0:0:0:
265,219,90698,1,0,0:0:0:0:
271,216,90783,1,0,0:0:0:0:
270,216,90869,1,2,0:0:0:0:
272,213,91041,1,0,0:0:0:0:
301,200,91212,1,2,0:0:0:0:
272,213,91383,1,2,0:0:0:0:
272,213,91555,1,0,0:0:0:0:
263,227,91726,1,2,0:0:0:0:
265,225,91812,1,0,0:0:0:0:
205,195,91898,1,2,0:0:0:0:
262,229,92069,1,0,0:0:0:0:
262,229,92241,1,2,0:0:0:0:
225,164,92583,1,2,0:0:0:0:
272,213,92755,1,2,0:0:0:0:
272,213,92841,1,2,0:0:0:0:
272,213,92926,1,0,0:0:0:0:
267,222,93098,1,0,0:0:0:0:
225,164,93269,1,2,0:0:0:0:
269,225,93441,1,0,0:0:0:0:
269,225,93526,1,2,0:0:0:0:
281,233,93612,1,0,0:0:0:0:
281,234,93783,1,0,0:0:0:0:
223,196,93955,1,2,0:0:0:0:
283,238,94041,1,2,0:0:0:0:
283,238,94126,1,0,0:0:0:0:
283,237,94212,1,0,0:0:0:0:
280,189,94298,1,2,0:0:0:0:
280,189,94469,1,2,0:0:0:0:
267,199,94526,1,0,0:0:0:0:
269,200,94583,1,0,0:0:0:0:
235,151,94641,1,2,0:0:0:0:
234,158,94812,1,0,0:0:0:0:
234,158,94869,1,2,0:0:0:0:
235,160,94926,1,2,0:0:0:0:
249,178,94983,1,0,0:0:0:0:
251,179,95155,1,2,0:0:0:0:
253,181,95212,1,2,0:0:0:0:
256,183,95269,1,2,0:0:0:0:
242,133,95326,1,0,0:0:0:0:
267,190,95669,1,0,0:0:0:0:
267,195,95726,1,0,0:0:0:0:
267,191,95783,1,0,0:0:0:0:
265,190,95841,1,2,0:0:0:0:
274,180,95926,1,0,0:0:0:0:
251,132,96012,1,2,0:0:0:0:
274,183,96098,1,2,0:0:0:0:
272,183,96183,1,0,0:0:0:0:
272,186,96269,1,2,0:0:0:0:
285,223,96355,1,0,0:0:0:0:
285,223,96441,1,0,0:0:0:0:
292,229,96526,1,2,0:0:0:0:
294,233,96612,1,2,0:0:0:0:
251,132,96698,1,0,0:0:0:0:
242,214,96755,1,0,0:0:0:0:
242,214,96812,1,0,0:0:0:0:
242,214,96869,1,2,0:0:0:0:
243,219,97041,1,0,0:0:0:0:
243,219,97212,1,6,0:0:0:0:
251,132,97383,1,0,0:0:0:0:
246,224,97555,1,6,0:0:0:0:
245,220,97726,1,0,0:0:0:0:
292,220,97812,1,0,0:0:0:0:
290,197,97898,1,2,0:0:0:0:
290,197,97983,1,0,0:0:0:0:
253,136,98069,1,2,0:0:0:0:
247,188,98155,1,2,0:0:0:0:
250,147,98326,1,2,0:0:0:0:
242,210,98412,1,0,0:0:0:0:
253,164,98755,1,4,0:0:0:0:
253,164,99098,1,6,0:0:0:0:
253,164,99441,1,4,0:0:0:0:
253,195,99783,1,6,0:0:0:0:
274,220,99955,1,0,0:0:0:0:
281,221,100041,1,0,0:0:0:0:
267,200,100126,1,2,0:0:0:0:
287,217,100298,1,0,0:0:0:0:
283,215,100469,1,2,0:0:0:0:
289,217,100641,1,0,0:0:0:0:
276,215,100698,1,2,0:0:0:0:
258,212,100755,1,2,0:0:0:0:
267,200,100812,1,0,0:0:0:0:
296,184,100983,1,2,0:0:0:0:
287,184,101155,1,0,0:0:0:0:
301,202,101326,1,0,0:0:0:0:
269,204,101412,1,0,0:0:0:0:
265,189,101498,1,2,0:0:0:0:
270,209,101583,1,0,0:0:0:0:
270,215,101669,1,2,0:0:0:0:
271,216,101841,1,0,0:0:0:0:
271,216,101926,1,0,0:0:0:0:
269,204,102012,1,2,0:0:0:0:
269,204,102098,1,2,0:0:0:0:
265,189,102183,1,0,0:0:0:0:
269,204,102269,1,2,0:0:0:0:
269,204,102355,1,2,0:0:0:0:
269,204,102441,1,2,0:0:0:0:
262,203,102526,1,0,0:0:0:0:
260,197,102698,1,2,0:0:0:0:
268,198,102755,1,0,0:0:0:0:
271,190,102812,1,0,0:0:0:0:
269,184,102869,1,2,0:0:0:0:
272,189,103041,1,2,0:0:0:0:
271,188,103212,1,0,0:0:0:0:
271,188,103383,1,0,0:0:0:0:
269,184,103555,1,2,0:0:0:0:
219,190,103898,1,6,0:0:0:0:
268,197,104069,1,0,0:0:0:0:
242,196,104155,1,0,0:0:0:0:
269,195,104241,1,2,0:0:0:0:
258,197,104412,1,0,0:0:0:0:
269,195,104583,1,0,0:0:0:0:
262,202,104641,1,0,0:0:0:0:
264,202,104698,1,0,0:0:0:0:
266,198,104755,1,2,0:0:0:0:
261,204,104841,1,0,0:0:0:0:
261,204,104926,1,2,0:0:0:0:
261,203,105012,1,2,0:0:0:0:
261,202,105098,1,0,0:0:0:0:
267,209,105269,1,2,0:0:0:0:
246,220,105326,1,2,0:0:0:0:
246,220,105383,1,2,0:0:0:0:
262,213,105441,1,0,0:0:0:0:
285,213,105526,1,0,0:0:0:0:
244,202,105612,1,2,0:0:0:0:
249,210,105698,1,0,0:0:0:0:
253,206,105783,1,2,0:0:0:0:
253,206,105841,1,2,0:0:0:0:
249,205,105898,1,2,0:0:0:0:
261,204,105955,1,0,0:0:0:0:
269,220,106041,1,0,0:0:0:0:
278,216,106126,1,2,0:0:0:0:
273,213,106212,1,0,0:0:0:0:
203,190,106298,1,0,0:0:0:0:
273,213,106383,1,2,0:0:0:0:
268,203,106469,1,2,0:0:0:0:
271,219,106555,1,2,0:0:0:0:
267,197,106641,1,0,0:0:0:0:
226,217,106812,1,0,0:0:0:0:
251,202,106983,1,2,0:0:0:0:
260,204,107155,1,2,0:0:0:0:
265,204,107326,1,0,0:0:0:0:
268,201,107412,1,0,0:0:0:0:
268,203,107498,1,0,0:0:0:0:
271,198,107583,1,0,0:0:0:0:
272,197,107669,1,2,0:0:0:0:
292,235,107755,1,2,0:0:0:0:
272,196,107841,1,2,0:0:0:0:
293,210,107926,1,2,0:0:0:0:
292,206,108012,1,0,0:0:0:0:
292,206,108526,1,0,0:0:0:0:
292,206,109041,1,2,0:0:0:0:
292,206,109383,1,6,0:0:0:0:
269,202,109726,1,4,0:0:0:0:
269,202,110069,1,4,0:0:0:0:
284,203,110412,1,4,0:0:0:0:
284,203,110755,1,6,0:0:0:0:
244,192,110926,1,0,0:0:0:0:
266,148,111098,1,2,0:0:0:0:
266,148,111269,1,0,0:0:0:0:
266,148,111355,1,0,0:0:0:0:
267,142,111441,1,2,0:0:0:0:
272,129,111612,1,2,0:0:0:0:
272,129,111783,1,0,0:0:0:0:
274,130,111955,1,2,0:0:0:0:
275,131,112126,1,0,0:0:0:0:
274,131,112469,1,6,0:0:0:0:
272,129,112812,1,6,0:0:0:0:
275,131,113155,1,6,0:0:0:0:
274,131,113498,1,4,0:0:0:0:
268,146,113669,1,2,0:0:0:0:
272,145,113755,1,2,0:0:0:0:
274,145,113841,1,2,0:0:0:0:
225,175,114012,1,0,0:0:0:0:
237,176,114098,1,0,0:0:0:0:
238,176,114183,1,2,0:0:0:0:
238,176,114355,1,2,0:0:0:0:
235,174,114526,1,0,0:0:0:0:
232,174,114698,1,0,0:0:0:0:
232,174,114869,1,6,0:0:0:0:
