osu file format v14

[General]
AudioFilename: audio.mp3
AudioLeadIn: 0
PreviewTime: 29841
Countdown: 0
SampleSet: Normal
StackLeniency: 0.7
Mode: 1
LetterboxInBreaks: 0
WidescreenStoryboard: 1

[Editor]
Bookmarks: 526,1041,6526,13041,19212,30183,40812,46298,52126,63098,70983,81612,87441,90183,103898,109726,114869
DistanceSpacing: 1.8
BeatDivisor: 4
GridSize: 16
TimelineZoom: 0.8

[Metadata]
Title:TAKEMIKADUCHI
TitleUnicode:TAKEMIKADUCHI
Artist:polysha
ArtistUnicode:polysha
Creator:- Lenkon
Version:clockbite's Kantan
Source:
Tags:masamune electronic instrumental freeform hardcore piano chime タケミカヅチ takemikazuchi たけみかずち Hivie clockbite yassu- yassu featured artist fa
BeatmapID:3385119
BeatmapSetID:1655030

[Difficulty]
HPDrainRate:8
CircleSize:5
OverallDifficulty:3
ApproachRate:5
SliderMultiplier:1.4
SliderTickRate:1

[Events]
//Background and Video events
0,0,"bg.jpg",0,-10
//Break Periods
//Storyboard Layer 0 (Background)
//Storyboard Layer 1 (Fail)
//Storyboard Layer 2 (Pass)
//Storyboard Layer 3 (Foreground)
//Storyboard Layer 4 (Overlay)
//Storyboard Sound Samples

[TimingPoints]
526,342.857142857143,4,1,0,80,1,8
1041,342.857142857143,4,1,0,80,1,0
1041,-111.111111111111,4,1,0,80,0,0
13383,-111.111111111111,4,1,0,70,0,0
19212,-111.111111111111,4,1,0,80,0,0
30183,-111.111111111111,4,1,0,90,0,1
35326,-111.111111111111,4,1,0,90,0,0
36698,-111.111111111111,4,1,0,90,0,1
40812,-111.111111111111,4,1,0,60,0,0
46298,-111.111111111111,4,1,0,70,0,0
52126,-111.111111111111,4,1,0,80,0,0
63098,-111.111111111111,4,1,0,90,0,1
70983,-111.111111111111,4,1,0,60,0,0
76469,-111.111111111111,4,1,0,70,0,0
81955,-111.111111111111,4,1,0,80,0,0
87441,-111.111111111111,4,1,0,70,0,0
90183,-111.111111111111,4,1,0,90,0,1
98412,-111.111111111111,4,1,0,90,0,0
99783,-111.111111111111,4,1,0,90,0,1
103898,-111.111111111111,4,1,0,90,0,0
109726,-111.111111111111,4,1,0,80,0,0

[HitObjects]
343,85,1041,5,4,0:0:0:0:
317,166,2412,1,8,0:0:0:0:
246,170,3783,1,0,0:0:0:0:
265,172,5155,1,8,0:0:0:0:
291,188,6526,1,4,0:0:0:0:
352,198,7212,1,8,0:0:0:0:
347,182,7898,1,8,0:0:0:0:
446,213,8583,1,0,0:0:0:0:
212,194,9269,1,0,0:0:0:0:
55,138,9612,1,0,0:0:0:0:
386,185,9955,1,8,0:0:0:0:
242,146,10641,1,4,0:0:0:0:
242,146,11669,1,8,0:0:0:0:
349,195,12012,1,8,0:0:0:0:
292,184,12355,1,0,0:0:0:0:
194,158,12698,1,0,0:0:0:0:
192,140,13041,1,8,0:0:0:0:
319,151,13383,1,0,0:0:0:0:
346,170,14069,1,8,0:0:0:0:
283,166,14755,1,0,0:0:0:0:
383,188,15441,1,8,0:0:0:0:
306,189,16126,1,0,0:0:0:0:
306,189,16469,1,0,0:0:0:0:
306,189,16812,1,8,0:0:0:0:
306,189,17155,1,8,0:0:0:0:
306,189,17498,1,0,0:0:0:0:
389,215,18526,1,8,0:0:0:0:
216,164,19212,1,12,0:0:0:0:
163,70,19555,1,4,0:0:0:0:
216,164,19898,1,12,0:0:0:0:
280,132,20926,1,8,0:0:0:0:
264,185,21269,1,0,0:0:0:0:
263,181,21955,1,4,0:0:0:0:
263,181,22298,1,4,0:0:0:0:
263,181,22641,1,12,0:0:0:0:
172,163,23669,1,8,0:0:0:0:
172,163,24012,1,0,0:0:0:0:
276,164,24698,1,4,0:0:0:0:
276,164,25041,1,12,0:0:0:0:
276,164,25383,1,4,0:0:0:0:
213,124,26412,1,8,0:0:0:0:
243,141,26755,1,0,0:0:0:0:
9,200,27098,1,8,0:0:0:0:
259,124,27612,1,0,0:0:0:0:
237,163,28126,1,0,0:0:0:0:
290,183,28641,1,8,0:0:0:0:
250,174,29155,1,0,0:0:0:0:
339,160,30183,1,12,0:0:0:0:
188,180,30526,1,0,0:0:0:0:
346,160,30869,1,0,0:0:0:0:
188,180,31212,1,8,0:0:0:0:
194,180,31898,1,8,0:0:0:0:
253,117,32241,1,0,0:0:0:0:
253,117,32926,1,0,0:0:0:0:
253,117,33269,1,0,0:0:0:0:
221,142,33612,1,8,0:0:0:0:
190,149,33955,1,0,0:0:0:0:
277,142,34641,1,8,0:0:0:0:
346,160,35669,1,12,0:0:0:0:
188,180,36012,1,4,0:0:0:0:
193,180,36355,1,4,0:0:0:0:
194,180,36698,1,8,0:0:0:0:
253,117,37383,1,8,0:0:0:0:
253,117,37726,1,0,0:0:0:0:
253,117,38069,1,8,0:0:0:0:
221,142,38755,1,0,0:0:0:0:
277,142,39441,1,8,0:0:0:0:
286,150,39955,1,0,0:0:0:0:
348,159,40469,1,8,0:0:0:0:
343,85,40812,1,4,0:0:0:0:
317,166,42183,1,8,0:0:0:0:
246,170,43555,1,0,0:0:0:0:
265,172,44926,1,8,0:0:0:0:
291,188,46298,1,0,0:0:0:0:
352,198,46983,1,8,0:0:0:0:
347,182,47669,1,8,0:0:0:0:
446,213,48355,1,0,0:0:0:0:
212,194,48869,1,8,0:0:0:0:
55,138,49212,1,8,0:0:0:0:
386,185,49555,1,0,0:0:0:0:
177,143,49898,1,0,0:0:0:0:
242,146,50241,1,8,0:0:0:0:
214,189,51783,1,0,0:0:0:0:
308,156,52126,1,12,0:0:0:0:
137,20,52469,1,0,0:0:0:0:
296,149,52983,1,8,0:0:0:0:
199,146,53498,1,0,0:0:0:0:
306,183,53841,1,8,0:0:0:0:
156,91,54355,1,8,0:0:0:0:
205,208,54698,1,8,0:0:0:0:
72,49,55041,1,0,0:0:0:0:
297,184,55726,1,8,0:0:0:0:
261,129,56069,1,0,0:0:0:0:
483,139,56412,1,8,0:0:0:0:
308,156,57612,1,8,0:0:0:0:
102,120,57955,1,0,0:0:0:0:
314,153,58469,1,8,0:0:0:0:
306,183,58983,1,0,0:0:0:0:
252,191,59326,1,8,0:0:0:0:
292,206,59841,1,8,0:0:0:0:
112,23,60183,1,0,0:0:0:0:
205,208,60526,1,8,0:0:0:0:
297,184,60869,1,8,0:0:0:0:
232,211,61212,1,0,0:0:0:0:
194,101,61726,1,8,0:0:0:0:
212,109,62755,1,0,0:0:0:0:
361,189,63098,1,12,0:0:0:0:
203,81,63441,1,0,0:0:0:0:
361,189,63955,1,8,0:0:0:0:
73,34,64469,1,0,0:0:0:0:
292,189,64812,1,0,0:0:0:0:
292,189,65326,1,8,0:0:0:0:
191,62,65669,1,8,0:0:0:0:
34,218,66012,1,0,0:0:0:0:
191,62,66355,1,8,0:0:0:0:
217,170,66698,1,0,0:0:0:0:
146,148,67212,1,8,0:0:0:0:
203,168,68241,1,4,0:0:0:0:
232,155,68926,1,8,0:0:0:0:
254,160,69612,1,0,0:0:0:0:
258,152,69955,1,0,0:0:0:0:
258,152,70298,1,0,0:0:0:0:
322,137,70641,1,0,0:0:0:0:
312,206,70983,1,12,0:0:0:0:
398,169,72355,1,8,0:0:0:0:
347,169,73726,1,0,0:0:0:0:
375,174,75098,1,8,0:0:0:0:
325,172,76469,1,4,0:0:0:0:
250,166,76983,1,8,0:0:0:0:
260,171,77498,1,8,0:0:0:0:
387,159,78012,1,0,0:0:0:0:
241,158,78526,1,0,0:0:0:0:
244,161,79041,1,8,0:0:0:0:
248,149,80583,1,0,0:0:0:0:
248,149,80926,1,0,0:0:0:0:
248,149,81269,1,0,0:0:0:0:
346,196,81612,1,8,0:0:0:0:
240,112,81955,1,12,0:0:0:0:
240,128,82641,1,8,0:0:0:0:
240,128,83326,1,8,0:0:0:0:
240,128,84012,1,8,0:0:0:0:
224,128,84698,1,8,0:0:0:0:
224,128,85041,1,8,0:0:0:0:
224,128,85383,1,0,0:0:0:0:
224,128,85726,1,0,0:0:0:0:
224,128,86069,1,12,0:0:0:0:
320,176,87098,1,8,0:0:0:0:
256,192,87441,1,0,0:0:0:0:
239,146,90183,1,4,0:0:0:0:
242,151,90869,1,0,0:0:0:0:
242,151,91212,1,8,0:0:0:0:
243,152,91555,1,0,0:0:0:0:
219,131,92069,1,8,0:0:0:0:
217,118,92926,1,8,0:0:0:0:
217,118,93441,1,0,0:0:0:0:
228,109,93955,1,8,0:0:0:0:
228,109,94298,1,8,0:0:0:0:
19,224,94641,1,0,0:0:0:0:
278,124,94983,1,8,0:0:0:0:
81,150,95326,1,0,0:0:0:0:
242,151,95841,1,8,0:0:0:0:
228,190,96183,1,0,0:0:0:0:
46,40,96526,1,0,0:0:0:0:
243,152,96869,1,8,0:0:0:0:
239,146,98412,1,4,0:0:0:0:
243,152,99098,1,0,0:0:0:0:
242,151,99441,1,8,0:0:0:0:
242,151,99783,1,0,0:0:0:0:
216,118,100126,1,0,0:0:0:0:
219,131,100469,1,8,0:0:0:0:
217,118,101155,1,8,0:0:0:0:
219,47,101498,1,0,0:0:0:0:
228,109,102183,1,0,0:0:0:0:
217,118,102526,1,8,0:0:0:0:
19,224,102869,1,8,0:0:0:0:
278,124,103212,1,0,0:0:0:0:
239,146,103555,1,0,0:0:0:0:
337,228,103898,1,12,0:0:0:0:
242,151,104926,1,8,0:0:0:0:
124,169,105269,1,0,0:0:0:0:
58,186,105955,1,8,0:0:0:0:
246,193,106641,1,8,0:0:0:0:
123,28,106983,1,0,0:0:0:0:
292,182,107326,1,8,0:0:0:0:
122,51,107669,1,8,0:0:0:0:
299,186,108012,1,0,0:0:0:0:
299,186,108526,1,0,0:0:0:0:
292,184,109041,1,8,0:0:0:0:
277,169,109726,1,12,0:0:0:0:
144,186,110069,1,4,0:0:0:0:
144,186,110412,1,12,0:0:0:0:
222,158,111441,1,8,0:0:0:0:
222,158,111783,1,0,0:0:0:0:
273,266,112469,1,12,0:0:0:0:
273,266,112812,1,4,0:0:0:0:
273,266,113155,1,4,0:0:0:0:
154,199,114183,1,8,0:0:0:0:
188,186,114526,1,0,0:0:0:0:
238,186,114869,1,12,0:0:0:0:
