osu file format v14

[General]
AudioFilename: audio.mp3
AudioLeadIn: 0
PreviewTime: 37235
Countdown: 0
SampleSet: Normal
StackLeniency: 0.7
Mode: 3
LetterboxInBreaks: 0
SpecialStyle: 0
WidescreenStoryboard: 0

[Editor]
DistanceSpacing: 1.1
BeatDivisor: 8
GridSize: 8
TimelineZoom: 2.999998

[Metadata]
Title:Monochrome Princess
TitleUnicode:Monochrome Princess
Artist:polysha
ArtistUnicode:polysha
Creator:m1n530k
Version:Midnight Requiem
Source:Arcaea
Tags:
BeatmapID:4565208
BeatmapSetID:2164377

[Difficulty]
HPDrainRate:8
CircleSize:7
OverallDifficulty:4
ApproachRate:5
SliderMultiplier:1.4
SliderTickRate:1

[Events]
//Background and Video events
0,0,"back.jpg",0,0
//Break Periods
//Storyboard Layer 0 (Background)
//Storyboard Layer 1 (Fail)
//Storyboard Layer 2 (Pass)
//Storyboard Layer 3 (Foreground)
//Storyboard Layer 4 (Overlay)
//Storyboard Sound Samples

[TimingPoints]
1235,375,4,1,0,10,1,0
37610,-100,4,1,0,10,0,1
49235,-100,4,1,0,10,0,0
121235,535.714285714286,4,1,0,10,1,0
124449,550.45871559633,4,1,0,10,1,0
127751,566.037735849057,4,1,0,10,1,0
129449,631.578947368421,4,1,0,10,1,0

[HitObjects]
329,192,485,5,0,0:0:0:0:
182,192,578,1,0,0:0:0:0:
329,192,672,1,0,0:0:0:0:
182,192,766,1,0,0:0:0:0:
329,192,860,1,0,0:0:0:0:
182,192,953,1,0,0:0:0:0:
329,192,1047,1,0,0:0:0:0:
182,192,1141,1,0,0:0:0:0:
109,192,1235,128,0,1985:0:0:0:0:
329,192,1235,1,0,0:0:0:0:
402,192,1235,1,0,0:0:0:0:
402,192,1985,128,0,2266:0:0:0:0:
329,192,2266,128,0,2547:0:0:0:0:
256,192,2547,128,0,2735:0:0:0:0:
182,192,2735,128,0,3110:0:0:0:0:
182,192,3297,128,0,3391:0:0:0:0:
256,192,3391,128,0,3485:0:0:0:0:
329,192,3485,128,0,4047:0:0:0:0:
36,192,3485,1,0,0:0:0:0:
475,192,3485,1,0,0:0:0:0:
182,192,3766,128,0,4047:0:0:0:0:
109,192,3766,1,0,0:0:0:0:
402,192,4047,128,0,4610:0:0:0:0:
36,192,4047,1,0,0:0:0:0:
475,192,4047,1,0,0:0:0:0:
256,192,4047,128,0,4235:0:0:0:0:
109,192,4235,128,0,4610:0:0:0:0:
182,192,4235,1,0,0:0:0:0:
329,192,4235,1,0,0:0:0:0:
329,192,4610,128,0,4985:0:0:0:0:
402,192,4797,1,0,0:0:0:0:
256,192,4985,128,0,5360:0:0:0:0:
475,192,4985,1,0,0:0:0:0:
329,192,5172,1,0,0:0:0:0:
402,192,5360,1,0,0:0:0:0:
182,192,5360,128,0,5735:0:0:0:0:
256,192,5547,1,0,0:0:0:0:
109,192,5735,128,0,6110:0:0:0:0:
329,192,5735,1,0,0:0:0:0:
256,192,5922,1,0,0:0:0:0:
182,192,6110,128,0,6485:0:0:0:0:
329,192,6110,1,0,0:0:0:0:
109,192,6297,1,0,0:0:0:0:
256,192,6485,128,0,6860:0:0:0:0:
402,192,6485,1,0,0:0:0:0:
182,192,6672,1,0,0:0:0:0:
329,192,6860,128,0,7235:0:0:0:0:
475,192,6860,1,0,0:0:0:0:
256,192,7047,1,0,0:0:0:0:
402,192,7235,128,0,7985:0:0:0:0:
182,192,7235,128,0,7328:0:0:0:0:
36,192,7328,1,0,0:0:0:0:
109,192,7422,1,0,0:0:0:0:
182,192,7516,1,0,0:0:0:0:
256,192,7610,128,0,7703:0:0:0:0:
109,192,7703,1,0,0:0:0:0:
182,192,7797,1,0,0:0:0:0:
256,192,7891,1,0,0:0:0:0:
329,192,7985,128,0,8078:0:0:0:0:
36,192,7985,128,0,8266:0:0:0:0:
182,192,8078,1,0,0:0:0:0:
256,192,8172,1,0,0:0:0:0:
329,192,8266,1,0,0:0:0:0:
109,192,8266,128,0,8547:0:0:0:0:
402,192,8360,128,0,8453:0:0:0:0:
256,192,8453,1,0,0:0:0:0:
182,192,8547,128,0,8735:0:0:0:0:
329,192,8547,1,0,0:0:0:0:
402,192,8641,1,0,0:0:0:0:
329,192,8735,128,0,8828:0:0:0:0:
256,192,8735,128,0,9297:0:0:0:0:
475,192,8828,1,0,0:0:0:0:
402,192,8922,1,0,0:0:0:0:
329,192,9016,1,0,0:0:0:0:
36,192,9110,128,0,9203:0:0:0:0:
182,192,9203,1,0,0:0:0:0:
109,192,9297,1,0,0:0:0:0:
329,192,9297,128,0,9391:0:0:0:0:
36,192,9391,1,0,0:0:0:0:
182,192,9391,128,0,9485:0:0:0:0:
256,192,9485,128,0,9766:0:0:0:0:
475,192,9485,128,0,9578:0:0:0:0:
329,192,9578,1,0,0:0:0:0:
402,192,9672,1,0,0:0:0:0:
475,192,9766,1,0,0:0:0:0:
329,192,9766,128,0,10047:0:0:0:0:
182,192,9766,128,0,9860:0:0:0:0:
36,192,9860,1,0,0:0:0:0:
109,192,9953,1,0,0:0:0:0:
256,192,10047,128,0,10235:0:0:0:0:
182,192,10047,1,0,0:0:0:0:
109,192,10141,1,0,0:0:0:0:
36,192,10235,128,0,10516:0:0:0:0:
475,192,10235,1,0,0:0:0:0:
402,192,10281,1,0,0:0:0:0:
329,192,10328,1,0,0:0:0:0:
256,192,10375,1,0,0:0:0:0:
182,192,10422,1,0,0:0:0:0:
256,192,10469,1,0,0:0:0:0:
329,192,10516,128,0,10610:0:0:0:0:
402,192,10563,128,0,10610:0:0:0:0:
36,192,10610,1,0,0:0:0:0:
475,192,10610,128,0,10891:0:0:0:0:
109,192,10656,1,0,0:0:0:0:
182,192,10703,1,0,0:0:0:0:
256,192,10750,1,0,0:0:0:0:
329,192,10797,1,0,0:0:0:0:
256,192,10844,1,0,0:0:0:0:
182,192,10891,128,0,10985:0:0:0:0:
109,192,10938,128,0,10985:0:0:0:0:
475,192,10985,1,0,0:0:0:0:
36,192,10985,128,0,11266:0:0:0:0:
402,192,11031,1,0,0:0:0:0:
329,192,11078,1,0,0:0:0:0:
256,192,11125,1,0,0:0:0:0:
182,192,11172,1,0,0:0:0:0:
256,192,11219,1,0,0:0:0:0:
329,192,11266,128,0,11360:0:0:0:0:
402,192,11313,128,0,11360:0:0:0:0:
475,192,11360,128,0,11641:0:0:0:0:
36,192,11360,1,0,0:0:0:0:
109,192,11406,1,0,0:0:0:0:
182,192,11453,1,0,0:0:0:0:
256,192,11500,1,0,0:0:0:0:
329,192,11547,1,0,0:0:0:0:
256,192,11594,1,0,0:0:0:0:
182,192,11641,128,0,11735:0:0:0:0:
109,192,11688,128,0,11735:0:0:0:0:
475,192,11735,128,0,12297:0:0:0:0:
329,192,11735,128,0,12297:0:0:0:0:
36,192,11735,128,0,12297:0:0:0:0:
109,192,12110,128,0,12672:0:0:0:0:
402,192,12110,128,0,12672:0:0:0:0:
256,192,12485,128,0,13047:0:0:0:0:
36,192,12485,1,0,0:0:0:0:
475,192,12485,1,0,0:0:0:0:
329,192,12672,1,0,0:0:0:0:
182,192,12672,1,0,0:0:0:0:
36,192,12860,1,0,0:0:0:0:
475,192,12860,1,0,0:0:0:0:
475,192,12953,1,0,0:0:0:0:
36,192,12953,1,0,0:0:0:0:
402,192,13047,1,0,0:0:0:0:
109,192,13047,1,0,0:0:0:0:
329,192,13047,1,0,0:0:0:0:
182,192,13047,1,0,0:0:0:0:
402,192,13141,1,0,0:0:0:0:
109,192,13141,1,0,0:0:0:0:
329,192,13235,1,0,0:0:0:0:
182,192,13235,1,0,0:0:0:0:
475,192,13235,128,0,13985:0:0:0:0:
36,192,13235,128,0,13516:0:0:0:0:
256,192,13422,1,0,0:0:0:0:
109,192,13610,1,0,0:0:0:0:
36,192,13610,128,0,13985:0:0:0:0:
182,192,13656,1,0,0:0:0:0:
256,192,13703,1,0,0:0:0:0:
329,192,13750,1,0,0:0:0:0:
182,192,13797,1,0,0:0:0:0:
256,192,13844,1,0,0:0:0:0:
329,192,13891,1,0,0:0:0:0:
402,192,13938,1,0,0:0:0:0:
109,192,13985,128,0,14360:0:0:0:0:
329,192,14172,1,0,0:0:0:0:
475,192,14172,1,0,0:0:0:0:
329,192,14266,1,0,0:0:0:0:
475,192,14266,1,0,0:0:0:0:
182,192,14360,128,0,14735:0:0:0:0:
402,192,14360,1,0,0:0:0:0:
475,192,14547,1,0,0:0:0:0:
256,192,14547,1,0,0:0:0:0:
475,192,14641,1,0,0:0:0:0:
256,192,14641,1,0,0:0:0:0:
329,192,14735,128,0,15110:0:0:0:0:
402,192,14735,1,0,0:0:0:0:
109,192,14922,1,0,0:0:0:0:
256,192,14922,1,0,0:0:0:0:
109,192,15016,1,0,0:0:0:0:
256,192,15016,1,0,0:0:0:0:
402,192,15110,128,0,15485:0:0:0:0:
182,192,15110,1,0,0:0:0:0:
182,192,15297,1,0,0:0:0:0:
329,192,15297,1,0,0:0:0:0:
182,192,15391,1,0,0:0:0:0:
329,192,15391,1,0,0:0:0:0:
475,192,15485,128,0,15860:0:0:0:0:
256,192,15485,1,0,0:0:0:0:
109,192,15672,1,0,0:0:0:0:
329,192,15672,1,0,0:0:0:0:
109,192,15766,1,0,0:0:0:0:
329,192,15766,1,0,0:0:0:0:
256,192,15860,128,0,16235:0:0:0:0:
182,192,15860,1,0,0:0:0:0:
109,192,16047,1,0,0:0:0:0:
475,192,16047,1,0,0:0:0:0:
109,192,16141,1,0,0:0:0:0:
475,192,16141,1,0,0:0:0:0:
182,192,16235,1,0,0:0:0:0:
329,192,16235,1,0,0:0:0:0:
402,192,16235,128,0,16610:0:0:0:0:
182,192,16422,128,0,16469:0:0:0:0:
256,192,16469,128,0,16516:0:0:0:0:
329,192,16516,128,0,16563:0:0:0:0:
256,192,16610,128,0,16985:0:0:0:0:
36,192,16610,128,0,16656:0:0:0:0:
109,192,16656,128,0,16703:0:0:0:0:
182,192,16703,128,0,16750:0:0:0:0:
329,192,16750,128,0,16797:0:0:0:0:
402,192,16797,128,0,16844:0:0:0:0:
475,192,16844,128,0,16891:0:0:0:0:
182,192,16891,128,0,16938:0:0:0:0:
109,192,16938,128,0,16985:0:0:0:0:
329,192,16985,128,0,17360:0:0:0:0:
36,192,16985,128,0,17031:0:0:0:0:
402,192,16985,1,0,0:0:0:0:
109,192,17172,1,0,0:0:0:0:
402,192,17172,1,0,0:0:0:0:
109,192,17266,1,0,0:0:0:0:
402,192,17266,1,0,0:0:0:0:
182,192,17360,128,0,17735:0:0:0:0:
256,192,17360,1,0,0:0:0:0:
475,192,17547,1,0,0:0:0:0:
329,192,17547,1,0,0:0:0:0:
475,192,17641,1,0,0:0:0:0:
329,192,17641,1,0,0:0:0:0:
256,192,17735,128,0,18110:0:0:0:0:
402,192,17735,1,0,0:0:0:0:
182,192,17922,1,0,0:0:0:0:
402,192,17922,1,0,0:0:0:0:
182,192,18016,1,0,0:0:0:0:
402,192,18016,1,0,0:0:0:0:
109,192,18110,128,0,18485:0:0:0:0:
329,192,18110,1,0,0:0:0:0:
256,192,18297,1,0,0:0:0:0:
402,192,18297,1,0,0:0:0:0:
256,192,18391,1,0,0:0:0:0:
402,192,18391,1,0,0:0:0:0:
182,192,18485,128,0,18860:0:0:0:0:
36,192,18485,1,0,0:0:0:0:
475,192,18485,1,0,0:0:0:0:
402,192,18531,1,0,0:0:0:0:
329,192,18578,1,0,0:0:0:0:
256,192,18625,1,0,0:0:0:0:
109,192,18672,1,0,0:0:0:0:
402,192,18672,1,0,0:0:0:0:
109,192,18766,1,0,0:0:0:0:
402,192,18766,1,0,0:0:0:0:
36,192,18860,128,0,19235:0:0:0:0:
329,192,18860,1,0,0:0:0:0:
475,192,18860,1,0,0:0:0:0:
109,192,19047,1,0,0:0:0:0:
402,192,19047,1,0,0:0:0:0:
329,192,19235,1,0,0:0:0:0:
475,192,19235,1,0,0:0:0:0:
182,192,19235,1,0,0:0:0:0:
256,192,19235,1,0,0:0:0:0:
475,192,19422,128,0,19891:0:0:0:0:
256,192,19422,1,0,0:0:0:0:
36,192,19516,128,0,19891:0:0:0:0:
256,192,19516,1,0,0:0:0:0:
402,192,19610,128,0,19891:0:0:0:0:
329,192,19610,1,0,0:0:0:0:
109,192,19703,128,0,19891:0:0:0:0:
182,192,19703,1,0,0:0:0:0:
329,192,19797,128,0,19985:0:0:0:0:
256,192,19797,1,0,0:0:0:0:
182,192,19891,128,0,19985:0:0:0:0:
256,192,19891,1,0,0:0:0:0:
475,192,19985,1,0,0:0:0:0:
402,192,19985,1,0,0:0:0:0:
36,192,19985,1,0,0:0:0:0:
109,192,19985,1,0,0:0:0:0:
36,192,20172,128,0,20641:0:0:0:0:
256,192,20172,1,0,0:0:0:0:
475,192,20266,128,0,20641:0:0:0:0:
256,192,20266,1,0,0:0:0:0:
109,192,20360,128,0,20641:0:0:0:0:
182,192,20360,1,0,0:0:0:0:
402,192,20453,128,0,20641:0:0:0:0:
329,192,20453,1,0,0:0:0:0:
256,192,20547,1,0,0:0:0:0:
182,192,20547,128,0,20735:0:0:0:0:
329,192,20641,128,0,20735:0:0:0:0:
256,192,20641,1,0,0:0:0:0:
402,192,20735,1,0,0:0:0:0:
109,192,20735,1,0,0:0:0:0:
36,192,20735,1,0,0:0:0:0:
475,192,20735,1,0,0:0:0:0:
475,192,20922,128,0,21391:0:0:0:0:
256,192,20922,1,0,0:0:0:0:
36,192,21016,128,0,21391:0:0:0:0:
256,192,21016,1,0,0:0:0:0:
402,192,21110,128,0,21391:0:0:0:0:
329,192,21110,1,0,0:0:0:0:
109,192,21203,128,0,21391:0:0:0:0:
182,192,21203,1,0,0:0:0:0:
329,192,21297,128,0,21485:0:0:0:0:
256,192,21297,1,0,0:0:0:0:
256,192,21391,1,0,0:0:0:0:
182,192,21391,128,0,21485:0:0:0:0:
475,192,21485,1,0,0:0:0:0:
36,192,21485,1,0,0:0:0:0:
109,192,21485,1,0,0:0:0:0:
402,192,21485,1,0,0:0:0:0:
36,192,21672,128,0,22141:0:0:0:0:
256,192,21672,1,0,0:0:0:0:
475,192,21766,128,0,22141:0:0:0:0:
256,192,21766,1,0,0:0:0:0:
109,192,21860,128,0,22141:0:0:0:0:
182,192,21860,1,0,0:0:0:0:
402,192,21953,128,0,22141:0:0:0:0:
329,192,21953,1,0,0:0:0:0:
182,192,22047,128,0,22235:0:0:0:0:
256,192,22047,1,0,0:0:0:0:
329,192,22141,128,0,22235:0:0:0:0:
256,192,22141,1,0,0:0:0:0:
475,192,22235,1,0,0:0:0:0:
36,192,22235,1,0,0:0:0:0:
402,192,22235,128,0,22375:0:0:0:0:
109,192,22235,128,0,22281:0:0:0:0:
329,192,22328,128,0,22469:0:0:0:0:
182,192,22328,128,0,22375:0:0:0:0:
256,192,22422,128,0,22563:0:0:0:0:
109,192,22422,128,0,22469:0:0:0:0:
475,192,22422,1,0,0:0:0:0:
329,192,22516,128,0,22656:0:0:0:0:
36,192,22516,128,0,22563:0:0:0:0:
475,192,22516,1,0,0:0:0:0:
402,192,22610,128,0,22750:0:0:0:0:
109,192,22610,128,0,22656:0:0:0:0:
475,192,22703,128,0,22844:0:0:0:0:
182,192,22703,128,0,22750:0:0:0:0:
36,192,22703,1,0,0:0:0:0:
402,192,22797,128,0,22938:0:0:0:0:
256,192,22797,128,0,22844:0:0:0:0:
36,192,22797,1,0,0:0:0:0:
329,192,22891,128,0,23031:0:0:0:0:
182,192,22891,128,0,22938:0:0:0:0:
256,192,22985,128,0,23125:0:0:0:0:
109,192,22985,128,0,23031:0:0:0:0:
329,192,23078,128,0,23219:0:0:0:0:
36,192,23078,128,0,23125:0:0:0:0:
256,192,23172,128,0,23313:0:0:0:0:
475,192,23172,128,0,23219:0:0:0:0:
182,192,23266,128,0,23406:0:0:0:0:
402,192,23266,128,0,23313:0:0:0:0:
256,192,23360,128,0,23500:0:0:0:0:
329,192,23360,128,0,23406:0:0:0:0:
182,192,23453,128,0,23594:0:0:0:0:
402,192,23453,128,0,23500:0:0:0:0:
109,192,23547,128,0,23688:0:0:0:0:
329,192,23547,128,0,23594:0:0:0:0:
36,192,23641,128,0,23781:0:0:0:0:
256,192,23641,128,0,23688:0:0:0:0:
475,192,23735,128,0,24016:0:0:0:0:
402,192,23781,1,0,0:0:0:0:
329,192,23828,1,0,0:0:0:0:
256,192,23875,1,0,0:0:0:0:
182,192,23922,1,0,0:0:0:0:
256,192,23969,1,0,0:0:0:0:
329,192,24016,1,0,0:0:0:0:
402,192,24110,128,0,24391:0:0:0:0:
475,192,24110,1,0,0:0:0:0:
329,192,24156,1,0,0:0:0:0:
256,192,24203,1,0,0:0:0:0:
182,192,24250,1,0,0:0:0:0:
109,192,24297,1,0,0:0:0:0:
182,192,24344,1,0,0:0:0:0:
256,192,24391,1,0,0:0:0:0:
475,192,24485,1,0,0:0:0:0:
402,192,24485,1,0,0:0:0:0:
329,192,24485,128,0,24766:0:0:0:0:
256,192,24531,1,0,0:0:0:0:
182,192,24578,1,0,0:0:0:0:
109,192,24625,1,0,0:0:0:0:
36,192,24672,1,0,0:0:0:0:
475,192,24672,128,0,24860:0:0:0:0:
109,192,24719,1,0,0:0:0:0:
182,192,24766,1,0,0:0:0:0:
402,192,24860,1,0,0:0:0:0:
36,192,24860,1,0,0:0:0:0:
109,192,24860,1,0,0:0:0:0:
256,192,24860,128,0,25235:0:0:0:0:
109,192,25047,1,0,0:0:0:0:
402,192,25047,1,0,0:0:0:0:
182,192,25141,1,0,0:0:0:0:
329,192,25141,1,0,0:0:0:0:
36,192,25235,1,0,0:0:0:0:
475,192,25235,1,0,0:0:0:0:
402,192,25235,1,0,0:0:0:0:
109,192,25235,1,0,0:0:0:0:
182,192,25281,1,0,0:0:0:0:
256,192,25328,1,0,0:0:0:0:
329,192,25375,1,0,0:0:0:0:
402,192,25422,1,0,0:0:0:0:
109,192,25422,1,0,0:0:0:0:
182,192,25469,1,0,0:0:0:0:
256,192,25516,1,0,0:0:0:0:
329,192,25563,1,0,0:0:0:0:
402,192,25610,128,0,25656:0:0:0:0:
475,192,25610,128,0,25656:0:0:0:0:
36,192,25610,128,0,25656:0:0:0:0:
182,192,25610,128,0,25656:0:0:0:0:
256,192,25703,1,0,0:0:0:0:
329,192,25703,1,0,0:0:0:0:
182,192,25797,1,0,0:0:0:0:
109,192,25797,1,0,0:0:0:0:
402,192,25797,1,0,0:0:0:0:
329,192,25891,1,0,0:0:0:0:
256,192,25891,1,0,0:0:0:0:
182,192,25985,128,0,26031:0:0:0:0:
36,192,25985,128,0,26031:0:0:0:0:
475,192,25985,128,0,26031:0:0:0:0:
402,192,25985,128,0,26031:0:0:0:0:
109,192,26078,1,0,0:0:0:0:
256,192,26078,1,0,0:0:0:0:
329,192,26172,1,0,0:0:0:0:
402,192,26172,1,0,0:0:0:0:
182,192,26172,1,0,0:0:0:0:
256,192,26266,1,0,0:0:0:0:
36,192,26266,1,0,0:0:0:0:
109,192,26360,128,0,26406:0:0:0:0:
182,192,26360,128,0,26406:0:0:0:0:
475,192,26360,128,0,26406:0:0:0:0:
402,192,26360,128,0,26406:0:0:0:0:
329,192,26453,1,0,0:0:0:0:
256,192,26453,1,0,0:0:0:0:
182,192,26547,1,0,0:0:0:0:
36,192,26547,1,0,0:0:0:0:
402,192,26547,1,0,0:0:0:0:
329,192,26641,1,0,0:0:0:0:
109,192,26641,1,0,0:0:0:0:
182,192,26735,128,0,26781:0:0:0:0:
256,192,26735,128,0,26781:0:0:0:0:
402,192,26735,128,0,26781:0:0:0:0:
475,192,26735,128,0,26781:0:0:0:0:
329,192,26828,1,0,0:0:0:0:
109,192,26828,1,0,0:0:0:0:
36,192,26922,1,0,0:0:0:0:
182,192,26922,1,0,0:0:0:0:
256,192,26922,1,0,0:0:0:0:
402,192,27016,1,0,0:0:0:0:
329,192,27016,1,0,0:0:0:0:
256,192,27110,128,0,27156:0:0:0:0:
182,192,27110,128,0,27156:0:0:0:0:
36,192,27110,128,0,27156:0:0:0:0:
475,192,27110,128,0,27156:0:0:0:0:
402,192,27203,1,0,0:0:0:0:
329,192,27203,1,0,0:0:0:0:
256,192,27297,1,0,0:0:0:0:
182,192,27297,1,0,0:0:0:0:
36,192,27297,1,0,0:0:0:0:
109,192,27391,1,0,0:0:0:0:
402,192,27391,1,0,0:0:0:0:
475,192,27485,128,0,27531:0:0:0:0:
329,192,27485,128,0,27531:0:0:0:0:
256,192,27485,128,0,27531:0:0:0:0:
36,192,27485,128,0,27531:0:0:0:0:
182,192,27578,1,0,0:0:0:0:
109,192,27578,1,0,0:0:0:0:
402,192,27672,1,0,0:0:0:0:
256,192,27672,1,0,0:0:0:0:
36,192,27672,1,0,0:0:0:0:
182,192,27766,1,0,0:0:0:0:
329,192,27766,1,0,0:0:0:0:
256,192,27860,128,0,27906:0:0:0:0:
36,192,27860,128,0,27906:0:0:0:0:
109,192,27860,128,0,27906:0:0:0:0:
475,192,27860,128,0,27906:0:0:0:0:
402,192,27953,1,0,0:0:0:0:
329,192,27953,1,0,0:0:0:0:
256,192,28047,1,0,0:0:0:0:
182,192,28047,1,0,0:0:0:0:
109,192,28047,1,0,0:0:0:0:
329,192,28141,1,0,0:0:0:0:
402,192,28141,1,0,0:0:0:0:
256,192,28235,128,0,28281:0:0:0:0:
109,192,28235,128,0,28281:0:0:0:0:
36,192,28235,128,0,28281:0:0:0:0:
475,192,28235,128,0,28281:0:0:0:0:
329,192,28328,1,0,0:0:0:0:
256,192,28422,128,0,28610:0:0:0:0:
402,192,28422,1,0,0:0:0:0:
182,192,28422,1,0,0:0:0:0:
109,192,28516,1,0,0:0:0:0:
329,192,28610,128,0,28703:0:0:0:0:
36,192,28610,128,0,28656:0:0:0:0:
475,192,28610,128,0,28656:0:0:0:0:
182,192,28610,128,0,28656:0:0:0:0:
256,192,28703,128,0,28797:0:0:0:0:
182,192,28797,128,0,28891:0:0:0:0:
402,192,28797,1,0,0:0:0:0:
109,192,28797,1,0,0:0:0:0:
256,192,28891,128,0,28985:0:0:0:0:
475,192,28985,128,0,29031:0:0:0:0:
36,192,28985,128,0,29031:0:0:0:0:
109,192,28985,128,0,29031:0:0:0:0:
329,192,28985,128,0,29031:0:0:0:0:
182,192,29078,1,0,0:0:0:0:
256,192,29172,128,0,29360:0:0:0:0:
109,192,29172,1,0,0:0:0:0:
329,192,29172,1,0,0:0:0:0:
402,192,29266,1,0,0:0:0:0:
475,192,29360,128,0,29406:0:0:0:0:
36,192,29360,128,0,29406:0:0:0:0:
182,192,29360,128,0,29453:0:0:0:0:
329,192,29360,128,0,29406:0:0:0:0:
256,192,29453,128,0,29547:0:0:0:0:
402,192,29547,1,0,0:0:0:0:
109,192,29547,1,0,0:0:0:0:
329,192,29547,128,0,29641:0:0:0:0:
256,192,29641,128,0,29735:0:0:0:0:
475,192,29735,1,0,0:0:0:0:
36,192,29735,1,0,0:0:0:0:
329,192,29735,128,0,29922:0:0:0:0:
182,192,29735,128,0,29922:0:0:0:0:
402,192,29922,128,0,30016:0:0:0:0:
109,192,29922,128,0,30016:0:0:0:0:
329,192,30016,128,0,30063:0:0:0:0:
36,192,30016,128,0,30063:0:0:0:0:
109,192,30110,128,0,30203:0:0:0:0:
402,192,30110,128,0,30203:0:0:0:0:
256,192,30110,1,0,0:0:0:0:
182,192,30203,128,0,30250:0:0:0:0:
475,192,30203,128,0,30250:0:0:0:0:
402,192,30297,128,0,30391:0:0:0:0:
109,192,30297,128,0,30391:0:0:0:0:
36,192,30391,128,0,30438:0:0:0:0:
329,192,30391,128,0,30438:0:0:0:0:
256,192,30485,1,0,0:0:0:0:
109,192,30485,128,0,30578:0:0:0:0:
402,192,30485,128,0,30578:0:0:0:0:
182,192,30578,128,0,30625:0:0:0:0:
475,192,30578,128,0,30625:0:0:0:0:
109,192,30672,128,0,30766:0:0:0:0:
402,192,30672,128,0,30766:0:0:0:0:
36,192,30766,128,0,30813:0:0:0:0:
329,192,30766,128,0,30813:0:0:0:0:
109,192,30860,128,0,30953:0:0:0:0:
402,192,30860,128,0,30953:0:0:0:0:
256,192,30860,1,0,0:0:0:0:
182,192,30953,128,0,31000:0:0:0:0:
475,192,30953,128,0,31000:0:0:0:0:
36,192,31047,128,0,31141:0:0:0:0:
329,192,31047,128,0,31141:0:0:0:0:
109,192,31141,128,0,31188:0:0:0:0:
402,192,31141,128,0,31188:0:0:0:0:
475,192,31235,1,0,0:0:0:0:
182,192,31235,1,0,0:0:0:0:
256,192,31235,128,0,31610:0:0:0:0:
109,192,31281,1,0,0:0:0:0:
402,192,31281,1,0,0:0:0:0:
36,192,31328,1,0,0:0:0:0:
329,192,31328,1,0,0:0:0:0:
475,192,31610,128,0,31985:0:0:0:0:
36,192,31610,128,0,31985:0:0:0:0:
109,192,31610,128,0,31656:0:0:0:0:
402,192,31610,1,0,0:0:0:0:
182,192,31656,128,0,31703:0:0:0:0:
256,192,31703,128,0,31750:0:0:0:0:
329,192,31750,128,0,31797:0:0:0:0:
402,192,31797,128,0,31844:0:0:0:0:
109,192,31797,128,0,31844:0:0:0:0:
182,192,31844,128,0,31891:0:0:0:0:
256,192,31891,128,0,31938:0:0:0:0:
182,192,31985,128,0,32031:0:0:0:0:
329,192,31985,128,0,32031:0:0:0:0:
402,192,32078,128,0,32125:0:0:0:0:
109,192,32078,1,0,0:0:0:0:
475,192,32172,128,0,32219:0:0:0:0:
36,192,32172,1,0,0:0:0:0:
256,192,32172,1,0,0:0:0:0:
402,192,32266,128,0,32313:0:0:0:0:
256,192,32266,1,0,0:0:0:0:
109,192,32266,1,0,0:0:0:0:
329,192,32360,128,0,32406:0:0:0:0:
182,192,32360,128,0,32406:0:0:0:0:
109,192,32453,128,0,32500:0:0:0:0:
402,192,32453,1,0,0:0:0:0:
36,192,32547,128,0,32594:0:0:0:0:
256,192,32547,1,0,0:0:0:0:
475,192,32547,1,0,0:0:0:0:
109,192,32641,128,0,32688:0:0:0:0:
256,192,32641,1,0,0:0:0:0:
402,192,32641,1,0,0:0:0:0:
182,192,32735,128,0,32781:0:0:0:0:
329,192,32735,128,0,32781:0:0:0:0:
402,192,32828,128,0,32875:0:0:0:0:
109,192,32828,1,0,0:0:0:0:
475,192,32922,128,0,32969:0:0:0:0:
256,192,32922,1,0,0:0:0:0:
36,192,32922,1,0,0:0:0:0:
402,192,33016,128,0,33063:0:0:0:0:
256,192,33016,1,0,0:0:0:0:
109,192,33016,1,0,0:0:0:0:
329,192,33110,128,0,33156:0:0:0:0:
182,192,33110,128,0,33156:0:0:0:0:
109,192,33203,128,0,33250:0:0:0:0:
402,192,33203,1,0,0:0:0:0:
36,192,33297,128,0,33344:0:0:0:0:
256,192,33297,1,0,0:0:0:0:
475,192,33297,1,0,0:0:0:0:
109,192,33391,128,0,33438:0:0:0:0:
256,192,33391,1,0,0:0:0:0:
402,192,33391,1,0,0:0:0:0:
182,192,33485,128,0,33531:0:0:0:0:
329,192,33485,128,0,33531:0:0:0:0:
402,192,33578,128,0,33625:0:0:0:0:
109,192,33578,1,0,0:0:0:0:
475,192,33672,128,0,33719:0:0:0:0:
256,192,33672,1,0,0:0:0:0:
36,192,33672,1,0,0:0:0:0:
402,192,33766,128,0,33813:0:0:0:0:
256,192,33766,1,0,0:0:0:0:
109,192,33766,1,0,0:0:0:0:
329,192,33860,128,0,33906:0:0:0:0:
182,192,33860,128,0,33906:0:0:0:0:
109,192,33953,128,0,34000:0:0:0:0:
402,192,33953,1,0,0:0:0:0:
36,192,34047,128,0,34094:0:0:0:0:
256,192,34047,1,0,0:0:0:0:
475,192,34047,1,0,0:0:0:0:
109,192,34141,128,0,34188:0:0:0:0:
256,192,34141,1,0,0:0:0:0:
402,192,34141,1,0,0:0:0:0:
182,192,34235,128,0,34281:0:0:0:0:
329,192,34235,128,0,34985:0:0:0:0:
475,192,34235,1,0,0:0:0:0:
109,192,34328,128,0,34375:0:0:0:0:
182,192,34422,128,0,34469:0:0:0:0:
475,192,34422,1,0,0:0:0:0:
36,192,34422,1,0,0:0:0:0:
256,192,34516,128,0,34563:0:0:0:0:
109,192,34516,1,0,0:0:0:0:
475,192,34610,128,0,35360:0:0:0:0:
182,192,34610,128,0,34656:0:0:0:0:
402,192,34610,1,0,0:0:0:0:
109,192,34703,128,0,34750:0:0:0:0:
182,192,34797,128,0,34844:0:0:0:0:
402,192,34797,1,0,0:0:0:0:
36,192,34797,1,0,0:0:0:0:
256,192,34891,128,0,34938:0:0:0:0:
109,192,34891,1,0,0:0:0:0:
402,192,34985,128,0,35735:0:0:0:0:
36,192,34985,128,0,35031:0:0:0:0:
109,192,35078,128,0,35125:0:0:0:0:
182,192,35172,128,0,35219:0:0:0:0:
329,192,35172,1,0,0:0:0:0:
36,192,35172,1,0,0:0:0:0:
256,192,35266,128,0,35313:0:0:0:0:
109,192,35266,1,0,0:0:0:0:
329,192,35360,128,0,36110:0:0:0:0:
182,192,35360,128,0,35406:0:0:0:0:
109,192,35453,128,0,35500:0:0:0:0:
182,192,35547,128,0,35594:0:0:0:0:
475,192,35547,1,0,0:0:0:0:
36,192,35547,1,0,0:0:0:0:
256,192,35641,128,0,35688:0:0:0:0:
109,192,35641,1,0,0:0:0:0:
475,192,35735,128,0,36485:0:0:0:0:
182,192,35735,128,0,35781:0:0:0:0:
109,192,35828,128,0,35875:0:0:0:0:
36,192,35922,128,0,35969:0:0:0:0:
402,192,35922,1,0,0:0:0:0:
182,192,35922,1,0,0:0:0:0:
109,192,36016,128,0,36063:0:0:0:0:
256,192,36016,1,0,0:0:0:0:
402,192,36110,128,0,36485:0:0:0:0:
182,192,36110,128,0,36156:0:0:0:0:
256,192,36203,128,0,36250:0:0:0:0:
109,192,36203,1,0,0:0:0:0:
182,192,36297,128,0,36344:0:0:0:0:
329,192,36297,1,0,0:0:0:0:
36,192,36297,1,0,0:0:0:0:
109,192,36391,128,0,36438:0:0:0:0:
329,192,36485,1,0,0:0:0:0:
36,192,36485,128,0,36578:0:0:0:0:
182,192,36485,128,0,36531:0:0:0:0:
109,192,36578,128,0,36672:0:0:0:0:
256,192,36578,128,0,36625:0:0:0:0:
182,192,36672,128,0,36766:0:0:0:0:
329,192,36672,128,0,36719:0:0:0:0:
402,192,36766,128,0,36813:0:0:0:0:
256,192,36766,128,0,36860:0:0:0:0:
109,192,36860,128,0,36953:0:0:0:0:
329,192,36860,128,0,36906:0:0:0:0:
36,192,36860,1,0,0:0:0:0:
475,192,36860,1,0,0:0:0:0:
182,192,36953,128,0,37047:0:0:0:0:
402,192,36953,128,0,37000:0:0:0:0:
256,192,37047,128,0,37141:0:0:0:0:
475,192,37047,128,0,37094:0:0:0:0:
329,192,37141,128,0,37235:0:0:0:0:
402,192,37141,128,0,37188:0:0:0:0:
475,192,37235,128,0,37563:0:0:0:0:
36,192,37235,128,0,37563:0:0:0:0:
256,192,37235,128,0,37281:0:0:0:0:
182,192,37281,128,0,37328:0:0:0:0:
109,192,37328,128,0,37375:0:0:0:0:
402,192,37328,1,0,0:0:0:0:
256,192,37422,128,0,37469:0:0:0:0:
329,192,37469,128,0,37516:0:0:0:0:
402,192,37516,128,0,37563:0:0:0:0:
109,192,37516,1,0,0:0:0:0:
475,192,37610,128,0,37938:0:0:0:0:
36,192,37610,128,0,37703:0:0:0:0:
182,192,37610,1,0,0:0:0:0:
256,192,37610,1,0,0:0:0:0:
329,192,37610,1,0,0:0:0:0:
109,192,37656,128,0,37750:0:0:0:0:
182,192,37703,128,0,37797:0:0:0:0:
256,192,37750,128,0,37844:0:0:0:0:
329,192,37797,128,0,37891:0:0:0:0:
36,192,37797,1,0,0:0:0:0:
402,192,37844,128,0,37938:0:0:0:0:
109,192,37844,1,0,0:0:0:0:
182,192,37891,1,0,0:0:0:0:
256,192,37938,1,0,0:0:0:0:
36,192,37985,128,0,38313:0:0:0:0:
109,192,37985,128,0,38078:0:0:0:0:
475,192,37985,1,0,0:0:0:0:
402,192,37985,1,0,0:0:0:0:
182,192,38031,128,0,38125:0:0:0:0:
256,192,38078,128,0,38172:0:0:0:0:
329,192,38125,128,0,38219:0:0:0:0:
402,192,38172,128,0,38266:0:0:0:0:
109,192,38172,1,0,0:0:0:0:
475,192,38219,128,0,38313:0:0:0:0:
182,192,38219,1,0,0:0:0:0:
256,192,38266,1,0,0:0:0:0:
329,192,38313,1,0,0:0:0:0:
36,192,38360,128,0,38453:0:0:0:0:
402,192,38360,1,0,0:0:0:0:
475,192,38360,128,0,38688:0:0:0:0:
109,192,38406,128,0,38500:0:0:0:0:
182,192,38453,128,0,38547:0:0:0:0:
256,192,38500,128,0,38594:0:0:0:0:
329,192,38547,128,0,38641:0:0:0:0:
36,192,38547,1,0,0:0:0:0:
402,192,38594,128,0,38688:0:0:0:0:
109,192,38594,1,0,0:0:0:0:
182,192,38641,1,0,0:0:0:0:
256,192,38688,1,0,0:0:0:0:
109,192,38735,128,0,38828:0:0:0:0:
402,192,38735,1,0,0:0:0:0:
475,192,38735,1,0,0:0:0:0:
36,192,38735,128,0,39063:0:0:0:0:
182,192,38781,128,0,38875:0:0:0:0:
256,192,38828,128,0,38922:0:0:0:0:
329,192,38875,128,0,38969:0:0:0:0:
402,192,38922,128,0,39016:0:0:0:0:
109,192,38922,1,0,0:0:0:0:
475,192,38969,128,0,39063:0:0:0:0:
182,192,38969,1,0,0:0:0:0:
256,192,39016,1,0,0:0:0:0:
329,192,39063,1,0,0:0:0:0:
36,192,39110,128,0,39203:0:0:0:0:
475,192,39110,128,0,39438:0:0:0:0:
402,192,39110,1,0,0:0:0:0:
109,192,39156,128,0,39250:0:0:0:0:
182,192,39203,128,0,39297:0:0:0:0:
256,192,39250,128,0,39344:0:0:0:0:
329,192,39297,128,0,39391:0:0:0:0:
36,192,39297,1,0,0:0:0:0:
402,192,39344,128,0,39438:0:0:0:0:
109,192,39344,1,0,0:0:0:0:
182,192,39391,1,0,0:0:0:0:
256,192,39438,1,0,0:0:0:0:
402,192,39485,1,0,0:0:0:0:
475,192,39485,1,0,0:0:0:0:
109,192,39485,128,0,39578:0:0:0:0:
36,192,39485,128,0,39813:0:0:0:0:
182,192,39531,128,0,39625:0:0:0:0:
256,192,39578,128,0,39672:0:0:0:0:
329,192,39625,128,0,39719:0:0:0:0:
402,192,39672,128,0,39766:0:0:0:0:
109,192,39672,1,0,0:0:0:0:
475,192,39719,128,0,39813:0:0:0:0:
182,192,39719,1,0,0:0:0:0:
256,192,39766,1,0,0:0:0:0:
329,192,39813,1,0,0:0:0:0:
36,192,39860,128,0,39953:0:0:0:0:
475,192,39860,128,0,40188:0:0:0:0:
402,192,39860,1,0,0:0:0:0:
109,192,39906,128,0,40000:0:0:0:0:
182,192,39953,128,0,40047:0:0:0:0:
256,192,40000,128,0,40094:0:0:0:0:
329,192,40047,128,0,40141:0:0:0:0:
36,192,40047,1,0,0:0:0:0:
402,192,40094,128,0,40188:0:0:0:0:
109,192,40094,1,0,0:0:0:0:
182,192,40141,1,0,0:0:0:0:
256,192,40188,1,0,0:0:0:0:
36,192,40235,128,0,40563:0:0:0:0:
475,192,40235,128,0,40328:0:0:0:0:
109,192,40235,1,0,0:0:0:0:
402,192,40281,128,0,40375:0:0:0:0:
329,192,40328,128,0,40422:0:0:0:0:
256,192,40375,128,0,40469:0:0:0:0:
182,192,40422,128,0,40516:0:0:0:0:
475,192,40422,1,0,0:0:0:0:
109,192,40469,128,0,40563:0:0:0:0:
402,192,40469,1,0,0:0:0:0:
329,192,40516,1,0,0:0:0:0:
256,192,40563,1,0,0:0:0:0:
475,192,40610,128,0,40938:0:0:0:0:
402,192,40610,128,0,40703:0:0:0:0:
36,192,40610,1,0,0:0:0:0:
109,192,40610,1,0,0:0:0:0:
329,192,40656,128,0,40750:0:0:0:0:
256,192,40703,128,0,40797:0:0:0:0:
182,192,40750,128,0,40844:0:0:0:0:
109,192,40797,128,0,40891:0:0:0:0:
402,192,40797,1,0,0:0:0:0:
36,192,40844,128,0,40938:0:0:0:0:
329,192,40844,1,0,0:0:0:0:
256,192,40891,1,0,0:0:0:0:
182,192,40938,1,0,0:0:0:0:
475,192,40985,128,0,41078:0:0:0:0:
109,192,40985,1,0,0:0:0:0:
36,192,40985,128,0,41313:0:0:0:0:
402,192,41031,128,0,41125:0:0:0:0:
329,192,41078,128,0,41172:0:0:0:0:
256,192,41125,128,0,41219:0:0:0:0:
182,192,41172,128,0,41266:0:0:0:0:
475,192,41172,1,0,0:0:0:0:
109,192,41219,128,0,41313:0:0:0:0:
402,192,41219,1,0,0:0:0:0:
329,192,41266,1,0,0:0:0:0:
256,192,41313,1,0,0:0:0:0:
402,192,41360,128,0,41453:0:0:0:0:
109,192,41360,1,0,0:0:0:0:
36,192,41360,1,0,0:0:0:0:
475,192,41360,128,0,41688:0:0:0:0:
329,192,41406,128,0,41500:0:0:0:0:
256,192,41453,128,0,41547:0:0:0:0:
182,192,41500,128,0,41594:0:0:0:0:
109,192,41547,128,0,41641:0:0:0:0:
402,192,41547,1,0,0:0:0:0:
36,192,41594,128,0,41688:0:0:0:0:
329,192,41594,1,0,0:0:0:0:
256,192,41641,1,0,0:0:0:0:
182,192,41688,1,0,0:0:0:0:
475,192,41735,128,0,41828:0:0:0:0:
36,192,41735,128,0,42063:0:0:0:0:
109,192,41735,1,0,0:0:0:0:
402,192,41781,128,0,41875:0:0:0:0:
329,192,41828,128,0,41922:0:0:0:0:
256,192,41875,128,0,41969:0:0:0:0:
182,192,41922,128,0,42016:0:0:0:0:
475,192,41922,1,0,0:0:0:0:
109,192,41969,128,0,42063:0:0:0:0:
402,192,41969,1,0,0:0:0:0:
329,192,42016,1,0,0:0:0:0:
256,192,42063,1,0,0:0:0:0:
109,192,42110,1,0,0:0:0:0:
36,192,42110,1,0,0:0:0:0:
402,192,42110,128,0,42203:0:0:0:0:
475,192,42110,128,0,42438:0:0:0:0:
329,192,42156,128,0,42250:0:0:0:0:
256,192,42203,128,0,42297:0:0:0:0:
182,192,42250,128,0,42344:0:0:0:0:
109,192,42297,128,0,42391:0:0:0:0:
402,192,42297,1,0,0:0:0:0:
36,192,42344,128,0,42438:0:0:0:0:
329,192,42344,1,0,0:0:0:0:
256,192,42391,1,0,0:0:0:0:
182,192,42438,1,0,0:0:0:0:
475,192,42485,128,0,42578:0:0:0:0:
36,192,42485,128,0,42813:0:0:0:0:
109,192,42485,1,0,0:0:0:0:
402,192,42531,128,0,42625:0:0:0:0:
329,192,42578,128,0,42672:0:0:0:0:
256,192,42625,128,0,42719:0:0:0:0:
182,192,42672,128,0,42766:0:0:0:0:
475,192,42672,1,0,0:0:0:0:
109,192,42719,128,0,42813:0:0:0:0:
402,192,42719,1,0,0:0:0:0:
329,192,42766,1,0,0:0:0:0:
256,192,42813,1,0,0:0:0:0:
475,192,42860,128,0,42953:0:0:0:0:
36,192,42860,128,0,43188:0:0:0:0:
109,192,42860,1,0,0:0:0:0:
402,192,42906,128,0,43000:0:0:0:0:
329,192,42953,128,0,43047:0:0:0:0:
256,192,43000,128,0,43094:0:0:0:0:
182,192,43047,128,0,43141:0:0:0:0:
475,192,43047,1,0,0:0:0:0:
109,192,43094,128,0,43188:0:0:0:0:
402,192,43094,1,0,0:0:0:0:
329,192,43141,1,0,0:0:0:0:
256,192,43188,1,0,0:0:0:0:
402,192,43235,128,0,43563:0:0:0:0:
475,192,43235,128,0,43563:0:0:0:0:
109,192,43235,128,0,43563:0:0:0:0:
36,192,43235,128,0,43563:0:0:0:0:
109,192,43610,1,0,0:0:0:0:
475,192,43610,128,0,43938:0:0:0:0:
256,192,43610,128,0,43938:0:0:0:0:
36,192,43610,128,0,43938:0:0:0:0:
182,192,43656,1,0,0:0:0:0:
329,192,43703,1,0,0:0:0:0:
402,192,43750,1,0,0:0:0:0:
109,192,43797,1,0,0:0:0:0:
182,192,43844,1,0,0:0:0:0:
329,192,43891,1,0,0:0:0:0:
402,192,43938,1,0,0:0:0:0:
109,192,43985,128,0,44078:0:0:0:0:
475,192,43985,128,0,44313:0:0:0:0:
36,192,43985,128,0,44313:0:0:0:0:
182,192,44031,128,0,44125:0:0:0:0:
256,192,44078,128,0,44172:0:0:0:0:
329,192,44125,128,0,44219:0:0:0:0:
402,192,44172,128,0,44266:0:0:0:0:
109,192,44172,1,0,0:0:0:0:
182,192,44219,1,0,0:0:0:0:
256,192,44266,1,0,0:0:0:0:
329,192,44313,1,0,0:0:0:0:
402,192,44360,128,0,44453:0:0:0:0:
36,192,44360,128,0,44688:0:0:0:0:
475,192,44360,128,0,44688:0:0:0:0:
109,192,44360,1,0,0:0:0:0:
182,192,44360,1,0,0:0:0:0:
329,192,44406,128,0,44500:0:0:0:0:
256,192,44453,128,0,44547:0:0:0:0:
182,192,44500,128,0,44594:0:0:0:0:
109,192,44547,128,0,44641:0:0:0:0:
402,192,44547,1,0,0:0:0:0:
329,192,44594,1,0,0:0:0:0:
256,192,44641,1,0,0:0:0:0:
182,192,44688,1,0,0:0:0:0:
36,192,44735,128,0,45063:0:0:0:0:
475,192,44735,128,0,45063:0:0:0:0:
109,192,44735,128,0,44828:0:0:0:0:
402,192,44735,1,0,0:0:0:0:
329,192,44735,1,0,0:0:0:0:
182,192,44781,128,0,44875:0:0:0:0:
256,192,44828,128,0,44922:0:0:0:0:
329,192,44875,128,0,44969:0:0:0:0:
402,192,44922,128,0,45016:0:0:0:0:
109,192,44922,1,0,0:0:0:0:
182,192,44969,1,0,0:0:0:0:
256,192,45016,1,0,0:0:0:0:
329,192,45063,1,0,0:0:0:0:
475,192,45110,128,0,45438:0:0:0:0:
36,192,45110,128,0,45438:0:0:0:0:
402,192,45110,128,0,45203:0:0:0:0:
109,192,45110,1,0,0:0:0:0:
182,192,45110,1,0,0:0:0:0:
329,192,45156,128,0,45250:0:0:0:0:
256,192,45203,128,0,45297:0:0:0:0:
182,192,45250,128,0,45344:0:0:0:0:
109,192,45297,128,0,45391:0:0:0:0:
402,192,45297,1,0,0:0:0:0:
329,192,45344,1,0,0:0:0:0:
256,192,45391,1,0,0:0:0:0:
182,192,45438,1,0,0:0:0:0:
109,192,45485,128,0,45578:0:0:0:0:
475,192,45485,128,0,45813:0:0:0:0:
36,192,45485,128,0,45813:0:0:0:0:
402,192,45485,1,0,0:0:0:0:
329,192,45485,1,0,0:0:0:0:
182,192,45531,128,0,45625:0:0:0:0:
256,192,45578,128,0,45672:0:0:0:0:
329,192,45625,128,0,45719:0:0:0:0:
402,192,45672,128,0,45766:0:0:0:0:
109,192,45672,1,0,0:0:0:0:
182,192,45719,1,0,0:0:0:0:
256,192,45766,1,0,0:0:0:0:
329,192,45813,1,0,0:0:0:0:
402,192,45860,128,0,45953:0:0:0:0:
36,192,45860,128,0,46188:0:0:0:0:
475,192,45860,128,0,46188:0:0:0:0:
109,192,45860,1,0,0:0:0:0:
182,192,45860,1,0,0:0:0:0:
329,192,45906,128,0,46000:0:0:0:0:
256,192,45953,128,0,46047:0:0:0:0:
182,192,46000,128,0,46094:0:0:0:0:
109,192,46047,128,0,46141:0:0:0:0:
402,192,46047,1,0,0:0:0:0:
329,192,46094,1,0,0:0:0:0:
256,192,46141,1,0,0:0:0:0:
182,192,46188,1,0,0:0:0:0:
402,192,46235,128,0,46328:0:0:0:0:
329,192,46235,128,0,46281:0:0:0:0:
109,192,46328,128,0,46422:0:0:0:0:
182,192,46328,128,0,46375:0:0:0:0:
402,192,46422,128,0,46516:0:0:0:0:
475,192,46422,128,0,46469:0:0:0:0:
256,192,46422,1,0,0:0:0:0:
109,192,46516,128,0,46610:0:0:0:0:
36,192,46516,128,0,46563:0:0:0:0:
402,192,46610,128,0,46703:0:0:0:0:
329,192,46610,128,0,46656:0:0:0:0:
109,192,46703,128,0,46797:0:0:0:0:
182,192,46703,128,0,46750:0:0:0:0:
402,192,46797,128,0,46891:0:0:0:0:
475,192,46797,128,0,46844:0:0:0:0:
256,192,46797,1,0,0:0:0:0:
109,192,46891,128,0,46985:0:0:0:0:
36,192,46891,128,0,46938:0:0:0:0:
256,192,46985,128,0,47031:0:0:0:0:
329,192,46985,128,0,47078:0:0:0:0:
182,192,46985,1,0,0:0:0:0:
402,192,47078,128,0,47172:0:0:0:0:
475,192,47078,128,0,47125:0:0:0:0:
256,192,47172,128,0,47266:0:0:0:0:
182,192,47172,128,0,47219:0:0:0:0:
109,192,47172,1,0,0:0:0:0:
329,192,47266,128,0,47360:0:0:0:0:
402,192,47266,128,0,47313:0:0:0:0:
475,192,47266,1,0,0:0:0:0:
182,192,47360,128,0,47453:0:0:0:0:
109,192,47360,128,0,47406:0:0:0:0:
36,192,47360,1,0,0:0:0:0:
256,192,47453,128,0,47547:0:0:0:0:
329,192,47453,128,0,47500:0:0:0:0:
402,192,47453,1,0,0:0:0:0:
36,192,47547,128,0,47594:0:0:0:0:
109,192,47547,128,0,47641:0:0:0:0:
182,192,47641,128,0,47735:0:0:0:0:
256,192,47641,128,0,47688:0:0:0:0:
329,192,47641,1,0,0:0:0:0:
36,192,47735,128,0,47828:0:0:0:0:
475,192,47735,128,0,47828:0:0:0:0:
109,192,47828,128,0,47922:0:0:0:0:
402,192,47828,128,0,47922:0:0:0:0:
182,192,47922,128,0,48016:0:0:0:0:
329,192,47922,128,0,48016:0:0:0:0:
256,192,48016,128,0,48110:0:0:0:0:
182,192,48110,128,0,48203:0:0:0:0:
402,192,48110,128,0,48156:0:0:0:0:
109,192,48203,128,0,48297:0:0:0:0:
329,192,48203,128,0,48250:0:0:0:0:
36,192,48297,128,0,48391:0:0:0:0:
256,192,48297,128,0,48344:0:0:0:0:
109,192,48391,128,0,48485:0:0:0:0:
329,192,48391,128,0,48438:0:0:0:0:
402,192,48485,128,0,48578:0:0:0:0:
182,192,48485,128,0,48531:0:0:0:0:
475,192,48578,128,0,48672:0:0:0:0:
256,192,48578,128,0,48625:0:0:0:0:
402,192,48672,128,0,48766:0:0:0:0:
182,192,48672,128,0,48719:0:0:0:0:
329,192,48766,128,0,48860:0:0:0:0:
109,192,48766,128,0,48813:0:0:0:0:
36,192,48860,128,0,48953:0:0:0:0:
256,192,48860,128,0,48906:0:0:0:0:
109,192,48953,128,0,49047:0:0:0:0:
329,192,48953,128,0,49000:0:0:0:0:
182,192,49047,128,0,49141:0:0:0:0:
402,192,49047,128,0,49094:0:0:0:0:
256,192,49141,128,0,49235:0:0:0:0:
475,192,49141,128,0,49188:0:0:0:0:
36,192,49235,128,0,49281:0:0:0:0:
182,192,49235,128,0,49281:0:0:0:0:
402,192,49235,128,0,49422:0:0:0:0:
109,192,49328,128,0,49375:0:0:0:0:
329,192,49328,128,0,49516:0:0:0:0:
182,192,49422,128,0,49469:0:0:0:0:
36,192,49422,128,0,49469:0:0:0:0:
475,192,49422,128,0,49610:0:0:0:0:
109,192,49516,128,0,49563:0:0:0:0:
256,192,49516,128,0,49610:0:0:0:0:
182,192,49610,128,0,49797:0:0:0:0:
36,192,49610,128,0,49797:0:0:0:0:
402,192,49610,1,0,0:0:0:0:
329,192,49610,1,0,0:0:0:0:
329,192,49797,128,0,49844:0:0:0:0:
475,192,49797,128,0,49844:0:0:0:0:
109,192,49797,128,0,49985:0:0:0:0:
402,192,49891,128,0,49938:0:0:0:0:
182,192,49891,128,0,50078:0:0:0:0:
329,192,49985,128,0,50031:0:0:0:0:
475,192,49985,128,0,50031:0:0:0:0:
36,192,49985,128,0,50172:0:0:0:0:
402,192,50078,128,0,50125:0:0:0:0:
256,192,50078,128,0,50172:0:0:0:0:
329,192,50172,128,0,50360:0:0:0:0:
475,192,50172,128,0,50360:0:0:0:0:
109,192,50172,1,0,0:0:0:0:
182,192,50172,1,0,0:0:0:0:
182,192,50360,128,0,50406:0:0:0:0:
36,192,50360,128,0,50406:0:0:0:0:
402,192,50360,128,0,50453:0:0:0:0:
109,192,50453,128,0,50500:0:0:0:0:
329,192,50453,128,0,50547:0:0:0:0:
36,192,50547,128,0,50688:0:0:0:0:
182,192,50547,128,0,50688:0:0:0:0:
475,192,50547,1,0,0:0:0:0:
256,192,50547,1,0,0:0:0:0:
182,192,50735,1,0,0:0:0:0:
36,192,50735,1,0,0:0:0:0:
329,192,50735,1,0,0:0:0:0:
475,192,50735,1,0,0:0:0:0:
402,192,50735,1,0,0:0:0:0:
402,192,50922,1,0,0:0:0:0:
475,192,50922,1,0,0:0:0:0:
182,192,50922,1,0,0:0:0:0:
329,192,50985,1,0,0:0:0:0:
256,192,50985,1,0,0:0:0:0:
109,192,50985,1,0,0:0:0:0:
402,192,51047,1,0,0:0:0:0:
475,192,51047,1,0,0:0:0:0:
36,192,51047,1,0,0:0:0:0:
329,192,51110,1,0,0:0:0:0:
256,192,51110,1,0,0:0:0:0:
109,192,51110,1,0,0:0:0:0:
402,192,51172,1,0,0:0:0:0:
475,192,51172,1,0,0:0:0:0:
182,192,51172,1,0,0:0:0:0:
329,192,51235,1,0,0:0:0:0:
256,192,51235,1,0,0:0:0:0:
109,192,51235,1,0,0:0:0:0:
402,192,51297,1,0,0:0:0:0:
475,192,51297,1,0,0:0:0:0:
36,192,51297,1,0,0:0:0:0:
182,192,51391,1,0,0:0:0:0:
329,192,51391,1,0,0:0:0:0:
475,192,51485,128,0,51672:0:0:0:0:
402,192,51485,1,0,0:0:0:0:
36,192,51485,128,0,51860:0:0:0:0:
109,192,51485,128,0,51672:0:0:0:0:
256,192,51485,1,0,0:0:0:0:
329,192,51578,128,0,51766:0:0:0:0:
402,192,51672,128,0,51860:0:0:0:0:
182,192,51672,1,0,0:0:0:0:
256,192,51766,128,0,51953:0:0:0:0:
475,192,51766,128,0,52141:0:0:0:0:
329,192,51860,128,0,52047:0:0:0:0:
109,192,51860,1,0,0:0:0:0:
182,192,51953,128,0,52141:0:0:0:0:
402,192,51953,128,0,52141:0:0:0:0:
36,192,52047,1,0,0:0:0:0:
256,192,52047,128,0,52141:0:0:0:0:
329,192,52141,1,0,0:0:0:0:
109,192,52141,1,0,0:0:0:0:
475,192,52235,128,0,52281:0:0:0:0:
329,192,52235,128,0,52281:0:0:0:0:
109,192,52235,128,0,52422:0:0:0:0:
36,192,52235,1,0,0:0:0:0:
256,192,52235,1,0,0:0:0:0:
402,192,52328,128,0,52375:0:0:0:0:
182,192,52328,128,0,52516:0:0:0:0:
329,192,52422,128,0,52469:0:0:0:0:
475,192,52422,128,0,52469:0:0:0:0:
36,192,52422,128,0,52610:0:0:0:0:
402,192,52516,128,0,52563:0:0:0:0:
256,192,52516,128,0,52610:0:0:0:0:
329,192,52610,128,0,52797:0:0:0:0:
475,192,52610,128,0,52797:0:0:0:0:
109,192,52610,1,0,0:0:0:0:
182,192,52610,1,0,0:0:0:0:
182,192,52797,128,0,52844:0:0:0:0:
36,192,52797,128,0,52844:0:0:0:0:
402,192,52797,128,0,52985:0:0:0:0:
109,192,52891,128,0,52938:0:0:0:0:
329,192,52891,128,0,53078:0:0:0:0:
182,192,52985,128,0,53031:0:0:0:0:
36,192,52985,128,0,53031:0:0:0:0:
475,192,52985,128,0,53172:0:0:0:0:
109,192,53078,128,0,53125:0:0:0:0:
256,192,53078,128,0,53172:0:0:0:0:
182,192,53172,128,0,53360:0:0:0:0:
36,192,53172,128,0,53360:0:0:0:0:
402,192,53172,1,0,0:0:0:0:
329,192,53172,1,0,0:0:0:0:
329,192,53360,128,0,53406:0:0:0:0:
475,192,53360,128,0,53406:0:0:0:0:
109,192,53360,128,0,53453:0:0:0:0:
402,192,53453,128,0,53500:0:0:0:0:
182,192,53453,128,0,53547:0:0:0:0:
475,192,53547,128,0,53688:0:0:0:0:
329,192,53547,128,0,53688:0:0:0:0:
36,192,53547,1,0,0:0:0:0:
256,192,53547,1,0,0:0:0:0:
329,192,53735,1,0,0:0:0:0:
475,192,53735,1,0,0:0:0:0:
182,192,53735,1,0,0:0:0:0:
36,192,53735,1,0,0:0:0:0:
109,192,53735,1,0,0:0:0:0:
36,192,53922,1,0,0:0:0:0:
109,192,53922,1,0,0:0:0:0:
329,192,53922,1,0,0:0:0:0:
182,192,53985,1,0,0:0:0:0:
256,192,53985,1,0,0:0:0:0:
402,192,53985,1,0,0:0:0:0:
109,192,54047,1,0,0:0:0:0:
36,192,54047,1,0,0:0:0:0:
475,192,54047,1,0,0:0:0:0:
182,192,54110,1,0,0:0:0:0:
256,192,54110,1,0,0:0:0:0:
402,192,54110,1,0,0:0:0:0:
109,192,54172,1,0,0:0:0:0:
36,192,54172,1,0,0:0:0:0:
329,192,54172,1,0,0:0:0:0:
182,192,54235,1,0,0:0:0:0:
256,192,54235,1,0,0:0:0:0:
402,192,54235,1,0,0:0:0:0:
36,192,54297,1,0,0:0:0:0:
109,192,54297,1,0,0:0:0:0:
475,192,54297,1,0,0:0:0:0:
182,192,54391,1,0,0:0:0:0:
329,192,54391,1,0,0:0:0:0:
36,192,54485,128,0,54672:0:0:0:0:
109,192,54485,1,0,0:0:0:0:
475,192,54485,128,0,54860:0:0:0:0:
402,192,54485,128,0,54672:0:0:0:0:
256,192,54485,1,0,0:0:0:0:
182,192,54578,128,0,54766:0:0:0:0:
109,192,54672,128,0,54860:0:0:0:0:
329,192,54672,1,0,0:0:0:0:
256,192,54766,128,0,54953:0:0:0:0:
36,192,54766,128,0,55141:0:0:0:0:
182,192,54860,128,0,55047:0:0:0:0:
402,192,54860,1,0,0:0:0:0:
329,192,54953,128,0,55141:0:0:0:0:
109,192,54953,128,0,55141:0:0:0:0:
475,192,55047,1,0,0:0:0:0:
256,192,55047,128,0,55141:0:0:0:0:
182,192,55141,1,0,0:0:0:0:
402,192,55141,1,0,0:0:0:0:
36,192,55235,128,0,55281:0:0:0:0:
256,192,55235,128,0,55281:0:0:0:0:
475,192,55235,128,0,55422:0:0:0:0:
402,192,55235,1,0,0:0:0:0:
109,192,55328,128,0,55375:0:0:0:0:
182,192,55328,128,0,55375:0:0:0:0:
329,192,55328,128,0,55516:0:0:0:0:
36,192,55422,128,0,55469:0:0:0:0:
256,192,55422,128,0,55469:0:0:0:0:
402,192,55422,128,0,55610:0:0:0:0:
182,192,55516,128,0,55563:0:0:0:0:
109,192,55516,128,0,55563:0:0:0:0:
475,192,55516,128,0,55610:0:0:0:0:
329,192,55610,1,0,0:0:0:0:
256,192,55610,128,0,55703:0:0:0:0:
36,192,55610,128,0,55703:0:0:0:0:
402,192,55703,1,0,0:0:0:0:
109,192,55703,1,0,0:0:0:0:
475,192,55797,128,0,55844:0:0:0:0:
256,192,55797,128,0,55844:0:0:0:0:
36,192,55797,128,0,55985:0:0:0:0:
109,192,55797,1,0,0:0:0:0:
402,192,55891,128,0,55938:0:0:0:0:
329,192,55891,128,0,55938:0:0:0:0:
182,192,55891,128,0,56078:0:0:0:0:
256,192,55985,128,0,56031:0:0:0:0:
475,192,55985,128,0,56031:0:0:0:0:
109,192,55985,128,0,56172:0:0:0:0:
402,192,56078,128,0,56125:0:0:0:0:
329,192,56078,128,0,56125:0:0:0:0:
36,192,56078,128,0,56172:0:0:0:0:
475,192,56172,128,0,56360:0:0:0:0:
256,192,56172,128,0,56266:0:0:0:0:
402,192,56266,1,0,0:0:0:0:
109,192,56266,1,0,0:0:0:0:
256,192,56360,128,0,56406:0:0:0:0:
36,192,56360,128,0,56406:0:0:0:0:
329,192,56360,128,0,56547:0:0:0:0:
402,192,56360,1,0,0:0:0:0:
182,192,56453,128,0,56500:0:0:0:0:
109,192,56453,128,0,56500:0:0:0:0:
475,192,56453,128,0,56547:0:0:0:0:
36,192,56547,128,0,56641:0:0:0:0:
256,192,56547,128,0,56641:0:0:0:0:
402,192,56547,1,0,0:0:0:0:
182,192,56735,1,0,0:0:0:0:
36,192,56735,1,0,0:0:0:0:
109,192,56735,1,0,0:0:0:0:
329,192,56735,1,0,0:0:0:0:
402,192,56735,1,0,0:0:0:0:
475,192,56735,1,0,0:0:0:0:
36,192,56922,1,0,0:0:0:0:
109,192,56922,1,0,0:0:0:0:
475,192,56922,1,0,0:0:0:0:
402,192,56922,1,0,0:0:0:0:
182,192,56985,1,0,0:0:0:0:
256,192,56985,1,0,0:0:0:0:
329,192,57047,1,0,0:0:0:0:
402,192,57047,1,0,0:0:0:0:
109,192,57047,1,0,0:0:0:0:
36,192,57047,1,0,0:0:0:0:
475,192,57110,1,0,0:0:0:0:
182,192,57110,1,0,0:0:0:0:
256,192,57110,1,0,0:0:0:0:
402,192,57172,1,0,0:0:0:0:
329,192,57172,1,0,0:0:0:0:
36,192,57172,1,0,0:0:0:0:
109,192,57172,1,0,0:0:0:0:
256,192,57235,1,0,0:0:0:0:
182,192,57235,1,0,0:0:0:0:
109,192,57297,1,0,0:0:0:0:
36,192,57297,1,0,0:0:0:0:
475,192,57297,1,0,0:0:0:0:
402,192,57297,1,0,0:0:0:0:
256,192,57391,1,0,0:0:0:0:
182,192,57485,128,0,57531:0:0:0:0:
329,192,57485,128,0,57719:0:0:0:0:
402,192,57485,128,0,57906:0:0:0:0:
475,192,57485,128,0,58094:0:0:0:0:
109,192,57485,1,0,0:0:0:0:
36,192,57485,1,0,0:0:0:0:
109,192,57578,128,0,57625:0:0:0:0:
36,192,57578,128,0,57625:0:0:0:0:
256,192,57672,128,0,57719:0:0:0:0:
182,192,57766,128,0,57813:0:0:0:0:
109,192,57766,128,0,57813:0:0:0:0:
36,192,57766,128,0,58188:0:0:0:0:
329,192,57860,128,0,57906:0:0:0:0:
256,192,57953,128,0,58000:0:0:0:0:
182,192,57953,128,0,58000:0:0:0:0:
109,192,57953,128,0,58188:0:0:0:0:
402,192,58047,128,0,58094:0:0:0:0:
329,192,58141,128,0,58188:0:0:0:0:
256,192,58141,128,0,58188:0:0:0:0:
475,192,58235,128,0,58281:0:0:0:0:
256,192,58235,128,0,58281:0:0:0:0:
36,192,58235,128,0,58422:0:0:0:0:
109,192,58235,1,0,0:0:0:0:
402,192,58328,128,0,58375:0:0:0:0:
329,192,58328,128,0,58375:0:0:0:0:
182,192,58328,128,0,58516:0:0:0:0:
475,192,58422,128,0,58469:0:0:0:0:
256,192,58422,128,0,58469:0:0:0:0:
109,192,58422,128,0,58610:0:0:0:0:
329,192,58516,128,0,58563:0:0:0:0:
402,192,58516,128,0,58563:0:0:0:0:
36,192,58516,128,0,58610:0:0:0:0:
182,192,58610,1,0,0:0:0:0:
256,192,58610,128,0,58703:0:0:0:0:
475,192,58610,128,0,58703:0:0:0:0:
109,192,58703,1,0,0:0:0:0:
402,192,58703,1,0,0:0:0:0:
36,192,58797,128,0,58844:0:0:0:0:
256,192,58797,128,0,58844:0:0:0:0:
475,192,58797,128,0,58985:0:0:0:0:
402,192,58797,1,0,0:0:0:0:
109,192,58891,128,0,58938:0:0:0:0:
182,192,58891,128,0,58938:0:0:0:0:
329,192,58891,128,0,59078:0:0:0:0:
256,192,58985,128,0,59031:0:0:0:0:
36,192,58985,128,0,59031:0:0:0:0:
402,192,58985,128,0,59172:0:0:0:0:
109,192,59078,128,0,59125:0:0:0:0:
182,192,59078,128,0,59125:0:0:0:0:
475,192,59078,128,0,59172:0:0:0:0:
36,192,59172,128,0,59360:0:0:0:0:
256,192,59172,128,0,59266:0:0:0:0:
109,192,59266,1,0,0:0:0:0:
402,192,59266,1,0,0:0:0:0:
256,192,59360,128,0,59406:0:0:0:0:
475,192,59360,128,0,59406:0:0:0:0:
182,192,59360,128,0,59547:0:0:0:0:
109,192,59360,1,0,0:0:0:0:
329,192,59453,128,0,59500:0:0:0:0:
402,192,59453,128,0,59500:0:0:0:0:
36,192,59453,128,0,59547:0:0:0:0:
475,192,59547,128,0,59641:0:0:0:0:
256,192,59547,128,0,59641:0:0:0:0:
109,192,59547,1,0,0:0:0:0:
329,192,59735,1,0,0:0:0:0:
475,192,59735,1,0,0:0:0:0:
402,192,59735,1,0,0:0:0:0:
182,192,59735,1,0,0:0:0:0:
109,192,59735,1,0,0:0:0:0:
36,192,59735,1,0,0:0:0:0:
475,192,59922,1,0,0:0:0:0:
402,192,59922,1,0,0:0:0:0:
36,192,59922,1,0,0:0:0:0:
109,192,59922,1,0,0:0:0:0:
329,192,59985,1,0,0:0:0:0:
256,192,59985,1,0,0:0:0:0:
182,192,60047,1,0,0:0:0:0:
109,192,60047,1,0,0:0:0:0:
402,192,60047,1,0,0:0:0:0:
475,192,60047,1,0,0:0:0:0:
36,192,60110,1,0,0:0:0:0:
329,192,60110,1,0,0:0:0:0:
256,192,60110,1,0,0:0:0:0:
109,192,60172,1,0,0:0:0:0:
182,192,60172,1,0,0:0:0:0:
475,192,60172,1,0,0:0:0:0:
402,192,60172,1,0,0:0:0:0:
256,192,60235,1,0,0:0:0:0:
329,192,60235,1,0,0:0:0:0:
402,192,60297,1,0,0:0:0:0:
475,192,60297,1,0,0:0:0:0:
109,192,60297,1,0,0:0:0:0:
36,192,60297,1,0,0:0:0:0:
256,192,60391,1,0,0:0:0:0:
329,192,60485,128,0,60531:0:0:0:0:
182,192,60485,128,0,60719:0:0:0:0:
109,192,60485,128,0,60906:0:0:0:0:
36,192,60485,128,0,61094:0:0:0:0:
402,192,60485,1,0,0:0:0:0:
475,192,60485,1,0,0:0:0:0:
402,192,60578,128,0,60625:0:0:0:0:
475,192,60578,128,0,60625:0:0:0:0:
256,192,60672,128,0,60719:0:0:0:0:
329,192,60766,128,0,60813:0:0:0:0:
402,192,60766,128,0,60813:0:0:0:0:
475,192,60766,128,0,61188:0:0:0:0:
182,192,60860,128,0,60906:0:0:0:0:
256,192,60953,128,0,61000:0:0:0:0:
329,192,60953,128,0,61000:0:0:0:0:
402,192,60953,128,0,61188:0:0:0:0:
109,192,61047,128,0,61094:0:0:0:0:
182,192,61141,128,0,61188:0:0:0:0:
256,192,61141,128,0,61188:0:0:0:0:
475,192,61235,128,0,61563:0:0:0:0:
36,192,61235,128,0,61563:0:0:0:0:
402,192,61235,128,0,61266:0:0:0:0:
329,192,61266,128,0,61297:0:0:0:0:
256,192,61297,128,0,61328:0:0:0:0:
182,192,61328,128,0,61360:0:0:0:0:
109,192,61422,128,0,61453:0:0:0:0:
182,192,61453,128,0,61485:0:0:0:0:
256,192,61485,128,0,61516:0:0:0:0:
329,192,61516,128,0,61547:0:0:0:0:
36,192,61610,128,0,61891:0:0:0:0:
475,192,61610,1,0,0:0:0:0:
329,192,61610,1,0,0:0:0:0:
109,192,61656,128,0,61844:0:0:0:0:
182,192,61703,128,0,61797:0:0:0:0:
402,192,61703,1,0,0:0:0:0:
256,192,61750,1,0,0:0:0:0:
475,192,61797,1,0,0:0:0:0:
402,192,61891,1,0,0:0:0:0:
36,192,61985,128,0,62266:0:0:0:0:
329,192,61985,1,0,0:0:0:0:
475,192,61985,1,0,0:0:0:0:
109,192,62031,128,0,62219:0:0:0:0:
182,192,62078,128,0,62172:0:0:0:0:
402,192,62078,1,0,0:0:0:0:
256,192,62125,1,0,0:0:0:0:
329,192,62172,1,0,0:0:0:0:
402,192,62266,1,0,0:0:0:0:
36,192,62360,128,0,62641:0:0:0:0:
475,192,62360,1,0,0:0:0:0:
329,192,62360,1,0,0:0:0:0:
109,192,62406,128,0,62594:0:0:0:0:
182,192,62453,128,0,62547:0:0:0:0:
402,192,62453,1,0,0:0:0:0:
256,192,62500,1,0,0:0:0:0:
475,192,62547,1,0,0:0:0:0:
402,192,62641,1,0,0:0:0:0:
475,192,62735,128,0,63016:0:0:0:0:
182,192,62735,1,0,0:0:0:0:
36,192,62735,1,0,0:0:0:0:
402,192,62781,128,0,62969:0:0:0:0:
329,192,62828,128,0,62922:0:0:0:0:
109,192,62828,1,0,0:0:0:0:
256,192,62875,1,0,0:0:0:0:
36,192,62922,1,0,0:0:0:0:
109,192,63016,1,0,0:0:0:0:
36,192,63110,128,0,63297:0:0:0:0:
256,192,63110,1,0,0:0:0:0:
109,192,63156,128,0,63250:0:0:0:0:
329,192,63156,1,0,0:0:0:0:
182,192,63203,1,0,0:0:0:0:
402,192,63203,1,0,0:0:0:0:
475,192,63250,128,0,63438:0:0:0:0:
402,192,63297,128,0,63391:0:0:0:0:
256,192,63297,1,0,0:0:0:0:
329,192,63344,1,0,0:0:0:0:
182,192,63344,1,0,0:0:0:0:
109,192,63391,1,0,0:0:0:0:
36,192,63485,128,0,63766:0:0:0:0:
475,192,63485,1,0,0:0:0:0:
329,192,63485,1,0,0:0:0:0:
109,192,63531,128,0,63719:0:0:0:0:
182,192,63578,128,0,63672:0:0:0:0:
402,192,63578,1,0,0:0:0:0:
256,192,63625,1,0,0:0:0:0:
475,192,63672,1,0,0:0:0:0:
402,192,63766,1,0,0:0:0:0:
36,192,63860,128,0,64141:0:0:0:0:
329,192,63860,1,0,0:0:0:0:
475,192,63860,1,0,0:0:0:0:
109,192,63906,128,0,64094:0:0:0:0:
182,192,63953,128,0,64047:0:0:0:0:
402,192,63953,1,0,0:0:0:0:
256,192,64000,1,0,0:0:0:0:
329,192,64047,1,0,0:0:0:0:
402,192,64141,1,0,0:0:0:0:
182,192,64235,1,0,0:0:0:0:
256,192,64235,128,0,64516:0:0:0:0:
36,192,64235,1,0,0:0:0:0:
329,192,64281,128,0,64469:0:0:0:0:
402,192,64328,128,0,64422:0:0:0:0:
109,192,64328,1,0,0:0:0:0:
475,192,64375,1,0,0:0:0:0:
182,192,64422,1,0,0:0:0:0:
109,192,64516,1,0,0:0:0:0:
256,192,64610,128,0,64891:0:0:0:0:
182,192,64610,1,0,0:0:0:0:
36,192,64610,1,0,0:0:0:0:
329,192,64656,128,0,64844:0:0:0:0:
402,192,64703,128,0,64797:0:0:0:0:
109,192,64703,1,0,0:0:0:0:
475,192,64750,1,0,0:0:0:0:
36,192,64797,1,0,0:0:0:0:
109,192,64891,1,0,0:0:0:0:
256,192,64985,128,0,65266:0:0:0:0:
475,192,64985,1,0,0:0:0:0:
329,192,64985,1,0,0:0:0:0:
182,192,65031,128,0,65219:0:0:0:0:
109,192,65078,128,0,65172:0:0:0:0:
402,192,65078,1,0,0:0:0:0:
36,192,65125,1,0,0:0:0:0:
329,192,65172,1,0,0:0:0:0:
402,192,65266,1,0,0:0:0:0:
256,192,65360,128,0,65641:0:0:0:0:
475,192,65360,1,0,0:0:0:0:
329,192,65360,1,0,0:0:0:0:
182,192,65406,128,0,65594:0:0:0:0:
109,192,65453,128,0,65547:0:0:0:0:
402,192,65453,1,0,0:0:0:0:
36,192,65500,1,0,0:0:0:0:
475,192,65547,1,0,0:0:0:0:
402,192,65641,1,0,0:0:0:0:
256,192,65735,128,0,66016:0:0:0:0:
36,192,65735,1,0,0:0:0:0:
182,192,65735,1,0,0:0:0:0:
329,192,65781,128,0,65969:0:0:0:0:
402,192,65828,128,0,65922:0:0:0:0:
109,192,65828,1,0,0:0:0:0:
475,192,65875,1,0,0:0:0:0:
182,192,65922,1,0,0:0:0:0:
109,192,66016,1,0,0:0:0:0:
329,192,66110,128,0,66297:0:0:0:0:
182,192,66110,1,0,0:0:0:0:
402,192,66156,128,0,66250:0:0:0:0:
109,192,66156,1,0,0:0:0:0:
475,192,66203,1,0,0:0:0:0:
36,192,66203,1,0,0:0:0:0:
182,192,66250,128,0,66438:0:0:0:0:
109,192,66297,128,0,66391:0:0:0:0:
36,192,66344,1,0,0:0:0:0:
475,192,66344,1,0,0:0:0:0:
402,192,66391,1,0,0:0:0:0:
329,192,66438,1,0,0:0:0:0:
256,192,66485,128,0,66813:0:0:0:0:
475,192,66485,1,0,0:0:0:0:
182,192,66531,128,0,66719:0:0:0:0:
109,192,66578,128,0,66672:0:0:0:0:
402,192,66578,1,0,0:0:0:0:
36,192,66625,1,0,0:0:0:0:
329,192,66672,1,0,0:0:0:0:
402,192,66766,1,0,0:0:0:0:
256,192,66860,128,0,67141:0:0:0:0:
329,192,66860,1,0,0:0:0:0:
475,192,66860,1,0,0:0:0:0:
182,192,66906,128,0,67094:0:0:0:0:
109,192,66953,128,0,67047:0:0:0:0:
402,192,66953,1,0,0:0:0:0:
36,192,67000,1,0,0:0:0:0:
475,192,67047,1,0,0:0:0:0:
402,192,67141,1,0,0:0:0:0:
475,192,67235,1,0,0:0:0:0:
329,192,67235,1,0,0:0:0:0:
36,192,67235,128,0,67266:0:0:0:0:
109,192,67266,128,0,67297:0:0:0:0:
182,192,67297,128,0,67328:0:0:0:0:
256,192,67328,128,0,67360:0:0:0:0:
329,192,67360,128,0,67391:0:0:0:0:
182,192,67422,128,0,67453:0:0:0:0:
256,192,67453,128,0,67485:0:0:0:0:
329,192,67485,128,0,67516:0:0:0:0:
402,192,67516,128,0,67547:0:0:0:0:
475,192,67547,128,0,67578:0:0:0:0:
182,192,67610,1,0,0:0:0:0:
36,192,67610,1,0,0:0:0:0:
182,192,67703,1,0,0:0:0:0:
36,192,67703,1,0,0:0:0:0:
329,192,67797,1,0,0:0:0:0:
475,192,67797,1,0,0:0:0:0:
475,192,67891,1,0,0:0:0:0:
329,192,67891,1,0,0:0:0:0:
475,192,67985,128,0,68031:0:0:0:0:
182,192,67985,1,0,0:0:0:0:
36,192,67985,1,0,0:0:0:0:
402,192,68031,128,0,68078:0:0:0:0:
329,192,68078,128,0,68125:0:0:0:0:
109,192,68078,1,0,0:0:0:0:
256,192,68125,128,0,68172:0:0:0:0:
329,192,68172,128,0,68219:0:0:0:0:
109,192,68172,1,0,0:0:0:0:
402,192,68266,128,0,68313:0:0:0:0:
36,192,68266,1,0,0:0:0:0:
475,192,68266,1,0,0:0:0:0:
329,192,68313,128,0,68360:0:0:0:0:
256,192,68360,128,0,68406:0:0:0:0:
109,192,68360,1,0,0:0:0:0:
182,192,68406,128,0,68453:0:0:0:0:
256,192,68453,128,0,68500:0:0:0:0:
109,192,68453,1,0,0:0:0:0:
329,192,68547,128,0,68594:0:0:0:0:
36,192,68547,1,0,0:0:0:0:
475,192,68547,1,0,0:0:0:0:
256,192,68594,128,0,68641:0:0:0:0:
182,192,68641,128,0,68688:0:0:0:0:
402,192,68641,1,0,0:0:0:0:
109,192,68688,128,0,68735:0:0:0:0:
182,192,68735,128,0,68781:0:0:0:0:
402,192,68735,1,0,0:0:0:0:
475,192,68828,1,0,0:0:0:0:
329,192,68828,1,0,0:0:0:0:
36,192,68828,1,0,0:0:0:0:
256,192,68922,1,0,0:0:0:0:
402,192,68922,1,0,0:0:0:0:
109,192,68922,1,0,0:0:0:0:
182,192,68922,1,0,0:0:0:0:
329,192,69016,1,0,0:0:0:0:
36,192,69110,128,0,69156:0:0:0:0:
475,192,69110,1,0,0:0:0:0:
256,192,69110,1,0,0:0:0:0:
109,192,69156,128,0,69203:0:0:0:0:
182,192,69203,128,0,69250:0:0:0:0:
402,192,69203,1,0,0:0:0:0:
256,192,69250,128,0,69297:0:0:0:0:
475,192,69297,1,0,0:0:0:0:
36,192,69297,1,0,0:0:0:0:
329,192,69391,128,0,69438:0:0:0:0:
402,192,69391,128,0,69438:0:0:0:0:
109,192,69391,1,0,0:0:0:0:
182,192,69485,1,0,0:0:0:0:
36,192,69485,1,0,0:0:0:0:
475,192,69485,1,0,0:0:0:0:
256,192,69485,1,0,0:0:0:0:
256,192,69578,1,0,0:0:0:0:
402,192,69578,1,0,0:0:0:0:
109,192,69672,1,0,0:0:0:0:
182,192,69672,1,0,0:0:0:0:
329,192,69672,1,0,0:0:0:0:
182,192,69766,1,0,0:0:0:0:
402,192,69766,1,0,0:0:0:0:
109,192,69860,1,0,0:0:0:0:
36,192,69860,1,0,0:0:0:0:
475,192,69860,1,0,0:0:0:0:
256,192,69860,1,0,0:0:0:0:
109,192,69953,1,0,0:0:0:0:
329,192,69953,1,0,0:0:0:0:
402,192,70047,1,0,0:0:0:0:
182,192,70047,1,0,0:0:0:0:
36,192,70047,1,0,0:0:0:0:
329,192,70141,1,0,0:0:0:0:
109,192,70141,1,0,0:0:0:0:
475,192,70235,128,0,70266:0:0:0:0:
36,192,70235,1,0,0:0:0:0:
182,192,70235,1,0,0:0:0:0:
402,192,70266,128,0,70297:0:0:0:0:
329,192,70297,128,0,70328:0:0:0:0:
256,192,70328,128,0,70360:0:0:0:0:
182,192,70360,128,0,70391:0:0:0:0:
329,192,70422,128,0,70453:0:0:0:0:
256,192,70453,128,0,70485:0:0:0:0:
182,192,70485,128,0,70516:0:0:0:0:
109,192,70516,128,0,70547:0:0:0:0:
36,192,70547,128,0,70578:0:0:0:0:
475,192,70610,1,0,0:0:0:0:
329,192,70610,1,0,0:0:0:0:
329,192,70703,1,0,0:0:0:0:
475,192,70703,1,0,0:0:0:0:
182,192,70797,1,0,0:0:0:0:
36,192,70797,1,0,0:0:0:0:
182,192,70891,1,0,0:0:0:0:
36,192,70891,1,0,0:0:0:0:
475,192,70985,128,0,71008:0:0:0:0:
402,192,71008,128,0,71031:0:0:0:0:
329,192,71031,128,0,71055:0:0:0:0:
256,192,71055,128,0,71078:0:0:0:0:
182,192,71078,128,0,71102:0:0:0:0:
109,192,71102,128,0,71125:0:0:0:0:
36,192,71125,128,0,71149:0:0:0:0:
475,192,71172,1,0,0:0:0:0:
329,192,71172,1,0,0:0:0:0:
36,192,71266,128,0,71289:0:0:0:0:
329,192,71266,1,0,0:0:0:0:
475,192,71266,1,0,0:0:0:0:
109,192,71289,128,0,71313:0:0:0:0:
182,192,71313,128,0,71336:0:0:0:0:
256,192,71336,128,0,71360:0:0:0:0:
329,192,71360,128,0,71383:0:0:0:0:
402,192,71383,128,0,71406:0:0:0:0:
475,192,71406,128,0,71430:0:0:0:0:
36,192,71453,1,0,0:0:0:0:
182,192,71453,1,0,0:0:0:0:
475,192,71547,128,0,71570:0:0:0:0:
182,192,71547,1,0,0:0:0:0:
36,192,71547,1,0,0:0:0:0:
402,192,71570,128,0,71594:0:0:0:0:
329,192,71594,128,0,71617:0:0:0:0:
256,192,71617,128,0,71641:0:0:0:0:
182,192,71641,128,0,71664:0:0:0:0:
109,192,71664,128,0,71688:0:0:0:0:
36,192,71688,128,0,71711:0:0:0:0:
475,192,71735,1,0,0:0:0:0:
402,192,71735,1,0,0:0:0:0:
329,192,71735,1,0,0:0:0:0:
36,192,71828,1,0,0:0:0:0:
109,192,71828,1,0,0:0:0:0:
182,192,71828,1,0,0:0:0:0:
475,192,71922,128,0,71969:0:0:0:0:
256,192,71922,1,0,0:0:0:0:
402,192,71969,128,0,72016:0:0:0:0:
182,192,71969,1,0,0:0:0:0:
329,192,72016,128,0,72063:0:0:0:0:
109,192,72016,1,0,0:0:0:0:
402,192,72063,128,0,72110:0:0:0:0:
182,192,72063,1,0,0:0:0:0:
475,192,72110,128,0,72156:0:0:0:0:
36,192,72110,128,0,72156:0:0:0:0:
256,192,72110,1,0,0:0:0:0:
109,192,72156,128,0,72203:0:0:0:0:
329,192,72156,1,0,0:0:0:0:
182,192,72203,128,0,72250:0:0:0:0:
402,192,72203,1,0,0:0:0:0:
109,192,72250,128,0,72297:0:0:0:0:
329,192,72250,1,0,0:0:0:0:
36,192,72297,128,0,72344:0:0:0:0:
475,192,72297,128,0,72344:0:0:0:0:
256,192,72297,1,0,0:0:0:0:
402,192,72344,128,0,72391:0:0:0:0:
329,192,72391,128,0,72438:0:0:0:0:
256,192,72438,128,0,72485:0:0:0:0:
182,192,72485,128,0,72531:0:0:0:0:
329,192,72485,128,0,72531:0:0:0:0:
109,192,72531,128,0,72578:0:0:0:0:
402,192,72531,128,0,72578:0:0:0:0:
36,192,72578,128,0,72625:0:0:0:0:
475,192,72578,128,0,72625:0:0:0:0:
475,192,72672,1,0,0:0:0:0:
36,192,72672,1,0,0:0:0:0:
256,192,72672,1,0,0:0:0:0:
329,192,72766,1,0,0:0:0:0:
402,192,72766,1,0,0:0:0:0:
109,192,72766,1,0,0:0:0:0:
256,192,72860,1,0,0:0:0:0:
182,192,72860,1,0,0:0:0:0:
36,192,72860,1,0,0:0:0:0:
475,192,72860,1,0,0:0:0:0:
402,192,72906,1,0,0:0:0:0:
329,192,72953,1,0,0:0:0:0:
109,192,72953,1,0,0:0:0:0:
256,192,73000,1,0,0:0:0:0:
36,192,73047,1,0,0:0:0:0:
475,192,73047,1,0,0:0:0:0:
329,192,73047,1,0,0:0:0:0:
109,192,73094,1,0,0:0:0:0:
182,192,73141,1,0,0:0:0:0:
402,192,73141,1,0,0:0:0:0:
256,192,73188,1,0,0:0:0:0:
475,192,73235,1,0,0:0:0:0:
36,192,73235,1,0,0:0:0:0:
182,192,73235,1,0,0:0:0:0:
329,192,73235,1,0,0:0:0:0:
109,192,73985,1,0,0:0:0:0:
182,192,74008,1,0,0:0:0:0:
256,192,74031,1,0,0:0:0:0:
329,192,74266,1,0,0:0:0:0:
256,192,74547,1,0,0:0:0:0:
182,192,74735,1,0,0:0:0:0:
182,192,75297,1,0,0:0:0:0:
256,192,75485,1,0,0:0:0:0:
329,192,75766,1,0,0:0:0:0:
402,192,76047,1,0,0:0:0:0:
256,192,76235,1,0,0:0:0:0:
182,192,76516,1,0,0:0:0:0:
182,192,76797,1,0,0:0:0:0:
182,192,76985,1,0,0:0:0:0:
182,192,77547,1,0,0:0:0:0:
109,192,77641,1,0,0:0:0:0:
256,192,77735,1,0,0:0:0:0:
329,192,77781,1,0,0:0:0:0:
402,192,77828,1,0,0:0:0:0:
329,192,78485,1,0,0:0:0:0:
256,192,78766,1,0,0:0:0:0:
182,192,79047,1,0,0:0:0:0:
109,192,79235,1,0,0:0:0:0:
329,192,79235,1,0,0:0:0:0:
402,192,79235,1,0,0:0:0:0:
182,192,79516,1,0,0:0:0:0:
256,192,79797,1,0,0:0:0:0:
329,192,79985,1,0,0:0:0:0:
182,192,80266,1,0,0:0:0:0:
256,192,80547,1,0,0:0:0:0:
402,192,80735,1,0,0:0:0:0:
109,192,80781,1,0,0:0:0:0:
182,192,81297,1,0,0:0:0:0:
329,192,81320,1,0,0:0:0:0:
402,192,81860,1,0,0:0:0:0:
109,192,81883,1,0,0:0:0:0:
182,192,82235,1,0,0:0:0:0:
329,192,82258,1,0,0:0:0:0:
109,192,82797,1,0,0:0:0:0:
182,192,82860,1,0,0:0:0:0:
256,192,82922,1,0,0:0:0:0:
329,192,82985,1,0,0:0:0:0:
256,192,83266,1,0,0:0:0:0:
182,192,83547,1,0,0:0:0:0:
256,192,83735,1,0,0:0:0:0:
329,192,83758,1,0,0:0:0:0:
402,192,83781,1,0,0:0:0:0:
475,192,84485,1,0,0:0:0:0:
36,192,84485,1,0,0:0:0:0:
256,192,84485,1,0,0:0:0:0:
182,192,84578,1,0,0:0:0:0:
329,192,84578,1,0,0:0:0:0:
256,192,84672,1,0,0:0:0:0:
402,192,84860,1,0,0:0:0:0:
329,192,84860,1,0,0:0:0:0:
109,192,84860,1,0,0:0:0:0:
182,192,84860,1,0,0:0:0:0:
329,192,85047,1,0,0:0:0:0:
182,192,85047,1,0,0:0:0:0:
256,192,85141,1,0,0:0:0:0:
36,192,85235,1,0,0:0:0:0:
109,192,85235,1,0,0:0:0:0:
402,192,85235,1,0,0:0:0:0:
475,192,85235,1,0,0:0:0:0:
329,192,85281,1,0,0:0:0:0:
256,192,85328,1,0,0:0:0:0:
182,192,85375,128,0,85469:0:0:0:0:
256,192,85422,128,0,85516:0:0:0:0:
109,192,85422,1,0,0:0:0:0:
36,192,85422,1,0,0:0:0:0:
329,192,85469,128,0,85563:0:0:0:0:
402,192,85516,128,0,85610:0:0:0:0:
475,192,85563,128,0,85656:0:0:0:0:
36,192,85610,1,0,0:0:0:0:
109,192,85610,1,0,0:0:0:0:
182,192,85656,1,0,0:0:0:0:
256,192,85703,1,0,0:0:0:0:
329,192,85750,128,0,85844:0:0:0:0:
256,192,85797,128,0,85891:0:0:0:0:
475,192,85797,1,0,0:0:0:0:
402,192,85797,1,0,0:0:0:0:
182,192,85844,128,0,85938:0:0:0:0:
109,192,85891,128,0,85985:0:0:0:0:
36,192,85938,128,0,86031:0:0:0:0:
475,192,85985,1,0,0:0:0:0:
402,192,85985,1,0,0:0:0:0:
329,192,86031,1,0,0:0:0:0:
256,192,86078,1,0,0:0:0:0:
182,192,86125,128,0,86219:0:0:0:0:
256,192,86172,128,0,86266:0:0:0:0:
36,192,86172,1,0,0:0:0:0:
109,192,86172,1,0,0:0:0:0:
329,192,86219,128,0,86313:0:0:0:0:
402,192,86266,128,0,86360:0:0:0:0:
475,192,86313,128,0,86406:0:0:0:0:
36,192,86360,1,0,0:0:0:0:
109,192,86360,1,0,0:0:0:0:
182,192,86406,1,0,0:0:0:0:
256,192,86453,1,0,0:0:0:0:
329,192,86500,128,0,86594:0:0:0:0:
256,192,86547,128,0,86641:0:0:0:0:
475,192,86547,1,0,0:0:0:0:
402,192,86547,1,0,0:0:0:0:
182,192,86594,128,0,86688:0:0:0:0:
109,192,86641,128,0,86735:0:0:0:0:
36,192,86688,128,0,86781:0:0:0:0:
402,192,86735,1,0,0:0:0:0:
475,192,86735,1,0,0:0:0:0:
329,192,86781,1,0,0:0:0:0:
256,192,86828,1,0,0:0:0:0:
182,192,86875,128,0,86969:0:0:0:0:
36,192,86922,1,0,0:0:0:0:
109,192,86922,1,0,0:0:0:0:
256,192,86922,128,0,87016:0:0:0:0:
329,192,86969,128,0,87063:0:0:0:0:
402,192,87016,128,0,87110:0:0:0:0:
475,192,87063,128,0,87156:0:0:0:0:
109,192,87110,1,0,0:0:0:0:
36,192,87110,1,0,0:0:0:0:
182,192,87156,1,0,0:0:0:0:
256,192,87203,1,0,0:0:0:0:
329,192,87250,128,0,87344:0:0:0:0:
402,192,87297,1,0,0:0:0:0:
475,192,87297,1,0,0:0:0:0:
256,192,87297,128,0,87391:0:0:0:0:
182,192,87344,128,0,87438:0:0:0:0:
109,192,87391,128,0,87485:0:0:0:0:
36,192,87438,128,0,87531:0:0:0:0:
402,192,87485,1,0,0:0:0:0:
475,192,87485,1,0,0:0:0:0:
329,192,87531,1,0,0:0:0:0:
256,192,87578,1,0,0:0:0:0:
182,192,87625,128,0,87719:0:0:0:0:
109,192,87672,1,0,0:0:0:0:
36,192,87672,1,0,0:0:0:0:
256,192,87672,128,0,87766:0:0:0:0:
329,192,87719,128,0,87813:0:0:0:0:
402,192,87766,128,0,87860:0:0:0:0:
475,192,87813,128,0,87906:0:0:0:0:
109,192,87860,1,0,0:0:0:0:
36,192,87860,1,0,0:0:0:0:
182,192,87906,1,0,0:0:0:0:
256,192,87953,1,0,0:0:0:0:
329,192,88000,128,0,88094:0:0:0:0:
402,192,88047,1,0,0:0:0:0:
475,192,88047,1,0,0:0:0:0:
256,192,88047,128,0,88141:0:0:0:0:
182,192,88094,128,0,88188:0:0:0:0:
109,192,88141,128,0,88235:0:0:0:0:
36,192,88188,128,0,88281:0:0:0:0:
475,192,88235,1,0,0:0:0:0:
402,192,88235,1,0,0:0:0:0:
329,192,88281,1,0,0:0:0:0:
256,192,88328,1,0,0:0:0:0:
329,192,88375,128,0,88469:0:0:0:0:
475,192,88422,1,0,0:0:0:0:
256,192,88422,128,0,88516:0:0:0:0:
402,192,88422,1,0,0:0:0:0:
36,192,88422,1,0,0:0:0:0:
109,192,88422,1,0,0:0:0:0:
182,192,88469,128,0,88563:0:0:0:0:
109,192,88516,128,0,88610:0:0:0:0:
36,192,88563,128,0,88656:0:0:0:0:
475,192,88610,1,0,0:0:0:0:
402,192,88610,1,0,0:0:0:0:
329,192,88656,1,0,0:0:0:0:
256,192,88703,1,0,0:0:0:0:
402,192,88750,128,0,88844:0:0:0:0:
329,192,88797,128,0,88891:0:0:0:0:
475,192,88797,1,0,0:0:0:0:
36,192,88797,1,0,0:0:0:0:
109,192,88797,1,0,0:0:0:0:
182,192,88797,1,0,0:0:0:0:
256,192,88844,128,0,88938:0:0:0:0:
182,192,88891,128,0,88985:0:0:0:0:
109,192,88938,128,0,89031:0:0:0:0:
475,192,88985,1,0,0:0:0:0:
402,192,88985,1,0,0:0:0:0:
329,192,89031,1,0,0:0:0:0:
256,192,89078,1,0,0:0:0:0:
475,192,89125,128,0,89219:0:0:0:0:
402,192,89172,128,0,89266:0:0:0:0:
182,192,89172,1,0,0:0:0:0:
109,192,89172,1,0,0:0:0:0:
36,192,89172,1,0,0:0:0:0:
256,192,89172,1,0,0:0:0:0:
329,192,89219,128,0,89313:0:0:0:0:
256,192,89266,128,0,89360:0:0:0:0:
182,192,89313,128,0,89406:0:0:0:0:
36,192,89360,128,0,89453:0:0:0:0:
475,192,89360,1,0,0:0:0:0:
402,192,89360,1,0,0:0:0:0:
109,192,89406,128,0,89500:0:0:0:0:
182,192,89453,128,0,89547:0:0:0:0:
329,192,89453,1,0,0:0:0:0:
256,192,89500,128,0,89594:0:0:0:0:
329,192,89547,128,0,89641:0:0:0:0:
36,192,89547,1,0,0:0:0:0:
475,192,89547,1,0,0:0:0:0:
402,192,89594,128,0,89688:0:0:0:0:
475,192,89641,128,0,89735:0:0:0:0:
182,192,89641,1,0,0:0:0:0:
36,192,89735,1,0,0:0:0:0:
109,192,89735,1,0,0:0:0:0:
329,192,89735,1,0,0:0:0:0:
182,192,89781,1,0,0:0:0:0:
256,192,89828,1,0,0:0:0:0:
182,192,89875,128,0,89969:0:0:0:0:
36,192,89922,1,0,0:0:0:0:
256,192,89922,128,0,90016:0:0:0:0:
109,192,89922,1,0,0:0:0:0:
475,192,89922,1,0,0:0:0:0:
402,192,89922,1,0,0:0:0:0:
329,192,89969,128,0,90063:0:0:0:0:
402,192,90016,128,0,90110:0:0:0:0:
475,192,90063,128,0,90156:0:0:0:0:
36,192,90110,1,0,0:0:0:0:
109,192,90110,1,0,0:0:0:0:
182,192,90156,1,0,0:0:0:0:
256,192,90203,1,0,0:0:0:0:
109,192,90250,128,0,90344:0:0:0:0:
182,192,90297,128,0,90391:0:0:0:0:
36,192,90297,1,0,0:0:0:0:
475,192,90297,1,0,0:0:0:0:
402,192,90297,1,0,0:0:0:0:
329,192,90297,1,0,0:0:0:0:
256,192,90344,128,0,90438:0:0:0:0:
329,192,90391,128,0,90485:0:0:0:0:
402,192,90438,128,0,90531:0:0:0:0:
36,192,90485,1,0,0:0:0:0:
109,192,90485,1,0,0:0:0:0:
182,192,90531,1,0,0:0:0:0:
256,192,90578,1,0,0:0:0:0:
36,192,90625,128,0,90719:0:0:0:0:
109,192,90672,128,0,90766:0:0:0:0:
329,192,90672,1,0,0:0:0:0:
402,192,90672,1,0,0:0:0:0:
475,192,90672,1,0,0:0:0:0:
256,192,90672,1,0,0:0:0:0:
182,192,90719,128,0,90813:0:0:0:0:
256,192,90766,128,0,90860:0:0:0:0:
329,192,90813,128,0,90906:0:0:0:0:
475,192,90860,128,0,90953:0:0:0:0:
36,192,90860,1,0,0:0:0:0:
182,192,90860,1,0,0:0:0:0:
402,192,90906,128,0,91000:0:0:0:0:
329,192,90953,128,0,91047:0:0:0:0:
109,192,90953,1,0,0:0:0:0:
256,192,91000,128,0,91094:0:0:0:0:
182,192,91047,128,0,91141:0:0:0:0:
475,192,91047,1,0,0:0:0:0:
36,192,91047,1,0,0:0:0:0:
109,192,91094,128,0,91188:0:0:0:0:
402,192,91141,1,0,0:0:0:0:
182,192,91235,1,0,0:0:0:0:
256,192,91235,1,0,0:0:0:0:
329,192,91235,1,0,0:0:0:0:
475,192,91235,1,0,0:0:0:0:
36,192,91235,1,0,0:0:0:0:
475,192,91422,128,0,91891:0:0:0:0:
256,192,91422,1,0,0:0:0:0:
182,192,91422,1,0,0:0:0:0:
36,192,91516,128,0,91891:0:0:0:0:
256,192,91516,1,0,0:0:0:0:
182,192,91516,1,0,0:0:0:0:
402,192,91610,128,0,91891:0:0:0:0:
329,192,91610,1,0,0:0:0:0:
109,192,91703,128,0,91891:0:0:0:0:
182,192,91703,1,0,0:0:0:0:
329,192,91797,128,0,91985:0:0:0:0:
256,192,91797,1,0,0:0:0:0:
182,192,91891,128,0,91985:0:0:0:0:
256,192,91891,1,0,0:0:0:0:
475,192,91985,1,0,0:0:0:0:
402,192,91985,1,0,0:0:0:0:
36,192,91985,1,0,0:0:0:0:
109,192,91985,1,0,0:0:0:0:
36,192,92172,128,0,92641:0:0:0:0:
256,192,92172,1,0,0:0:0:0:
329,192,92172,1,0,0:0:0:0:
475,192,92266,128,0,92641:0:0:0:0:
256,192,92266,1,0,0:0:0:0:
329,192,92266,1,0,0:0:0:0:
109,192,92360,128,0,92641:0:0:0:0:
182,192,92360,1,0,0:0:0:0:
402,192,92453,128,0,92641:0:0:0:0:
329,192,92453,1,0,0:0:0:0:
256,192,92547,1,0,0:0:0:0:
182,192,92547,128,0,92735:0:0:0:0:
329,192,92641,128,0,92735:0:0:0:0:
256,192,92641,1,0,0:0:0:0:
402,192,92735,1,0,0:0:0:0:
109,192,92735,1,0,0:0:0:0:
36,192,92735,1,0,0:0:0:0:
475,192,92735,1,0,0:0:0:0:
475,192,92922,128,0,93391:0:0:0:0:
256,192,92922,1,0,0:0:0:0:
182,192,92922,1,0,0:0:0:0:
36,192,93016,128,0,93391:0:0:0:0:
256,192,93016,1,0,0:0:0:0:
182,192,93016,1,0,0:0:0:0:
402,192,93110,128,0,93391:0:0:0:0:
329,192,93110,1,0,0:0:0:0:
109,192,93203,128,0,93391:0:0:0:0:
182,192,93203,1,0,0:0:0:0:
329,192,93297,128,0,93485:0:0:0:0:
256,192,93297,1,0,0:0:0:0:
256,192,93391,1,0,0:0:0:0:
182,192,93391,128,0,93485:0:0:0:0:
475,192,93485,1,0,0:0:0:0:
36,192,93485,1,0,0:0:0:0:
109,192,93485,1,0,0:0:0:0:
402,192,93485,1,0,0:0:0:0:
36,192,93672,128,0,94141:0:0:0:0:
256,192,93672,1,0,0:0:0:0:
329,192,93672,1,0,0:0:0:0:
475,192,93766,128,0,94141:0:0:0:0:
256,192,93766,1,0,0:0:0:0:
329,192,93766,1,0,0:0:0:0:
109,192,93860,128,0,94141:0:0:0:0:
182,192,93860,1,0,0:0:0:0:
402,192,93953,128,0,94141:0:0:0:0:
329,192,93953,1,0,0:0:0:0:
182,192,94047,128,0,94235:0:0:0:0:
256,192,94047,1,0,0:0:0:0:
329,192,94141,128,0,94235:0:0:0:0:
256,192,94141,1,0,0:0:0:0:
475,192,94235,1,0,0:0:0:0:
402,192,94235,1,0,0:0:0:0:
109,192,94235,128,0,94422:0:0:0:0:
36,192,94235,128,0,94422:0:0:0:0:
256,192,94422,128,0,94516:0:0:0:0:
329,192,94422,128,0,94516:0:0:0:0:
402,192,94422,128,0,94516:0:0:0:0:
182,192,94422,1,0,0:0:0:0:
475,192,94422,1,0,0:0:0:0:
182,192,94516,128,0,94703:0:0:0:0:
109,192,94516,128,0,94703:0:0:0:0:
36,192,94516,128,0,94703:0:0:0:0:
475,192,94516,1,0,0:0:0:0:
329,192,94703,128,0,94797:0:0:0:0:
402,192,94703,128,0,94797:0:0:0:0:
475,192,94703,128,0,94797:0:0:0:0:
256,192,94703,1,0,0:0:0:0:
109,192,94797,128,0,94891:0:0:0:0:
36,192,94797,128,0,94891:0:0:0:0:
256,192,94797,128,0,94891:0:0:0:0:
182,192,94797,1,0,0:0:0:0:
182,192,94891,128,0,94985:0:0:0:0:
329,192,94891,128,0,94985:0:0:0:0:
402,192,94891,128,0,94985:0:0:0:0:
475,192,94891,1,0,0:0:0:0:
109,192,94985,1,0,0:0:0:0:
36,192,94985,128,0,95078:0:0:0:0:
475,192,94985,128,0,95172:0:0:0:0:
256,192,94985,128,0,95172:0:0:0:0:
182,192,95172,128,0,95266:0:0:0:0:
109,192,95172,128,0,95266:0:0:0:0:
36,192,95172,128,0,95266:0:0:0:0:
402,192,95172,1,0,0:0:0:0:
329,192,95172,1,0,0:0:0:0:
256,192,95266,128,0,95453:0:0:0:0:
329,192,95266,128,0,95453:0:0:0:0:
402,192,95266,128,0,95453:0:0:0:0:
475,192,95266,1,0,0:0:0:0:
182,192,95453,128,0,95547:0:0:0:0:
36,192,95453,128,0,95547:0:0:0:0:
475,192,95453,128,0,95547:0:0:0:0:
109,192,95453,1,0,0:0:0:0:
402,192,95547,128,0,95641:0:0:0:0:
329,192,95547,128,0,95641:0:0:0:0:
256,192,95547,128,0,95641:0:0:0:0:
109,192,95547,1,0,0:0:0:0:
109,192,95641,128,0,95735:0:0:0:0:
36,192,95641,128,0,95735:0:0:0:0:
475,192,95641,128,0,95735:0:0:0:0:
182,192,95641,1,0,0:0:0:0:
182,192,95735,128,0,95781:0:0:0:0:
329,192,95735,128,0,95781:0:0:0:0:
109,192,95781,128,0,95828:0:0:0:0:
402,192,95781,128,0,95828:0:0:0:0:
36,192,95828,128,0,95875:0:0:0:0:
475,192,95828,128,0,95875:0:0:0:0:
109,192,95875,128,0,95922:0:0:0:0:
329,192,95875,128,0,95922:0:0:0:0:
182,192,95922,128,0,95969:0:0:0:0:
256,192,95922,1,0,0:0:0:0:
329,192,96016,128,0,96063:0:0:0:0:
182,192,96016,128,0,96063:0:0:0:0:
402,192,96063,128,0,96110:0:0:0:0:
109,192,96063,128,0,96110:0:0:0:0:
475,192,96110,128,0,96156:0:0:0:0:
36,192,96110,128,0,96156:0:0:0:0:
402,192,96156,128,0,96203:0:0:0:0:
182,192,96156,128,0,96203:0:0:0:0:
329,192,96203,128,0,96250:0:0:0:0:
256,192,96203,1,0,0:0:0:0:
182,192,96297,128,0,96344:0:0:0:0:
329,192,96297,128,0,96344:0:0:0:0:
109,192,96344,128,0,96391:0:0:0:0:
402,192,96344,128,0,96391:0:0:0:0:
36,192,96391,128,0,96438:0:0:0:0:
475,192,96391,128,0,96438:0:0:0:0:
109,192,96438,128,0,96485:0:0:0:0:
329,192,96438,128,0,96485:0:0:0:0:
182,192,96485,128,0,96531:0:0:0:0:
256,192,96485,1,0,0:0:0:0:
329,192,96578,128,0,96625:0:0:0:0:
182,192,96578,128,0,96625:0:0:0:0:
402,192,96625,128,0,96672:0:0:0:0:
109,192,96625,128,0,96672:0:0:0:0:
475,192,96672,128,0,96719:0:0:0:0:
36,192,96672,128,0,96719:0:0:0:0:
402,192,96719,128,0,96766:0:0:0:0:
182,192,96719,128,0,96766:0:0:0:0:
329,192,96766,128,0,96813:0:0:0:0:
256,192,96766,1,0,0:0:0:0:
182,192,96860,128,0,96953:0:0:0:0:
36,192,96860,128,0,96906:0:0:0:0:
329,192,96860,1,0,0:0:0:0:
109,192,96953,128,0,97000:0:0:0:0:
256,192,96953,128,0,97047:0:0:0:0:
402,192,96953,1,0,0:0:0:0:
36,192,96953,1,0,0:0:0:0:
182,192,97047,128,0,97094:0:0:0:0:
329,192,97047,128,0,97141:0:0:0:0:
475,192,97047,1,0,0:0:0:0:
109,192,97047,1,0,0:0:0:0:
256,192,97141,128,0,97188:0:0:0:0:
402,192,97141,128,0,97235:0:0:0:0:
182,192,97141,1,0,0:0:0:0:
256,192,97235,1,0,0:0:0:0:
36,192,97235,1,0,0:0:0:0:
109,192,97235,1,0,0:0:0:0:
475,192,97235,1,0,0:0:0:0:
256,192,97422,128,0,97610:0:0:0:0:
329,192,97610,1,0,0:0:0:0:
402,192,97610,1,0,0:0:0:0:
109,192,97610,1,0,0:0:0:0:
182,192,97610,1,0,0:0:0:0:
182,192,97797,1,0,0:0:0:0:
256,192,97797,128,0,97985:0:0:0:0:
329,192,97797,1,0,0:0:0:0:
402,192,97985,1,0,0:0:0:0:
475,192,97985,1,0,0:0:0:0:
36,192,97985,1,0,0:0:0:0:
109,192,97985,1,0,0:0:0:0:
256,192,98172,128,0,98360:0:0:0:0:
402,192,98172,1,0,0:0:0:0:
109,192,98172,1,0,0:0:0:0:
182,192,98360,1,0,0:0:0:0:
36,192,98360,1,0,0:0:0:0:
329,192,98360,1,0,0:0:0:0:
475,192,98360,1,0,0:0:0:0:
256,192,98547,128,0,98735:0:0:0:0:
475,192,98547,1,0,0:0:0:0:
36,192,98547,1,0,0:0:0:0:
109,192,98735,1,0,0:0:0:0:
329,192,98735,1,0,0:0:0:0:
402,192,98735,1,0,0:0:0:0:
182,192,98735,1,0,0:0:0:0:
256,192,98922,128,0,99110:0:0:0:0:
109,192,98922,1,0,0:0:0:0:
402,192,98922,1,0,0:0:0:0:
36,192,99110,1,0,0:0:0:0:
402,192,99110,1,0,0:0:0:0:
475,192,99110,1,0,0:0:0:0:
329,192,99110,1,0,0:0:0:0:
109,192,99156,1,0,0:0:0:0:
182,192,99203,1,0,0:0:0:0:
256,192,99250,1,0,0:0:0:0:
329,192,99297,1,0,0:0:0:0:
475,192,99297,1,0,0:0:0:0:
36,192,99297,1,0,0:0:0:0:
109,192,99297,1,0,0:0:0:0:
182,192,99297,1,0,0:0:0:0:
475,192,99485,1,0,0:0:0:0:
36,192,99485,1,0,0:0:0:0:
109,192,99485,1,0,0:0:0:0:
182,192,99485,1,0,0:0:0:0:
402,192,99531,1,0,0:0:0:0:
329,192,99578,1,0,0:0:0:0:
256,192,99625,1,0,0:0:0:0:
182,192,99672,1,0,0:0:0:0:
475,192,99672,1,0,0:0:0:0:
329,192,99672,1,0,0:0:0:0:
36,192,99672,1,0,0:0:0:0:
402,192,99672,1,0,0:0:0:0:
36,192,99860,1,0,0:0:0:0:
475,192,99860,1,0,0:0:0:0:
402,192,99860,1,0,0:0:0:0:
329,192,99860,1,0,0:0:0:0:
109,192,99906,1,0,0:0:0:0:
182,192,99953,1,0,0:0:0:0:
256,192,100000,1,0,0:0:0:0:
329,192,100047,1,0,0:0:0:0:
475,192,100047,1,0,0:0:0:0:
109,192,100047,1,0,0:0:0:0:
182,192,100047,1,0,0:0:0:0:
36,192,100047,1,0,0:0:0:0:
36,192,100235,128,0,100422:0:0:0:0:
475,192,100235,128,0,100422:0:0:0:0:
109,192,100235,1,0,0:0:0:0:
402,192,100235,1,0,0:0:0:0:
182,192,100258,1,0,0:0:0:0:
329,192,100258,1,0,0:0:0:0:
256,192,100281,1,0,0:0:0:0:
256,192,100422,128,0,100516:0:0:0:0:
402,192,100422,128,0,100610:0:0:0:0:
182,192,100422,1,0,0:0:0:0:
329,192,100469,128,0,100516:0:0:0:0:
109,192,100469,1,0,0:0:0:0:
182,192,100516,128,0,100610:0:0:0:0:
109,192,100563,128,0,100610:0:0:0:0:
256,192,100610,128,0,100703:0:0:0:0:
475,192,100610,128,0,100797:0:0:0:0:
36,192,100610,128,0,100797:0:0:0:0:
329,192,100656,128,0,100703:0:0:0:0:
182,192,100703,128,0,100797:0:0:0:0:
109,192,100750,128,0,100797:0:0:0:0:
256,192,100797,128,0,100891:0:0:0:0:
329,192,100844,128,0,100891:0:0:0:0:
402,192,100985,128,0,101078:0:0:0:0:
182,192,100985,128,0,101172:0:0:0:0:
36,192,100985,1,0,0:0:0:0:
329,192,100985,1,0,0:0:0:0:
475,192,101031,128,0,101078:0:0:0:0:
256,192,101031,1,0,0:0:0:0:
329,192,101078,128,0,101172:0:0:0:0:
109,192,101078,128,0,101266:0:0:0:0:
256,192,101125,128,0,101172:0:0:0:0:
402,192,101172,128,0,101266:0:0:0:0:
36,192,101172,128,0,101360:0:0:0:0:
475,192,101219,128,0,101266:0:0:0:0:
329,192,101266,128,0,101360:0:0:0:0:
256,192,101313,128,0,101360:0:0:0:0:
109,192,101360,128,0,101453:0:0:0:0:
475,192,101360,128,0,101547:0:0:0:0:
182,192,101360,1,0,0:0:0:0:
36,192,101406,128,0,101453:0:0:0:0:
256,192,101406,1,0,0:0:0:0:
182,192,101453,128,0,101547:0:0:0:0:
402,192,101453,128,0,101641:0:0:0:0:
256,192,101500,128,0,101547:0:0:0:0:
109,192,101547,128,0,101641:0:0:0:0:
329,192,101547,128,0,101735:0:0:0:0:
36,192,101594,128,0,101641:0:0:0:0:
182,192,101641,128,0,101735:0:0:0:0:
256,192,101688,128,0,101735:0:0:0:0:
36,192,101735,128,0,101922:0:0:0:0:
475,192,101735,128,0,101781:0:0:0:0:
109,192,101735,1,0,0:0:0:0:
402,192,101781,128,0,101828:0:0:0:0:
329,192,101828,128,0,101875:0:0:0:0:
256,192,101875,128,0,101922:0:0:0:0:
182,192,101922,128,0,102016:0:0:0:0:
475,192,101922,1,0,0:0:0:0:
402,192,101969,1,0,0:0:0:0:
109,192,102016,128,0,102203:0:0:0:0:
256,192,102016,1,0,0:0:0:0:
475,192,102063,128,0,102110:0:0:0:0:
329,192,102063,1,0,0:0:0:0:
402,192,102110,128,0,102156:0:0:0:0:
36,192,102110,1,0,0:0:0:0:
182,192,102110,1,0,0:0:0:0:
329,192,102156,128,0,102203:0:0:0:0:
256,192,102203,128,0,102297:0:0:0:0:
182,192,102297,128,0,102485:0:0:0:0:
402,192,102297,128,0,102344:0:0:0:0:
36,192,102297,1,0,0:0:0:0:
109,192,102297,1,0,0:0:0:0:
329,192,102344,128,0,102391:0:0:0:0:
256,192,102391,128,0,102438:0:0:0:0:
475,192,102485,128,0,102672:0:0:0:0:
36,192,102485,128,0,102531:0:0:0:0:
402,192,102485,1,0,0:0:0:0:
109,192,102531,128,0,102578:0:0:0:0:
182,192,102578,128,0,102625:0:0:0:0:
256,192,102625,128,0,102672:0:0:0:0:
329,192,102672,128,0,102766:0:0:0:0:
36,192,102672,1,0,0:0:0:0:
109,192,102719,1,0,0:0:0:0:
402,192,102766,128,0,102953:0:0:0:0:
256,192,102766,1,0,0:0:0:0:
36,192,102813,128,0,102860:0:0:0:0:
182,192,102813,1,0,0:0:0:0:
329,192,102860,1,0,0:0:0:0:
475,192,102860,1,0,0:0:0:0:
109,192,102860,128,0,102906:0:0:0:0:
182,192,102906,128,0,102953:0:0:0:0:
256,192,102953,128,0,103047:0:0:0:0:
329,192,103047,128,0,103235:0:0:0:0:
402,192,103047,1,0,0:0:0:0:
475,192,103047,1,0,0:0:0:0:
109,192,103047,128,0,103094:0:0:0:0:
182,192,103094,128,0,103141:0:0:0:0:
256,192,103141,128,0,103188:0:0:0:0:
36,192,103235,1,0,0:0:0:0:
109,192,103235,128,0,103422:0:0:0:0:
475,192,103235,1,0,0:0:0:0:
182,192,103281,128,0,103328:0:0:0:0:
256,192,103328,128,0,103375:0:0:0:0:
329,192,103375,128,0,103422:0:0:0:0:
402,192,103422,128,0,103469:0:0:0:0:
36,192,103422,1,0,0:0:0:0:
475,192,103422,1,0,0:0:0:0:
329,192,103469,128,0,103516:0:0:0:0:
256,192,103516,128,0,103563:0:0:0:0:
182,192,103563,128,0,103610:0:0:0:0:
109,192,103610,128,0,103797:0:0:0:0:
36,192,103610,1,0,0:0:0:0:
475,192,103610,1,0,0:0:0:0:
329,192,103610,1,0,0:0:0:0:
402,192,103703,1,0,0:0:0:0:
182,192,103797,128,0,103985:0:0:0:0:
256,192,103797,1,0,0:0:0:0:
475,192,103797,1,0,0:0:0:0:
329,192,103891,1,0,0:0:0:0:
475,192,103985,1,0,0:0:0:0:
36,192,103985,1,0,0:0:0:0:
256,192,103985,1,0,0:0:0:0:
109,192,104078,1,0,0:0:0:0:
329,192,104172,128,0,104360:0:0:0:0:
182,192,104172,1,0,0:0:0:0:
402,192,104172,1,0,0:0:0:0:
109,192,104266,1,0,0:0:0:0:
256,192,104360,128,0,104547:0:0:0:0:
182,192,104360,1,0,0:0:0:0:
36,192,104360,1,0,0:0:0:0:
475,192,104360,1,0,0:0:0:0:
109,192,104453,1,0,0:0:0:0:
182,192,104547,128,0,104735:0:0:0:0:
402,192,104547,1,0,0:0:0:0:
329,192,104641,1,0,0:0:0:0:
402,192,104735,128,0,104922:0:0:0:0:
109,192,104735,128,0,104922:0:0:0:0:
256,192,104735,1,0,0:0:0:0:
36,192,104735,1,0,0:0:0:0:
475,192,104735,1,0,0:0:0:0:
36,192,104922,128,0,105110:0:0:0:0:
329,192,104922,1,0,0:0:0:0:
475,192,104922,1,0,0:0:0:0:
182,192,104922,128,0,105203:0:0:0:0:
256,192,105016,1,0,0:0:0:0:
475,192,105110,128,0,105203:0:0:0:0:
329,192,105110,128,0,105156:0:0:0:0:
109,192,105110,1,0,0:0:0:0:
402,192,105203,128,0,105297:0:0:0:0:
256,192,105203,128,0,105250:0:0:0:0:
36,192,105203,1,0,0:0:0:0:
329,192,105297,128,0,105391:0:0:0:0:
182,192,105297,128,0,105344:0:0:0:0:
36,192,105297,1,0,0:0:0:0:
256,192,105391,128,0,105485:0:0:0:0:
109,192,105391,128,0,105438:0:0:0:0:
402,192,105391,1,0,0:0:0:0:
182,192,105485,128,0,105860:0:0:0:0:
36,192,105485,1,0,0:0:0:0:
475,192,105485,1,0,0:0:0:0:
329,192,105485,1,0,0:0:0:0:
402,192,105578,1,0,0:0:0:0:
256,192,105672,128,0,105766:0:0:0:0:
475,192,105672,1,0,0:0:0:0:
36,192,105672,128,0,105719:0:0:0:0:
329,192,105766,128,0,105860:0:0:0:0:
109,192,105766,128,0,105813:0:0:0:0:
36,192,105860,1,0,0:0:0:0:
475,192,105860,1,0,0:0:0:0:
402,192,105860,1,0,0:0:0:0:
256,192,105860,1,0,0:0:0:0:
475,192,105953,128,0,106047:0:0:0:0:
182,192,105953,128,0,106000:0:0:0:0:
329,192,105953,1,0,0:0:0:0:
402,192,106047,128,0,106141:0:0:0:0:
109,192,106047,128,0,106094:0:0:0:0:
256,192,106047,1,0,0:0:0:0:
329,192,106141,128,0,106235:0:0:0:0:
182,192,106141,128,0,106188:0:0:0:0:
36,192,106141,1,0,0:0:0:0:
36,192,106235,128,0,106610:0:0:0:0:
256,192,106235,128,0,106422:0:0:0:0:
109,192,106235,1,0,0:0:0:0:
475,192,106235,1,0,0:0:0:0:
182,192,106328,1,0,0:0:0:0:
329,192,106422,128,0,106516:0:0:0:0:
402,192,106422,128,0,106469:0:0:0:0:
109,192,106422,1,0,0:0:0:0:
475,192,106422,1,0,0:0:0:0:
256,192,106516,128,0,106610:0:0:0:0:
182,192,106516,128,0,106563:0:0:0:0:
475,192,106610,1,0,0:0:0:0:
329,192,106610,1,0,0:0:0:0:
109,192,106703,128,0,106750:0:0:0:0:
182,192,106703,128,0,106797:0:0:0:0:
402,192,106703,1,0,0:0:0:0:
329,192,106797,128,0,106844:0:0:0:0:
256,192,106797,128,0,106891:0:0:0:0:
36,192,106797,1,0,0:0:0:0:
475,192,106797,1,0,0:0:0:0:
36,192,106891,128,0,106938:0:0:0:0:
109,192,106891,128,0,106985:0:0:0:0:
402,192,106891,1,0,0:0:0:0:
256,192,106985,128,0,107031:0:0:0:0:
182,192,106985,128,0,107078:0:0:0:0:
475,192,106985,128,0,107360:0:0:0:0:
329,192,106985,128,0,107172:0:0:0:0:
402,192,107078,1,0,0:0:0:0:
36,192,107172,128,0,107360:0:0:0:0:
182,192,107172,128,0,107266:0:0:0:0:
256,192,107172,128,0,107219:0:0:0:0:
109,192,107172,1,0,0:0:0:0:
329,192,107266,128,0,107313:0:0:0:0:
402,192,107266,128,0,107360:0:0:0:0:
109,192,107360,1,0,0:0:0:0:
182,192,107360,1,0,0:0:0:0:
256,192,107453,128,0,107547:0:0:0:0:
329,192,107453,128,0,107500:0:0:0:0:
475,192,107453,1,0,0:0:0:0:
402,192,107453,1,0,0:0:0:0:
182,192,107453,1,0,0:0:0:0:
182,192,107547,128,0,107641:0:0:0:0:
109,192,107547,128,0,107594:0:0:0:0:
36,192,107547,1,0,0:0:0:0:
475,192,107641,128,0,107688:0:0:0:0:
402,192,107641,128,0,107735:0:0:0:0:
256,192,107641,1,0,0:0:0:0:
329,192,107735,128,0,107828:0:0:0:0:
256,192,107735,128,0,107781:0:0:0:0:
36,192,107735,128,0,108110:0:0:0:0:
109,192,107735,1,0,0:0:0:0:
402,192,107828,1,0,0:0:0:0:
182,192,107922,128,0,107969:0:0:0:0:
256,192,107922,128,0,108016:0:0:0:0:
475,192,107922,1,0,0:0:0:0:
329,192,108016,128,0,108110:0:0:0:0:
402,192,108016,128,0,108063:0:0:0:0:
109,192,108016,1,0,0:0:0:0:
256,192,108110,1,0,0:0:0:0:
475,192,108110,1,0,0:0:0:0:
109,192,108203,128,0,108250:0:0:0:0:
182,192,108203,128,0,108297:0:0:0:0:
402,192,108203,1,0,0:0:0:0:
256,192,108297,128,0,108391:0:0:0:0:
329,192,108297,128,0,108344:0:0:0:0:
475,192,108297,1,0,0:0:0:0:
36,192,108297,1,0,0:0:0:0:
109,192,108391,1,0,0:0:0:0:
402,192,108391,1,0,0:0:0:0:
36,192,108485,128,0,108672:0:0:0:0:
109,192,108485,128,0,108625:0:0:0:0:
182,192,108485,128,0,108578:0:0:0:0:
256,192,108485,128,0,108531:0:0:0:0:
329,192,108485,1,0,0:0:0:0:
475,192,108485,1,0,0:0:0:0:
402,192,108485,128,0,108860:0:0:0:0:
329,192,108578,128,0,108860:0:0:0:0:
256,192,108625,128,0,108813:0:0:0:0:
475,192,108672,1,0,0:0:0:0:
182,192,108672,128,0,108860:0:0:0:0:
109,192,108719,128,0,108860:0:0:0:0:
36,192,108766,128,0,108860:0:0:0:0:
475,192,108860,1,0,0:0:0:0:
256,192,108860,1,0,0:0:0:0:
256,192,108953,1,0,0:0:0:0:
256,192,109047,1,0,0:0:0:0:
256,192,109141,1,0,0:0:0:0:
36,192,109235,128,0,109281:0:0:0:0:
475,192,109235,128,0,109375:0:0:0:0:
402,192,109235,128,0,109328:0:0:0:0:
329,192,109235,128,0,109281:0:0:0:0:
182,192,109235,1,0,0:0:0:0:
109,192,109281,128,0,109328:0:0:0:0:
182,192,109328,128,0,109375:0:0:0:0:
256,192,109375,128,0,109422:0:0:0:0:
329,192,109422,128,0,109469:0:0:0:0:
109,192,109422,128,0,109469:0:0:0:0:
402,192,109469,128,0,109516:0:0:0:0:
182,192,109469,128,0,109516:0:0:0:0:
475,192,109516,128,0,109563:0:0:0:0:
256,192,109516,128,0,109563:0:0:0:0:
36,192,109516,1,0,0:0:0:0:
329,192,109563,128,0,109610:0:0:0:0:
109,192,109563,1,0,0:0:0:0:
256,192,109610,128,0,109656:0:0:0:0:
182,192,109656,128,0,109703:0:0:0:0:
475,192,109656,128,0,109703:0:0:0:0:
109,192,109703,128,0,109750:0:0:0:0:
402,192,109703,128,0,109750:0:0:0:0:
36,192,109750,128,0,109797:0:0:0:0:
329,192,109750,128,0,109797:0:0:0:0:
256,192,109797,128,0,109844:0:0:0:0:
182,192,109844,128,0,109891:0:0:0:0:
475,192,109844,128,0,109891:0:0:0:0:
109,192,109891,128,0,109938:0:0:0:0:
402,192,109891,128,0,109938:0:0:0:0:
36,192,109938,128,0,109985:0:0:0:0:
329,192,109938,128,0,109985:0:0:0:0:
256,192,109985,128,0,110031:0:0:0:0:
329,192,110031,128,0,110078:0:0:0:0:
402,192,110078,128,0,110125:0:0:0:0:
182,192,110078,1,0,0:0:0:0:
475,192,110125,128,0,110172:0:0:0:0:
109,192,110125,1,0,0:0:0:0:
256,192,110172,128,0,110219:0:0:0:0:
36,192,110172,1,0,0:0:0:0:
182,192,110219,128,0,110266:0:0:0:0:
109,192,110266,128,0,110313:0:0:0:0:
329,192,110266,1,0,0:0:0:0:
36,192,110313,128,0,110360:0:0:0:0:
402,192,110313,1,0,0:0:0:0:
256,192,110360,128,0,110406:0:0:0:0:
475,192,110360,1,0,0:0:0:0:
329,192,110406,128,0,110453:0:0:0:0:
402,192,110453,128,0,110500:0:0:0:0:
182,192,110453,1,0,0:0:0:0:
475,192,110500,128,0,110547:0:0:0:0:
109,192,110500,1,0,0:0:0:0:
36,192,110547,1,0,0:0:0:0:
256,192,110547,1,0,0:0:0:0:
109,192,110594,1,0,0:0:0:0:
329,192,110594,1,0,0:0:0:0:
182,192,110641,1,0,0:0:0:0:
402,192,110641,1,0,0:0:0:0:
256,192,110688,1,0,0:0:0:0:
475,192,110688,1,0,0:0:0:0:
36,192,110735,128,0,110781:0:0:0:0:
109,192,110735,128,0,110781:0:0:0:0:
329,192,110735,128,0,110922:0:0:0:0:
182,192,110828,128,0,110875:0:0:0:0:
256,192,110828,128,0,110875:0:0:0:0:
402,192,110828,128,0,111016:0:0:0:0:
109,192,110922,128,0,110969:0:0:0:0:
36,192,110922,128,0,110969:0:0:0:0:
475,192,110922,128,0,111110:0:0:0:0:
182,192,111016,128,0,111063:0:0:0:0:
256,192,111016,128,0,111063:0:0:0:0:
329,192,111110,128,0,111156:0:0:0:0:
402,192,111110,128,0,111156:0:0:0:0:
109,192,111110,128,0,111297:0:0:0:0:
36,192,111110,128,0,111203:0:0:0:0:
256,192,111203,128,0,111250:0:0:0:0:
475,192,111203,128,0,111391:0:0:0:0:
402,192,111297,128,0,111344:0:0:0:0:
182,192,111297,128,0,111344:0:0:0:0:
329,192,111297,128,0,111485:0:0:0:0:
256,192,111391,128,0,111438:0:0:0:0:
109,192,111391,128,0,111438:0:0:0:0:
36,192,111391,128,0,111578:0:0:0:0:
402,192,111485,128,0,111531:0:0:0:0:
475,192,111485,128,0,111672:0:0:0:0:
182,192,111485,128,0,111672:0:0:0:0:
256,192,111578,128,0,111625:0:0:0:0:
329,192,111578,128,0,111766:0:0:0:0:
36,192,111672,128,0,111719:0:0:0:0:
402,192,111672,128,0,111719:0:0:0:0:
109,192,111672,128,0,111860:0:0:0:0:
182,192,111766,128,0,111813:0:0:0:0:
475,192,111766,128,0,111813:0:0:0:0:
256,192,111766,128,0,111953:0:0:0:0:
36,192,111860,128,0,111906:0:0:0:0:
329,192,111860,128,0,111906:0:0:0:0:
402,192,111906,128,0,111953:0:0:0:0:
109,192,111953,128,0,112141:0:0:0:0:
475,192,111953,128,0,112000:0:0:0:0:
182,192,111953,128,0,112000:0:0:0:0:
402,192,112000,128,0,112047:0:0:0:0:
36,192,112047,128,0,112094:0:0:0:0:
329,192,112047,128,0,112094:0:0:0:0:
256,192,112094,128,0,112141:0:0:0:0:
182,192,112141,128,0,112188:0:0:0:0:
475,192,112235,128,0,112422:0:0:0:0:
36,192,112235,128,0,112422:0:0:0:0:
402,192,112235,1,0,0:0:0:0:
109,192,112235,1,0,0:0:0:0:
329,192,112258,1,0,0:0:0:0:
182,192,112258,1,0,0:0:0:0:
256,192,112281,1,0,0:0:0:0:
256,192,112422,128,0,112516:0:0:0:0:
109,192,112422,128,0,112610:0:0:0:0:
329,192,112422,1,0,0:0:0:0:
182,192,112469,128,0,112516:0:0:0:0:
402,192,112469,1,0,0:0:0:0:
329,192,112516,128,0,112610:0:0:0:0:
402,192,112563,128,0,112610:0:0:0:0:
256,192,112610,128,0,112703:0:0:0:0:
36,192,112610,128,0,112797:0:0:0:0:
475,192,112610,128,0,112797:0:0:0:0:
182,192,112656,128,0,112703:0:0:0:0:
329,192,112703,128,0,112797:0:0:0:0:
402,192,112750,128,0,112797:0:0:0:0:
256,192,112797,128,0,112891:0:0:0:0:
182,192,112844,128,0,112891:0:0:0:0:
109,192,112985,128,0,113078:0:0:0:0:
329,192,112985,128,0,113172:0:0:0:0:
475,192,112985,1,0,0:0:0:0:
182,192,112985,1,0,0:0:0:0:
36,192,113031,128,0,113078:0:0:0:0:
256,192,113031,1,0,0:0:0:0:
182,192,113078,128,0,113172:0:0:0:0:
402,192,113078,128,0,113266:0:0:0:0:
256,192,113125,128,0,113172:0:0:0:0:
109,192,113172,128,0,113266:0:0:0:0:
475,192,113172,128,0,113360:0:0:0:0:
36,192,113219,128,0,113266:0:0:0:0:
182,192,113266,128,0,113360:0:0:0:0:
256,192,113313,128,0,113360:0:0:0:0:
402,192,113360,128,0,113453:0:0:0:0:
36,192,113360,128,0,113547:0:0:0:0:
329,192,113360,1,0,0:0:0:0:
475,192,113406,128,0,113453:0:0:0:0:
256,192,113406,1,0,0:0:0:0:
329,192,113453,128,0,113547:0:0:0:0:
109,192,113453,128,0,113641:0:0:0:0:
256,192,113500,128,0,113547:0:0:0:0:
402,192,113547,128,0,113641:0:0:0:0:
182,192,113547,128,0,113735:0:0:0:0:
475,192,113594,128,0,113641:0:0:0:0:
329,192,113641,128,0,113735:0:0:0:0:
256,192,113688,128,0,113735:0:0:0:0:
475,192,113735,128,0,113922:0:0:0:0:
36,192,113735,128,0,113781:0:0:0:0:
109,192,113781,128,0,113828:0:0:0:0:
182,192,113828,128,0,113875:0:0:0:0:
256,192,113875,128,0,113922:0:0:0:0:
329,192,113922,128,0,114016:0:0:0:0:
36,192,113922,1,0,0:0:0:0:
109,192,113969,1,0,0:0:0:0:
402,192,114016,128,0,114203:0:0:0:0:
256,192,114016,1,0,0:0:0:0:
36,192,114063,128,0,114110:0:0:0:0:
182,192,114063,1,0,0:0:0:0:
109,192,114110,128,0,114156:0:0:0:0:
475,192,114110,1,0,0:0:0:0:
329,192,114110,1,0,0:0:0:0:
182,192,114156,128,0,114203:0:0:0:0:
256,192,114203,128,0,114297:0:0:0:0:
329,192,114297,128,0,114485:0:0:0:0:
109,192,114297,128,0,114344:0:0:0:0:
475,192,114297,1,0,0:0:0:0:
402,192,114297,1,0,0:0:0:0:
182,192,114344,128,0,114391:0:0:0:0:
256,192,114391,128,0,114438:0:0:0:0:
36,192,114485,128,0,114672:0:0:0:0:
475,192,114485,128,0,114531:0:0:0:0:
109,192,114485,1,0,0:0:0:0:
402,192,114531,128,0,114578:0:0:0:0:
329,192,114578,128,0,114625:0:0:0:0:
256,192,114625,128,0,114672:0:0:0:0:
182,192,114672,128,0,114766:0:0:0:0:
475,192,114672,1,0,0:0:0:0:
402,192,114719,1,0,0:0:0:0:
109,192,114766,128,0,114953:0:0:0:0:
256,192,114766,1,0,0:0:0:0:
475,192,114813,128,0,114860:0:0:0:0:
329,192,114813,1,0,0:0:0:0:
182,192,114860,1,0,0:0:0:0:
36,192,114860,1,0,0:0:0:0:
402,192,114860,128,0,114906:0:0:0:0:
329,192,114906,128,0,114953:0:0:0:0:
256,192,114953,128,0,115047:0:0:0:0:
182,192,115047,128,0,115235:0:0:0:0:
109,192,115047,1,0,0:0:0:0:
36,192,115047,1,0,0:0:0:0:
402,192,115047,128,0,115094:0:0:0:0:
329,192,115094,128,0,115141:0:0:0:0:
256,192,115141,128,0,115188:0:0:0:0:
36,192,115235,1,0,0:0:0:0:
475,192,115235,1,0,0:0:0:0:
329,192,115235,1,0,0:0:0:0:
109,192,115266,1,0,0:0:0:0:
182,192,115297,1,0,0:0:0:0:
256,192,115328,1,0,0:0:0:0:
329,192,115360,1,0,0:0:0:0:
256,192,115391,1,0,0:0:0:0:
182,192,115422,1,0,0:0:0:0:
475,192,115422,1,0,0:0:0:0:
109,192,115453,1,0,0:0:0:0:
402,192,115453,1,0,0:0:0:0:
329,192,115485,1,0,0:0:0:0:
36,192,115485,1,0,0:0:0:0:
256,192,115516,1,0,0:0:0:0:
182,192,115547,1,0,0:0:0:0:
256,192,115578,1,0,0:0:0:0:
329,192,115610,1,0,0:0:0:0:
36,192,115610,1,0,0:0:0:0:
402,192,115641,1,0,0:0:0:0:
109,192,115641,1,0,0:0:0:0:
475,192,115672,1,0,0:0:0:0:
182,192,115672,1,0,0:0:0:0:
256,192,115703,1,0,0:0:0:0:
329,192,115735,1,0,0:0:0:0:
36,192,115735,1,0,0:0:0:0:
402,192,115766,1,0,0:0:0:0:
109,192,115766,1,0,0:0:0:0:
475,192,115797,1,0,0:0:0:0:
182,192,115797,1,0,0:0:0:0:
256,192,115828,1,0,0:0:0:0:
329,192,115860,1,0,0:0:0:0:
256,192,115891,1,0,0:0:0:0:
182,192,115922,1,0,0:0:0:0:
109,192,115953,1,0,0:0:0:0:
36,192,115985,1,0,0:0:0:0:
475,192,115985,128,0,116031:0:0:0:0:
329,192,116031,128,0,116078:0:0:0:0:
402,192,116078,128,0,116125:0:0:0:0:
256,192,116125,128,0,116172:0:0:0:0:
329,192,116172,128,0,116219:0:0:0:0:
182,192,116219,128,0,116266:0:0:0:0:
256,192,116266,128,0,116453:0:0:0:0:
36,192,116266,1,0,0:0:0:0:
475,192,116266,1,0,0:0:0:0:
402,192,116266,1,0,0:0:0:0:
182,192,116453,1,0,0:0:0:0:
475,192,116453,1,0,0:0:0:0:
402,192,116453,128,0,116547:0:0:0:0:
109,192,116453,128,0,116547:0:0:0:0:
256,192,116547,128,0,116735:0:0:0:0:
36,192,116547,1,0,0:0:0:0:
329,192,116547,1,0,0:0:0:0:
36,192,116735,128,0,116875:0:0:0:0:
109,192,116735,128,0,116828:0:0:0:0:
182,192,116735,128,0,116781:0:0:0:0:
329,192,116735,128,0,116875:0:0:0:0:
402,192,116735,128,0,116828:0:0:0:0:
475,192,116735,128,0,116781:0:0:0:0:
475,192,116875,128,0,116969:0:0:0:0:
182,192,116875,128,0,116969:0:0:0:0:
402,192,116922,128,0,116969:0:0:0:0:
109,192,116922,128,0,116969:0:0:0:0:
329,192,116969,1,0,0:0:0:0:
36,192,116969,1,0,0:0:0:0:
109,192,117016,1,0,0:0:0:0:
182,192,117016,1,0,0:0:0:0:
475,192,117016,1,0,0:0:0:0:
402,192,117016,1,0,0:0:0:0:
182,192,117110,1,0,0:0:0:0:
256,192,117110,1,0,0:0:0:0:
475,192,117110,1,0,0:0:0:0:
36,192,117110,1,0,0:0:0:0:
402,192,117297,128,0,117344:0:0:0:0:
475,192,117297,128,0,117391:0:0:0:0:
36,192,117297,128,0,117391:0:0:0:0:
109,192,117297,128,0,117344:0:0:0:0:
256,192,117297,128,0,117344:0:0:0:0:
182,192,117391,128,0,117485:0:0:0:0:
329,192,117391,128,0,117485:0:0:0:0:
256,192,117391,128,0,117438:0:0:0:0:
475,192,117485,128,0,117531:0:0:0:0:
36,192,117485,128,0,117531:0:0:0:0:
256,192,117531,128,0,117578:0:0:0:0:
109,192,117578,128,0,117625:0:0:0:0:
402,192,117578,128,0,117625:0:0:0:0:
329,192,117625,128,0,117672:0:0:0:0:
182,192,117625,128,0,117672:0:0:0:0:
109,192,117672,128,0,117719:0:0:0:0:
402,192,117672,128,0,117719:0:0:0:0:
256,192,117719,128,0,117953:0:0:0:0:
475,192,117766,128,0,117953:0:0:0:0:
36,192,117766,128,0,117953:0:0:0:0:
329,192,117766,1,0,0:0:0:0:
182,192,117766,1,0,0:0:0:0:
329,192,117953,128,0,118047:0:0:0:0:
182,192,117953,128,0,118047:0:0:0:0:
256,192,118047,128,0,118235:0:0:0:0:
109,192,118047,128,0,118235:0:0:0:0:
402,192,118047,128,0,118235:0:0:0:0:
329,192,118235,128,0,118328:0:0:0:0:
182,192,118235,1,0,0:0:0:0:
36,192,118235,1,0,0:0:0:0:
475,192,118235,1,0,0:0:0:0:
475,192,118328,128,0,118422:0:0:0:0:
256,192,118328,128,0,118422:0:0:0:0:
109,192,118328,1,0,0:0:0:0:
36,192,118328,1,0,0:0:0:0:
402,192,118422,128,0,118516:0:0:0:0:
182,192,118422,128,0,118516:0:0:0:0:
36,192,118422,1,0,0:0:0:0:
329,192,118516,128,0,118610:0:0:0:0:
109,192,118516,128,0,118610:0:0:0:0:
256,192,118610,128,0,118703:0:0:0:0:
36,192,118610,128,0,118703:0:0:0:0:
475,192,118610,1,0,0:0:0:0:
182,192,118703,128,0,118797:0:0:0:0:
402,192,118703,1,0,0:0:0:0:
475,192,118703,1,0,0:0:0:0:
109,192,118797,128,0,118891:0:0:0:0:
329,192,118797,1,0,0:0:0:0:
475,192,118797,1,0,0:0:0:0:
182,192,118891,128,0,118985:0:0:0:0:
329,192,118891,1,0,0:0:0:0:
36,192,118985,128,0,119078:0:0:0:0:
256,192,118985,128,0,119078:0:0:0:0:
475,192,118985,1,0,0:0:0:0:
402,192,118985,1,0,0:0:0:0:
109,192,119078,128,0,119172:0:0:0:0:
329,192,119078,128,0,119172:0:0:0:0:
475,192,119078,1,0,0:0:0:0:
182,192,119172,128,0,119266:0:0:0:0:
402,192,119172,128,0,119266:0:0:0:0:
256,192,119266,128,0,119360:0:0:0:0:
475,192,119266,128,0,119360:0:0:0:0:
36,192,119266,1,0,0:0:0:0:
329,192,119360,128,0,119453:0:0:0:0:
109,192,119360,1,0,0:0:0:0:
36,192,119360,1,0,0:0:0:0:
182,192,119453,1,0,0:0:0:0:
402,192,119453,128,0,119547:0:0:0:0:
36,192,119453,1,0,0:0:0:0:
182,192,119547,1,0,0:0:0:0:
329,192,119547,128,0,119641:0:0:0:0:
475,192,119641,128,0,119735:0:0:0:0:
256,192,119641,128,0,119735:0:0:0:0:
109,192,119641,1,0,0:0:0:0:
36,192,119641,1,0,0:0:0:0:
329,192,119735,128,0,119922:0:0:0:0:
36,192,119735,1,0,0:0:0:0:
182,192,119735,1,0,0:0:0:0:
475,192,119922,128,0,120110:0:0:0:0:
256,192,120110,128,0,120297:0:0:0:0:
402,192,120297,128,0,120485:0:0:0:0:
182,192,120485,128,0,120672:0:0:0:0:
329,192,120672,128,0,120860:0:0:0:0:
109,192,120860,128,0,121047:0:0:0:0:
256,192,121047,128,0,121235:0:0:0:0:
36,192,121235,128,0,124449:0:0:0:0:
402,192,121770,1,0,0:0:0:0:
329,192,121770,1,0,0:0:0:0:
329,192,122038,1,0,0:0:0:0:
256,192,122038,1,0,0:0:0:0:
402,192,122574,1,0,0:0:0:0:
329,192,122842,1,0,0:0:0:0:
256,192,123110,1,0,0:0:0:0:
182,192,123377,1,0,0:0:0:0:
256,192,123645,1,0,0:0:0:0:
329,192,123913,1,0,0:0:0:0:
402,192,124181,1,0,0:0:0:0:
329,192,124181,1,0,0:0:0:0:
329,192,124449,1,0,0:0:0:0:
256,192,124449,1,0,0:0:0:0:
256,192,124999,1,0,0:0:0:0:
182,192,124999,1,0,0:0:0:0:
182,192,125274,1,0,0:0:0:0:
109,192,125274,1,0,0:0:0:0:
256,192,125825,1,0,0:0:0:0:
329,192,126100,1,0,0:0:0:0:
256,192,126375,1,0,0:0:0:0:
182,192,126650,1,0,0:0:0:0:
109,192,126926,1,0,0:0:0:0:
182,192,127201,1,0,0:0:0:0:
256,192,127476,1,0,0:0:0:0:
329,192,127751,1,0,0:0:0:0:
329,192,128317,1,0,0:0:0:0:
256,192,128458,1,0,0:0:0:0:
329,192,128600,1,0,0:0:0:0:
182,192,129166,1,0,0:0:0:0:
256,192,129307,1,0,0:0:0:0:
182,192,129449,1,0,0:0:0:0:
329,192,129922,1,0,0:0:0:0:
182,192,130080,1,0,0:0:0:0:
256,192,130238,1,0,0:0:0:0:
329,192,130396,1,0,0:0:0:0:
256,192,130712,1,0,0:0:0:0:
182,192,131027,1,0,0:0:0:0:
475,192,131343,1,0,0:0:0:0:
402,192,131383,1,0,0:0:0:0:
329,192,131422,1,0,0:0:0:0:
256,192,131462,1,0,0:0:0:0:
182,192,131501,1,0,0:0:0:0:
256,192,133554,128,0,135764:0:0:0:0:
