osu file format v14

[General]
AudioFilename: audio.mp3
AudioLeadIn: 0
PreviewTime: 11035
Countdown: 0
SampleSet: Soft
StackLeniency: 0.7
Mode: 3
LetterboxInBreaks: 0
SpecialStyle: 0
WidescreenStoryboard: 0

[Editor]
DistanceSpacing: 0.8
BeatDivisor: 4
GridSize: 4
TimelineZoom: 1.9

[Metadata]
Title:Keigan no Zettaireido
TitleUnicode:炯眼の絶対零度
Artist:polysha
ArtistUnicode:polysha
Creator:Critical_Star
Version:Giga Lv.15
Source:Dynamix
Tags:Absolutely Freezing Gold Track Hardcore C4Cat Kuo Kyoka
BeatmapID:1433258
BeatmapSetID:677755

[Difficulty]
HPDrainRate:8.5
CircleSize:4
OverallDifficulty:8.5
ApproachRate:5
SliderMultiplier:1.4
SliderTickRate:1

[Events]
//Background and Video events
0,0,"BG.png",0,0
//Break Periods
//Storyboard Layer 0 (Background)
//Storyboard Layer 1 (Fail)
//Storyboard Layer 2 (Pass)
//Storyboard Layer 3 (Foreground)
//Storyboard Sound Samples
Sample,47206,0,"hihat.wav",30
Sample,47549,0,"hihat.wav",30
Sample,62806,0,"boom.wav",60
Sample,74292,0,"hihat.wav",30
Sample,74635,0,"hihat.wav",30
Sample,77035,0,"hihat.wav",30
Sample,77377,0,"hihat.wav",30
Sample,82735,0,"drum.wav",45
Sample,82777,0,"drum.wav",45
Sample,82820,0,"drum.wav",45
Sample,94692,0,"drum.wav",45
Sample,95420,0,"drum.wav",45
Sample,95463,0,"drum.wav",45
Sample,95506,0,"drum.wav",45
Sample,95677,0,"drum.wav",45
Sample,95720,0,"drum.wav",45
Sample,95763,0,"drum.wav",45
Sample,95935,0,"drum.wav",45
Sample,95977,0,"drum.wav",45
Sample,96020,0,"drum.wav",45
Sample,102320,0,"crash.wav",60
Sample,102320,0,"bass.wav",60
Sample,106435,0,"bass.wav",60

[TimingPoints]
1435,342.857142857143,4,2,1,60,1,0
63149,-100,4,2,1,60,0,1
73435,-100,4,2,1,60,0,0
74120,-100,4,2,1,60,0,1
85092,-100,4,2,1,60,0,0
96063,-100,4,2,1,60,0,1
107035,-100,4,2,1,60,0,0

[HitObjects]
64,192,1435,5,0,0:0:0:60:crash.wav
192,192,1435,1,0,0:0:0:60:bass.wav
320,192,1435,1,0,0:0:0:60:boom.wav
448,192,1435,1,0,0:0:0:0:
320,192,2806,1,0,0:0:0:0:
448,192,2806,128,0,3749:0:0:0:0:
64,192,3320,128,0,3749:0:0:0:0:
64,192,3835,1,0,0:0:0:60:clap.wav
448,192,3835,1,0,0:0:0:0:
192,192,3835,1,0,0:0:0:0:
64,192,4177,1,0,0:0:0:60:bass.wav
192,192,4177,1,0,0:0:0:60:crash.wav
448,192,4177,1,0,0:0:0:0:
320,192,4177,1,0,0:0:0:0:
320,192,4349,1,0,0:0:0:0:
320,192,4692,1,0,0:0:0:0:
192,192,4863,1,0,0:0:0:0:
64,192,4949,1,0,0:0:0:0:
320,192,5035,1,0,0:0:0:0:
192,192,5120,1,0,0:0:0:0:
448,192,5206,1,0,0:0:0:0:
320,192,5292,1,0,0:0:0:0:
192,192,5377,1,0,0:0:0:60:bass.wav
64,192,5377,1,0,0:0:0:60:crash.wav
448,192,5377,1,0,0:0:0:0:
320,192,5720,1,0,0:0:0:0:
320,192,5892,1,0,0:0:0:60:bass.wav
64,192,5892,1,0,0:0:0:60:crash.wav
448,192,5892,1,0,0:0:0:0:
192,192,6063,1,0,0:0:0:0:
448,192,6235,128,0,6320:0:0:0:0:
64,192,6235,1,0,0:0:0:0:
320,192,6406,128,0,6492:0:0:0:60:bass.wav
192,192,6406,1,0,0:0:0:60:crash.wav
448,192,6406,1,0,0:0:0:0:
64,192,6577,128,0,6663:0:0:0:0:
320,192,6577,1,0,0:0:0:0:
192,192,6749,128,0,6835:0:0:0:0:
448,192,6749,1,0,0:0:0:0:
192,192,6920,1,0,0:0:0:60:bass.wav
64,192,6920,1,0,0:0:0:60:crash.wav
448,192,6920,1,0,0:0:0:0:
320,192,7092,1,0,0:0:0:0:
320,192,7435,1,0,0:0:0:0:
448,192,7606,128,0,7692:0:0:0:0:
192,192,7606,1,0,0:0:0:0:
320,192,7777,128,0,7863:0:0:0:0:
64,192,7777,1,0,0:0:0:0:
192,192,7949,128,0,8035:0:0:0:0:
448,192,7949,1,0,0:0:0:0:
64,192,8120,128,0,8206:0:0:0:60:bass.wav
192,192,8120,1,0,0:0:0:60:crash.wav
448,192,8120,1,0,0:0:0:0:
64,192,8635,128,0,8892:0:0:0:70:crash.wav
192,192,8635,128,0,8892:0:0:0:70:bass.wav
448,192,8635,128,0,8892:0:0:0:0:
64,192,8977,1,0,0:0:0:60:bass.wav
448,192,8977,1,0,0:0:0:60:crash.wav
320,192,8977,1,0,0:0:0:0:
320,192,9235,1,0,0:0:0:60:bass.wav
192,192,9235,1,0,0:0:0:60:crash.wav
64,192,9235,1,0,0:0:0:0:
64,192,9492,1,0,0:0:0:60:bass.wav
448,192,9492,1,0,0:0:0:60:crash.wav
320,192,9492,1,0,0:0:0:0:
192,192,9663,128,0,9749:0:0:0:0:
64,192,9749,128,0,9835:0:0:0:0:
320,192,9835,128,0,9920:0:0:0:0:
192,192,9920,128,0,10006:0:0:0:0:
448,192,10006,128,0,10092:0:0:0:0:
320,192,10092,128,0,10177:0:0:0:0:
64,192,10177,128,0,10263:0:0:0:0:
192,192,10263,128,0,10349:0:0:0:0:
448,192,10349,128,0,10435:0:0:0:0:
320,192,10435,128,0,10520:0:0:0:0:
448,192,10520,1,0,0:0:0:60:bass.wav
64,192,10520,128,0,10606:0:0:0:0:
320,192,10606,1,0,0:0:0:60:bass.wav
192,192,10606,128,0,10692:0:0:0:0:
448,192,10692,1,0,0:0:0:60:clap.wav
64,192,10692,1,0,0:0:0:0:
192,192,11035,1,0,0:0:0:60:bass.wav
64,192,11035,1,0,0:0:0:60:crash.wav
320,192,11035,1,0,0:0:0:0:
448,192,11035,1,0,0:0:0:0:
192,192,11206,1,0,0:0:0:0:
320,192,11377,1,0,0:0:0:0:
448,192,11549,128,0,12235:0:0:0:0:
320,192,12235,1,0,0:0:0:0:
192,192,12320,1,0,0:0:0:0:
64,192,12406,1,0,0:0:0:0:
448,192,12406,1,0,0:0:0:0:
320,192,12749,1,0,0:0:0:0:
448,192,12749,1,0,0:0:0:0:
320,192,13092,1,0,0:0:0:0:
192,192,13092,1,0,0:0:0:0:
192,192,13435,1,0,0:0:0:0:
64,192,13435,1,0,0:0:0:0:
448,192,13777,1,0,0:0:0:0:
192,192,13777,1,0,0:0:0:0:
320,192,13777,128,0,15149:0:0:0:0:
64,192,14292,128,0,15492:0:0:0:0:
448,192,14806,128,0,15320:0:0:0:0:
192,192,15149,1,0,0:0:0:0:
320,192,15320,1,0,0:0:0:0:
448,192,15492,1,0,0:0:0:0:
192,192,15492,128,0,15835:0:0:0:0:
448,192,15835,1,0,0:0:0:0:
192,192,16006,1,0,0:0:0:0:
448,192,16177,1,0,0:0:0:0:
320,192,16349,1,0,0:0:0:0:
192,192,16520,1,0,0:0:0:0:
448,192,16520,1,0,0:0:0:0:
64,192,16520,128,0,17720:0:0:0:0:
448,192,17035,128,0,17806:0:0:0:0:
192,192,17720,1,0,0:0:0:0:
320,192,17806,1,0,0:0:0:0:
448,192,17892,1,0,0:0:0:0:
64,192,17892,128,0,17977:0:0:0:0:
192,192,18063,128,0,18149:0:0:0:0:
320,192,18235,128,0,18320:0:0:0:0:
448,192,18406,128,0,18492:0:0:0:0:
64,192,18577,128,0,18663:0:0:0:0:
320,192,18749,128,0,18835:0:0:0:0:
192,192,18920,128,0,19006:0:0:0:0:
448,192,19092,128,0,19177:0:0:0:0:
320,192,19263,1,0,0:0:0:0:
64,192,19263,1,0,0:0:0:0:
192,192,19349,1,0,0:0:0:0:
64,192,19435,1,0,0:0:0:0:
448,192,19435,1,0,0:0:0:0:
320,192,19520,1,0,0:0:0:0:
64,192,19606,1,0,0:0:0:0:
192,192,19606,1,0,0:0:0:0:
320,192,19692,1,0,0:0:0:0:
64,192,19777,1,0,0:0:0:0:
448,192,19777,1,0,0:0:0:0:
192,192,19863,1,0,0:0:0:0:
320,192,19863,1,0,0:0:0:0:
64,192,19949,1,0,0:0:0:60:snare.wav
448,192,19949,1,0,0:0:0:0:
320,192,20035,1,0,0:0:0:60:snare.wav
192,192,20120,1,0,0:0:0:60:snare.wav
448,192,20120,1,0,0:0:0:0:
64,192,20206,1,0,0:0:0:60:snare.wav
192,192,20292,1,0,0:0:0:60:snare.wav
320,192,20292,1,0,0:0:0:0:
448,192,20377,1,0,0:0:0:60:snare.wav
64,192,20463,1,0,0:0:0:60:snare.wav
192,192,20463,1,0,0:0:0:0:
320,192,20549,1,0,0:0:0:60:snare.wav
448,192,20635,1,0,0:0:0:60:bass.wav
192,192,20635,1,0,0:0:0:0:
64,192,20635,1,0,0:0:0:0:
320,192,20892,1,0,0:0:0:60:bass.wav
448,192,20892,1,0,0:0:0:0:
192,192,20892,1,0,0:0:0:0:
320,192,21149,1,0,0:0:0:60:bass.wav
192,192,21149,1,0,0:0:0:0:
64,192,21149,1,0,0:0:0:0:
448,192,21663,1,0,0:0:0:0:
320,192,21706,1,0,0:0:0:0:
192,192,21749,1,0,0:0:0:0:
64,192,21792,1,0,0:0:0:0:
448,192,21835,1,0,0:0:0:0:
320,192,21877,1,0,0:0:0:0:
192,192,21920,1,0,0:0:0:0:
64,192,21963,1,0,0:0:0:0:
448,192,22006,1,0,0:0:0:60:bass.wav
320,192,22006,1,0,0:0:0:60:crash.wav
448,192,22177,1,0,0:0:0:30:hihat.wav
192,192,22177,1,0,0:0:0:0:
64,192,22349,1,0,0:0:0:60:bass.wav
320,192,22349,1,0,0:0:0:0:
448,192,22349,1,0,0:0:0:0:
64,192,22520,1,0,0:0:0:30:hihat.wav
320,192,22520,1,0,0:0:0:0:
192,192,22692,1,0,0:0:0:60:bass.wav
64,192,22692,1,0,0:0:0:0:
448,192,22692,1,0,0:0:0:0:
320,192,22863,1,0,0:0:0:30:hihat.wav
448,192,22863,1,0,0:0:0:0:
192,192,22949,1,0,0:0:0:0:
64,192,23035,1,0,0:0:0:60:bass.wav
320,192,23035,1,0,0:0:0:0:
448,192,23120,1,0,0:0:0:0:
192,192,23206,1,0,0:0:0:30:hihat.wav
64,192,23206,1,0,0:0:0:0:
320,192,23377,1,0,0:0:0:60:bass.wav
448,192,23377,1,0,0:0:0:0:
192,192,23377,1,0,0:0:0:0:
64,192,23549,1,0,0:0:0:30:hihat.wav
320,192,23549,1,0,0:0:0:0:
192,192,23720,1,0,0:0:0:60:bass.wav
64,192,23720,1,0,0:0:0:0:
448,192,23720,1,0,0:0:0:0:
192,192,23892,1,0,0:0:0:30:hihat.wav
320,192,23892,1,0,0:0:0:0:
192,192,24063,128,0,24149:0:0:0:60:bass.wav
64,192,24063,128,0,24149:0:0:0:0:
448,192,24063,1,0,0:0:0:0:
192,192,24235,128,0,24320:0:0:0:30:hihat.wav
320,192,24235,128,0,24320:0:0:0:0:
320,192,24406,128,0,24492:0:0:0:60:bass.wav
448,192,24406,128,0,24492:0:0:0:0:
64,192,24406,1,0,0:0:0:0:
448,192,24577,128,0,24663:0:0:0:30:hihat.wav
64,192,24577,128,0,24663:0:0:0:0:
448,192,24749,1,0,0:0:0:60:bass.wav
64,192,24749,1,0,0:0:0:0:
320,192,24749,1,0,0:0:0:0:
192,192,24920,1,0,0:0:0:30:hihat.wav
448,192,25006,1,0,0:0:0:0:
320,192,25006,1,0,0:0:0:0:
192,192,25092,1,0,0:0:0:60:bass.wav
64,192,25092,1,0,0:0:0:0:
320,192,25177,1,0,0:0:0:0:
448,192,25263,1,0,0:0:0:30:hihat.wav
64,192,25263,1,0,0:0:0:0:
192,192,25435,1,0,0:0:0:60:bass.wav
448,192,25435,1,0,0:0:0:0:
64,192,25520,1,0,0:0:0:0:
320,192,25606,1,0,0:0:0:30:hihat.wav
192,192,25606,1,0,0:0:0:0:
448,192,25692,1,0,0:0:0:0:
192,192,25777,1,0,0:0:0:60:bass.wav
64,192,25777,1,0,0:0:0:0:
320,192,25863,1,0,0:0:0:0:
64,192,25949,1,0,0:0:0:30:hihat.wav
448,192,25949,1,0,0:0:0:0:
320,192,26035,1,0,0:0:0:0:
64,192,26120,1,0,0:0:0:60:bass.wav
448,192,26120,1,0,0:0:0:0:
192,192,26292,128,0,26463:0:0:0:30:hihat.wav
448,192,26292,1,0,0:0:0:0:
320,192,26377,1,0,0:0:0:0:
448,192,26463,1,0,0:0:0:60:bass.wav
64,192,26463,1,0,0:0:0:0:
192,192,26549,128,0,26720:0:0:0:0:
448,192,26635,1,0,0:0:0:30:hihat.wav
320,192,26720,1,0,0:0:0:0:
448,192,26806,1,0,0:0:0:60:bass.wav
64,192,26806,1,0,0:0:0:0:
192,192,26892,1,0,0:0:0:0:
320,192,26977,1,0,0:0:0:30:hihat.wav
64,192,26977,1,0,0:0:0:0:
192,192,27063,1,0,0:0:0:0:
64,192,27149,1,0,0:0:0:60:bass.wav
448,192,27149,1,0,0:0:0:0:
320,192,27235,1,0,0:0:0:0:
192,192,27320,1,0,0:0:0:30:hihat.wav
64,192,27320,1,0,0:0:0:60:bass.wav
320,192,27406,1,0,0:0:0:60:bass.wav
448,192,27406,1,0,0:0:0:0:
192,192,27492,1,0,0:0:0:60:bass.wav
64,192,27492,1,0,0:0:0:60:crash.wav
320,192,27492,1,0,0:0:0:0:
448,192,27492,1,0,0:0:0:0:
448,192,27663,1,0,0:0:0:30:hihat.wav
192,192,27663,1,0,0:0:0:0:
320,192,27835,1,0,0:0:0:60:bass.wav
192,192,27835,1,0,0:0:0:0:
64,192,27835,1,0,0:0:0:0:
64,192,28006,1,0,0:0:0:30:hihat.wav
448,192,28006,1,0,0:0:0:0:
192,192,28177,1,0,0:0:0:60:bass.wav
320,192,28177,1,0,0:0:0:0:
448,192,28177,1,0,0:0:0:0:
192,192,28349,1,0,0:0:0:30:hihat.wav
448,192,28349,1,0,0:0:0:0:
64,192,28435,1,0,0:0:0:0:
320,192,28520,1,0,0:0:0:60:bass.wav
448,192,28520,1,0,0:0:0:0:
192,192,28606,1,0,0:0:0:0:
64,192,28692,1,0,0:0:0:60:bass.wav
448,192,28692,1,0,0:0:0:30:hihat.wav
320,192,28692,1,0,0:0:0:0:
192,192,29035,1,0,0:0:0:60:bass.wav
320,192,29035,1,0,0:0:0:60:crash.wav
64,192,29035,1,0,0:0:0:0:
64,192,29292,1,0,0:0:0:60:bass.wav
192,192,29292,1,0,0:0:0:60:crash.wav
448,192,29292,1,0,0:0:0:0:
192,192,29549,1,0,0:0:0:60:bass.wav
320,192,29549,1,0,0:0:0:60:crash.wav
448,192,29549,1,0,0:0:0:0:
448,192,29806,1,0,0:0:0:60:bass.wav
320,192,29806,1,0,0:0:0:60:crash.wav
64,192,29806,1,0,0:0:0:0:
192,192,30063,1,0,0:0:0:60:bass.wav
320,192,30063,1,0,0:0:0:60:crash.wav
64,192,30063,1,0,0:0:0:0:
448,192,30235,1,0,0:0:0:60:bass.wav
64,192,30235,1,0,0:0:0:60:crash.wav
192,192,30235,1,0,0:0:0:0:
320,192,30320,1,0,0:0:0:0:
192,192,30406,1,0,0:0:0:60:bass.wav
64,192,30406,1,0,0:0:0:0:
448,192,30492,1,0,0:0:0:0:
192,192,30577,1,0,0:0:0:60:crash.wav
320,192,30577,1,0,0:0:0:60:bass.wav
64,192,30577,1,0,0:0:0:0:
448,192,30663,1,0,0:0:0:0:
192,192,30749,1,0,0:0:0:60:bass.wav
64,192,30749,1,0,0:0:0:0:
320,192,30835,1,0,0:0:0:0:
448,192,30920,1,0,0:0:0:60:crash.wav
64,192,30920,1,0,0:0:0:60:bass.wav
192,192,31006,1,0,0:0:0:60:bass.wav
320,192,31006,1,0,0:0:0:0:
448,192,31092,1,0,0:0:0:60:bass.wav
64,192,31092,1,0,0:0:0:0:
192,192,31177,1,0,0:0:0:60:bass.wav
320,192,31177,1,0,0:0:0:0:
64,192,31263,128,0,31349:0:0:0:60:bass.wav
448,192,31263,128,0,31349:0:0:0:60:crash.wav
192,192,31349,128,0,31435:0:0:0:60:bass.wav
448,192,31435,128,0,31520:0:0:0:60:bass.wav
64,192,31435,128,0,31520:0:0:0:0:
320,192,31520,128,0,31606:0:0:0:60:bass.wav
192,192,31606,1,0,0:0:0:60:bass.wav
64,192,31606,1,0,0:0:0:60:crash.wav
320,192,31692,1,0,0:0:0:60:bass.wav
448,192,31692,1,0,0:0:0:0:
64,192,31777,1,0,0:0:0:45:drum.wav
192,192,31820,1,0,0:0:0:45:drum.wav
320,192,31863,1,0,0:0:0:45:drum.wav
448,192,31906,1,0,0:0:0:45:drum.wav
192,192,31949,1,0,0:0:0:60:bass.wav
64,192,31949,1,0,0:0:0:0:
320,192,32035,1,0,0:0:0:60:bass.wav
448,192,32035,1,0,0:0:0:0:
64,192,32120,1,0,0:0:0:45:drum.wav
192,192,32163,1,0,0:0:0:45:drum.wav
448,192,32206,1,0,0:0:0:45:drum.wav
320,192,32249,1,0,0:0:0:45:drum.wav
192,192,32292,1,0,0:0:0:60:bass.wav
64,192,32292,1,0,0:0:0:0:
320,192,32377,1,0,0:0:0:60:bass.wav
448,192,32377,1,0,0:0:0:0:
192,192,32463,1,0,0:0:0:60:bass.wav
64,192,32463,1,0,0:0:0:0:
320,192,32549,1,0,0:0:0:60:bass.wav
448,192,32549,1,0,0:0:0:0:
64,192,32635,1,0,0:0:0:70:snare.wav
448,192,32720,1,0,0:0:0:0:
320,192,32806,1,0,0:0:0:0:
192,192,32892,1,0,0:0:0:0:
64,192,32977,1,0,0:0:0:60:crash.wav
320,192,32977,1,0,0:0:0:60:bass.wav
448,192,32977,1,0,0:0:0:0:
448,192,33149,1,0,0:0:0:30:hihat.wav
64,192,33149,1,0,0:0:0:0:
448,192,33320,128,0,33492:0:0:0:60:snare.wav
320,192,33320,1,0,0:0:0:0:
64,192,33320,1,0,0:0:0:0:
192,192,33492,1,0,0:0:0:30:hihat.wav
448,192,33663,1,0,0:0:0:60:bass.wav
64,192,33663,1,0,0:0:0:0:
448,192,33835,128,0,34006:0:0:0:30:hihat.wav
192,192,33835,1,0,0:0:0:0:
64,192,34006,1,0,0:0:0:60:snare.wav
192,192,34006,1,0,0:0:0:0:
320,192,34006,1,0,0:0:0:0:
448,192,34177,1,0,0:0:0:30:hihat.wav
320,192,34177,1,0,0:0:0:0:
64,192,34349,1,0,0:0:0:60:bass.wav
448,192,34349,1,0,0:0:0:0:
192,192,34520,128,0,34692:0:0:0:30:hihat.wav
320,192,34520,1,0,0:0:0:0:
448,192,34692,1,0,0:0:0:60:snare.wav
64,192,34692,1,0,0:0:0:0:
64,192,34863,128,0,35035:0:0:0:30:hihat.wav
192,192,34863,1,0,0:0:0:0:
320,192,35035,1,0,0:0:0:60:bass.wav
448,192,35035,1,0,0:0:0:0:
320,192,35206,1,0,0:0:0:30:hihat.wav
192,192,35206,128,0,35292:0:0:0:0:
64,192,35377,128,0,35463:0:0:0:60:snare.wav
448,192,35377,1,0,0:0:0:0:
320,192,35377,1,0,0:0:0:0:
448,192,35549,128,0,35635:0:0:0:30:hihat.wav
192,192,35549,1,0,0:0:0:0:
64,192,35720,1,0,0:0:0:60:bass.wav
448,192,35720,1,0,0:0:0:0:
192,192,35892,128,0,35977:0:0:0:30:hihat.wav
320,192,35892,1,0,0:0:0:0:
64,192,36063,128,0,36149:0:0:0:60:snare.wav
448,192,36063,1,0,0:0:0:0:
192,192,36063,1,0,0:0:0:0:
192,192,36235,128,0,36320:0:0:0:30:hihat.wav
320,192,36235,1,0,0:0:0:0:
320,192,36406,128,0,36492:0:0:0:60:bass.wav
64,192,36406,1,0,0:0:0:0:
448,192,36577,128,0,36663:0:0:0:30:hihat.wav
192,192,36577,1,0,0:0:0:0:
64,192,36749,128,0,36835:0:0:0:60:snare.wav
320,192,36749,1,0,0:0:0:0:
448,192,36749,1,0,0:0:0:0:
192,192,36920,128,0,37006:0:0:0:30:hihat.wav
320,192,36920,1,0,0:0:0:0:
448,192,37092,1,0,0:0:0:60:bass.wav
64,192,37092,1,0,0:0:0:0:
320,192,37263,128,0,37435:0:0:0:30:hihat.wav
192,192,37263,1,0,0:0:0:0:
64,192,37435,1,0,0:0:0:60:snare.wav
448,192,37435,1,0,0:0:0:0:
192,192,37606,1,0,0:0:0:30:hihat.wav
64,192,37606,1,0,0:0:0:0:
320,192,37692,1,0,0:0:0:0:
64,192,37777,1,0,0:0:0:60:bass.wav
448,192,37777,128,0,37863:0:0:0:0:
320,192,37949,128,0,38035:0:0:0:30:hihat.wav
192,192,37949,1,0,0:0:0:0:
192,192,38120,128,0,38206:0:0:0:60:snare.wav
64,192,38120,1,0,0:0:0:0:
448,192,38120,1,0,0:0:0:0:
64,192,38292,128,0,38377:0:0:0:30:hihat.wav
320,192,38292,1,0,0:0:0:60:bass.wav
448,192,38292,1,0,0:0:0:0:
192,192,38463,1,0,0:0:0:60:crash.wav
64,192,38463,1,0,0:0:0:60:bass.wav
448,192,38463,128,0,38635:0:0:0:0:
320,192,38549,128,0,38720:0:0:0:0:
192,192,38635,128,0,38806:0:0:0:30:hihat.wav
64,192,38720,128,0,38892:0:0:0:0:
448,192,38806,128,0,39063:0:0:0:60:snare.wav
320,192,38892,128,0,39063:0:0:0:0:
192,192,38977,128,0,39149:0:0:0:30:hihat.wav
64,192,39063,128,0,39149:0:0:0:0:
320,192,39149,1,0,0:0:0:60:bass.wav
448,192,39149,1,0,0:0:0:0:
192,192,39235,1,0,0:0:0:0:
64,192,39320,1,0,0:0:0:30:hihat.wav
448,192,39320,1,0,0:0:0:0:
320,192,39406,1,0,0:0:0:0:
448,192,39492,1,0,0:0:0:60:snare.wav
64,192,39492,1,0,0:0:0:0:
192,192,39577,1,0,0:0:0:0:
448,192,39663,128,0,39835:0:0:0:30:hihat.wav
320,192,39663,1,0,0:0:0:0:
320,192,39835,1,0,0:0:0:60:bass.wav
64,192,39835,1,0,0:0:0:0:
448,192,39920,1,0,0:0:0:0:
192,192,40006,1,0,0:0:0:30:hihat.wav
64,192,40006,1,0,0:0:0:0:
320,192,40092,1,0,0:0:0:0:
448,192,40177,1,0,0:0:0:60:snare.wav
64,192,40177,1,0,0:0:0:0:
192,192,40263,1,0,0:0:0:0:
320,192,40349,1,0,0:0:0:30:hihat.wav
448,192,40349,1,0,0:0:0:0:
192,192,40435,1,0,0:0:0:0:
64,192,40520,1,0,0:0:0:60:bass.wav
320,192,40520,1,0,0:0:0:0:
448,192,40606,1,0,0:0:0:0:
320,192,40692,1,0,0:0:0:30:hihat.wav
64,192,40692,1,0,0:0:0:0:
192,192,40777,1,0,0:0:0:0:
64,192,40863,1,0,0:0:0:60:snare.wav
448,192,40863,1,0,0:0:0:0:
320,192,40949,1,0,0:0:0:0:
64,192,41035,1,0,0:0:0:30:hihat.wav
192,192,41035,1,0,0:0:0:0:
320,192,41120,1,0,0:0:0:0:
448,192,41206,1,0,0:0:0:60:bass.wav
64,192,41206,1,0,0:0:0:0:
192,192,41206,1,0,0:0:0:0:
64,192,41377,1,0,0:0:0:30:hihat.wav
320,192,41377,1,0,0:0:0:0:
448,192,41463,1,0,0:0:0:0:
64,192,41549,1,0,0:0:0:60:snare.wav
192,192,41549,1,0,0:0:0:0:
448,192,41720,1,0,0:0:0:30:hihat.wav
192,192,41720,1,0,0:0:0:0:
64,192,41806,1,0,0:0:0:0:
320,192,41892,1,0,0:0:0:60:bass.wav
448,192,41892,1,0,0:0:0:0:
192,192,41977,1,0,0:0:0:0:
320,192,42063,1,0,0:0:0:30:hihat.wav
64,192,42063,1,0,0:0:0:0:
192,192,42149,1,0,0:0:0:0:
448,192,42235,1,0,0:0:0:60:snare.wav
64,192,42235,1,0,0:0:0:0:
320,192,42320,1,0,0:0:0:0:
448,192,42406,1,0,0:0:0:30:hihat.wav
64,192,42406,1,0,0:0:0:0:
192,192,42492,1,0,0:0:0:0:
320,192,42577,1,0,0:0:0:60:bass.wav
448,192,42577,1,0,0:0:0:0:
64,192,42577,1,0,0:0:0:0:
192,192,42663,1,0,0:0:0:0:
320,192,42749,1,0,0:0:0:30:hihat.wav
448,192,42749,128,0,42920:0:0:0:0:
192,192,42920,1,0,0:0:0:60:snare.wav
64,192,42920,1,0,0:0:0:0:
320,192,43006,1,0,0:0:0:0:
64,192,43092,128,0,43263:0:0:0:30:hihat.wav
448,192,43092,1,0,0:0:0:0:
320,192,43263,1,0,0:0:0:60:bass.wav
448,192,43263,1,0,0:0:0:0:
192,192,43349,1,0,0:0:0:0:
320,192,43435,1,0,0:0:0:60:bass.wav
448,192,43435,1,0,0:0:0:30:hihat.wav
192,192,43520,1,0,0:0:0:0:
64,192,43606,1,0,0:0:0:60:bass.wav
448,192,43606,1,0,0:0:0:0:
320,192,43692,1,0,0:0:0:0:
192,192,43777,1,0,0:0:0:60:bass.wav
64,192,43777,1,0,0:0:0:30:hihat.wav
320,192,43863,1,0,0:0:0:0:
64,192,43949,1,0,0:0:0:60:crash.wav
192,192,43949,1,0,0:0:0:60:bass.wav
448,192,43949,128,0,44035:0:0:0:0:
448,192,44120,128,0,44206:0:0:0:30:hihat.wav
64,192,44292,128,0,44463:0:0:0:60:snare.wav
192,192,44292,1,0,0:0:0:0:
320,192,44292,1,0,0:0:0:0:
448,192,44463,128,0,44549:0:0:0:30:hihat.wav
64,192,44635,1,0,0:0:0:60:bass.wav
448,192,44635,128,0,44720:0:0:0:0:
320,192,44806,128,0,44892:0:0:0:30:hihat.wav
192,192,44806,1,0,0:0:0:0:
192,192,44977,128,0,45063:0:0:0:60:snare.wav
448,192,44977,1,0,0:0:0:0:
64,192,44977,1,0,0:0:0:0:
64,192,45149,128,0,45235:0:0:0:30:hihat.wav
320,192,45149,1,0,0:0:0:0:
448,192,45320,1,0,0:0:0:60:bass.wav
64,192,45320,1,0,0:0:0:0:
192,192,45320,1,0,0:0:0:0:
320,192,45492,128,0,45663:0:0:0:30:hihat.wav
192,192,45492,1,0,0:0:0:0:
64,192,45663,1,0,0:0:0:60:snare.wav
448,192,45663,1,0,0:0:0:0:
448,192,45835,128,0,46006:0:0:0:30:hihat.wav
192,192,45835,1,0,0:0:0:0:
320,192,46006,1,0,0:0:0:60:bass.wav
64,192,46006,1,0,0:0:0:0:
448,192,46177,1,0,0:0:0:30:hihat.wav
64,192,46177,128,0,46263:0:0:0:0:
320,192,46349,128,0,46435:0:0:0:60:snare.wav
448,192,46349,1,0,0:0:0:0:
192,192,46349,1,0,0:0:0:0:
64,192,46520,128,0,46606:0:0:0:30:hihat.wav
320,192,46520,1,0,0:0:0:0:
448,192,46692,1,0,0:0:0:60:bass.wav
192,192,46692,1,0,0:0:0:0:
448,192,46863,128,0,47035:0:0:0:30:hihat.wav
320,192,46863,1,0,0:0:0:0:
64,192,47035,1,0,0:0:0:60:snare.wav
192,192,47035,1,0,0:0:0:0:
320,192,47120,128,0,47292:0:0:0:0:
448,192,47120,1,0,0:0:0:0:
192,192,47377,128,0,47549:0:0:0:60:bass.wav
64,192,47377,1,0,0:0:0:0:
320,192,47377,1,0,0:0:0:0:
192,192,47635,1,0,0:0:0:0:
64,192,47635,128,0,47806:0:0:0:0:
448,192,47720,1,0,0:0:0:60:snare.wav
320,192,47720,1,0,0:0:0:0:
448,192,47892,128,0,48320:0:0:0:30:hihat.wav
64,192,47892,1,0,0:0:0:0:
320,192,48063,128,0,48320:0:0:0:60:bass.wav
192,192,48063,1,0,0:0:0:0:
64,192,48235,1,0,0:0:0:30:hihat.wav
448,192,48406,1,0,0:0:0:60:snare.wav
320,192,48406,1,0,0:0:0:0:
64,192,48406,1,0,0:0:0:0:
192,192,48577,1,0,0:0:0:30:hihat.wav
320,192,48663,1,0,0:0:0:0:
448,192,48749,1,0,0:0:0:60:bass.wav
64,192,48749,1,0,0:0:0:0:
192,192,48749,1,0,0:0:0:0:
192,192,48835,1,0,0:0:0:60:bass.wav
64,192,48835,1,0,0:0:0:0:
448,192,48920,1,0,0:0:0:30:hihat.wav
192,192,49006,1,0,0:0:0:60:bass.wav
64,192,49006,1,0,0:0:0:0:
448,192,49092,1,0,0:0:0:60:bass.wav
64,192,49092,1,0,0:0:0:0:
192,192,49092,1,0,0:0:0:0:
320,192,49177,1,0,0:0:0:0:
64,192,49263,1,0,0:0:0:60:bass.wav
448,192,49263,1,0,0:0:0:30:hihat.wav
192,192,49349,1,0,0:0:0:0:
320,192,49435,1,0,0:0:0:60:bass.wav
448,192,49435,1,0,0:0:0:60:crash.wav
64,192,49435,128,0,49777:0:0:0:0:
320,192,49606,128,0,50120:0:0:0:0:
192,192,49777,1,0,0:0:0:0:
448,192,49777,128,0,50120:0:0:0:0:
64,192,49949,128,0,50120:0:0:0:0:
192,192,50120,128,0,50549:0:0:0:0:
320,192,50292,128,0,50549:0:0:0:0:
448,192,50463,128,0,50549:0:0:0:0:
64,192,50463,128,0,50549:0:0:0:0:
64,192,50635,1,0,0:0:0:60:bass.wav
320,192,50635,1,0,0:0:0:60:crash.wav
448,192,50635,1,0,0:0:0:0:
192,192,50720,1,0,0:0:0:0:
448,192,50806,1,0,0:0:0:0:
320,192,50892,1,0,0:0:0:0:
192,192,50977,1,0,0:0:0:60:crash.wav
64,192,50977,1,0,0:0:0:60:bass.wav
448,192,50977,1,0,0:0:0:0:
320,192,51063,1,0,0:0:0:0:
64,192,51149,1,0,0:0:0:0:
192,192,51235,1,0,0:0:0:0:
64,192,51320,1,0,0:0:0:60:bass.wav
448,192,51320,1,0,0:0:0:60:crash.wav
320,192,51320,1,0,0:0:0:0:
192,192,51406,1,0,0:0:0:0:
64,192,51492,1,0,0:0:0:0:
320,192,51577,1,0,0:0:0:0:
192,192,51663,1,0,0:0:0:60:bass.wav
64,192,51663,1,0,0:0:0:60:crash.wav
448,192,51663,1,0,0:0:0:0:
320,192,51749,1,0,0:0:0:0:
448,192,51835,1,0,0:0:0:0:
192,192,51920,1,0,0:0:0:0:
320,192,52006,1,0,0:0:0:60:crash.wav
448,192,52006,1,0,0:0:0:60:bass.wav
64,192,52006,1,0,0:0:0:0:
448,192,52177,1,0,0:0:0:60:crash.wav
192,192,52177,1,0,0:0:0:60:bass.wav
64,192,52177,1,0,0:0:0:0:
320,192,52263,1,0,0:0:0:0:
64,192,52349,1,0,0:0:0:60:bass.wav
448,192,52349,1,0,0:0:0:0:
320,192,52435,1,0,0:0:0:0:
192,192,52520,1,0,0:0:0:60:bass.wav
64,192,52520,1,0,0:0:0:0:
320,192,52606,1,0,0:0:0:0:
64,192,52692,1,0,0:0:0:60:bass.wav
448,192,52692,1,0,0:0:0:0:
320,192,52777,1,0,0:0:0:0:
64,192,52863,1,0,0:0:0:60:bass.wav
448,192,52863,1,0,0:0:0:60:crash.wav
192,192,52863,1,0,0:0:0:0:
320,192,52949,1,0,0:0:0:0:
448,192,53035,1,0,0:0:0:60:bass.wav
64,192,53035,1,0,0:0:0:0:
192,192,53120,1,0,0:0:0:0:
448,192,53206,1,0,0:0:0:60:bass.wav
320,192,53206,1,0,0:0:0:0:
192,192,53292,1,0,0:0:0:60:bass.wav
64,192,53292,1,0,0:0:0:0:
448,192,53377,1,0,0:0:0:45:drum.wav
320,192,53420,1,0,0:0:0:45:drum.wav
192,192,53463,1,0,0:0:0:45:drum.wav
64,192,53506,1,0,0:0:0:45:drum.wav
320,192,53549,1,0,0:0:0:60:bass.wav
448,192,53549,1,0,0:0:0:0:
192,192,53635,1,0,0:0:0:60:bass.wav
64,192,53635,1,0,0:0:0:0:
448,192,53720,1,0,0:0:0:45:drum.wav
320,192,53763,1,0,0:0:0:45:drum.wav
64,192,53806,1,0,0:0:0:45:drum.wav
192,192,53849,1,0,0:0:0:45:drum.wav
448,192,53892,1,0,0:0:0:60:bass.wav
320,192,53892,1,0,0:0:0:0:
192,192,53977,1,0,0:0:0:60:bass.wav
64,192,53977,1,0,0:0:0:0:
448,192,54063,1,0,0:0:0:45:drum.wav
320,192,54106,1,0,0:0:0:45:drum.wav
192,192,54149,1,0,0:0:0:45:drum.wav
64,192,54192,1,0,0:0:0:45:drum.wav
320,192,54235,1,0,0:0:0:60:bass.wav
448,192,54235,1,0,0:0:0:0:
192,192,54320,1,0,0:0:0:60:bass.wav
64,192,54320,1,0,0:0:0:0:
448,192,54406,1,0,0:0:0:60:bass.wav
320,192,54406,1,0,0:0:0:0:
64,192,54492,1,0,0:0:0:60:bass.wav
192,192,54492,1,0,0:0:0:0:
320,192,54577,1,0,0:0:0:45:drum.wav
448,192,54577,1,0,0:0:0:0:
64,192,54620,1,0,0:0:0:45:drum.wav
192,192,54663,1,0,0:0:0:45:drum.wav
320,192,54706,1,0,0:0:0:45:drum.wav
64,192,54749,1,0,0:0:0:45:drum.wav
448,192,54749,1,0,0:0:0:0:
192,192,54792,1,0,0:0:0:45:drum.wav
320,192,54835,1,0,0:0:0:45:drum.wav
448,192,54877,1,0,0:0:0:45:drum.wav
192,192,54920,1,0,0:0:0:60:crash.wav
64,192,54920,1,0,0:0:0:60:bass.wav
64,192,55149,1,0,0:0:0:0:
64,192,55377,1,0,0:0:0:0:
192,192,55606,1,0,0:0:0:0:
448,192,55606,1,0,0:0:0:0:
192,192,55835,1,0,0:0:0:0:
192,192,56063,1,0,0:0:0:0:
320,192,56292,1,0,0:0:0:0:
64,192,56292,1,0,0:0:0:0:
320,192,56520,1,0,0:0:0:0:
320,192,56749,1,0,0:0:0:0:
448,192,56977,1,0,0:0:0:0:
64,192,56977,1,0,0:0:0:0:
448,192,57206,1,0,0:0:0:0:
320,192,57435,1,0,0:0:0:0:
448,192,57435,1,0,0:0:0:0:
192,192,57663,1,0,0:0:0:60:bass.wav
448,192,57663,1,0,0:0:0:0:
64,192,57663,128,0,57777:0:0:0:0:
192,192,57892,1,0,0:0:0:60:bass.wav
448,192,57892,1,0,0:0:0:0:
64,192,57892,128,0,58006:0:0:0:0:
192,192,58120,1,0,0:0:0:60:bass.wav
448,192,58120,1,0,0:0:0:0:
64,192,58120,128,0,58235:0:0:0:0:
192,192,58349,128,0,58463:0:0:0:60:bass.wav
64,192,58349,1,0,0:0:0:0:
320,192,58349,1,0,0:0:0:0:
192,192,58577,128,0,58692:0:0:0:60:bass.wav
64,192,58577,1,0,0:0:0:0:
320,192,58577,1,0,0:0:0:0:
448,192,58692,1,0,0:0:0:60:bass.wav
320,192,58806,1,0,0:0:0:60:bass.wav
192,192,58806,128,0,58920:0:0:0:0:
64,192,58806,1,0,0:0:0:0:
448,192,58920,1,0,0:0:0:60:bass.wav
320,192,59035,128,0,59149:0:0:0:60:bass.wav
64,192,59035,1,0,0:0:0:0:
192,192,59035,1,0,0:0:0:0:
320,192,59263,128,0,59377:0:0:0:60:bass.wav
192,192,59263,1,0,0:0:0:0:
64,192,59263,1,0,0:0:0:0:
320,192,59492,128,0,59606:0:0:0:60:bass.wav
192,192,59492,1,0,0:0:0:0:
64,192,59492,1,0,0:0:0:0:
448,192,59720,128,0,59835:0:0:0:60:bass.wav
320,192,59720,1,0,0:0:0:0:
64,192,59720,1,0,0:0:0:0:
448,192,59949,128,0,60063:0:0:0:60:bass.wav
320,192,59949,1,0,0:0:0:0:
64,192,59949,1,0,0:0:0:0:
192,192,60063,1,0,0:0:0:60:bass.wav
448,192,60177,128,0,60292:0:0:0:60:bass.wav
320,192,60177,1,0,0:0:0:0:
64,192,60177,1,0,0:0:0:0:
192,192,60292,1,0,0:0:0:60:bass.wav
64,192,60406,128,0,61692:0:0:0:60:bass.wav
320,192,60406,128,0,61692:0:0:0:60:crash.wav
448,192,60406,128,0,61692:0:0:0:0:
192,192,61092,128,0,61692:0:0:0:0:
448,192,61777,1,0,0:0:0:0:
64,192,61777,1,0,0:0:0:0:
192,192,61863,1,0,0:0:0:0:
320,192,61949,1,0,0:0:0:0:
448,192,62035,1,0,0:0:0:0:
192,192,62120,1,0,0:0:0:0:
64,192,62206,1,0,0:0:0:0:
320,192,62292,1,0,0:0:0:0:
192,192,62377,1,0,0:0:0:0:
448,192,62463,1,0,0:0:0:0:
320,192,62549,1,0,0:0:0:0:
192,192,62635,1,0,0:0:0:0:
320,192,62720,1,0,0:0:0:0:
64,192,62806,1,0,0:0:0:60:clap.wav
448,192,62806,1,0,0:0:0:0:
192,192,62892,1,0,0:0:0:0:
320,192,62977,1,0,0:0:0:0:
192,192,63063,1,0,0:0:0:0:
64,192,63149,1,0,0:0:0:60:crash.wav
320,192,63149,1,0,0:0:0:60:bass.wav
448,192,63149,1,0,0:0:0:0:
192,192,63320,1,0,0:0:0:30:hihat.wav
448,192,63492,1,0,0:0:0:60:snare.wav
64,192,63492,1,0,0:0:0:0:
192,192,63492,1,0,0:0:0:0:
320,192,63663,1,0,0:0:0:30:hihat.wav
64,192,63835,1,0,0:0:0:60:bass.wav
448,192,63835,1,0,0:0:0:0:
320,192,63835,1,0,0:0:0:0:
192,192,64006,1,0,0:0:0:30:hihat.wav
64,192,64006,1,0,0:0:0:0:
320,192,64092,1,0,0:0:0:0:
448,192,64177,1,0,0:0:0:60:snare.wav
64,192,64177,1,0,0:0:0:0:
192,192,64349,1,0,0:0:0:30:hihat.wav
320,192,64349,1,0,0:0:0:0:
64,192,64520,1,0,0:0:0:60:bass.wav
448,192,64520,128,0,64606:0:0:0:0:
192,192,64520,128,0,64606:0:0:0:0:
320,192,64692,128,0,64777:0:0:0:30:hihat.wav
448,192,64692,128,0,64777:0:0:0:0:
64,192,64863,128,0,64949:0:0:0:60:snare.wav
192,192,64863,128,0,64949:0:0:0:0:
448,192,64863,1,0,0:0:0:0:
192,192,65035,128,0,65120:0:0:0:30:hihat.wav
320,192,65035,128,0,65120:0:0:0:0:
64,192,65206,128,0,65292:0:0:0:60:bass.wav
192,192,65206,1,0,0:0:0:0:
448,192,65206,128,0,65292:0:0:0:0:
192,192,65377,128,0,65463:0:0:0:30:hihat.wav
64,192,65377,128,0,65463:0:0:0:0:
448,192,65549,128,0,65635:0:0:0:60:snare.wav
320,192,65549,128,0,65635:0:0:0:0:
64,192,65549,1,0,0:0:0:0:
320,192,65720,128,0,65806:0:0:0:30:hihat.wav
192,192,65720,128,0,65806:0:0:0:0:
64,192,65892,1,0,0:0:0:60:bass.wav
192,192,65892,1,0,0:0:0:0:
448,192,65892,1,0,0:0:0:0:
320,192,66063,1,0,0:0:0:30:hihat.wav
320,192,66235,1,0,0:0:0:60:snare.wav
448,192,66235,1,0,0:0:0:0:
64,192,66235,1,0,0:0:0:0:
192,192,66406,1,0,0:0:0:30:hihat.wav
192,192,66577,1,0,0:0:0:60:bass.wav
64,192,66577,1,0,0:0:0:0:
320,192,66577,1,0,0:0:0:0:
64,192,66749,1,0,0:0:0:30:hihat.wav
448,192,66749,1,0,0:0:0:0:
320,192,66835,1,0,0:0:0:0:
192,192,66920,1,0,0:0:0:60:snare.wav
448,192,66920,1,0,0:0:0:0:
320,192,67092,1,0,0:0:0:30:hihat.wav
192,192,67092,1,0,0:0:0:0:
448,192,67263,1,0,0:0:0:60:bass.wav
64,192,67263,128,0,67435:0:0:0:0:
320,192,67263,128,0,67435:0:0:0:0:
448,192,67435,128,0,67606:0:0:0:30:hihat.wav
192,192,67435,1,0,0:0:0:0:
192,192,67606,128,0,67777:0:0:0:60:snare.wav
64,192,67606,128,0,67777:0:0:0:0:
320,192,67606,1,0,0:0:0:0:
320,192,67777,128,0,67949:0:0:0:30:hihat.wav
448,192,67777,1,0,0:0:0:0:
448,192,67949,1,0,0:0:0:60:bass.wav
64,192,67949,128,0,68120:0:0:0:0:
192,192,67949,128,0,68120:0:0:0:0:
448,192,68120,128,0,68377:0:0:0:30:hihat.wav
320,192,68120,128,0,68377:0:0:0:0:
64,192,68292,128,0,68549:0:0:0:60:snare.wav
192,192,68292,128,0,68463:0:0:0:0:
320,192,68463,1,0,0:0:0:30:hihat.wav
448,192,68463,1,0,0:0:0:60:bass.wav
192,192,68549,1,0,0:0:0:60:bass.wav
64,192,68635,1,0,0:0:0:60:crash.wav
320,192,68635,1,0,0:0:0:60:bass.wav
448,192,68635,1,0,0:0:0:0:
192,192,68806,1,0,0:0:0:30:hihat.wav
64,192,68806,1,0,0:0:0:0:
320,192,68892,1,0,0:0:0:0:
448,192,68977,1,0,0:0:0:60:snare.wav
192,192,68977,1,0,0:0:0:0:
320,192,69149,1,0,0:0:0:30:hihat.wav
64,192,69149,1,0,0:0:0:0:
64,192,69320,1,0,0:0:0:60:bass.wav
192,192,69320,1,0,0:0:0:0:
448,192,69320,1,0,0:0:0:0:
192,192,69492,1,0,0:0:0:30:hihat.wav
320,192,69492,1,0,0:0:0:0:
320,192,69663,1,0,0:0:0:60:snare.wav
448,192,69663,1,0,0:0:0:0:
192,192,69835,1,0,0:0:0:30:hihat.wav
448,192,69835,128,0,70006:0:0:0:0:
320,192,69920,128,0,70006:0:0:0:0:
192,192,70006,1,0,0:0:0:60:bass.wav
64,192,70006,1,0,0:0:0:0:
320,192,70177,1,0,0:0:0:30:hihat.wav
448,192,70177,1,0,0:0:0:0:
192,192,70263,1,0,0:0:0:0:
64,192,70349,1,0,0:0:0:60:snare.wav
448,192,70349,1,0,0:0:0:0:
320,192,70520,1,0,0:0:0:30:hihat.wav
192,192,70520,1,0,0:0:0:0:
192,192,70692,1,0,0:0:0:60:bass.wav
64,192,70692,1,0,0:0:0:0:
192,192,70863,1,0,0:0:0:30:hihat.wav
448,192,70863,1,0,0:0:0:0:
320,192,70949,1,0,0:0:0:0:
448,192,71035,1,0,0:0:0:60:snare.wav
64,192,71035,1,0,0:0:0:0:
192,192,71120,1,0,0:0:0:0:
320,192,71206,1,0,0:0:0:30:hihat.wav
448,192,71206,1,0,0:0:0:0:
192,192,71292,1,0,0:0:0:0:
64,192,71377,1,0,0:0:0:60:bass.wav
448,192,71377,128,0,71463:0:0:0:0:
320,192,71463,128,0,71549:0:0:0:0:
192,192,71549,128,0,71635:0:0:0:30:hihat.wav
448,192,71549,1,0,0:0:0:0:
64,192,71635,128,0,71720:0:0:0:0:
320,192,71720,128,0,71806:0:0:0:60:snare.wav
192,192,71720,1,0,0:0:0:0:
448,192,71806,128,0,71892:0:0:0:0:
192,192,71892,128,0,71977:0:0:0:30:hihat.wav
64,192,71892,1,0,0:0:0:0:
320,192,71977,128,0,72063:0:0:0:0:
448,192,72063,128,0,72149:0:0:0:60:bass.wav
64,192,72063,1,0,0:0:0:0:
192,192,72149,128,0,72235:0:0:0:0:
64,192,72235,128,0,72320:0:0:0:30:hihat.wav
448,192,72235,1,0,0:0:0:0:
320,192,72320,128,0,72406:0:0:0:0:
192,192,72406,128,0,72492:0:0:0:60:snare.wav
64,192,72406,1,0,0:0:0:0:
448,192,72492,128,0,72577:0:0:0:0:
320,192,72577,128,0,72663:0:0:0:30:hihat.wav
64,192,72577,1,0,0:0:0:0:
192,192,72663,128,0,72749:0:0:0:0:
448,192,72749,1,0,0:0:0:60:bass.wav
64,192,72749,1,0,0:0:0:0:
320,192,72835,1,0,0:0:0:0:
192,192,72920,1,0,0:0:0:60:bass.wav
64,192,72920,1,0,0:0:0:0:
448,192,73006,1,0,0:0:0:0:
320,192,73092,1,0,0:0:0:60:bass.wav
192,192,73092,1,0,0:0:0:0:
64,192,73177,1,0,0:0:0:0:
320,192,73263,1,0,0:0:0:60:bass.wav
448,192,73263,1,0,0:0:0:0:
192,192,73349,1,0,0:0:0:0:
64,192,73435,1,0,0:0:0:60:bass.wav
448,192,73435,1,0,0:0:0:0:
320,192,73520,1,0,0:0:0:60:bass.wav
192,192,73520,1,0,0:0:0:0:
448,192,73606,1,0,0:0:0:60:bass.wav
64,192,73606,1,0,0:0:0:0:
320,192,73692,1,0,0:0:0:0:
192,192,73777,1,0,0:0:0:60:bass.wav
64,192,73777,1,0,0:0:0:0:
448,192,73777,1,0,0:0:0:0:
320,192,73863,1,0,0:0:0:0:
64,192,73949,1,0,0:0:0:60:bass.wav
192,192,73949,1,0,0:0:0:0:
320,192,74035,1,0,0:0:0:60:bass.wav
448,192,74035,1,0,0:0:0:0:
320,192,74120,1,0,0:0:0:60:crash.wav
448,192,74120,1,0,0:0:0:60:bass.wav
192,192,74120,128,0,74292:0:0:0:0:
64,192,74120,128,0,74635:0:0:0:0:
320,192,74463,128,0,74635:0:0:0:60:snare.wav
448,192,74463,128,0,74635:0:0:0:0:
192,192,74463,128,0,74635:0:0:0:0:
64,192,74806,1,0,0:0:0:60:bass.wav
448,192,74806,1,0,0:0:0:0:
320,192,74806,1,0,0:0:0:0:
192,192,74977,1,0,0:0:0:30:hihat.wav
448,192,74977,1,0,0:0:0:0:
64,192,75063,1,0,0:0:0:0:
192,192,75149,1,0,0:0:0:60:snare.wav
320,192,75149,1,0,0:0:0:0:
320,192,75320,1,0,0:0:0:30:hihat.wav
448,192,75320,1,0,0:0:0:0:
192,192,75492,1,0,0:0:0:60:bass.wav
64,192,75492,1,0,0:0:0:0:
320,192,75577,1,0,0:0:0:0:
64,192,75663,1,0,0:0:0:30:hihat.wav
448,192,75663,1,0,0:0:0:0:
192,192,75749,1,0,0:0:0:0:
320,192,75835,1,0,0:0:0:60:snare.wav
448,192,75835,1,0,0:0:0:0:
64,192,75920,1,0,0:0:0:0:
192,192,76006,1,0,0:0:0:30:hihat.wav
320,192,76006,1,0,0:0:0:0:
448,192,76092,1,0,0:0:0:0:
192,192,76177,1,0,0:0:0:60:bass.wav
64,192,76177,1,0,0:0:0:0:
320,192,76263,1,0,0:0:0:0:
64,192,76349,1,0,0:0:0:30:hihat.wav
448,192,76349,1,0,0:0:0:0:
320,192,76435,1,0,0:0:0:0:
192,192,76520,1,0,0:0:0:60:snare.wav
448,192,76520,1,0,0:0:0:0:
64,192,76606,1,0,0:0:0:0:
192,192,76692,1,0,0:0:0:30:hihat.wav
448,192,76692,1,0,0:0:0:0:
320,192,76777,1,0,0:0:0:0:
192,192,76863,128,0,77377:0:0:0:0:
64,192,76863,128,0,77035:0:0:0:0:
448,192,76863,1,0,0:0:0:70:bass.wav
448,192,77206,128,0,77377:0:0:0:60:snare.wav
320,192,77206,128,0,77377:0:0:0:0:
64,192,77206,128,0,77377:0:0:0:0:
448,192,77549,1,0,0:0:0:60:bass.wav
64,192,77549,1,0,0:0:0:0:
192,192,77549,1,0,0:0:0:0:
320,192,77720,1,0,0:0:0:30:hihat.wav
64,192,77720,1,0,0:0:0:0:
448,192,77806,1,0,0:0:0:0:
192,192,77892,1,0,0:0:0:60:snare.wav
64,192,77892,1,0,0:0:0:60:bass.wav
320,192,77977,1,0,0:0:0:60:bass.wav
448,192,77977,1,0,0:0:0:0:
192,192,78063,1,0,0:0:0:30:hihat.wav
64,192,78063,1,0,0:0:0:60:bass.wav
320,192,78149,1,0,0:0:0:60:bass.wav
448,192,78149,1,0,0:0:0:0:
192,192,78235,1,0,0:0:0:60:bass.wav
64,192,78235,1,0,0:0:0:60:crash.wav
448,192,78235,1,0,0:0:0:0:
320,192,78235,1,0,0:0:0:0:
320,192,78406,1,0,0:0:0:0:
192,192,78492,1,0,0:0:0:60:crash.wav
64,192,78492,1,0,0:0:0:60:bass.wav
448,192,78492,1,0,0:0:0:0:
320,192,78749,1,0,0:0:0:60:bass.wav
448,192,78749,1,0,0:0:0:60:crash.wav
64,192,78749,1,0,0:0:0:0:
64,192,79006,1,0,0:0:0:60:crash.wav
192,192,79006,1,0,0:0:0:60:bass.wav
448,192,79006,1,0,0:0:0:0:
448,192,79263,128,0,79520:0:0:0:60:bass.wav
320,192,79263,128,0,79435:0:0:0:60:crash.wav
192,192,79263,128,0,79349:0:0:0:0:
64,192,79263,1,0,0:0:0:0:
64,192,79435,1,0,0:0:0:60:bass.wav
192,192,79435,1,0,0:0:0:0:
64,192,79606,1,0,0:0:0:60:bass.wav
320,192,79606,1,0,0:0:0:60:crash.wav
448,192,79606,1,0,0:0:0:0:
192,192,79606,1,0,0:0:0:0:
320,192,79777,1,0,0:0:0:0:
448,192,79949,1,0,0:0:0:45:drum.wav
64,192,79949,1,0,0:0:0:0:
192,192,79992,1,0,0:0:0:45:drum.wav
320,192,80035,1,0,0:0:0:45:drum.wav
448,192,80077,1,0,0:0:0:45:drum.wav
192,192,80120,1,0,0:0:0:45:drum.wav
64,192,80120,1,0,0:0:0:0:
320,192,80163,1,0,0:0:0:45:drum.wav
448,192,80206,1,0,0:0:0:45:drum.wav
192,192,80249,1,0,0:0:0:45:drum.wav
320,192,80292,1,0,0:0:0:45:drum.wav
64,192,80335,1,0,0:0:0:45:drum.wav
192,192,80377,1,0,0:0:0:45:drum.wav
320,192,80420,1,0,0:0:0:45:drum.wav
448,192,80463,1,0,0:0:0:60:bass.wav
64,192,80463,1,0,0:0:0:60:crash.wav
192,192,80463,1,0,0:0:0:0:
320,192,80806,1,0,0:0:0:60:crash.wav
448,192,80806,1,0,0:0:0:60:bass.wav
64,192,80806,1,0,0:0:0:0:
192,192,80892,1,0,0:0:0:0:
320,192,80977,1,0,0:0:0:0:
448,192,81063,1,0,0:0:0:0:
192,192,81149,1,0,0:0:0:60:crash.wav
64,192,81149,1,0,0:0:0:60:bass.wav
320,192,81149,1,0,0:0:0:0:
448,192,81235,1,0,0:0:0:0:
320,192,81320,1,0,0:0:0:0:
64,192,81406,1,0,0:0:0:60:crash.wav
448,192,81406,1,0,0:0:0:60:bass.wav
192,192,81406,1,0,0:0:0:0:
320,192,81492,1,0,0:0:0:0:
192,192,81577,1,0,0:0:0:0:
448,192,81663,1,0,0:0:0:60:bass.wav
64,192,81663,1,0,0:0:0:60:crash.wav
320,192,81663,1,0,0:0:0:0:
192,192,81749,1,0,0:0:0:0:
320,192,81835,1,0,0:0:0:0:
64,192,81920,1,0,0:0:0:60:crash.wav
448,192,81920,1,0,0:0:0:60:bass.wav
192,192,81920,1,0,0:0:0:0:
320,192,82006,1,0,0:0:0:0:
192,192,82092,1,0,0:0:0:0:
448,192,82177,1,0,0:0:0:60:bass.wav
320,192,82177,1,0,0:0:0:60:crash.wav
64,192,82177,1,0,0:0:0:0:
64,192,82349,128,0,82406:0:0:0:0:
192,192,82406,128,0,82463:0:0:0:0:
320,192,82463,128,0,82520:0:0:0:0:
448,192,82520,128,0,82577:0:0:0:0:
64,192,82520,128,0,82577:0:0:0:0:
192,192,82577,128,0,82635:0:0:0:0:
320,192,82635,128,0,82692:0:0:0:0:
448,192,82692,128,0,82749:0:0:0:45:drum.wav
64,192,82692,1,0,0:0:0:0:
192,192,82749,1,0,0:0:0:0:
320,192,82806,1,0,0:0:0:0:
448,192,82863,1,0,0:0:0:60:bass.wav
64,192,82863,1,0,0:0:0:60:crash.wav
192,192,82863,1,0,0:0:0:0:
448,192,83206,1,0,0:0:0:60:bass.wav
320,192,83206,1,0,0:0:0:60:crash.wav
192,192,83206,1,0,0:0:0:0:
448,192,83549,1,0,0:0:0:60:bass.wav
192,192,83549,1,0,0:0:0:60:crash.wav
64,192,83549,1,0,0:0:0:0:
320,192,83720,1,0,0:0:0:60:crash.wav
64,192,83720,1,0,0:0:0:60:bass.wav
192,192,83806,1,0,0:0:0:0:
64,192,83892,1,0,0:0:0:60:bass.wav
448,192,83892,1,0,0:0:0:0:
320,192,83892,1,0,0:0:0:0:
192,192,83977,1,0,0:0:0:0:
448,192,84063,1,0,0:0:0:60:bass.wav
64,192,84063,1,0,0:0:0:60:crash.wav
320,192,84149,1,0,0:0:0:0:
192,192,84149,1,0,0:0:0:0:
448,192,84235,1,0,0:0:0:60:bass.wav
64,192,84235,1,0,0:0:0:0:
320,192,84320,1,0,0:0:0:0:
192,192,84406,1,0,0:0:0:60:bass.wav
64,192,84406,1,0,0:0:0:60:crash.wav
320,192,84492,1,0,0:0:0:60:bass.wav
448,192,84492,1,0,0:0:0:0:
192,192,84577,1,0,0:0:0:60:bass.wav
64,192,84577,1,0,0:0:0:0:
320,192,84663,1,0,0:0:0:60:bass.wav
448,192,84663,1,0,0:0:0:0:
192,192,84749,1,0,0:0:0:60:bass.wav
64,192,84749,1,0,0:0:0:60:boom.wav
448,192,84749,1,0,0:0:0:60:snare.wav
320,192,84749,1,0,0:0:0:0:
64,192,84920,1,0,0:0:0:45:drum.wav
320,192,84920,1,0,0:0:0:0:
448,192,84963,1,0,0:0:0:45:drum.wav
192,192,85006,1,0,0:0:0:45:drum.wav
320,192,85049,1,0,0:0:0:45:drum.wav
448,192,85092,1,0,0:0:0:60:crash.wav
64,192,85092,128,0,85177:0:0:0:60:bass.wav
320,192,85263,1,0,0:0:0:0:
64,192,85349,128,0,85435:0:0:0:0:
448,192,85435,1,0,0:0:0:0:
64,192,85606,128,0,85692:0:0:0:0:
320,192,85606,1,0,0:0:0:0:
192,192,85777,128,0,85863:0:0:0:0:
448,192,85777,1,0,0:0:0:0:
320,192,85949,1,0,0:0:0:0:
192,192,86035,128,0,86120:0:0:0:0:
448,192,86120,1,0,0:0:0:0:
192,192,86292,128,0,86377:0:0:0:0:
320,192,86292,1,0,0:0:0:0:
320,192,86463,128,0,86549:0:0:0:0:
64,192,86463,1,0,0:0:0:0:
192,192,86635,1,0,0:0:0:0:
320,192,86720,128,0,86806:0:0:0:0:
64,192,86806,1,0,0:0:0:0:
320,192,86977,128,0,87063:0:0:0:0:
192,192,86977,1,0,0:0:0:0:
448,192,87149,128,0,87235:0:0:0:0:
64,192,87149,1,0,0:0:0:0:
192,192,87320,1,0,0:0:0:60:crash.wav
64,192,87320,1,0,0:0:0:60:bass.wav
448,192,87406,128,0,87492:0:0:0:0:
192,192,87577,1,0,0:0:0:60:bass.wav
64,192,87577,1,0,0:0:0:60:crash.wav
448,192,87663,128,0,87749:0:0:0:0:
448,192,87835,1,0,0:0:0:60:bass.wav
64,192,87835,1,0,0:0:0:60:crash.wav
320,192,87835,128,0,87920:0:0:0:0:
192,192,88006,1,0,0:0:0:0:
320,192,88092,128,0,88177:0:0:0:0:
64,192,88177,1,0,0:0:0:0:
320,192,88349,128,0,88435:0:0:0:0:
192,192,88349,1,0,0:0:0:0:
192,192,88520,128,0,88606:0:0:0:0:
448,192,88520,1,0,0:0:0:0:
320,192,88692,1,0,0:0:0:0:
192,192,88777,128,0,88863:0:0:0:0:
448,192,88863,1,0,0:0:0:0:
192,192,89035,128,0,89120:0:0:0:0:
320,192,89035,1,0,0:0:0:0:
448,192,89206,128,0,89292:0:0:0:60:crash.wav
64,192,89206,1,0,0:0:0:60:bass.wav
192,192,89206,1,0,0:0:0:0:
320,192,89377,1,0,0:0:0:0:
448,192,89463,128,0,89549:0:0:0:0:
64,192,89549,1,0,0:0:0:0:
448,192,89720,128,0,89806:0:0:0:60:bass.wav
320,192,89720,1,0,0:0:0:60:crash.wav
64,192,89720,1,0,0:0:0:0:
320,192,89892,128,0,89977:0:0:0:0:
192,192,89892,1,0,0:0:0:0:
64,192,90063,1,0,0:0:0:0:
320,192,90149,128,0,90235:0:0:0:0:
192,192,90235,1,0,0:0:0:60:bass.wav
448,192,90235,1,0,0:0:0:60:crash.wav
320,192,90406,128,0,90492:0:0:0:0:
64,192,90406,1,0,0:0:0:0:
64,192,90577,128,0,90663:0:0:0:0:
320,192,90577,1,0,0:0:0:0:
448,192,90749,1,0,0:0:0:0:
64,192,90835,128,0,90920:0:0:0:0:
320,192,90920,1,0,0:0:0:60:crash.wav
192,192,90920,1,0,0:0:0:60:bass.wav
64,192,91092,128,0,91177:0:0:0:0:
448,192,91092,1,0,0:0:0:0:
192,192,91263,128,0,91349:0:0:0:0:
320,192,91263,1,0,0:0:0:0:
448,192,91435,1,0,0:0:0:0:
192,192,91520,128,0,91606:0:0:0:0:
320,192,91606,1,0,0:0:0:0:
192,192,91777,128,0,91863:0:0:0:0:
448,192,91777,1,0,0:0:0:0:
320,192,91949,128,0,92035:0:0:0:60:bass.wav
64,192,91949,1,0,0:0:0:60:crash.wav
448,192,91949,1,0,0:0:0:0:
192,192,92120,1,0,0:0:0:0:
320,192,92206,128,0,92292:0:0:0:0:
64,192,92292,1,0,0:0:0:0:
320,192,92463,128,0,92549:0:0:0:0:
192,192,92463,1,0,0:0:0:0:
448,192,92635,128,0,92720:0:0:0:0:
320,192,92635,1,0,0:0:0:0:
192,192,92806,1,0,0:0:0:0:
448,192,92892,128,0,92977:0:0:0:0:
320,192,92977,1,0,0:0:0:0:
448,192,93149,128,0,93235:0:0:0:0:
192,192,93149,1,0,0:0:0:0:
320,192,93320,1,0,0:0:0:60:crash.wav
448,192,93320,1,0,0:0:0:60:bass.wav
64,192,93320,1,0,0:0:0:45:drum.wav
192,192,93406,1,0,0:0:0:45:drum.wav
320,192,93492,1,0,0:0:0:45:drum.wav
448,192,93492,1,0,0:0:0:0:
192,192,93577,1,0,0:0:0:45:drum.wav
320,192,93663,1,0,0:0:0:45:drum.wav
64,192,93663,1,0,0:0:0:0:
192,192,93749,1,0,0:0:0:45:drum.wav
320,192,93835,1,0,0:0:0:45:drum.wav
448,192,93835,1,0,0:0:0:0:
192,192,93920,1,0,0:0:0:45:drum.wav
320,192,94006,1,0,0:0:0:45:drum.wav
64,192,94006,1,0,0:0:0:60:crash.wav
448,192,94006,1,0,0:0:0:60:bass.wav
192,192,94092,1,0,0:0:0:45:drum.wav
448,192,94177,1,0,0:0:0:45:drum.wav
320,192,94177,1,0,0:0:0:0:
192,192,94263,1,0,0:0:0:45:drum.wav
448,192,94349,1,0,0:0:0:45:drum.wav
64,192,94349,1,0,0:0:0:0:
192,192,94435,1,0,0:0:0:45:drum.wav
448,192,94520,1,0,0:0:0:45:drum.wav
320,192,94520,1,0,0:0:0:0:
192,192,94606,1,0,0:0:0:45:drum.wav
64,192,94692,1,0,0:0:0:60:crash.wav
448,192,94692,1,0,0:0:0:60:bass.wav
192,192,94777,1,0,0:0:0:45:drum.wav
320,192,94777,1,0,0:0:0:0:
448,192,94863,1,0,0:0:0:45:drum.wav
64,192,94863,1,0,0:0:0:0:
320,192,94949,1,0,0:0:0:45:drum.wav
64,192,95035,1,0,0:0:0:60:bass.wav
192,192,95035,1,0,0:0:0:45:drum.wav
448,192,95120,1,0,0:0:0:45:drum.wav
320,192,95120,1,0,0:0:0:0:
192,192,95206,1,0,0:0:0:45:drum.wav
64,192,95206,1,0,0:0:0:0:
320,192,95292,1,0,0:0:0:45:drum.wav
64,192,95377,1,0,0:0:0:60:bass.wav
448,192,95377,1,0,0:0:0:45:drum.wav
192,192,95377,1,0,0:0:0:0:
192,192,95635,1,0,0:0:0:60:bass.wav
64,192,95635,1,0,0:0:0:45:drum.wav
320,192,95635,1,0,0:0:0:0:
192,192,95892,1,0,0:0:0:60:bass.wav
320,192,95892,1,0,0:0:0:45:drum.wav
448,192,95892,1,0,0:0:0:0:
448,192,96063,1,0,0:0:0:60:crash.wav
64,192,96063,1,0,0:0:0:60:bass.wav
192,192,96063,1,0,0:0:0:0:
320,192,96149,1,0,0:0:0:0:
192,192,96235,1,0,0:0:0:30:hihat.wav
64,192,96235,1,0,0:0:0:0:
320,192,96320,1,0,0:0:0:0:
448,192,96406,1,0,0:0:0:60:snare.wav
64,192,96406,1,0,0:0:0:0:
320,192,96577,1,0,0:0:0:30:hihat.wav
448,192,96577,1,0,0:0:0:0:
192,192,96663,1,0,0:0:0:0:
64,192,96749,1,0,0:0:0:60:bass.wav
448,192,96749,1,0,0:0:0:0:
320,192,96920,1,0,0:0:0:30:hihat.wav
192,192,96920,1,0,0:0:0:0:
192,192,97092,1,0,0:0:0:60:snare.wav
64,192,97092,1,0,0:0:0:0:
448,192,97092,1,0,0:0:0:0:
448,192,97263,128,0,97949:0:0:0:30:hihat.wav
320,192,97263,1,0,0:0:0:0:
192,192,97349,1,0,0:0:0:0:
64,192,97435,1,0,0:0:0:60:bass.wav
192,192,97520,1,0,0:0:0:0:
320,192,97606,1,0,0:0:0:30:hihat.wav
64,192,97692,1,0,0:0:0:0:
320,192,97777,1,0,0:0:0:60:snare.wav
192,192,97863,1,0,0:0:0:0:
64,192,97949,1,0,0:0:0:30:hihat.wav
320,192,97949,1,0,0:0:0:0:
448,192,98035,1,0,0:0:0:0:
192,192,98035,1,0,0:0:0:0:
64,192,98120,1,0,0:0:0:60:bass.wav
320,192,98120,1,0,0:0:0:0:
448,192,98292,1,0,0:0:0:30:hihat.wav
320,192,98292,1,0,0:0:0:0:
192,192,98463,1,0,0:0:0:60:snare.wav
64,192,98463,1,0,0:0:0:0:
448,192,98463,1,0,0:0:0:0:
192,192,98635,1,0,0:0:0:30:hihat.wav
320,192,98635,1,0,0:0:0:0:
448,192,98806,1,0,0:0:0:60:bass.wav
320,192,98806,1,0,0:0:0:0:
64,192,98806,1,0,0:0:0:0:
192,192,98977,1,0,0:0:0:30:hihat.wav
448,192,98977,1,0,0:0:0:0:
64,192,99063,1,0,0:0:0:0:
192,192,99149,1,0,0:0:0:60:snare.wav
320,192,99149,1,0,0:0:0:0:
64,192,99320,1,0,0:0:0:30:hihat.wav
320,192,99320,1,0,0:0:0:0:
448,192,99406,1,0,0:0:0:0:
192,192,99492,1,0,0:0:0:60:bass.wav
320,192,99492,1,0,0:0:0:0:
192,192,99663,1,0,0:0:0:30:hihat.wav
64,192,99663,1,0,0:0:0:0:
320,192,99835,1,0,0:0:0:60:snare.wav
448,192,99835,1,0,0:0:0:0:
192,192,99835,1,0,0:0:0:0:
64,192,100006,1,0,0:0:0:30:hihat.wav
320,192,100006,1,0,0:0:0:0:
192,192,100177,1,0,0:0:0:60:bass.wav
64,192,100177,128,0,100692:0:0:0:0:
448,192,100263,1,0,0:0:0:0:
320,192,100349,1,0,0:0:0:30:hihat.wav
192,192,100435,1,0,0:0:0:0:
320,192,100520,1,0,0:0:0:60:snare.wav
448,192,100520,1,0,0:0:0:0:
192,192,100606,1,0,0:0:0:0:
448,192,100692,128,0,101120:0:0:0:30:hihat.wav
320,192,100692,1,0,0:0:0:0:
64,192,100777,1,0,0:0:0:0:
320,192,100863,1,0,0:0:0:60:bass.wav
192,192,100949,1,0,0:0:0:0:
64,192,101035,1,0,0:0:0:30:hihat.wav
192,192,101120,1,0,0:0:0:0:
448,192,101206,1,0,0:0:0:60:snare.wav
320,192,101206,1,0,0:0:0:45:drum.wav
64,192,101249,1,0,0:0:0:45:drum.wav
192,192,101292,1,0,0:0:0:45:drum.wav
320,192,101335,1,0,0:0:0:45:drum.wav
448,192,101377,1,0,0:0:0:30:hihat.wav
64,192,101377,1,0,0:0:0:45:drum.wav
192,192,101420,1,0,0:0:0:45:drum.wav
320,192,101463,1,0,0:0:0:45:drum.wav
448,192,101506,1,0,0:0:0:45:drum.wav
192,192,101549,1,0,0:0:0:60:crash.wav
64,192,101549,1,0,0:0:0:60:bass.wav
192,192,101806,1,0,0:0:0:60:crash.wav
64,192,101806,1,0,0:0:0:60:bass.wav
320,192,101806,1,0,0:0:0:0:
320,192,102063,1,0,0:0:0:60:crash.wav
192,192,102063,1,0,0:0:0:60:bass.wav
448,192,102063,1,0,0:0:0:0:
448,192,102320,1,0,0:0:0:0:
320,192,102320,1,0,0:0:0:70:crash.wav
192,192,102320,1,0,0:0:0:70:bass.wav
192,192,102577,1,0,0:0:0:60:bass.wav
64,192,102577,1,0,0:0:0:60:crash.wav
448,192,102577,1,0,0:0:0:0:
320,192,102835,1,0,0:0:0:60:crash.wav
192,192,102835,1,0,0:0:0:60:bass.wav
64,192,102835,1,0,0:0:0:0:
448,192,103006,1,0,0:0:0:0:
320,192,103049,1,0,0:0:0:0:
64,192,103092,1,0,0:0:0:45:drum.wav
192,192,103092,1,0,0:0:0:0:
448,192,103135,1,0,0:0:0:45:drum.wav
320,192,103177,1,0,0:0:0:45:drum.wav
64,192,103177,1,0,0:0:0:0:
192,192,103220,1,0,0:0:0:45:drum.wav
448,192,103263,1,0,0:0:0:60:crash.wav
320,192,103263,1,0,0:0:0:60:bass.wav
192,192,103435,1,0,0:0:0:0:
320,192,103520,1,0,0:0:0:0:
448,192,103606,1,0,0:0:0:60:crash.wav
64,192,103606,1,0,0:0:0:60:bass.wav
192,192,103606,1,0,0:0:0:0:
320,192,103692,1,0,0:0:0:0:
192,192,103777,1,0,0:0:0:0:
320,192,103863,1,0,0:0:0:60:bass.wav
448,192,103863,1,0,0:0:0:60:crash.wav
64,192,103863,1,0,0:0:0:0:
192,192,103949,1,0,0:0:0:0:
320,192,104035,1,0,0:0:0:0:
448,192,104120,1,0,0:0:0:60:crash.wav
192,192,104120,1,0,0:0:0:60:bass.wav
64,192,104120,1,0,0:0:0:0:
320,192,104292,1,0,0:0:0:60:bass.wav
64,192,104292,1,0,0:0:0:60:crash.wav
448,192,104292,1,0,0:0:0:0:
192,192,104377,1,0,0:0:0:0:
64,192,104463,1,0,0:0:0:60:bass.wav
448,192,104463,1,0,0:0:0:0:
320,192,104549,1,0,0:0:0:0:
192,192,104635,1,0,0:0:0:60:bass.wav
64,192,104635,1,0,0:0:0:0:
448,192,104720,1,0,0:0:0:0:
320,192,104806,1,0,0:0:0:60:bass.wav
192,192,104806,1,0,0:0:0:0:
64,192,104892,1,0,0:0:0:0:
320,192,104977,1,0,0:0:0:60:bass.wav
448,192,104977,1,0,0:0:0:0:
320,192,105063,1,0,0:0:0:60:bass.wav
448,192,105063,1,0,0:0:0:0:
192,192,105149,1,0,0:0:0:60:bass.wav
64,192,105149,1,0,0:0:0:0:
192,192,105235,1,0,0:0:0:60:bass.wav
64,192,105235,1,0,0:0:0:0:
448,192,105320,1,0,0:0:0:60:bass.wav
320,192,105320,1,0,0:0:0:0:
320,192,105406,1,0,0:0:0:60:bass.wav
448,192,105406,1,0,0:0:0:0:
192,192,105492,1,0,0:0:0:60:bass.wav
64,192,105492,1,0,0:0:0:0:
192,192,105577,1,0,0:0:0:60:bass.wav
64,192,105577,1,0,0:0:0:0:
320,192,105663,1,0,0:0:0:60:bass.wav
448,192,105663,1,0,0:0:0:0:
448,192,105749,1,0,0:0:0:60:bass.wav
320,192,105749,1,0,0:0:0:0:
192,192,105835,1,0,0:0:0:60:bass.wav
64,192,105835,1,0,0:0:0:0:
192,192,105920,1,0,0:0:0:60:bass.wav
64,192,105920,1,0,0:0:0:0:
320,192,106006,1,0,0:0:0:60:bass.wav
448,192,106006,1,0,0:0:0:0:
320,192,106092,1,0,0:0:0:60:bass.wav
448,192,106092,1,0,0:0:0:0:
192,192,106177,1,0,0:0:0:60:bass.wav
64,192,106177,1,0,0:0:0:0:
192,192,106263,1,0,0:0:0:60:bass.wav
64,192,106263,1,0,0:0:0:0:
448,192,106349,1,0,0:0:0:60:bass.wav
320,192,106349,1,0,0:0:0:0:
64,192,106435,1,0,0:0:0:0:
448,192,106520,1,0,0:0:0:45:drum.wav
320,192,106563,1,0,0:0:0:45:drum.wav
192,192,106606,1,0,0:0:0:45:drum.wav
64,192,106649,1,0,0:0:0:45:drum.wav
320,192,106692,1,0,0:0:0:60:bass.wav
448,192,106692,1,0,0:0:0:0:
192,192,106777,1,0,0:0:0:60:bass.wav
64,192,106863,1,0,0:0:0:45:drum.wav
192,192,106906,1,0,0:0:0:45:drum.wav
320,192,106949,1,0,0:0:0:45:drum.wav
448,192,106992,1,0,0:0:0:45:drum.wav
64,192,107035,1,0,0:0:0:60:crash.wav
192,192,107035,1,0,0:0:0:60:bass.wav
64,192,107377,1,0,0:0:0:45:drum.wav
448,192,107377,1,0,0:0:0:0:
320,192,107463,1,0,0:0:0:45:drum.wav
448,192,107549,1,0,0:0:0:45:drum.wav
320,192,107635,1,0,0:0:0:45:drum.wav
64,192,107720,1,0,0:0:0:45:drum.wav
448,192,107720,1,0,0:0:0:0:
192,192,107806,1,0,0:0:0:45:drum.wav
448,192,107892,1,0,0:0:0:45:drum.wav
64,192,107977,1,0,0:0:0:45:drum.wav
320,192,107977,1,0,0:0:0:0:
192,192,108063,1,0,0:0:0:45:drum.wav
320,192,108149,1,0,0:0:0:45:drum.wav
64,192,108235,1,0,0:0:0:45:drum.wav
448,192,108235,1,0,0:0:0:0:
192,192,108320,1,0,0:0:0:45:drum.wav
448,192,108406,1,0,0:0:0:60:bass.wav
320,192,108406,1,0,0:0:0:0:
64,192,108406,1,0,0:0:0:0:
192,192,108492,1,0,0:0:0:0:
448,192,108577,1,0,0:0:0:60:bass.wav
320,192,108577,1,0,0:0:0:0:
192,192,108663,1,0,0:0:0:0:
448,192,108749,1,0,0:0:0:60:bass.wav
64,192,108749,1,0,0:0:0:0:
320,192,108835,1,0,0:0:0:0:
448,192,108920,1,0,0:0:0:60:bass.wav
192,192,108920,1,0,0:0:0:0:
320,192,109006,1,0,0:0:0:0:
448,192,109092,1,0,0:0:0:60:bass.wav
64,192,109092,1,0,0:0:0:0:
192,192,109177,1,0,0:0:0:60:bass.wav
320,192,109177,1,0,0:0:0:0:
64,192,109263,1,0,0:0:0:60:bass.wav
448,192,109263,1,0,0:0:0:0:
320,192,109349,1,0,0:0:0:60:bass.wav
192,192,109349,1,0,0:0:0:0:
64,192,109435,1,0,0:0:0:60:bass.wav
448,192,109435,1,0,0:0:0:0:
320,192,109520,1,0,0:0:0:60:bass.wav
192,192,109520,1,0,0:0:0:0:
64,192,109606,1,0,0:0:0:60:bass.wav
448,192,109606,1,0,0:0:0:0:
192,192,109692,1,0,0:0:0:60:bass.wav
320,192,109692,1,0,0:0:0:0:
192,192,110120,128,0,110549:0:0:0:0:
64,192,110635,1,0,0:0:0:60:crash.wav
192,192,110635,1,0,0:0:0:0:
448,192,110635,1,0,0:0:0:0:
320,192,110806,1,0,0:0:0:0:
192,192,110863,1,0,0:0:0:0:
64,192,110920,1,0,0:0:0:0:
448,192,110977,1,0,0:0:0:0:
320,192,110977,1,0,0:0:0:0:
