osu file format v14

[General]
AudioFilename: audio.mp3
AudioLeadIn: 0
PreviewTime: 11035
Countdown: 0
SampleSet: Soft
StackLeniency: 0.7
Mode: 3
LetterboxInBreaks: 0
SpecialStyle: 0
WidescreenStoryboard: 0

[Editor]
DistanceSpacing: 0.8
BeatDivisor: 4
GridSize: 4
TimelineZoom: 1.6

[Metadata]
Title:Keigan no Zettaireido
TitleUnicode:炯眼の絶対零度
Artist:polysha
ArtistUnicode:polysha
Creator:Critical_Star
Version:Casual Lv.3
Source:Dynamix
Tags:Absolutely Freezing Gold Track Hardcore C4Cat Kuo Kyoka
BeatmapID:1433257
BeatmapSetID:677755

[Difficulty]
HPDrainRate:6.5
CircleSize:4
OverallDifficulty:7
ApproachRate:5
SliderMultiplier:1.4
SliderTickRate:1

[Events]
//Background and Video events
0,0,"BG.png",0,0
//Break Periods
//Storyboard Layer 0 (Background)
//Storyboard Layer 1 (Fail)
//Storyboard Layer 2 (Pass)
//Storyboard Layer 3 (Foreground)
//Storyboard Sound Samples
Sample,1435,0,"boom.wav",60
Sample,8977,0,"crash.wav",60
Sample,9235,0,"crash.wav",60
Sample,9492,0,"crash.wav",60
Sample,10520,0,"bass.wav",60
Sample,10606,0,"bass.wav",60
Sample,20035,0,"snare.wav",60
Sample,20120,0,"snare.wav",60
Sample,20206,0,"snare.wav",60
Sample,20377,0,"snare.wav",60
Sample,20463,0,"snare.wav",60
Sample,20549,0,"snare.wav",60
Sample,22006,0,"crash.wav",60
Sample,22177,0,"hihat.wav",30
Sample,22520,0,"hihat.wav",30
Sample,22863,0,"hihat.wav",30
Sample,23206,0,"hihat.wav",30
Sample,23549,0,"hihat.wav",30
Sample,23892,0,"hihat.wav",30
Sample,24235,0,"hihat.wav",30
Sample,24577,0,"hihat.wav",30
Sample,24920,0,"hihat.wav",30
Sample,25092,0,"bass.wav",60
Sample,25606,0,"hihat.wav",30
Sample,25949,0,"hihat.wav",30
Sample,26463,0,"bass.wav",60
Sample,26977,0,"hihat.wav",30
Sample,27320,0,"bass.wav",60
Sample,27320,0,"hihat.wav",30
Sample,27406,0,"bass.wav",60
Sample,27492,0,"crash.wav",60
Sample,27663,0,"hihat.wav",30
Sample,28006,0,"hihat.wav",30
Sample,28349,0,"hihat.wav",30
Sample,28692,0,"hihat.wav",30
Sample,29035,0,"crash.wav",60
Sample,29292,0,"crash.wav",60
Sample,29549,0,"crash.wav",60
Sample,29806,0,"crash.wav",60
Sample,30063,0,"crash.wav",60
Sample,30235,0,"crash.wav",60
Sample,30577,0,"bass.wav",60
Sample,30920,0,"bass.wav",60
Sample,31006,0,"bass.wav",60
Sample,31092,0,"bass.wav",60
Sample,31177,0,"bass.wav",60
Sample,31263,0,"crash.wav",60
Sample,31349,0,"bass.wav",60
Sample,31435,0,"bass.wav",60
Sample,31520,0,"bass.wav",60
Sample,31606,0,"crash.wav",60
Sample,31692,0,"bass.wav",60
Sample,31820,0,"drum.wav",45
Sample,31863,0,"drum.wav",45
Sample,31906,0,"drum.wav",45
Sample,32035,0,"bass.wav",60
Sample,32163,0,"drum.wav",45
Sample,32206,0,"drum.wav",45
Sample,32249,0,"drum.wav",45
Sample,32377,0,"bass.wav",60
Sample,32463,0,"bass.wav",60
Sample,32549,0,"bass.wav",60
Sample,32977,0,"bass.wav",60
Sample,33149,0,"hihat.wav",30
Sample,33492,0,"hihat.wav",30
Sample,34349,0,"bass.wav",60
Sample,34692,0,"snare.wav",60
Sample,35035,0,"bass.wav",60
Sample,35720,0,"bass.wav",60
Sample,37092,0,"bass.wav",60
Sample,37435,0,"snare.wav",60
Sample,38292,0,"bass.wav",60
Sample,38463,0,"bass.wav",60
Sample,38635,0,"hihat.wav",30
Sample,38977,0,"hihat.wav",30
Sample,39320,0,"hihat.wav",30
Sample,39492,0,"snare.wav",60
Sample,39835,0,"bass.wav",60
Sample,40349,0,"hihat.wav",30
Sample,40692,0,"hihat.wav",30
Sample,41035,0,"hihat.wav",30
Sample,41377,0,"hihat.wav",30
Sample,41720,0,"hihat.wav",30
Sample,42749,0,"hihat.wav",30
Sample,43092,0,"hihat.wav",30
Sample,43435,0,"hihat.wav",30
Sample,43777,0,"hihat.wav",30
Sample,43949,0,"bass.wav",60
Sample,44120,0,"hihat.wav",30
Sample,44292,0,"snare.wav",60
Sample,45320,0,"bass.wav",60
Sample,45663,0,"snare.wav",60
Sample,46006,0,"bass.wav",60
Sample,46692,0,"bass.wav",60
Sample,47035,0,"snare.wav",60
Sample,47206,0,"hihat.wav",30
Sample,47549,0,"hihat.wav",30
Sample,47720,0,"snare.wav",60
Sample,48235,0,"hihat.wav",30
Sample,48406,0,"snare.wav",60
Sample,48835,0,"bass.wav",60
Sample,48920,0,"hihat.wav",30
Sample,49006,0,"bass.wav",60
Sample,49263,0,"hihat.wav",30
Sample,49263,0,"bass.wav",60
Sample,49435,0,"crash.wav",60
Sample,50635,0,"crash.wav",60
Sample,50977,0,"bass.wav",60
Sample,51320,0,"crash.wav",60
Sample,51663,0,"crash.wav",60
Sample,52006,0,"bass.wav",60
Sample,52177,0,"bass.wav",60
Sample,52863,0,"crash.wav",60
Sample,53292,0,"bass.wav",60
Sample,53377,0,"drum.wav",45
Sample,53420,0,"drum.wav",45
Sample,53463,0,"drum.wav",45
Sample,53506,0,"drum.wav",45
Sample,53635,0,"bass.wav",60
Sample,53720,0,"drum.wav",45
Sample,53763,0,"drum.wav",45
Sample,53806,0,"drum.wav",45
Sample,53849,0,"drum.wav",45
Sample,53977,0,"bass.wav",60
Sample,54063,0,"drum.wav",45
Sample,54106,0,"drum.wav",45
Sample,54149,0,"drum.wav",45
Sample,54192,0,"drum.wav",45
Sample,54320,0,"bass.wav",60
Sample,54406,0,"bass.wav",60
Sample,54492,0,"bass.wav",60
Sample,54620,0,"drum.wav",45
Sample,54663,0,"drum.wav",45
Sample,54706,0,"drum.wav",45
Sample,54749,0,"drum.wav",45
Sample,54792,0,"drum.wav",45
Sample,54835,0,"drum.wav",45
Sample,54877,0,"drum.wav",45
Sample,54920,0,"bass.wav",60
Sample,58692,0,"bass.wav",60
Sample,58920,0,"bass.wav",60
Sample,60063,0,"bass.wav",60
Sample,60292,0,"bass.wav",60
Sample,62806,0,"boom.wav",60
Sample,63320,0,"hihat.wav",30
Sample,63663,0,"hihat.wav",30
Sample,64006,0,"hihat.wav",30
Sample,64177,0,"snare.wav",60
Sample,66063,0,"hihat.wav",30
Sample,66406,0,"hihat.wav",30
Sample,66749,0,"hihat.wav",30
Sample,66920,0,"snare.wav",60
Sample,68463,0,"bass.wav",60
Sample,68549,0,"bass.wav",60
Sample,68635,0,"bass.wav",60
Sample,68806,0,"hihat.wav",30
Sample,68977,0,"snare.wav",60
Sample,70177,0,"hihat.wav",30
Sample,70520,0,"hihat.wav",30
Sample,70863,0,"hihat.wav",30
Sample,71206,0,"hihat.wav",30
Sample,71549,0,"hihat.wav",30
Sample,71892,0,"hihat.wav",30
Sample,72235,0,"hihat.wav",30
Sample,72577,0,"hihat.wav",30
Sample,73520,0,"bass.wav",60
Sample,73606,0,"bass.wav",60
Sample,73949,0,"bass.wav",60
Sample,74035,0,"bass.wav",60
Sample,74120,0,"bass.wav",60
Sample,74292,0,"hihat.wav",30
Sample,74635,0,"hihat.wav",30
Sample,74977,0,"hihat.wav",30
Sample,75149,0,"snare.wav",60
Sample,77035,0,"hihat.wav",30
Sample,77377,0,"hihat.wav",30
Sample,77720,0,"hihat.wav",30
Sample,77892,0,"bass.wav",60
Sample,77892,0,"snare.wav",60
Sample,77977,0,"bass.wav",60
Sample,78063,0,"bass.wav",60
Sample,78149,0,"bass.wav",60
Sample,78235,0,"crash.wav",60
Sample,78492,0,"bass.wav",60
Sample,78749,0,"crash.wav",60
Sample,79006,0,"bass.wav",60
Sample,79263,0,"crash.wav",60
Sample,79435,0,"bass.wav",60
Sample,79992,0,"drum.wav",45
Sample,80035,0,"drum.wav",45
Sample,80077,0,"drum.wav",45
Sample,80120,0,"drum.wav",45
Sample,80163,0,"drum.wav",45
Sample,80206,0,"drum.wav",45
Sample,80249,0,"drum.wav",45
Sample,80292,0,"drum.wav",45
Sample,80335,0,"drum.wav",45
Sample,80377,0,"drum.wav",45
Sample,80420,0,"drum.wav",45
Sample,80463,0,"crash.wav",60
Sample,80806,0,"bass.wav",60
Sample,81149,0,"bass.wav",60
Sample,81406,0,"bass.wav",60
Sample,81663,0,"crash.wav",60
Sample,81920,0,"bass.wav",60
Sample,82177,0,"crash.wav",60
Sample,82692,0,"drum.wav",45
Sample,82735,0,"drum.wav",45
Sample,82777,0,"drum.wav",45
Sample,82820,0,"drum.wav",45
Sample,82863,0,"crash.wav",60
Sample,83206,0,"crash.wav",60
Sample,83549,0,"crash.wav",60
Sample,83720,0,"bass.wav",60
Sample,83720,0,"crash.wav",60
Sample,84063,0,"crash.wav",60
Sample,84063,0,"bass.wav",60
Sample,84235,0,"bass.wav",60
Sample,84406,0,"crash.wav",60
Sample,84492,0,"bass.wav",60
Sample,84577,0,"bass.wav",60
Sample,84663,0,"bass.wav",60
Sample,84749,0,"boom.wav",60
Sample,84749,0,"snare.wav",60
Sample,84920,0,"drum.wav",45
Sample,84963,0,"drum.wav",45
Sample,85006,0,"drum.wav",45
Sample,85049,0,"drum.wav",45
Sample,85092,0,"bass.wav",60
Sample,87320,0,"bass.wav",60
Sample,87577,0,"crash.wav",60
Sample,93320,0,"drum.wav",45
Sample,93320,0,"bass.wav",60
Sample,93406,0,"drum.wav",45
Sample,93492,0,"drum.wav",45
Sample,93577,0,"drum.wav",45
Sample,93663,0,"drum.wav",45
Sample,93749,0,"drum.wav",45
Sample,93835,0,"drum.wav",45
Sample,93920,0,"drum.wav",45
Sample,94006,0,"crash.wav",60
Sample,94006,0,"bass.wav",60
Sample,94092,0,"drum.wav",45
Sample,94177,0,"drum.wav",45
Sample,94263,0,"drum.wav",45
Sample,94349,0,"drum.wav",45
Sample,94435,0,"drum.wav",45
Sample,94520,0,"drum.wav",45
Sample,94606,0,"drum.wav",45
Sample,94692,0,"drum.wav",45
Sample,94692,0,"bass.wav",60
Sample,94777,0,"drum.wav",45
Sample,94863,0,"drum.wav",45
Sample,94949,0,"drum.wav",45
Sample,95035,0,"drum.wav",45
Sample,95120,0,"drum.wav",45
Sample,95206,0,"drum.wav",45
Sample,95292,0,"drum.wav",45
Sample,95377,0,"drum.wav",45
Sample,95420,0,"drum.wav",45
Sample,95463,0,"drum.wav",45
Sample,95506,0,"drum.wav",45
Sample,95635,0,"drum.wav",45
Sample,95677,0,"drum.wav",45
Sample,95720,0,"drum.wav",45
Sample,95763,0,"drum.wav",45
Sample,95892,0,"drum.wav",45
Sample,95935,0,"drum.wav",45
Sample,95977,0,"drum.wav",45
Sample,96020,0,"drum.wav",45
Sample,96063,0,"bass.wav",60
Sample,96235,0,"hihat.wav",30
Sample,96577,0,"hihat.wav",30
Sample,96920,0,"hihat.wav",30
Sample,97263,0,"hihat.wav",30
Sample,97606,0,"hihat.wav",30
Sample,97949,0,"hihat.wav",30
Sample,98292,0,"hihat.wav",30
Sample,98635,0,"hihat.wav",30
Sample,98977,0,"hihat.wav",30
Sample,99320,0,"hihat.wav",30
Sample,99663,0,"hihat.wav",30
Sample,100006,0,"hihat.wav",30
Sample,100349,0,"hihat.wav",30
Sample,100692,0,"hihat.wav",30
Sample,101035,0,"hihat.wav",30
Sample,101206,0,"drum.wav",45
Sample,101249,0,"drum.wav",45
Sample,101292,0,"drum.wav",45
Sample,101335,0,"drum.wav",45
Sample,101377,0,"hihat.wav",30
Sample,101377,0,"drum.wav",45
Sample,101420,0,"drum.wav",45
Sample,101463,0,"drum.wav",45
Sample,101506,0,"drum.wav",45
Sample,101549,0,"bass.wav",60
Sample,101806,0,"bass.wav",60
Sample,102063,0,"bass.wav",60
Sample,102320,0,"bass.wav",60
Sample,102577,0,"crash.wav",60
Sample,102835,0,"bass.wav",60
Sample,103092,0,"drum.wav",45
Sample,103135,0,"drum.wav",45
Sample,103177,0,"drum.wav",45
Sample,103220,0,"drum.wav",45
Sample,103263,0,"bass.wav",60
Sample,103606,0,"bass.wav",60
Sample,103863,0,"crash.wav",60
Sample,104120,0,"bass.wav",60
Sample,104292,0,"crash.wav",60
Sample,105063,0,"bass.wav",60
Sample,105149,0,"bass.wav",60
Sample,105235,0,"bass.wav",60
Sample,105406,0,"bass.wav",60
Sample,105492,0,"bass.wav",60
Sample,105577,0,"bass.wav",60
Sample,105749,0,"bass.wav",60
Sample,105835,0,"bass.wav",60
Sample,105920,0,"bass.wav",60
Sample,106092,0,"bass.wav",60
Sample,106177,0,"bass.wav",60
Sample,106263,0,"bass.wav",60
Sample,106435,0,"bass.wav",60
Sample,106520,0,"drum.wav",45
Sample,106563,0,"drum.wav",45
Sample,106606,0,"drum.wav",45
Sample,106649,0,"drum.wav",45
Sample,106777,0,"bass.wav",60
Sample,106863,0,"drum.wav",45
Sample,106906,0,"drum.wav",45
Sample,106949,0,"drum.wav",45
Sample,106992,0,"drum.wav",45
Sample,107035,0,"bass.wav",60
Sample,107377,0,"drum.wav",45
Sample,107463,0,"drum.wav",45
Sample,107549,0,"drum.wav",45
Sample,107635,0,"drum.wav",45
Sample,107720,0,"drum.wav",45
Sample,107806,0,"drum.wav",45
Sample,107892,0,"drum.wav",45
Sample,107977,0,"drum.wav",45
Sample,108063,0,"drum.wav",45
Sample,108149,0,"drum.wav",45
Sample,108235,0,"drum.wav",45
Sample,108320,0,"drum.wav",45
Sample,109177,0,"bass.wav",60
Sample,109349,0,"bass.wav",60
Sample,109520,0,"bass.wav",60
Sample,109692,0,"bass.wav",60

[TimingPoints]
1435,342.857142857143,4,2,1,60,1,0
63149,-100,4,2,1,60,0,1
73435,-100,4,2,1,60,0,0
74120,-100,4,2,1,60,0,1
85092,-100,4,2,1,60,0,0
96063,-100,4,2,1,60,0,1
107035,-100,4,2,1,60,0,0

[HitObjects]
64,192,1435,5,0,0:0:0:60:crash.wav
448,192,1435,1,0,0:0:0:60:bass.wav
320,192,3835,1,0,0:0:0:60:clap.wav
448,192,4177,1,0,0:0:0:60:bass.wav
64,192,4177,1,0,0:0:0:60:crash.wav
192,192,4863,1,0,0:0:0:0:
448,192,5377,1,0,0:0:0:60:bass.wav
64,192,5377,1,0,0:0:0:60:crash.wav
320,192,5892,1,0,0:0:0:60:bass.wav
64,192,5892,1,0,0:0:0:60:crash.wav
448,192,6406,1,0,0:0:0:60:bass.wav
64,192,6406,1,0,0:0:0:60:crash.wav
64,192,6920,1,0,0:0:0:60:bass.wav
192,192,6920,1,0,0:0:0:60:crash.wav
448,192,7606,1,0,0:0:0:0:
320,192,7777,1,0,0:0:0:0:
192,192,7949,1,0,0:0:0:0:
64,192,8120,1,0,0:0:0:60:bass.wav
448,192,8120,1,0,0:0:0:60:crash.wav
448,192,8635,1,0,0:0:0:60:bass.wav
320,192,8635,1,0,0:0:0:60:crash.wav
64,192,8977,1,0,0:0:0:60:bass.wav
64,192,9235,1,0,0:0:0:60:bass.wav
448,192,9492,1,0,0:0:0:60:bass.wav
64,192,9492,1,0,0:0:0:0:
320,192,10692,1,0,0:0:0:60:clap.wav
448,192,11035,1,0,0:0:0:60:bass.wav
64,192,11035,1,0,0:0:0:60:crash.wav
192,192,11206,1,0,0:0:0:0:
320,192,11377,1,0,0:0:0:0:
448,192,11549,1,0,0:0:0:0:
320,192,12235,1,0,0:0:0:0:
192,192,12406,1,0,0:0:0:0:
448,192,12749,1,0,0:0:0:0:
64,192,13092,1,0,0:0:0:0:
192,192,13435,1,0,0:0:0:0:
448,192,13777,1,0,0:0:0:0:
320,192,13777,1,0,0:0:0:0:
192,192,14292,1,0,0:0:0:0:
64,192,14806,1,0,0:0:0:0:
320,192,15320,1,0,0:0:0:0:
64,192,15492,1,0,0:0:0:0:
192,192,15835,1,0,0:0:0:0:
320,192,16006,1,0,0:0:0:0:
448,192,16177,1,0,0:0:0:0:
64,192,16349,1,0,0:0:0:0:
320,192,16520,1,0,0:0:0:0:
448,192,17035,1,0,0:0:0:0:
320,192,17720,1,0,0:0:0:0:
64,192,17892,1,0,0:0:0:0:
192,192,18235,1,0,0:0:0:0:
320,192,18577,1,0,0:0:0:0:
448,192,18920,1,0,0:0:0:0:
192,192,19263,128,0,19606:0:0:0:0:
320,192,19606,128,0,19949:0:0:0:0:
64,192,19949,128,0,20292:0:0:0:60:snare.wav
448,192,20292,128,0,20635:0:0:0:60:snare.wav
64,192,20635,1,0,0:0:0:60:bass.wav
64,192,20892,1,0,0:0:0:60:bass.wav
64,192,21149,1,0,0:0:0:60:bass.wav
448,192,21149,1,0,0:0:0:0:
448,192,21663,128,0,22006:0:0:0:0:
192,192,22006,1,0,0:0:0:60:bass.wav
448,192,22349,1,0,0:0:0:60:bass.wav
192,192,22692,1,0,0:0:0:60:bass.wav
448,192,23035,1,0,0:0:0:60:bass.wav
64,192,23377,1,0,0:0:0:60:bass.wav
320,192,23720,1,0,0:0:0:60:bass.wav
64,192,24063,1,0,0:0:0:60:bass.wav
320,192,24406,1,0,0:0:0:60:bass.wav
192,192,24749,1,0,0:0:0:60:bass.wav
448,192,25006,1,0,0:0:0:0:
64,192,25263,1,0,0:0:0:30:hihat.wav
448,192,25435,128,0,25777:0:0:0:60:bass.wav
64,192,25777,128,0,26120:0:0:0:60:bass.wav
448,192,26120,1,0,0:0:0:60:bass.wav
192,192,26292,1,0,0:0:0:30:hihat.wav
192,192,26635,1,0,0:0:0:30:hihat.wav
448,192,26806,128,0,27149:0:0:0:60:bass.wav
192,192,27149,128,0,27492:0:0:0:60:bass.wav
448,192,27492,1,0,0:0:0:60:bass.wav
320,192,27835,1,0,0:0:0:60:bass.wav
64,192,28177,1,0,0:0:0:60:bass.wav
448,192,28520,1,0,0:0:0:60:bass.wav
192,192,28692,1,0,0:0:0:60:bass.wav
320,192,29035,1,0,0:0:0:60:bass.wav
320,192,29292,1,0,0:0:0:60:bass.wav
192,192,29549,1,0,0:0:0:60:bass.wav
192,192,29806,1,0,0:0:0:60:bass.wav
64,192,30063,1,0,0:0:0:60:bass.wav
448,192,30235,1,0,0:0:0:60:bass.wav
192,192,30406,1,0,0:0:0:60:bass.wav
448,192,30577,1,0,0:0:0:60:crash.wav
64,192,30749,1,0,0:0:0:60:bass.wav
320,192,30920,128,0,31263:0:0:0:60:crash.wav
64,192,31263,128,0,31606:0:0:0:60:bass.wav
448,192,31606,1,0,0:0:0:60:bass.wav
320,192,31777,1,0,0:0:0:45:drum.wav
192,192,31949,1,0,0:0:0:60:bass.wav
64,192,32120,1,0,0:0:0:45:drum.wav
448,192,32292,128,0,32635:0:0:0:60:bass.wav
64,192,32635,128,0,32977:0:0:0:60:snare.wav
448,192,32977,1,0,0:0:0:60:crash.wav
64,192,33320,1,0,0:0:0:60:snare.wav
320,192,33663,1,0,0:0:0:60:bass.wav
64,192,33835,1,0,0:0:0:30:hihat.wav
320,192,34006,1,0,0:0:0:60:snare.wav
192,192,34177,1,0,0:0:0:30:hihat.wav
448,192,34520,1,0,0:0:0:30:hihat.wav
320,192,34863,1,0,0:0:0:30:hihat.wav
64,192,35206,1,0,0:0:0:30:hihat.wav
192,192,35377,1,0,0:0:0:60:snare.wav
320,192,35549,1,0,0:0:0:30:hihat.wav
448,192,35892,1,0,0:0:0:30:hihat.wav
320,192,36063,1,0,0:0:0:60:snare.wav
64,192,36235,1,0,0:0:0:30:hihat.wav
320,192,36406,1,0,0:0:0:60:bass.wav
192,192,36577,1,0,0:0:0:30:hihat.wav
448,192,36749,1,0,0:0:0:60:snare.wav
320,192,36920,1,0,0:0:0:30:hihat.wav
448,192,37263,1,0,0:0:0:30:hihat.wav
320,192,37606,1,0,0:0:0:30:hihat.wav
64,192,37777,1,0,0:0:0:60:bass.wav
448,192,37949,1,0,0:0:0:30:hihat.wav
64,192,38120,1,0,0:0:0:60:snare.wav
320,192,38292,1,0,0:0:0:30:hihat.wav
64,192,38463,128,0,38806:0:0:0:60:crash.wav
320,192,38806,128,0,39149:0:0:0:60:snare.wav
64,192,39149,1,0,0:0:0:60:bass.wav
448,192,39406,1,0,0:0:0:0:
192,192,39663,1,0,0:0:0:30:hihat.wav
192,192,40006,1,0,0:0:0:30:hihat.wav
448,192,40177,128,0,40520:0:0:0:60:snare.wav
192,192,40520,128,0,40863:0:0:0:60:bass.wav
64,192,40863,128,0,41206:0:0:0:60:snare.wav
448,192,41206,1,0,0:0:0:60:bass.wav
192,192,41549,1,0,0:0:0:60:snare.wav
448,192,41892,1,0,0:0:0:60:bass.wav
64,192,42063,1,0,0:0:0:30:hihat.wav
192,192,42235,1,0,0:0:0:60:snare.wav
448,192,42406,1,0,0:0:0:30:hihat.wav
320,192,42577,1,0,0:0:0:60:bass.wav
64,192,42749,1,0,0:0:0:0:
64,192,43092,1,0,0:0:0:0:
448,192,43263,1,0,0:0:0:60:bass.wav
448,192,43435,1,0,0:0:0:60:bass.wav
192,192,43606,1,0,0:0:0:60:bass.wav
320,192,43777,1,0,0:0:0:60:bass.wav
64,192,43949,1,0,0:0:0:60:crash.wav
320,192,44292,1,0,0:0:0:0:
448,192,44463,1,0,0:0:0:30:hihat.wav
64,192,44635,1,0,0:0:0:60:bass.wav
192,192,44806,1,0,0:0:0:30:hihat.wav
320,192,44977,1,0,0:0:0:60:snare.wav
448,192,45149,1,0,0:0:0:30:hihat.wav
192,192,45492,1,0,0:0:0:30:hihat.wav
320,192,45835,1,0,0:0:0:30:hihat.wav
64,192,46177,1,0,0:0:0:30:hihat.wav
320,192,46349,1,0,0:0:0:60:snare.wav
64,192,46520,1,0,0:0:0:30:hihat.wav
320,192,46863,1,0,0:0:0:30:hihat.wav
192,192,47120,1,0,0:0:0:0:
448,192,47377,1,0,0:0:0:60:bass.wav
192,192,47635,1,0,0:0:0:0:
64,192,47892,1,0,0:0:0:30:hihat.wav
320,192,48063,1,0,0:0:0:60:bass.wav
448,192,48577,1,0,0:0:0:30:hihat.wav
64,192,48749,128,0,49092:0:0:0:60:bass.wav
320,192,49092,128,0,49435:0:0:0:60:bass.wav
64,192,49435,1,0,0:0:0:60:bass.wav
448,192,50635,1,0,0:0:0:60:bass.wav
64,192,50977,1,0,0:0:0:60:crash.wav
448,192,51320,1,0,0:0:0:60:bass.wav
64,192,51663,1,0,0:0:0:60:bass.wav
448,192,52006,1,0,0:0:0:60:crash.wav
64,192,52177,1,0,0:0:0:60:crash.wav
320,192,52349,1,0,0:0:0:60:bass.wav
64,192,52520,1,0,0:0:0:60:bass.wav
448,192,52692,1,0,0:0:0:60:bass.wav
192,192,52863,1,0,0:0:0:60:bass.wav
448,192,53035,1,0,0:0:0:60:bass.wav
64,192,53206,128,0,53549:0:0:0:60:bass.wav
448,192,53549,128,0,53892:0:0:0:60:bass.wav
192,192,53892,128,0,54235:0:0:0:60:bass.wav
320,192,54235,128,0,54577:0:0:0:60:bass.wav
64,192,54577,128,0,54920:0:0:0:45:drum.wav
448,192,54920,1,0,0:0:0:60:crash.wav
64,192,55606,1,0,0:0:0:0:
192,192,56292,1,0,0:0:0:0:
320,192,56977,1,0,0:0:0:0:
64,192,57663,1,0,0:0:0:60:bass.wav
64,192,57892,1,0,0:0:0:60:bass.wav
64,192,58120,1,0,0:0:0:60:bass.wav
192,192,58349,1,0,0:0:0:60:bass.wav
192,192,58577,1,0,0:0:0:60:bass.wav
192,192,58806,1,0,0:0:0:60:bass.wav
320,192,59035,1,0,0:0:0:60:bass.wav
320,192,59263,1,0,0:0:0:60:bass.wav
320,192,59492,1,0,0:0:0:60:bass.wav
448,192,59720,1,0,0:0:0:60:bass.wav
448,192,59949,1,0,0:0:0:60:bass.wav
448,192,60177,1,0,0:0:0:60:bass.wav
64,192,60406,1,0,0:0:0:60:bass.wav
192,192,60406,1,0,0:0:0:60:crash.wav
64,192,61777,128,0,62120:0:0:0:0:
192,192,62120,128,0,62463:0:0:0:0:
320,192,62463,128,0,62806:0:0:0:0:
448,192,62806,128,0,63149:0:0:0:60:clap.wav
192,192,63149,1,0,0:0:0:60:crash.wav
64,192,63149,1,0,0:0:0:60:bass.wav
448,192,63492,1,0,0:0:0:60:snare.wav
64,192,63835,1,0,0:0:0:60:bass.wav
320,192,64092,1,0,0:0:0:0:
448,192,64349,1,0,0:0:0:30:hihat.wav
192,192,64520,1,0,0:0:0:60:bass.wav
320,192,64692,1,0,0:0:0:30:hihat.wav
64,192,64863,1,0,0:0:0:60:snare.wav
320,192,65035,1,0,0:0:0:30:hihat.wav
192,192,65206,1,0,0:0:0:60:bass.wav
448,192,65377,1,0,0:0:0:30:hihat.wav
64,192,65549,1,0,0:0:0:60:snare.wav
320,192,65720,1,0,0:0:0:30:hihat.wav
64,192,65892,1,0,0:0:0:60:bass.wav
192,192,66235,1,0,0:0:0:60:snare.wav
448,192,66577,1,0,0:0:0:60:bass.wav
192,192,66835,1,0,0:0:0:0:
64,192,67092,1,0,0:0:0:30:hihat.wav
320,192,67263,1,0,0:0:0:60:bass.wav
192,192,67435,1,0,0:0:0:30:hihat.wav
448,192,67606,1,0,0:0:0:60:snare.wav
64,192,67777,1,0,0:0:0:30:hihat.wav
320,192,67949,1,0,0:0:0:60:bass.wav
448,192,68120,1,0,0:0:0:30:hihat.wav
192,192,68292,1,0,0:0:0:60:snare.wav
320,192,68463,1,0,0:0:0:30:hihat.wav
64,192,68635,1,0,0:0:0:60:crash.wav
192,192,68892,1,0,0:0:0:0:
448,192,69149,1,0,0:0:0:30:hihat.wav
64,192,69320,1,0,0:0:0:60:bass.wav
192,192,69492,1,0,0:0:0:30:hihat.wav
448,192,69663,1,0,0:0:0:60:snare.wav
320,192,69835,1,0,0:0:0:30:hihat.wav
64,192,70006,1,0,0:0:0:60:bass.wav
320,192,70177,1,0,0:0:0:0:
448,192,70349,1,0,0:0:0:60:snare.wav
64,192,70520,1,0,0:0:0:0:
320,192,70692,1,0,0:0:0:70:bass.wav
192,192,70863,1,0,0:0:0:0:
320,192,71035,128,0,71377:0:0:0:60:snare.wav
64,192,71377,128,0,71720:0:0:0:60:bass.wav
192,192,71720,128,0,72063:0:0:0:60:snare.wav
448,192,72063,128,0,72749:0:0:0:60:bass.wav
320,192,72406,128,0,72749:0:0:0:60:snare.wav
64,192,72749,1,0,0:0:0:60:bass.wav
320,192,72920,1,0,0:0:0:60:bass.wav
64,192,73092,1,0,0:0:0:60:bass.wav
320,192,73263,1,0,0:0:0:60:bass.wav
64,192,73435,128,0,73777:0:0:0:60:bass.wav
448,192,73777,128,0,74120:0:0:0:60:bass.wav
64,192,74120,1,0,0:0:0:60:crash.wav
448,192,74463,1,0,0:0:0:60:snare.wav
320,192,74806,1,0,0:0:0:60:bass.wav
64,192,75063,1,0,0:0:0:0:
192,192,75320,1,0,0:0:0:30:hihat.wav
448,192,75492,1,0,0:0:0:60:bass.wav
320,192,75663,1,0,0:0:0:30:hihat.wav
448,192,75835,1,0,0:0:0:60:snare.wav
192,192,76006,1,0,0:0:0:30:hihat.wav
448,192,76177,1,0,0:0:0:60:bass.wav
320,192,76349,1,0,0:0:0:30:hihat.wav
64,192,76520,1,0,0:0:0:60:snare.wav
192,192,76692,1,0,0:0:0:30:hihat.wav
448,192,76863,1,0,0:0:0:60:bass.wav
64,192,77206,1,0,0:0:0:60:snare.wav
192,192,77549,1,0,0:0:0:60:bass.wav
448,192,77806,1,0,0:0:0:0:
320,192,78063,1,0,0:0:0:30:hihat.wav
64,192,78235,1,0,0:0:0:60:bass.wav
64,192,78492,1,0,0:0:0:60:crash.wav
192,192,78749,1,0,0:0:0:60:bass.wav
192,192,79006,1,0,0:0:0:60:crash.wav
448,192,79263,128,0,79606:0:0:0:60:bass.wav
192,192,79606,1,0,0:0:0:60:bass.wav
64,192,79606,1,0,0:0:0:60:crash.wav
192,192,79949,128,0,80463:0:0:0:45:drum.wav
448,192,80463,1,0,0:0:0:60:bass.wav
320,192,80806,1,0,0:0:0:60:crash.wav
64,192,81149,1,0,0:0:0:60:crash.wav
448,192,81406,1,0,0:0:0:60:crash.wav
64,192,81663,1,0,0:0:0:60:bass.wav
320,192,81920,1,0,0:0:0:60:crash.wav
192,192,82177,1,0,0:0:0:60:bass.wav
192,192,82863,1,0,0:0:0:60:bass.wav
320,192,83206,1,0,0:0:0:60:bass.wav
448,192,83549,1,0,0:0:0:60:bass.wav
192,192,83892,1,0,0:0:0:60:bass.wav
64,192,84149,1,0,0:0:0:0:
320,192,84406,128,0,84749:0:0:0:60:bass.wav
448,192,84749,128,0,85092:0:0:0:60:bass.wav
64,192,85092,1,0,0:0:0:60:crash.wav
448,192,87320,1,0,0:0:0:60:crash.wav
448,192,87577,1,0,0:0:0:60:bass.wav
448,192,87835,1,0,0:0:0:60:bass.wav
64,192,87835,1,0,0:0:0:60:crash.wav
64,192,89206,1,0,0:0:0:60:crash.wav
448,192,89206,1,0,0:0:0:60:bass.wav
64,192,89720,1,0,0:0:0:60:bass.wav
448,192,89720,1,0,0:0:0:60:crash.wav
64,192,90235,1,0,0:0:0:60:bass.wav
448,192,90235,1,0,0:0:0:60:crash.wav
192,192,90577,1,0,0:0:0:0:
448,192,90920,1,0,0:0:0:60:crash.wav
320,192,90920,1,0,0:0:0:60:bass.wav
448,192,91949,1,0,0:0:0:60:bass.wav
320,192,91949,1,0,0:0:0:60:crash.wav
448,192,93320,128,0,94692:0:0:0:60:crash.wav
320,192,94006,128,0,94692:0:0:0:45:drum.wav
64,192,94692,1,0,0:0:0:60:crash.wav
192,192,95035,1,0,0:0:0:60:bass.wav
320,192,95377,1,0,0:0:0:60:bass.wav
64,192,95635,1,0,0:0:0:60:bass.wav
448,192,95892,1,0,0:0:0:60:bass.wav
192,192,96063,1,0,0:0:0:60:crash.wav
320,192,96406,1,0,0:0:0:60:snare.wav
64,192,96749,1,0,0:0:0:60:bass.wav
448,192,97092,1,0,0:0:0:60:snare.wav
320,192,97435,1,0,0:0:0:60:bass.wav
64,192,97777,1,0,0:0:0:60:snare.wav
320,192,98120,1,0,0:0:0:60:bass.wav
448,192,98463,1,0,0:0:0:60:snare.wav
192,192,98806,1,0,0:0:0:60:bass.wav
64,192,99149,1,0,0:0:0:60:snare.wav
320,192,99492,1,0,0:0:0:60:bass.wav
64,192,99835,1,0,0:0:0:60:snare.wav
448,192,100177,1,0,0:0:0:60:bass.wav
192,192,100520,1,0,0:0:0:60:snare.wav
320,192,100863,1,0,0:0:0:60:bass.wav
448,192,101206,128,0,101549:0:0:0:60:snare.wav
64,192,101549,1,0,0:0:0:60:crash.wav
64,192,101806,1,0,0:0:0:60:crash.wav
448,192,102063,1,0,0:0:0:60:crash.wav
448,192,102320,1,0,0:0:0:60:crash.wav
64,192,102577,1,0,0:0:0:60:bass.wav
448,192,102835,1,0,0:0:0:60:crash.wav
192,192,103263,1,0,0:0:0:60:crash.wav
448,192,103606,1,0,0:0:0:60:crash.wav
64,192,103863,1,0,0:0:0:60:bass.wav
448,192,104120,1,0,0:0:0:60:crash.wav
192,192,104292,1,0,0:0:0:60:bass.wav
64,192,104463,1,0,0:0:0:60:bass.wav
320,192,104635,1,0,0:0:0:60:bass.wav
192,192,104806,1,0,0:0:0:60:bass.wav
448,192,104977,128,0,105320:0:0:0:60:bass.wav
192,192,105320,128,0,105663:0:0:0:60:bass.wav
320,192,105663,128,0,106006:0:0:0:60:bass.wav
64,192,106006,128,0,106349:0:0:0:60:bass.wav
448,192,106349,128,0,107035:0:0:0:60:bass.wav
320,192,106692,128,0,107035:0:0:0:60:bass.wav
64,192,107035,1,0,0:0:0:60:crash.wav
64,192,108406,1,0,0:0:0:60:bass.wav
192,192,108577,1,0,0:0:0:60:bass.wav
448,192,108749,1,0,0:0:0:60:bass.wav
320,192,108920,1,0,0:0:0:60:bass.wav
64,192,109092,1,0,0:0:0:60:bass.wav
320,192,109263,1,0,0:0:0:60:bass.wav
192,192,109435,1,0,0:0:0:60:bass.wav
448,192,109606,1,0,0:0:0:60:bass.wav
64,192,110635,1,0,0:0:0:60:crash.wav
448,192,110635,1,0,0:0:0:0:
