osu file format v14

[General]
AudioFilename: beatmap-637451681832791236-asdn.mp3
AudioLeadIn: 0
PreviewTime: 27272
Countdown: 0
SampleSet: Soft
StackLeniency: 0.7
Mode: 2
LetterboxInBreaks: 0
WidescreenStoryboard: 1

[Editor]
Bookmarks: 95289,96324,97703,98910,100462,101841,103220,104600,105979
DistanceSpacing: 1.8
BeatDivisor: 4
GridSize: 32
TimelineZoom: 2.100001

[Metadata]
Title:Hypnos Metropolis
TitleUnicode:Hypnos Metropolis
Artist:polysha
ArtistUnicode:polysha
Creator:Jemzuu
Version:Salad
Source:
Tags:axs rocma deif gigachad dako ajamez dtm9 nowa BMS G2R2018 drumstep electronic instrumental drum and bass n dnb dubstep edm trap tech GO BACK 2 YOUR ROOTS 2018 CLIMAX Glittering Neurofunk 明日一限ブラザーズ
BeatmapID:2783434
BeatmapSetID:1339895

[Difficulty]
HPDrainRate:4
CircleSize:3
OverallDifficulty:7
ApproachRate:7
SliderMultiplier:1.43
SliderTickRate:1

[Events]
//Background and Video events
0,0,"31775-artwork-digital_art-fantasy_art-futuristic-city.jpg",0,0
//Break Periods
//Storyboard Layer 0 (Background)
//Storyboard Layer 1 (Fail)
//Storyboard Layer 2 (Pass)
//Storyboard Layer 3 (Foreground)
//Storyboard Layer 4 (Overlay)
//Storyboard Sound Samples

[TimingPoints]
1152,344.827586206897,4,2,1,70,1,0
1152,-100,4,2,1,70,0,0
3220,-100,4,2,1,70,0,0
3738,-100,4,2,1,70,0,0
5807,-100,4,2,1,70,0,0
9427,-100,4,2,1,70,0,0
12186,-100,4,2,1,70,0,0
16152,-100,4,2,1,70,0,0
22100,-100,4,2,1,70,0,0
22531,-100,4,2,1,70,0,0
23220,-100,4,2,1,70,0,0
25289,-100,4,2,1,70,0,0
25634,-100,4,2,1,70,0,0
25979,-100,4,2,1,70,0,0
27358,-100,4,2,1,70,0,0
28048,-100,4,2,1,70,0,0
28738,-100,4,2,1,80,0,1
29083,-100,4,2,1,80,0,1
29427,-100,4,2,1,80,0,1
29772,-100,4,2,1,80,0,1
30117,-100,4,2,1,80,0,1
30462,-100,4,2,1,80,0,1
31496,-100,4,2,1,80,0,1
31841,-100,4,2,1,80,0,1
32531,-100,4,2,1,80,0,1
33048,-100,4,2,1,80,0,1
33220,-100,4,2,1,80,0,1
34255,-100,4,2,1,80,0,1
34945,-100,4,2,1,80,0,1
35289,-100,4,2,1,80,0,1
35634,-100,4,2,1,80,0,1
35893,-100,4,2,1,80,0,1
37013,-100,4,2,1,80,0,1
37703,-100,4,2,1,80,0,1
38048,-100,4,2,1,80,0,1
38220,-100,4,2,1,80,0,1
38565,-100,4,2,1,80,0,1
38737,-100,4,2,1,80,0,1
39083,-100,4,2,1,70,0,0
39772,-100,4,2,1,80,0,0
39858,-100,4,2,1,80,0,0
40117,-100,4,2,1,80,0,0
40203,-100,4,2,1,80,0,0
40376,-100,4,2,1,80,0,0
40462,-100,4,2,1,80,0,0
40634,-100,4,2,1,80,0,0
40720,-100,4,2,1,70,0,0
41152,-100,4,2,1,80,0,1
41410,-100,4,2,1,80,0,1
42531,-100,4,2,1,80,0,1
42876,-100,4,2,1,80,0,1
43566,-100,4,2,1,80,0,1
44083,-100,4,2,1,80,0,1
44255,-100,4,2,1,80,0,1
45289,-100,4,2,1,80,0,1
45633,-100,4,2,1,80,0,1
45979,-100,4,2,1,80,0,1
46410,-100,4,2,1,80,0,1
47014,-100,4,2,1,80,0,1
47531,-100,4,2,1,80,0,1
47876,-100,4,2,1,80,0,1
48393,-100,4,2,1,80,0,1
49255,-100,4,2,1,80,0,1
50289,-100,4,2,1,80,0,1
50807,-100,4,2,1,80,0,1
52014,-100,4,2,1,80,0,1
52703,-100,4,2,1,80,0,1
53220,-100,4,2,1,80,0,1
53393,-100,4,2,1,80,0,1
54772,-100,4,2,1,80,0,1
55117,-100,4,2,1,80,0,1
56324,-100,4,2,1,70,0,0
61152,-100,4,2,1,70,0,0
61841,-100,4,2,1,70,0,0
63738,-100,4,2,1,70,0,0
64600,-100,4,2,1,70,0,0
67358,-100,4,2,1,70,0,0
71152,-100,4,2,1,70,0,0
77014,-100,4,2,1,70,0,0
77703,-100,4,2,1,70,0,0
78220,-100,4,2,1,70,0,0
78393,-100,4,2,1,70,0,0
78738,-100,4,2,1,80,0,0
78910,-100,4,2,1,80,0,0
79772,-100,4,2,1,80,0,1
79945,-100,4,2,1,80,0,1
80117,-100,4,2,1,80,0,1
80807,-100,4,2,1,80,0,1
81152,-100,4,2,1,80,0,1
82358,-100,4,2,1,80,0,1
83220,-100,4,2,1,80,0,1
84255,-100,4,2,1,80,0,1
84600,-100,4,2,1,80,0,1
84945,-100,4,2,1,80,0,1
85462,-100,4,2,1,80,0,1
85634,-100,4,2,1,80,0,1
85979,-100,4,2,1,80,0,1
86324,-100,4,2,1,80,0,1
87014,-100,4,2,1,80,0,1
87358,-100,4,2,1,80,0,1
89427,-100,4,2,1,70,0,0
90289,-100,4,2,1,70,0,0
90462,-100,4,2,1,70,0,0
90807,-100,4,2,1,80,0,1
91324,-100,4,2,1,80,0,1
91841,-100,4,2,1,80,0,1
92186,-100,4,2,1,80,0,1
93565,-100,4,2,1,80,0,1
94255,-100,4,2,1,80,0,1
98910,-100,4,2,1,70,0,0
98996,-100,4,2,1,30,0,0
99945,-100,4,2,1,5,0,0
100117,-100,4,2,1,60,0,0
101841,-100,4,2,1,70,0,0
106152,-100,4,2,1,40,0,0
106669,-100,4,2,1,30,0,0
107358,-100,4,2,1,25,0,0
108048,-100,4,2,1,10,0,0
108738,-100,4,2,1,5,0,0

[Colours]
Combo1 : 255,255,128
Combo2 : 255,165,121
Combo3 : 145,200,255

[HitObjects]
340,314,463,6,0,P|361:255|294:198,1,143,0|2,0:0|0:0,0:0:0:0:
277,189,894,1,0,0:0:0:0:
241,189,980,1,2,0:0:0:0:
72,278,1152,6,0,P|43:210|206:274,1,429,6|2,3:2|0:0,0:0:0:0:
66,300,2531,2,0,P|41:208|164:71,1,286,2|2,0:0|0:0,0:0:0:0:
390,53,3738,6,0,P|369:102|217:147,1,214.5,2|2,0:0|0:0,0:0:0:0:
224,251,4427,1,2,0:0:0:0:
369,281,4772,1,2,0:0:0:0:
221,350,5117,1,2,0:0:0:0:
71,354,5462,1,2,0:0:0:0:
221,350,5807,1,2,0:0:0:0:
372,350,6152,6,0,L|374:258,1,71.5,2|2,0:0|0:0,0:0:0:0:
339,251,6410,1,2,0:0:0:0:
301,246,6496,1,2,0:0:0:0:
219,266,6669,6,0,P|174:188|397:51,1,429,2|2,0:0|0:0,0:0:0:0:
246,109,8048,2,0,P|185:109|97:291,1,286,2|2,0:0|0:0,0:0:0:0:
254,326,9083,1,2,0:0:0:0:
179,348,9255,1,0,0:0:0:0:
101,351,9427,6,0,L|89:191,1,143,0|0,0:0|0:3,0:0:0:0:
242,244,10117,2,0,L|254:91,1,143,2|0,0:0|0:0,0:0:0:0:
170,97,10634,6,0,L|346:75,2,143,2|0|0,0:0|0:0|0:0,0:0:0:0:
104,86,11496,1,0,0:0:0:0:
226,186,11841,1,2,0:0:0:0:
261,189,11927,1,0,0:0:0:0:
297,193,12013,1,2,0:0:0:0:
464,296,12186,6,0,L|470:164,1,107.25,6|8,3:2|0:3,0:0:0:0:
363,153,12703,1,0,3:0:0:0:
288,133,12876,2,0,L|441:97,1,143,8|2,0:0|3:2,0:0:0:0:
352,69,13393,1,8,0:0:0:0:
273,74,13565,5,2,3:2:0:0:
389,126,13824,2,0,L|389:215,1,71.5,0|8,3:2|0:3,0:0:0:0:
163,293,14255,6,0,P|142:230|216:186,1,143,10|0,0:0|3:2,0:0:0:0:
269,173,14772,2,0,P|196:102|70:116,1,214.5,10|2,3:2|0:0,0:0:0:0:
159,138,15462,1,0,3:0:0:0:
231,174,15634,2,0,L|311:173,1,71.5,8|2,0:0|0:0,0:0:0:0:
37,304,16152,6,0,L|37:133,1,143,10|10,3:2|3:2,0:0:0:0:
68,150,16583,1,8,0:3:0:0:
137,98,16755,2,0,L|177:101,1,35.75,8|0,0:3|0:0,0:0:0:0:
249,51,17014,6,0,L|132:171,1,143,10|2,0:0|3:2,0:0:0:0:
183,178,17445,1,2,0:0:0:0:
219,188,17531,1,10,0:0:0:0:
382,307,17703,6,0,L|493:251,2,107.25,6|0|8,3:2|3:0|0:0,0:0:0:0:
307,319,18393,2,0,L|299:166,1,143,8|2,0:0|3:2,0:0:0:0:
130,97,19083,6,0,L|215:81,1,71.5,2|8,3:2|0:0,0:0:0:0:
234,81,19341,1,8,0:3:0:0:
310,25,19514,2,0,L|268:26,1,35.75,8|0,0:3|0:0,0:0:0:0:
193,38,19772,2,0,P|164:98|215:148,1,143,8|2,0:0|0:0,0:0:0:0:
381,186,20289,5,6,3:2:0:0:
256,192,20634,12,6,22531,0:0:0:0:
67,269,23220,6,0,L|61:117,1,143,4|0,3:2|3:2,0:0:0:0:
218,195,23910,1,2,3:2:0:0:
222,123,24082,1,2,0:0:0:0:
227,52,24254,1,2,3:2:0:0:
387,66,24600,5,0,3:2:0:0:
316,79,24772,1,0,0:0:0:0:
246,92,24944,1,0,3:2:0:0:
403,193,25289,1,2,3:2:0:0:
407,264,25461,1,2,0:2:0:0:
412,335,25633,1,2,3:2:0:0:
141,369,25979,5,2,3:2:0:0:
103,311,26151,1,2,3:2:0:0:
130,248,26323,1,0,3:2:0:0:
198,236,26496,1,0,3:2:0:0:
276,216,26669,2,0,L|110:194,1,143,2|2,3:2|3:2,0:0:0:0:
208,159,27186,1,2,3:2:0:0:
368,144,27358,6,0,L|490:217,2,143,2|2|2,3:2|0:0|0:0,0:0:0:0:
294,142,28220,1,12,0:3:0:0:
370,144,28393,1,2,0:0:0:0:
96,315,28738,6,0,P|77:249|160:219,1,143,12|8,0:0|0:0,0:0:0:0:
252,135,29341,2,0,L|144:123,1,107.25,0|2,3:0|3:2,0:0:0:0:
212,84,29772,1,10,0:0:0:0:
287,72,29945,1,2,0:0:0:0:
126,35,30117,6,0,L|118:191,1,143,2|10,3:2|0:0,0:0:0:0:
243,203,30720,2,0,L|249:320,1,107.25,2|2,3:2|3:2,0:0:0:0:
168,341,31152,2,0,L|207:363,1,35.75,10|2,0:0|0:0,0:0:0:0:
237,360,31324,1,2,0:0:0:0:
403,369,31496,6,0,P|454:357|460:257,1,143,2|10,3:2|0:0,0:0:0:0:
357,235,32100,2,0,L|247:222,1,107.25,2|2,3:2|3:2,0:0:0:0:
327,183,32531,6,0,L|209:181,1,107.25,10|2,0:0|3:2,0:0:0:0:
331,92,33048,2,0,L|405:79,1,71.5,2|10,3:2|0:0,0:0:0:0:
188,46,33479,2,0,L|194:162,1,107.25,2|2,3:2|3:2,0:0:0:0:
271,192,33910,2,0,L|323:198,2,35.75,2|2|2,3:2|3:2|3:2,0:0:0:0:
106,253,34255,6,0,P|54:246|43:156,1,143,2|8,3:2|0:0,0:0:0:0:
146,113,34858,2,0,L|198:109,1,35.75,0|2,3:2|0:0,0:0:0:0:
108,80,35117,1,2,3:2:0:0:
35,64,35289,2,0,L|120:41,1,71.5,10|2,0:0|0:0,0:0:0:0:
270,61,35634,6,0,P|290:126|234:175,1,143,2|0,3:2|3:2,0:0:0:0:
172,189,36152,1,0,0:0:0:0:
247,205,36324,2,0,L|325:231,1,71.5,0|0,3:2|0:0,0:0:0:0:
245,237,36669,2,0,L|174:264,1,71.5,0|2,3:2|0:0,0:0:0:0:
345,346,37014,6,0,L|490:296,1,143,6|8,0:0|0:0,0:0:0:0:
365,262,37617,2,0,L|361:213,1,35.75,0|2,3:2|0:0,0:0:0:0:
439,206,37876,2,0,L|441:130,1,71.5,2|10,3:2|0:0,0:0:0:0:
273,108,38220,6,0,L|108:149,1,143,6|2,0:0|3:2,0:0:0:0:
208,174,38738,1,8,0:0:0:0:
60,254,39083,2,0,L|52:128,2,107.25,2|2|2,0:3|0:0|0:0,0:0:0:0:
232,325,39772,6,0,L|354:316,3,107.25,6|0|0|0,0:0|3:0|3:0|3:0,0:0:0:0:
450,338,40807,2,0,L|476:300,2,35.75,8|8|8,0:0|0:0|0:0,0:0:0:0:
281,332,41152,6,0,L|142:292,1,143,6|10,0:0|0:0,0:0:0:0:
260,259,41755,2,0,L|265:136,1,107.25,2|2,3:2|3:2,0:0:0:0:
186,124,42186,1,10,0:0:0:0:
150,121,42272,1,2,0:0:0:0:
114,118,42358,1,2,0:0:0:0:
277,66,42531,6,0,P|298:122|225:173,1,143,2|10,3:2|0:0,0:0:0:0:
126,233,43134,2,0,L|245:250,1,107.25,2|2,3:2|3:2,0:0:0:0:
157,292,43565,6,0,L|36:308,1,107.25,10|2,0:0|3:2,0:0:0:0:
166,351,44083,2,0,L|245:353,1,71.5,2|10,3:2|0:0,0:0:0:0:
33,130,44514,2,0,L|43:249,1,107.25,2|2,3:2|3:2,0:0:0:0:
118,257,44945,1,2,3:2:0:0:
153,262,45031,1,2,3:2:0:0:
188,268,45117,1,2,3:2:0:0:
355,319,45289,6,0,P|365:269|278:225,1,143,2|10,3:2|0:0,0:0:0:0:
186,170,45893,2,0,L|241:164,1,35.75,0|2,3:2|0:0,0:0:0:0:
299,150,46152,1,2,3:2:0:0:
223,165,46324,2,0,L|128:143,1,71.5,10|2,0:0|0:0,0:0:0:0:
236,89,46669,2,0,L|315:98,1,71.5,2|2,3:2|0:0,0:0:0:0:
135,213,47014,6,0,L|11:220,2,107.25,12|12|12,0:0|0:0|0:0,0:0:0:0:
412,346,47876,6,0,L|260:307,1,143,6|2,0:0|3:2,0:0:0:0:
272,170,48393,1,8,0:0:0:0:
390,212,48652,1,0,3:2:0:0:
272,170,48910,2,0,L|190:164,1,71.5,2|10,3:2|0:0,0:0:0:0:
368,93,49255,6,0,P|410:110|393:202,1,143,6|2,3:2|0:3,0:0:0:0:
330,215,49772,1,8,0:0:0:0:
164,243,49945,6,0,P|147:283|224:333,1,143,6|2,3:2|3:2,0:0:0:0:
288,344,50462,2,0,L|326:346,2,35.75,10|10|10,3:2|0:0|0:0,0:0:0:0:
119,315,50807,6,0,P|65:299|80:218,1,143,6|10,0:0|0:0,0:0:0:0:
148,184,51324,2,0,L|297:155,1,143,0|2,0:0|3:2,0:0:0:0:
214,120,51841,1,10,0:0:0:0:
47,195,52014,6,0,P|36:134|115:94,1,143,6|2,3:2|3:2,0:0:0:0:
174,67,52531,2,0,L|61:49,2,107.25,10|2|2,0:0|3:2|3:2,0:0:0:0:
245,71,53220,1,10,0:0:0:0:
412,98,53393,6,0,L|423:248,1,143,6|0,3:2|3:2,0:0:0:0:
350,271,53910,1,8,0:0:0:0:
198,330,54255,2,0,L|114:315,2,71.5,10|2|10,0:0|3:2|0:0,0:0:0:0:
367,367,54772,6,0,P|385:317|303:264,1,143,14|2,0:0|3:2,0:0:0:0:
250,263,55289,1,8,3:3:0:0:
170,278,55462,2,0,P|148:209|219:180,1,143,2|2,3:2|3:2,0:0:0:0:
273,162,55979,1,2,3:2:0:0:
308,159,56065,1,2,3:2:0:0:
344,156,56151,1,2,3:2:0:0:
179,94,56324,6,0,L|43:176,2,143,6|0|10,0:0|0:0|0:0,0:0:0:0:
250,82,57186,1,2,0:0:0:0:
322,96,57358,1,2,3:2:0:0:
244,115,57531,1,10,0:0:0:0:
394,165,57876,6,0,L|404:319,1,143,2|2,3:2|3:2,0:0:0:0:
246,354,58565,1,2,0:0:0:0:
210,294,58737,1,2,3:2:0:0:
240,232,58910,1,10,0:0:0:0:
308,222,59083,6,0,L|428:231,2,107.25,2|8|0,3:2|0:3|3:2,0:0:0:0:
229,197,59772,2,0,L|383:163,1,143,10|2,0:0|3:2,0:0:0:0:
297,120,60289,1,10,0:0:0:0:
225,111,60462,1,2,0:0:0:0:
44,126,60979,6,0,L|24:92,2,35.75,0|0|10,3:2|3:2|0:0,0:0:0:0:
122,147,61324,2,0,L|122:224,1,71.5,2|2,0:0|3:2,0:0:0:0:
44,126,61669,1,10,0:0:0:0:
208,247,61841,6,0,L|355:284,1,143,6|2,3:2|0:0,0:0:0:0:
265,328,62358,2,0,P|239:273|318:212,1,143,2|2,3:2|0:0,0:0:0:0:
362,194,62876,1,2,3:2:0:0:
443,183,63048,6,0,P|459:137|390:78,1,143,10|10,0:0|3:2,0:0:0:0:
329,69,63565,1,2,3:2:0:0:
256,71,63738,1,2,3:2:0:0:
337,103,63910,2,0,L|343:186,1,71.5,10|2,0:0|3:2,0:0:0:0:
262,188,64255,1,2,3:2:0:0:
259,223,64341,1,2,0:0:0:0:
256,259,64427,1,10,0:0:0:0:
165,290,64600,6,0,L|286:293,2,107.25,8|2|2,0:0|3:2|3:2,0:0:0:0:
82,302,65289,2,0,P|49:246|121:187,1,143,10|0,0:0|3:2,0:0:0:0:
166,176,65807,1,10,3:2:0:0:
246,153,65979,6,0,L|92:106,1,143,2|2,3:2|0:3,0:0:0:0:
183,75,66496,1,10,3:2:0:0:
344,78,66669,2,0,L|352:162,1,71.5,10|2,0:0|0:0,0:0:0:0:
268,171,67014,2,0,L|258:251,1,71.5,2|10,3:2|0:0,0:0:0:0:
430,315,67358,6,0,P|454:247|411:193,1,143,14|0,3:2|3:2,0:0:0:0:
249,150,68048,2,0,L|167:146,2,71.5,2|2|2,3:2|0:0|3:2,0:0:0:0:
331,77,68565,6,0,L|181:44,3,143,2|2|2|2,0:0|0:0|0:0|0:0,0:0:0:0:
113,72,69772,1,2,3:2:0:0:
193,46,69945,1,2,0:0:0:0:
278,62,70117,6,0,P|293:114|216:182,1,143,2|0,3:2|3:2,0:0:0:0:
168,191,70634,1,2,0:0:0:0:
88,186,70807,2,0,P|71:229|153:290,1,143,2|0,3:2|3:2,0:0:0:0:
209,306,71324,1,2,0:0:0:0:
128,350,71496,6,0,L|112:203,1,143,2|0,3:2|3:2,0:0:0:0:
189,184,72014,1,0,0:0:0:0:
265,149,72186,2,0,L|114:124,1,143,2|2,3:2|3:2,0:0:0:0:
105,106,72617,1,2,3:2:0:0:
123,125,72703,1,2,3:2:0:0:
292,82,72876,6,0,L|413:168,1,143,6|2,3:2|3:2,0:0:0:0:
335,206,73393,1,2,3:2:0:0:
254,213,73565,2,0,L|245:68,1,143,2|2,3:2|3:2,0:0:0:0:
319,41,74083,1,2,3:2:0:0:
485,122,74255,6,0,L|483:198,1,71.5,6|2,3:2|3:2,0:0:0:0:
404,205,74600,2,0,L|394:286,1,71.5,2|2,3:2|3:2,0:0:0:0:
230,339,74945,2,0,L|212:262,1,71.5,6|0,3:2|3:2,0:0:0:0:
295,269,75289,2,0,L|305:184,1,71.5,2|2,3:2|3:2,0:0:0:0:
138,153,75634,6,0,P|65:184|54:266,1,143,14|12,3:2|3:2,0:0:0:0:
128,276,76152,2,0,L|214:280,2,71.5,0|12|8,3:2|3:2|3:2,0:0:0:0:
294,349,76669,2,0,L|375:347,1,71.5,14|10,3:2|3:2,0:0:0:0:
195,333,77014,6,0,P|135:308|228:178,1,286,14|2,3:2|3:2,3:2:0:0:
258,184,77789,1,0,3:2:0:0:
295,190,77876,1,2,3:2:0:0:
366,182,78048,2,0,L|278:191,1,71.5,2|2,3:2|3:2,0:0:0:0:
120,374,78393,6,0,P|102:322|180:265,1,143,2|12,3:2|0:0,0:0:0:0:
233,248,78910,2,0,L|377:223,1,143,0|10,3:0|0:0,0:0:0:0:
306,188,79427,1,2,3:2:0:0:
233,181,79600,1,0,3:2:0:0:
406,136,79772,6,0,L|493:115,2,71.5,12|2|8,0:0|0:0|0:0,0:0:0:0:
327,131,80289,2,0,P|296:177|361:236,1,143,0|0,0:0|3:2,0:0:0:0:
426,255,80807,2,0,L|428:337,1,71.5,10|2,0:0|0:0,0:0:0:0:
265,369,81152,6,0,L|125:306,1,143,2|8,3:2|0:0,0:0:0:0:
206,292,81669,1,2,3:2:0:0:
285,294,81841,2,0,P|306:248|253:176,1,143,2|0,0:0|0:0,0:0:0:0:
184,177,82358,1,2,3:2:0:0:
106,185,82531,6,0,P|83:146|152:79,1,143,2|8,0:0|0:0,0:0:0:0:
211,76,83048,1,2,3:2:0:0:
137,78,83220,2,0,L|58:65,2,71.5,2|2|10,0:0|3:2|0:0,0:0:0:0:
305,215,83738,6,0,L|172:295,1,143,6|2,0:0|3:2,0:0:0:0:
250,337,84255,1,10,0:0:0:0:
326,346,84427,1,2,0:0:0:0:
241,364,84600,2,0,L|239:209,1,143,2|10,3:2|0:0,0:0:0:0:
401,223,85117,6,0,P|452:211|461:127,1,143,2|2,3:2|0:0,0:0:0:0:
392,104,85634,1,10,0:0:0:0:
317,89,85807,1,2,0:0:0:0:
149,247,85979,2,0,P|121:178|177:137,1,143,2|10,0:0|0:0,0:0:0:0:
239,138,86496,1,2,0:0:0:0:
404,41,86669,6,0,L|340:81,1,71.5,2|2,3:2|3:2,0:0:0:0:
270,92,87014,1,8,0:0:0:0:
112,153,87358,1,2,3:2:0:0:
185,172,87531,1,0,3:2:0:0:
112,153,87703,1,8,0:0:0:0:
377,340,88048,6,0,P|396:300|322:250,1,143,2|8,3:2|0:0,0:0:0:0:
257,250,88565,1,0,0:0:0:0:
183,243,88738,2,0,L|260:218,1,71.5,2|2,3:2|3:2,0:0:0:0:
326,214,89083,2,0,L|349:175,2,35.75,10|8|10,0:0|0:0|0:0,0:0:0:0:
158,242,89427,6,0,L|35:237,3,107.25,6|2|2|8,0:0|0:0|0:0|0:0,0:0:0:0:
47,153,90462,1,14,3:2:0:0:
324,134,90807,5,4,3:2:0:0:
397,101,90979,2,0,L|236:61,1,143,2|2,0:0|3:2,0:0:0:0:
409,59,91669,2,0,L|492:77,2,71.5,2|10|2,3:2|0:0|0:0,0:0:0:0:
241,286,92186,6,0,P|219:235|283:185,1,143,2|10,3:2|0:0,0:0:0:0:
351,190,92703,1,2,3:2:0:0:
428,198,92876,2,0,P|441:154|365:94,1,143,2|0,3:2|0:0,0:0:0:0:
303,84,93393,1,2,3:2:0:0:
224,83,93565,6,0,L|361:148,1,143,2|8,0:0|0:0,0:0:0:0:
279,180,94083,1,2,3:2:0:0:
204,188,94255,2,0,L|199:280,1,71.5,2|2,0:0|3:2,0:0:0:0:
274,287,94600,1,10,0:0:0:0:
439,337,94772,6,0,L|442:188,1,143,14|2,0:0|3:2,0:0:0:0:
271,152,95289,6,0,L|111:96,1,143,14|2,0:0|3:2,0:0:0:0:
211,62,95807,1,2,0:0:0:0:
294,62,95979,1,10,3:2:0:0:
33,236,96324,6,0,L|28:149,1,71.5,6|2,3:2|3:2,0:0:0:0:
106,132,96669,1,10,3:2:0:0:
366,274,97014,5,6,3:2:0:0:
389,208,97186,1,2,3:2:0:0:
355,148,97358,1,10,3:2:0:0:
287,135,97531,1,10,3:2:0:0:
121,105,97703,6,0,L|43:98,2,71.5,14|2|10,3:2|3:2|3:2,0:0:0:0:
287,195,98220,6,0,L|363:197,2,71.5,6|2|8,3:2|3:2|3:2,0:0:0:0:
212,197,98738,1,2,3:2:0:0:
381,315,98910,5,14,3:2:0:0:
256,192,99255,12,2,100117,0:0:0:0:
257,132,100462,6,0,L|399:115,2,143,6|0|0,3:2|3:2|3:2,0:0:0:0:
410,234,101496,2,0,L|486:239,1,71.5,0|2,3:2|0:0,0:0:0:0:
314,317,101841,6,0,L|231:306,2,71.5,6|0|0,3:2|0:0|3:2,0:0:0:0:
155,358,102531,2,0,P|130:309|203:241,1,143,2|2,3:2|3:2,0:0:0:0:
249,237,103048,1,2,0:0:0:0:
410,266,103220,5,6,3:2:0:0:
435,201,103392,1,0,3:2:0:0:
402,141,103564,1,0,3:2:0:0:
334,129,103737,1,0,3:2:0:0:
253,148,103910,2,0,L|246:64,1,71.5,0|0,3:2|3:2,0:0:0:0:
328,119,104255,2,0,L|336:33,1,71.5,0|2,3:2|3:2,0:0:0:0:
170,48,104600,6,0,L|88:53,2,71.5,14|0|8,3:2|3:2|3:2,0:0:0:0:
245,73,105117,1,0,3:2:0:0:
84,164,105289,2,0,L|14:252,2,107.25,14|2|2,3:2|3:2|3:2,0:0:0:0:
261,179,105979,5,14,3:2:0:0:
256,192,106324,12,0,108738,0:0:0:0:
