osu file format v14

[General]
AudioFilename: beatmap-637451681832791236-asdn.mp3
AudioLeadIn: 0
PreviewTime: 27272
Countdown: 0
SampleSet: Soft
StackLeniency: 0.7
Mode: 2
LetterboxInBreaks: 0
WidescreenStoryboard: 1

[Editor]
Bookmarks: 92531,95289,96324,97703,98910,100462,101841,103220,104600,105979
DistanceSpacing: 1.8
BeatDivisor: 4
GridSize: 8
TimelineZoom: 2.100001

[Metadata]
Title:Hypnos Metropolis
TitleUnicode:Hypnos Metropolis
Artist:polysha
ArtistUnicode:polysha
Creator:Jemzuu
Version:GIGACHAD's Platter
Source:
Tags:axs rocma deif gigachad dako ajamez dtm9 nowa BMS G2R2018 drumstep electronic instrumental drum and bass n dnb dubstep edm trap tech GO BACK 2 YOUR ROOTS 2018 CLIMAX Glittering Neurofunk 明日一限ブラザーズ
BeatmapID:2780330
BeatmapSetID:1339895

[Difficulty]
HPDrainRate:5
CircleSize:3.5
OverallDifficulty:8
ApproachRate:8
SliderMultiplier:1.7
SliderTickRate:1

[Events]
//Background and Video events
0,0,"31775-artwork-digital_art-fantasy_art-futuristic-city.jpg",0,0
//Break Periods
//Storyboard Layer 0 (Background)
//Storyboard Layer 1 (Fail)
//Storyboard Layer 2 (Pass)
//Storyboard Layer 3 (Foreground)
//Storyboard Layer 4 (Overlay)
//Storyboard Sound Samples

[TimingPoints]
1152,344.827586206897,4,2,1,70,1,0
1152,-100,4,2,1,70,0,0
3220,-100,4,2,1,70,0,0
3738,-100,4,2,1,70,0,0
5807,-100,4,2,1,70,0,0
9427,-100,4,2,1,70,0,0
12186,-100,4,2,1,70,0,0
16152,-100,4,2,1,70,0,0
22100,-100,4,2,1,70,0,0
22531,-100,4,2,1,70,0,0
23220,-100,4,2,1,70,0,0
25289,-100,4,2,1,70,0,0
25634,-100,4,2,1,70,0,0
25979,-100,4,2,1,70,0,0
27358,-100,4,2,1,70,0,0
28048,-100,4,2,1,70,0,0
28738,-100,4,2,1,80,0,1
29083,-100,4,2,1,80,0,1
29427,-100,4,2,1,80,0,1
29772,-100,4,2,1,80,0,1
30117,-100,4,2,1,80,0,1
30462,-100,4,2,1,80,0,1
31496,-100,4,2,1,80,0,1
31841,-100,4,2,1,80,0,1
32531,-100,4,2,1,80,0,1
33048,-100,4,2,1,80,0,1
33220,-100,4,2,1,80,0,1
34255,-100,4,2,1,80,0,1
34945,-100,4,2,1,80,0,1
35289,-100,4,2,1,80,0,1
35634,-100,4,2,1,80,0,1
35893,-100,4,2,1,80,0,1
37013,-100,4,2,1,80,0,1
37703,-100,4,2,1,80,0,1
38048,-100,4,2,1,80,0,1
38220,-100,4,2,1,80,0,1
38565,-100,4,2,1,80,0,1
38737,-100,4,2,1,80,0,1
39083,-100,4,2,1,70,0,0
39772,-100,4,2,1,80,0,0
39858,-100,4,2,1,80,0,0
40117,-100,4,2,1,80,0,0
40203,-100,4,2,1,80,0,0
40376,-100,4,2,1,80,0,0
40462,-100,4,2,1,80,0,0
40634,-100,4,2,1,80,0,0
40720,-100,4,2,1,70,0,0
41152,-100,4,2,1,80,0,1
41410,-100,4,2,1,80,0,1
42531,-100,4,2,1,80,0,1
42876,-100,4,2,1,80,0,1
43566,-100,4,2,1,80,0,1
44083,-100,4,2,1,80,0,1
44255,-100,4,2,1,80,0,1
45289,-100,4,2,1,80,0,1
45633,-100,4,2,1,80,0,1
45979,-90.9090909090909,4,2,1,80,0,1
46410,-100,4,2,1,80,0,1
47014,-100,4,2,1,80,0,1
47531,-100,4,2,1,80,0,1
47876,-100,4,2,1,80,0,1
48393,-100,4,2,1,80,0,1
49255,-100,4,2,1,80,0,1
50289,-100,4,2,1,80,0,1
50807,-100,4,2,1,80,0,1
52014,-100,4,2,1,80,0,1
52703,-100,4,2,1,80,0,1
53220,-100,4,2,1,80,0,1
53393,-100,4,2,1,80,0,1
54772,-100,4,2,1,80,0,1
55117,-100,4,2,1,80,0,1
56324,-100,4,2,1,70,0,0
61152,-100,4,2,1,70,0,0
61841,-100,4,2,1,70,0,0
63738,-100,4,2,1,70,0,0
64600,-100,4,2,1,70,0,0
67358,-100,4,2,1,70,0,0
71152,-100,4,2,1,70,0,0
77014,-100,4,2,1,70,0,0
77703,-100,4,2,1,70,0,0
78220,-100,4,2,1,70,0,0
78393,-100,4,2,1,70,0,0
78738,-100,4,2,1,80,0,0
78910,-100,4,2,1,80,0,0
79772,-100,4,2,1,80,0,1
79945,-100,4,2,1,80,0,1
80117,-100,4,2,1,80,0,1
80807,-100,4,2,1,80,0,1
81152,-100,4,2,1,80,0,1
82358,-100,4,2,1,80,0,1
83220,-100,4,2,1,80,0,1
84255,-100,4,2,1,80,0,1
84600,-100,4,2,1,80,0,1
84945,-100,4,2,1,80,0,1
85462,-100,4,2,1,80,0,1
85634,-100,4,2,1,80,0,1
85979,-100,4,2,1,80,0,1
86324,-100,4,2,1,80,0,1
87014,-100,4,2,1,80,0,1
87358,-100,4,2,1,80,0,1
89427,-100,4,2,1,70,0,0
90289,-100,4,2,1,70,0,0
90462,-100,4,2,1,70,0,0
90807,-100,4,2,1,80,0,1
91324,-100,4,2,1,80,0,1
91841,-100,4,2,1,80,0,1
92186,-100,4,2,1,80,0,1
93565,-100,4,2,1,80,0,1
94255,-100,4,2,1,80,0,1
98910,-100,4,2,1,70,0,0
98996,-100,4,2,1,30,0,0
99945,-100,4,2,1,5,0,0
100117,-100,4,2,1,60,0,0
101841,-100,4,2,1,70,0,0
106152,-100,4,2,1,40,0,0
106669,-100,4,2,1,30,0,0
107358,-100,4,2,1,25,0,0
108048,-100,4,2,1,10,0,0
108738,-100,4,2,1,5,0,0

[Colours]
Combo1 : 255,255,128
Combo2 : 255,165,121
Combo3 : 145,200,255

[HitObjects]
184,192,807,5,2,0:0:0:0:
144,192,865,1,0,0:0:0:0:
152,136,922,1,0,0:0:0:0:
192,136,980,1,2,0:0:0:0:
432,304,1152,6,0,L|440:112,1,170,6|0,3:2|0:0,0:0:0:0:
320,216,1841,1,0,0:0:0:0:
320,144,2186,2,0,L|320:40,1,85,2|0,0:0|0:0,0:0:0:0:
488,328,2531,5,2,0:0:0:0:
488,232,2876,2,0,L|488:120,1,85,0|0,0:0|0:0,0:0:0:0:
320,152,3220,2,0,L|440:152,1,85,2|0,0:0|0:0,0:0:0:0:
136,320,3738,6,0,L|128:136,1,170,2|0,0:0|0:0,0:0:0:0:
216,144,4255,1,2,0:0:0:0:
128,150,4427,2,0,L|120:40,1,85,2|0,0:0|0:0,0:0:0:0:
288,304,4772,2,0,L|112:304,1,170,2|2,0:0|0:0,0:0:0:0:
288,240,5462,6,0,L|296:144,1,85,2|0,0:0|0:0,0:0:0:0:
216,96,5807,2,0,L|328:96,1,85,2|0,0:0|0:0,0:0:0:0:
320,32,6152,1,2,0:0:0:0:
168,328,6324,2,0,L|152:280,2,28.3333333333333,2|0|0,0:0|0:0|0:0,0:0:0:0:
208,296,6496,1,2,0:0:0:0:
456,288,6669,6,0,B|512:200|488:40|488:40|296:40,1,425,2|0,0:0|0:0,0:0:0:0:
152,240,7703,2,0,L|144:152,1,85,2|0,0:0|0:0,0:0:0:0:
320,288,8048,6,0,P|376:248|312:184,1,170,2|0,0:0|0:0,0:0:0:0:
248,184,8565,1,0,0:0:0:0:
408,256,8738,2,0,L|416:80,1,170,2|2,0:0|0:0,0:0:0:0:
320,88,9255,1,0,0:0:0:0:
144,256,9427,6,0,L|136:144,1,85,0|0,0:0|0:0,0:0:0:0:
224,168,9772,1,0,0:3:0:0:
256,168,9858,1,0,0:0:0:0:
288,160,9944,1,0,0:0:0:0:
120,168,10117,2,0,L|112:72,1,85,2|0,0:0|0:0,0:0:0:0:
400,352,10634,6,0,P|248:184|88:368,1,510,2|0,0:0|0:0,0:0:0:0:
248,344,11841,1,2,0:0:0:0:
288,336,11899,1,0,0:0:0:0:
320,304,11956,1,0,0:0:0:0:
328,256,12014,1,2,0:0:0:0:
88,264,12186,6,0,L|24:112,2,127.5,6|8|0,3:2|0:3|3:0,0:0:0:0:
176,272,12876,2,0,L|184:168,1,85,8|0,0:0|0:0,0:0:0:0:
336,272,13220,2,0,L|344:168,1,85,2|8,3:2|0:0,0:0:0:0:
176,128,13565,6,0,L|336:128,1,127.5,2|0,3:2|3:2,0:0:0:0:
392,72,13996,2,0,L|320:72,1,42.5,8|0,0:3|0:0,0:0:0:0:
184,288,14255,2,0,L|64:288,2,85,10|0|0,0:0|0:0|3:2,0:0:0:0:
352,288,14772,6,0,P|352:232|248:192,1,170,10|8,3:2|0:3,0:0:0:0:
176,184,15289,1,2,0:0:0:0:
256,136,15462,2,0,L|264:40,1,85,0|8,3:0|0:0,0:0:0:0:
352,144,15807,2,0,L|360:48,1,85,2|0,0:0|3:2,0:0:0:0:
112,312,16152,6,0,L|96:208,2,85,10|0|10,3:2|0:0|3:2,0:0:0:0:
200,320,16669,1,8,0:0:0:0:
368,232,16841,2,0,L|264:232,1,85,0|10,0:0|0:0,0:0:0:0:
200,176,17186,2,0,L|296:176,1,85,2|2,0:0|3:2,0:0:0:0:
328,176,17445,1,2,0:0:0:0:
352,120,17531,1,10,0:0:0:0:
104,128,17703,6,0,P|72:96|72:16,1,127.5,6|0,3:2|3:0,0:0:0:0:
112,16,18048,1,0,0:0:0:0:
192,120,18220,1,8,0:0:0:0:
352,320,18393,1,8,0:0:0:0:
368,248,18565,1,0,0:0:0:0:
208,224,18738,1,2,3:2:0:0:
120,224,18910,1,8,0:0:0:0:
368,152,19083,6,0,L|480:152,3,85,2|8|2|0,3:2|0:0|3:2|0:0,0:0:0:0:
296,152,19772,2,0,L|288:56,1,85,8|2,0:0|0:0,0:0:0:0:
373,67,20117,1,2,0:0:0:0:
120,72,20289,5,6,3:2:0:0:
256,192,20462,12,0,21841,0:0:0:0:
109,190,22186,5,0,0:0:0:0:
149,190,22272,1,0,0:0:0:0:
192,192,22358,1,2,0:0:0:0:
440,192,22531,1,6,0:0:0:0:
352,160,22703,2,0,P|408:152|472:56,1,170,2|0,3:2|0:0,0:0:0:0:
224,280,23220,6,0,P|192:200|232:120,1,170,4|0,3:2|3:2,0:0:0:0:
272,112,23652,1,0,0:0:0:0:
312,88,23738,1,0,0:0:0:0:
272,56,23824,1,0,0:0:0:0:
176,56,23910,2,0,L|88:56,1,85,2|2,3:2|0:0,0:0:0:0:
256,328,24255,2,0,L|264:240,1,85,2|2,3:2|0:0,0:0:0:0:
432,256,24600,5,0,3:2:0:0:
344,256,24772,1,0,0:0:0:0:
176,248,24945,2,0,L|168:184,2,42.5,0|0|0,3:2|0:0|0:0,0:0:0:0:
264,208,25289,1,2,3:2:0:0:
280,136,25462,1,2,0:2:0:0:
120,128,25634,1,2,3:2:0:0:
208,128,25807,1,2,0:0:0:0:
456,128,25979,5,2,3:2:0:0:
448,48,26152,1,2,3:2:0:0:
360,48,26324,1,0,3:2:0:0:
368,120,26496,1,0,3:2:0:0:
280,128,26669,1,2,3:2:0:0:
272,48,26841,1,2,3:2:0:0:
432,336,27014,2,0,L|488:336,2,42.5,2|2|2,3:2|3:2|3:2,0:0:0:0:
264,328,27358,6,0,L|160:328,2,85,2|2|2,3:2|0:0|0:0,0:0:0:0:
280,256,27876,1,2,0:0:0:0:
192,208,28048,1,2,0:0:0:0:
352,216,28220,2,0,L|440:216,1,85,12|2,0:3|0:0,0:0:0:0:
448,160,28479,1,2,0:0:0:0:
400,160,28565,1,2,0:0:0:0:
112,136,28738,6,0,L|296:88,1,170,12|8,0:0|0:0,0:0:0:0:
288,40,29169,1,0,0:0:0:0:
304,128,29255,1,0,0:0:0:0:
256,128,29341,1,0,3:0:0:0:
152,280,29427,2,0,L|264:280,1,85,2|2,0:0|3:2,0:0:0:0:
280,224,29686,1,0,0:0:0:0:
237,224,29772,1,10,0:0:0:0:
195,224,29858,1,0,0:0:0:0:
184,160,29945,1,2,0:0:0:0:
344,152,30117,6,0,L|240:152,1,85,2|0,3:2|0:0,0:0:0:0:
88,136,30462,1,10,0:0:0:0:
80,80,30548,1,2,0:0:0:0:
88,136,30634,1,2,0:0:0:0:
176,80,30807,1,2,0:0:0:0:
256,80,30979,1,2,3:2:0:0:
432,88,31152,2,0,L|488:88,2,42.5,10|2|2,0:0|0:0|0:0,0:0:0:0:
192,320,31496,6,0,L|184:232,1,85,2|0,3:2|0:0,0:0:0:0:
352,232,31841,1,10,0:0:0:0:
224,240,32100,1,2,3:2:0:0:
216,184,32186,1,0,0:0:0:0:
304,184,32358,1,2,3:2:0:0:
136,120,32531,2,0,L|128:32,1,85,10|0,0:0|0:0,0:0:0:0:
232,32,32789,6,0,L|336:32,1,85,2|0,3:2|0:0,0:0:0:0:
320,96,33048,1,2,3:2:0:0:
168,336,33220,2,0,L|160:232,1,85,10|0,0:0|0:0,0:0:0:0:
208,256,33479,2,0,L|328:256,1,85,2|0,3:2|0:0,0:0:0:0:
344,256,33738,2,0,L|352:152,1,85,2|2,3:2|3:2,0:0:0:0:
360,120,33996,1,2,3:2:0:0:
304,120,34083,1,2,3:2:0:0:
56,120,34255,5,2,3:2:0:0:
144,120,34427,1,0,0:0:0:0:
312,296,34600,2,0,B|400:296|400:296|408:248,1,127.5,8|0,0:0|3:2,0:0:0:0:
360,240,34945,2,0,L|272:240,1,85,2|2,0:0|3:2,0:0:0:0:
288,184,35203,2,0,L|408:184,1,85,0|0,3:2|0:0,0:0:0:0:
384,176,35462,1,2,0:0:0:0:
216,176,35634,6,0,L|208:88,1,85,2|0,3:2|0:0,0:0:0:0:
368,80,35979,1,0,3:2:0:0:
448,80,36152,1,0,0:0:0:0:
456,24,36238,1,0,0:0:0:0:
408,24,36324,2,0,L|296:24,1,85,0|0,3:2|0:0,0:0:0:0:
152,160,36669,2,0,L|144:104,1,42.5,0|2,3:2|0:0,0:0:0:0:
208,112,36841,1,2,0:0:0:0:
456,336,37014,6,0,P|448:256|272:200,1,255,6|0,0:0|0:0,0:0:0:0:
144,192,37703,2,0,L|136:72,1,85,2|2,0:0|3:2,0:0:0:0:
138,107,37962,1,0,0:0:0:0:
138,107,38048,1,10,0:0:0:0:
384,328,38220,6,0,L|192:328,1,170,6|2,0:0|3:2,0:0:0:0:
200,264,38738,2,0,L|296:264,1,85,8|0,0:0|3:0,0:0:0:0:
448,264,39083,2,0,L|456:192,1,42.5,2|2,0:3|0:3,0:0:0:0:
288,192,39341,2,0,L|280:40,1,127.5,2|2,0:0|0:0,0:0:0:0:
32,336,39772,6,0,L|24:192,1,127.5,6|0,0:0|3:0,0:0:0:0:
16,160,40117,2,0,L|136:160,1,85,2|0,0:0|3:0,0:0:0:0:
144,112,40376,2,0,L|32:112,1,85,2|0,0:0|3:0,0:0:0:0:
56,48,40634,1,2,0:0:0:0:
216,304,40807,1,8,0:0:0:0:
176,272,40893,1,8,0:0:0:0:
128,232,40979,1,8,0:0:0:0:
368,320,41152,6,0,L|360:136,1,170,6|10,0:0|0:0,0:0:0:0:
312,144,41583,1,2,0:0:0:0:
360,96,41669,1,2,0:0:0:0:
440,56,41841,2,0,L|328:56,1,85,2|2,0:0|3:2,0:0:0:0:
192,64,42186,1,10,0:0:0:0:
184,96,42272,1,2,0:0:0:0:
240,96,42358,1,2,0:0:0:0:
488,176,42531,6,0,L|368:176,1,85,2|0,3:2|0:0,0:0:0:0:
240,184,42876,1,10,0:0:0:0:
112,272,43134,1,2,3:2:0:0:
96,232,43220,1,0,0:0:0:0:
168,224,43392,1,2,3:2:0:0:
336,312,43565,2,0,L|424:312,1,85,10|0,0:0|0:0,0:0:0:0:
320,72,43823,6,0,L|216:72,1,85,2|0,3:2|0:0,0:0:0:0:
224,112,44082,1,2,3:2:0:0:
384,336,44254,2,0,L|392:232,1,85,10|0,0:0|0:0,0:0:0:0:
360,256,44513,2,0,L|240:256,1,85,2|0,3:2|0:0,0:0:0:0:
224,256,44772,2,0,L|120:256,1,85,2|2,3:2|3:2,0:0:0:0:
128,200,45030,1,2,3:2:0:0:
184,200,45117,1,2,3:2:0:0:
432,200,45289,5,2,3:2:0:0:
344,200,45462,1,0,0:0:0:0:
184,120,45634,2,0,L|344:120,1,127.5,10|0,0:0|3:2,0:0:0:0:
320,72,45979,2,0,L|208:72,1,93.5000028533936,2|2,0:0|3:2,0:0:0:0:
224,32,46238,2,0,L|120:32,1,93.5000028533936,0|0,3:2|0:0,0:0:0:0:
136,80,46496,1,2,0:0:0:0:
320,288,46669,6,0,L|376:288,2,42.5,2|2|2,3:2|0:0|0:0,0:0:0:0:
72,288,47014,2,0,L|64:232,1,42.5,12|0,0:0|0:0,0:0:0:0:
232,232,47272,2,0,L|240:176,1,42.5,12|0,0:0|0:0,0:0:0:0:
64,168,47531,1,12,0:0:0:0:
472,192,47876,6,0,P|496:120|456:32,1,170,6|2,0:0|3:2,0:0:0:0:
296,32,48393,2,0,P|248:80|264:144,1,127.5,8|0,0:0|3:2,0:0:0:0:
301,144,48738,1,0,3:2:0:0:
392,144,48910,1,2,3:2:0:0:
480,136,49083,1,10,0:0:0:0:
232,328,49255,6,0,L|48:328,1,170,6|2,3:2|0:3,0:0:0:0:
62,328,49772,1,8,0:0:0:0:
312,288,49945,2,0,P|368:248|304:192,1,170,6|2,3:2|3:2,0:0:0:0:
144,192,50462,1,10,3:2:0:0:
96,192,50548,1,10,0:0:0:0:
56,192,50634,1,10,0:0:0:0:
304,112,50807,5,6,0:0:0:0:
400,112,50979,1,2,0:0:0:0:
432,88,51065,1,2,0:0:0:0:
400,56,51152,1,10,0:0:0:0:
312,336,51324,2,0,L|304:160,1,170,0|2,0:0|3:2,0:0:0:0:
400,168,51841,1,10,0:0:0:0:
152,208,52014,6,0,B|152:120|152:120|240:120,1,170,6|2,3:2|3:2,0:0:0:0:
320,120,52531,1,10,0:0:0:0:
240,56,52703,1,2,0:0:0:0:
80,120,52876,1,0,0:0:0:0:
128,56,53048,1,2,3:2:0:0:
216,48,53220,1,10,0:0:0:0:
464,264,53393,6,0,P|464:200|256:48,1,340,6|2,3:2|3:2,0:0:0:0:
96,312,54255,1,10,0:0:0:0:
56,296,54341,1,2,0:0:0:0:
40,256,54427,1,2,3:2:0:0:
56,224,54513,1,2,3:2:0:0:
96,211,54599,1,10,0:0:0:0:
336,328,54772,6,0,L|495:236,3,170,14|2|2|2,0:0|3:2|3:2|3:2,0:0:0:0:
488,208,55893,1,2,0:0:0:0:
480,152,55980,1,2,3:2:0:0:
448,104,56066,1,2,3:2:0:0:
392,72,56152,1,2,3:2:0:0:
104,80,56324,5,6,0:0:0:0:
240,192,57014,2,0,L|128:192,2,85,10|2|2,0:0|0:0|3:2,0:0:0:0:
400,128,57531,6,0,L|200:128,2,170,10|2|2,0:0|3:2|3:2,0:0:0:0:
264,72,58565,1,2,0:0:0:0:
168,72,58738,1,2,3:2:0:0:
88,72,58910,1,10,0:0:0:0:
248,336,59083,6,0,P|328:256|240:168,1,255,2|0,3:2|3:2,0:0:0:0:
200,160,59686,1,0,0:0:0:0:
152,160,59772,2,0,L|144:256,1,85,10|8,0:0|0:3,0:0:0:0:
320,240,60289,1,10,0:0:0:0:
368,240,60376,1,2,0:0:0:0:
320,240,60462,6,0,P|264:232|216:128,1,170,2|0,0:0|0:0,0:0:0:0:
304,144,60979,1,0,3:2:0:0:
352,144,61065,1,0,3:2:0:0:
400,352,61152,2,0,L|408:240,1,85,10|2,0:0|0:0,0:0:0:0:
360,256,61410,1,0,0:0:0:0:
312,248,61496,1,2,3:2:0:0:
264,240,61582,1,2,0:0:0:0:
256,176,61668,1,10,0:0:0:0:
304,184,61755,1,2,0:0:0:0:
408,192,61841,6,0,L|496:192,2,85,6|0|2,3:2|0:0|0:0,0:0:0:0:
392,136,62358,2,0,B|392:64|392:64|496:64,1,170,2|2,3:2|0:0,0:0:0:0:
336,224,62876,1,2,3:2:0:0:
240,224,63048,1,10,0:0:0:0:
488,288,63393,6,0,L|496:192,2,85,10|2|2,3:2|3:2|3:2,0:0:0:0:
320,288,63910,1,10,0:0:0:0:
232,288,64083,2,0,L|224:240,2,42.5,2|2|2,3:2|0:0|3:2,0:0:0:0:
320,216,64427,1,10,0:0:0:0:
152,184,64600,5,8,0:0:0:0:
272,184,65117,2,0,L|280:136,1,42.5,2|2,3:2|0:0,0:0:0:0:
232,248,65289,2,0,B|144:248|144:248|136:152,1,170,10|0,0:0|3:2,0:0:0:0:
224,160,65807,2,0,L|288:160,1,42.5,10|0,3:2|0:0,0:0:0:0:
368,160,65979,6,0,P|424:112|360:64,1,170,2|0,3:2|0:0,0:0:0:0:
288,56,66496,2,0,L|232:56,1,42.5,10|10,3:2|0:0,0:0:0:0:
144,56,66669,2,0,L|56:88,1,85,10|2,0:0|0:0,0:0:0:0:
224,336,67014,2,0,L|112:336,1,85,2|10,3:2|0:0,0:0:0:0:
384,328,67358,5,14,3:2:0:0:
408,248,67530,1,0,0:0:0:0:
352,184,67702,1,0,3:2:0:0:
264,168,67875,1,0,0:0:0:0:
176,160,68048,1,2,3:2:0:0:
170,75,68220,1,2,0:0:0:0:
336,72,68393,1,2,3:2:0:0:
424,72,68565,1,2,0:0:0:0:
168,256,68910,5,2,0:0:0:0:
424,72,69255,1,2,0:0:0:0:
288,72,69600,1,2,0:0:0:0:
216,72,69772,1,2,3:2:0:0:
168,152,69945,1,2,0:0:0:0:
336,336,70117,6,0,L|344:152,1,170,2|0,3:2|3:2,0:0:0:0:
256,336,70634,1,2,0:0:0:0:
224,336,70720,1,2,0:0:0:0:
192,336,70807,2,0,L|184:232,1,85,2|0,3:2|0:0,0:0:0:0:
328,256,71324,2,0,L|400:256,1,42.5,2|2,0:0|0:0,0:0:0:0:
264,200,71496,6,0,P|216:200|104:32,1,255,2|0,3:2|0:0,0:0:0:0:
144,56,72100,1,0,0:0:0:0:
200,56,72186,2,0,L|312:56,1,85,2|2,3:2|3:2,0:0:0:0:
336,56,72445,1,0,0:0:0:0:
352,160,72531,1,2,3:2:0:0:
312,160,72617,1,2,3:2:0:0:
272,160,72703,1,2,3:2:0:0:
24,160,72876,6,0,L|16:96,2,42.5,6|0|2,3:2|0:0|3:2,0:0:0:0:
104,240,73220,1,2,3:2:0:0:
144,240,73306,1,2,0:0:0:0:
192,240,73392,1,2,3:2:0:0:
272,240,73565,6,0,L|328:240,2,42.5,2|2|2,3:2|0:0|3:2,0:0:0:0:
112,168,73910,2,0,L|48:168,2,42.5,2|2|2,3:2|0:0|3:2,0:0:0:0:
360,168,74255,6,0,L|368:104,1,42.5,6|2,3:2|0:0,0:0:0:0:
304,120,74427,1,2,3:2:0:0:
224,120,74600,1,2,3:2:0:0:
176,120,74686,1,2,0:0:0:0:
168,64,74772,1,2,3:2:0:0:
248,64,74945,6,0,L|256:16,2,42.5,6|0|0,3:2|0:0|3:2,0:0:0:0:
88,256,75289,1,2,3:2:0:0:
80,200,75346,1,2,0:0:0:0:
72,144,75403,1,2,0:0:0:0:
64,88,75461,1,2,3:2:0:0:
304,200,75634,6,0,L|312:96,1,85,14|0,3:2|3:2,0:0:0:0:
232,112,75979,1,12,3:2:0:0:
392,336,76152,2,0,L|192:336,1,170,0|8,3:2|3:2,0:0:0:0:
216,272,76669,1,14,3:2:0:0:
304,272,76841,1,10,3:2:0:0:
64,216,77014,6,0,B|56:120|56:120|128:120|128:120|136:224,1,255,14|0,3:2|0:0,0:0:0:0:
280,88,77703,1,2,3:2:0:0:
336,88,77876,1,2,3:2:0:0:
248,40,78048,1,2,3:2:0:0:
336,40,78220,1,2,3:2:0:0:
176,336,78393,6,0,L|168:240,1,85,2|0,3:2|0:0,0:0:0:0:
416,344,78738,2,0,P|464:296|408:232,1,170,12|2,0:0|0:0,0:0:0:0:
392,160,79255,2,0,L|488:160,2,85,10|2|0,0:0|3:2|3:2,0:0:0:0:
144,160,79772,5,12,0:0:0:0:
232,112,79945,1,2,0:0:0:0:
144,112,80117,1,8,0:0:0:0:
88,56,80289,2,0,L|264:56,1,170,0|0,0:0|3:2,0:0:0:0:
104,256,80807,2,0,L|208:256,1,85,10|2,0:0|0:0,0:0:0:0:
360,256,81152,6,0,L|368:144,1,85,2|0,3:2|0:0,0:0:0:0:
288,160,81496,2,0,L|200:160,1,85,8|2,0:0|3:2,0:0:0:0:
192,104,81755,1,2,0:0:0:0:
240,104,81841,2,0,L|344:104,2,85,2|8|0,0:0|0:0|0:0,0:0:0:0:
152,232,82358,2,0,L|88:232,1,42.5,2|2,3:2|0:0,0:0:0:0:
216,328,82531,6,0,L|301:243,2,85,2|0|8,0:0|3:2|0:0,0:0:0:0:
128,328,83048,2,0,L|120:280,1,42.5,2|2,3:2|0:0,0:0:0:0:
168,280,83220,2,0,L|272:280,1,85,2|2,0:0|3:2,0:0:0:0:
288,280,83450,1,2,0:0:0:0:
296,216,83508,1,2,0:0:0:0:
264,216,83565,1,10,0:0:0:0:
24,200,83738,6,0,L|16:96,2,85,6|2|2,0:0|0:0|3:2,0:0:0:0:
184,128,84255,1,10,0:0:0:0:
104,120,84427,2,0,L|264:24,1,170,2|0,0:0|3:2,0:0:0:0:
160,64,84945,1,10,0:0:0:0:
320,328,85117,6,0,P|248:328|200:232,1,170,2|2,3:2|0:0,0:0:0:0:
360,256,85634,1,10,0:0:0:0:
376,176,85807,1,2,0:0:0:0:
288,104,85979,2,0,L|384:104,1,85,2|2,0:0|3:2,0:0:0:0:
216,176,86324,1,10,0:0:0:0:
168,176,86410,1,2,0:0:0:0:
120,176,86496,1,2,0:0:0:0:
296,336,86669,6,0,P|328:264|288:184,1,170,2|8,3:2|0:0,0:0:0:0:
200,184,87186,1,0,0:0:0:0:
152,184,87272,1,2,3:2:0:0:
200,184,87358,2,0,P|256:128|192:88,1,170,2|8,3:2|0:0,0:0:0:0:
112,88,87876,1,2,0:0:0:0:
352,344,88048,6,0,B|436:344|436:344|336:344,1,170,2|8,3:2|0:0,0:0:0:0:
272,232,88565,2,0,L|264:184,2,42.5,0|2|2,0:0|3:2|3:2,0:0:0:0:
192,184,88910,1,2,3:2:0:0:
32,120,89083,1,10,0:0:0:0:
80,120,89169,1,8,0:0:0:0:
128,120,89255,1,10,0:0:0:0:
384,184,89427,6,0,L|240:184,3,127.5,6|2|2|8,0:0|0:0|0:0|0:0,0:0:0:0:
32,176,90462,2,0,L|128:176,1,85,14|0,3:2|0:0,0:0:0:0:
376,144,90807,5,4,3:2:0:0:
304,88,90979,1,2,0:0:0:0:
392,88,91151,1,10,0:0:0:0:
232,320,91324,2,0,P|224:248|312:200,1,170,2|2,3:2|3:2,0:0:0:0:
136,336,91841,2,0,L|128:248,1,85,10|2,0:0|0:0,0:0:0:0:
288,200,92186,6,0,L|184:200,1,85,2|0,3:2|0:0,0:0:0:0:
112,144,92531,2,0,L|200:144,1,85,10|2,0:0|3:2,0:0:0:0:
208,88,92790,1,2,0:0:0:0:
160,88,92876,2,0,L|56:88,2,85,2|8|0,3:2|0:0|0:0,0:0:0:0:
72,208,93393,2,0,L|128:208,1,42.5,2|2,3:2|0:0,0:0:0:0:
216,208,93565,6,0,L|320:208,2,85,2|0|8,0:0|3:2|0:0,0:0:0:0:
128,152,94083,2,0,L|120:104,1,42.5,2|2,3:2|0:0,0:0:0:0:
168,112,94255,2,0,L|264:112,1,85,2|2,0:0|3:2,0:0:0:0:
304,112,94514,1,0,0:0:0:0:
253,112,94600,1,10,0:0:0:0:
88,344,94772,5,14,0:0:0:0:
128,344,94858,1,2,0:0:0:0:
168,344,94944,1,2,0:0:0:0:
176,280,95030,1,2,0:0:0:0:
184,224,95116,1,2,3:2:0:0:
424,336,95289,6,0,L|432:232,1,85,14|2,0:0|0:0,0:0:0:0:
344,248,95634,2,0,L|336:144,1,85,2|2,3:2|0:0,0:0:0:0:
176,144,95979,1,10,3:2:0:0:
128,144,96065,1,2,0:0:0:0:
80,144,96151,1,2,0:0:0:0:
328,352,96324,5,6,3:2:0:0:
248,304,96496,1,2,3:2:0:0:
296,304,96582,1,2,0:0:0:0:
344,304,96668,1,10,3:2:0:0:
424,248,96841,1,2,3:2:0:0:
256,240,97014,6,0,L|248:192,2,42.5,6|2|2,3:2|3:2|3:2,0:0:0:0:
416,216,97358,2,0,L|472:216,2,42.5,10|2|10,3:2|3:2|3:2,0:0:0:0:
176,200,97703,6,0,L|168:96,1,85,14|2,3:2|3:2,0:0:0:0:
96,120,98048,1,10,3:2:0:0:
256,336,98220,2,0,L|264:232,1,85,6|2,3:2|3:2,0:0:0:0:
344,256,98565,1,8,3:2:0:0:
264,192,98738,1,2,3:2:0:0:
24,192,98910,5,14,3:2:0:0:
256,192,99083,12,0,99772,0:0:0:0:
368,192,100117,5,2,0:0:0:0:
416,192,100203,1,2,0:0:0:0:
368,192,100289,1,2,0:0:0:0:
120,336,100462,6,0,B|32:312|32:208|32:208|192:168|192:168|32:96|32:96|32:192,1,595,6|2,3:2|0:0,0:0:0:0:
280,328,101841,6,0,B|448:328|448:328|464:240|464:240|457:158|457:158|368:144|368:144|363:62|363:62|448:64,1,595,6|2,3:2|0:0,0:0:0:0:
184,336,103220,6,0,B|112:264|168:184|168:184|248:160|248:160|264:72|264:72|192:48|192:48|104:48|104:48|192:48,1,595,6|2,3:2|3:2,0:0:0:0:
448,328,104600,6,0,P|456:272|304:168,1,255,14|0,3:2|3:2,0:0:0:0:
160,168,105289,2,0,L|288:168,2,127.5,14|2|2,3:2|3:2|3:2,0:0:0:0:
440,112,105979,5,14,3:2:0:0:
256,192,106152,12,0,108738,0:0:0:0:
