osu file format v14

[General]
AudioFilename: beatmap-637451681832791236-asdn.mp3
AudioLeadIn: 0
PreviewTime: 27272
Countdown: 0
SampleSet: Soft
StackLeniency: 0.7
Mode: 2
LetterboxInBreaks: 0
WidescreenStoryboard: 0

[Editor]
DistanceSpacing: 1.8
BeatDivisor: 4
GridSize: 32
TimelineZoom: 4.399998

[Metadata]
Title:Hypnos Metropolis
TitleUnicode:Hypnos Metropolis
Artist:polysha
ArtistUnicode:polysha
Creator:Jemzuu
Version:Dormancy
Source:
Tags:axs rocma deif gigachad dako ajamez dtm9 nowa BMS G2R2018 drumstep electronic instrumental drum and bass n dnb dubstep edm trap tech GO BACK 2 YOUR ROOTS 2018 CLIMAX Glittering Neurofunk 明日一限ブラザーズ
BeatmapID:2775957
BeatmapSetID:1339895

[Difficulty]
HPDrainRate:6
CircleSize:4.2
OverallDifficulty:9.7
ApproachRate:9.7
SliderMultiplier:2.12
SliderTickRate:2

[Events]
//Background and Video events
0,0,"31775-artwork-digital_art-fantasy_art-futuristic-city.jpg",0,0
//Break Periods
//Storyboard Layer 0 (Background)
//Storyboard Layer 1 (Fail)
//Storyboard Layer 2 (Pass)
//Storyboard Layer 3 (Foreground)
//Storyboard Layer 4 (Overlay)
//Storyboard Sound Samples

[TimingPoints]
1152,344.827586206897,4,2,1,70,1,0
1152,-133.333333333333,4,2,1,70,0,0
3220,-100,4,2,1,70,0,0
3738,-100,4,2,1,70,0,0
5807,-100,4,2,1,70,0,0
9427,-100,4,2,1,70,0,0
12186,-100,4,2,1,70,0,0
16152,-100,4,2,1,70,0,0
22100,-100,4,2,1,70,0,0
22531,-100,4,2,1,70,0,0
23220,-100,4,2,1,70,0,0
25289,-100,4,2,1,70,0,0
25634,-100,4,2,1,70,0,0
25979,-100,4,2,1,70,0,0
27358,-100,4,2,1,70,0,0
28048,-100,4,2,1,70,0,0
28738,-74.0740740740741,4,2,1,80,0,1
29083,-81.9672131147541,4,2,1,80,0,1
29427,-81.9672131147541,4,2,1,80,0,1
29772,-81.9672131147541,4,2,1,80,0,1
30117,-70.4225352112676,4,2,1,80,0,1
30462,-81.9672131147541,4,2,1,80,0,1
31496,-39.5256916996047,4,2,1,80,0,1
31841,-81.9672131147541,4,2,1,80,0,1
32531,-81.9672131147541,4,2,1,80,0,1
33048,-81.9672131147541,4,2,1,80,0,1
33220,-81.9672131147541,4,2,1,80,0,1
34255,-81.9672131147541,4,2,1,80,0,1
34945,-81.9672131147541,4,2,1,80,0,1
35289,-81.9672131147541,4,2,1,80,0,1
35634,-65.7894736842105,4,2,1,80,0,1
35893,-81.9672131147541,4,2,1,80,0,1
37013,-70.4225352112676,4,2,1,80,0,1
37703,-81.9672131147541,4,2,1,80,0,1
38048,-81.9672131147541,4,2,1,80,0,1
38220,-70.4225352112676,4,2,1,80,0,1
38565,-81.9672131147541,4,2,1,80,0,1
38737,-81.9672131147541,4,2,1,80,0,1
39083,-81.9672131147541,4,2,1,70,0,1
39772,-81.9672131147541,4,2,1,80,0,0
39858,-81.9672131147541,4,2,1,80,0,0
40117,-65.7894736842105,4,2,1,80,0,0
40203,-81.9672131147541,4,2,1,80,0,0
40376,-42.7350427350427,4,2,1,80,0,0
40462,-81.9672131147541,4,2,1,80,0,0
40634,-37.7358490566038,4,2,1,80,0,0
40720,-81.9672131147541,4,2,1,70,0,0
41152,-65.7894736842105,4,2,1,80,0,1
41410,-81.9672131147541,4,2,1,80,0,1
42531,-39.5256916996047,4,2,1,80,0,1
42876,-81.9672131147541,4,2,1,80,0,1
43566,-81.9672131147541,4,2,1,80,0,1
44083,-81.9672131147541,4,2,1,80,0,1
44255,-81.9672131147541,4,2,1,80,0,1
45289,-81.9672131147541,4,2,1,80,0,1
45633,-81.9672131147541,4,2,1,80,0,1
45979,-81.9672131147541,4,2,1,80,0,1
46323,-81.9672131147541,4,2,1,80,0,1
47014,-37.1747211895911,4,2,1,80,0,1
47531,-35.0877192982456,4,2,1,80,0,1
47876,-81.9672131147541,4,2,1,80,0,1
48393,-81.9672131147541,4,2,1,80,0,1
49255,-81.9672131147541,4,2,1,80,0,1
50289,-81.9672131147541,4,2,1,80,0,1
50807,-81.9672131147541,4,2,1,80,0,1
52014,-81.9672131147541,4,2,1,80,0,1
52703,-81.9672131147541,4,2,1,80,0,1
53220,-81.9672131147541,4,2,1,80,0,1
53393,-81.9672131147541,4,2,1,80,0,1
54772,-100,4,2,1,80,0,1
55117,-81.9672131147541,4,2,1,80,0,1
56324,-100,4,2,1,70,0,0
61152,-100,4,2,1,70,0,0
61841,-100,4,2,1,70,0,0
63738,-100,4,2,1,70,0,0
64600,-100,4,2,1,70,0,0
67358,-100,4,2,1,70,0,0
71152,-100,4,2,1,70,0,0
77014,-50,4,2,1,70,0,0
77703,-100,4,2,1,70,0,0
78220,-100,4,2,1,70,0,0
78393,-100,4,2,1,70,0,0
78738,-81.9672131147541,4,2,1,80,0,0
78910,-81.9672131147541,4,2,1,80,0,0
79772,-81.9672131147541,4,2,1,80,0,1
79945,-81.9672131147541,4,2,1,80,0,1
80117,-81.9672131147541,4,2,1,80,0,1
80807,-81.9672131147541,4,2,1,80,0,1
81152,-81.9672131147541,4,2,1,80,0,1
82358,-81.9672131147541,4,2,1,80,0,1
83220,-81.9672131147541,4,2,1,80,0,1
84255,-81.9672131147541,4,2,1,80,0,1
84600,-81.9672131147541,4,2,1,80,0,1
84945,-81.9672131147541,4,2,1,80,0,1
85462,-66.6666666666667,4,2,1,80,0,1
85634,-81.9672131147541,4,2,1,80,0,1
85979,-81.9672131147541,4,2,1,80,0,1
86324,-81.9672131147541,4,2,1,80,0,1
87014,-81.9672131147541,4,2,1,80,0,1
87358,-81.9672131147541,4,2,1,80,0,1
89427,-81.9672131147541,4,2,1,70,0,0
90289,-81.9672131147541,4,2,1,70,0,0
90462,-81.9672131147541,4,2,1,70,0,0
90807,-81.9672131147541,4,2,1,80,0,1
91324,-81.9672131147541,4,2,1,80,0,1
91841,-81.9672131147541,4,2,1,80,0,1
92186,-81.9672131147541,4,2,1,80,0,1
93565,-81.9672131147541,4,2,1,80,0,1
94255,-81.9672131147541,4,2,1,80,0,1
98910,-86.9565217391304,4,2,1,70,0,0
98996,-86.9565217391304,4,2,1,30,0,0
99945,-86.9565217391304,4,2,1,5,0,0
100117,-86.9565217391304,4,2,1,60,0,0
101841,-86.9565217391304,4,2,1,70,0,0
106152,-86.9565217391304,4,2,1,40,0,0
106669,-86.9565217391304,4,2,1,30,0,0
107358,-86.9565217391304,4,2,1,25,0,0
108048,-86.9565217391304,4,2,1,10,0,0
108738,-86.9565217391304,4,2,1,5,0,0

[Colours]
Combo1 : 255,255,128
Combo2 : 255,165,121
Combo3 : 145,200,255

[HitObjects]
288,144,463,6,0,L|165:137,1,106
322,36,807,1,2,0:0:0:0:
358,30,865,1,0,0:0:0:0:
399,31,922,1,0,0:0:0:0:
241,26,980,1,2,0:0:0:0:
201,20,1038,1,0,0:0:0:0:
155,21,1095,1,0,0:0:0:0:
351,15,1152,6,0,P|417:39|332:337,1,477.000018196107,6|2,3:2|0:0,0:0:0:0:
109,364,2531,2,0,P|88:324|216:205,1,238.500009098053,2|0,0:0|0:0,0:0:0:0:
339,144,3220,2,0,L|119:95,1,212,2|0,0:0|0:0,0:0:0:0:
285,28,3738,6,0,P|313:86|138:219,1,318,2|2,0:0|0:0,0:0:0:0:
292,279,4427,2,0,L|300:213,2,53,2|0|0,0:0|0:0|0:0,0:0:0:0:
439,203,4772,2,0,L|443:148,2,53,2|0|0,0:0|0:0|0:0,0:0:0:0:
279,147,5117,2,0,L|341:116,1,53,2|0,0:0|0:0,0:0:0:0:
390,125,5289,1,0,0:0:0:0:
238,73,5462,2,0,L|176:42,1,53,2|0,0:0|0:0,0:0:0:0:
127,51,5634,1,0,0:0:0:0:
285,18,5807,6,0,L|297:134,1,106,2|0,0:0|0:0,0:0:0:0:
121,147,6152,2,0,L|112:265,1,106,2|2,0:0|0:0,0:0:0:0:
143,257,6367,1,0,0:0:0:0:
176,259,6410,1,2,0:0:0:0:
216,261,6453,1,0,0:0:0:0:
172,284,6496,2,0,L|124:288,2,35.3333333333333,2|0|0,0:0|0:0|0:0,0:0:0:0:
355,368,6669,6,0,L|359:234,1,106,2|0,0:0|0:0,0:0:0:0:
213,273,7014,2,0,L|204:146,1,106
262,143,7272,1,0,0:0:0:0:
329,137,7358,1,0,0:0:0:0:
179,90,7531,2,0,L|145:46,2,53,0|0|2,0:0|0:0|0:0,0:0:0:0:
330,35,7876,2,0,L|243:48,1,53
64,119,8048,5,2,0:0:0:0:
199,223,8220,2,0,L|206:133,2,53
51,261,8565,1,0,0:0:0:0:
286,304,8738,2,0,L|375:305,1,53,2|0,0:0|0:0,0:0:0:0:
138,364,9083,2,0,L|231:363,1,53,2|0,0:0|0:0,0:0:0:0:
413,370,9255,5,0,0:0:0:0:
280,357,9427,2,0,L|271:237,1,106
415,169,9772,1,0,0:3:0:0:
362,160,9858,1,0,0:0:0:0:
310,152,9944,1,0,0:0:0:0:
258,143,10030,1,0,0:0:0:0:
334,93,10117,1,2,0:0:0:0:
193,89,10289,2,0,L|157:31,2,53
454,143,10634,6,0,P|480:197|354:273,1,212,2|0,0:0|0:0,0:0:0:0:
255,318,11152,2,0,L|241:195,1,106
101,206,11496,1,0,0:0:0:0:
94,153,11582,1,0,0:0:0:0:
87,100,11668,1,0,0:0:0:0:
237,62,11841,2,0,L|279:72,2,35.3333333333333,2|0|0,0:0|0:0|0:0,0:0:0:0:
174,38,12014,2,0,L|128:40,2,35.3333333333333,2|0|0,0:0|0:0|0:0,0:0:0:0:
382,75,12186,6,0,P|412:129|321:194,1,159,6|8,3:2|0:3,0:0:0:0:
299,205,12531,1,0,0:0:0:0:
175,217,12703,1,0,3:0:0:0:
321,297,12876,2,0,L|356:239,2,53,8|0|0,0:0|0:0|0:0,0:0:0:0:
167,337,13220,2,0,L|284:354,1,106,2|8,3:2|0:0,0:0:0:0:
31,248,13565,5,2,3:2:0:0:
170,198,13738,2,0,L|122:170,1,53,8|0,0:2|3:2,0:0:0:0:
60,171,13910,1,0,3:2:0:0:
242,97,13996,2,0,L|314:90,1,53,8|0,0:3|0:0,0:0:0:0:
148,83,14255,2,0,L|117:32,2,53,10|0|0,0:0|0:0|0:0,0:0:0:0:
296,167,14600,2,0,L|248:195,1,53,0|0,3:2|0:0,0:0:0:0:
186,194,14772,1,10,3:2:0:0:
436,178,14945,6,0,L|448:297,1,106,0|8,3:2|0:3,0:0:0:0:
377,302,15203,2,0,L|310:309,1,53,0|2,3:3|0:0,0:0:0:0:
394,332,15376,2,0,L|459:339,2,53,8|0|0,0:3|3:0|0:0,0:0:0:0:
187,360,15634,1,8,0:0:0:0:
320,353,15807,2,0,L|346:300,2,53,2|0|0,0:0|0:0|3:2,0:0:0:0:
70,251,16152,6,0,L|190:236,1,106,10|0,3:2|0:0,0:0:0:0:
32,182,16496,2,0,L|30:92,1,53,10|8,3:2|0:3,0:0:0:0:
91,104,16669,1,8,0:0:0:0:
274,31,16755,2,0,L|194:38,1,53,8|0,0:3|0:0,0:0:0:0:
359,107,17014,2,0,L|417:109,1,53,10|0,0:0|0:0,0:0:0:0:
215,184,17186,1,2,0:0:0:0:
348,224,17358,5,2,3:2:0:0:
319,233,17401,1,0,0:0:0:0:
307,257,17444,1,2,0:0:0:0:
321,280,17487,1,0,0:0:0:0:
351,288,17530,1,10,0:0:0:0:
393,288,17588,1,0,0:0:0:0:
351,288,17646,1,0,0:0:0:0:
155,360,17703,6,0,P|130:289|211:257,1,159,6|0,3:2|3:0,0:0:0:0:
248,242,18048,1,0,0:0:0:0:
181,209,18134,2,0,L|92:202,2,53,8|8|0,0:3|0:0|0:0,0:0:0:0:
375,216,18393,2,0,P|396:164|274:84,1,212,8|2,0:0|3:2,0:0:0:0:
426,47,18910,1,8,0:0:0:0:
175,48,19083,6,0,L|179:185,1,106,2|8,3:2|0:0,0:0:0:0:
232,175,19341,1,8,0:3:0:0:
296,178,19427,1,2,3:2:0:0:
116,269,19514,2,0,L|28:276,2,53,8|0|0,0:3|0:0|0:0,0:0:0:0:
328,346,19772,2,0,L|221:346,1,106,8|2,0:0|0:0,0:0:0:0:
208,327,19988,1,0,0:0:0:0:
222,346,20031,1,0,0:0:0:0:
450,292,20117,1,2,0:0:0:0:
464,273,20160,1,0,0:0:0:0:
450,292,20203,1,0,0:0:0:0:
203,210,20289,5,6,3:2:0:0:
256,192,20376,12,0,22186,0:0:0:0:
260,90,22358,6,0,L|196:97,1,53,2|2,0:0|0:0,0:0:0:0:
431,216,22531,6,0,L|453:215,1,13.25,6|0,0:0|0:0,0:0:0:0:
320,289,22703,2,0,B|264:303|264:303|373:329|373:329|246:342,1,291.5,2|0,3:2|0:0,0:0:0:0:
79,350,23220,6,0,L|55:292,3,53,4|0|0|0,3:2|0:0|0:0|0:0,0:0:0:0:
251,242,23565,2,0,L|284:192,3,53,0|0|0|0,3:2|0:0|0:0|0:0,0:0:0:0:
357,154,23910,2,0,L|282:149,1,53,2|0,3:2|0:0,0:0:0:0:
114,45,24083,2,0,L|185:43,1,53,2|0,0:0|0:0,0:0:0:0:
351,101,24255,2,0,L|357:156,1,53,2|0,3:2|0:0,0:0:0:0:
429,161,24427,2,0,L|440:228,1,53,2|0,0:0|0:0,0:0:0:0:
239,239,24600,6,0,L|227:309,1,53,0|0,3:2|0:0,0:0:0:0:
409,291,24772,2,0,L|395:364,1,53
193,365,24945,2,0,L|261:353,1,53,0|0,3:2|0:0,0:0:0:0:
317,290,25117,2,0,L|264:292,1,53
74,248,25289,2,0,L|153:238,1,53,2|0,3:2|0:0,0:0:0:0:
48,241,25462,2,0,L|39:177,1,53,2|0,0:2|0:0,0:0:0:0:
234,202,25634,2,0,L|319:194,1,53,2|0,3:2|0:0,0:0:0:0:
207,175,25807,2,0,L|272:169,1,53,2|0,0:0|0:0,0:0:0:0:
486,178,25979,6,0,L|491:122,1,53,2|0,3:2|0:0,0:0:0:0:
410,112,26152,2,0,L|414:49,1,53,2|0,3:2|0:0,0:0:0:0:
205,187,26324,2,0,L|200:131,1,53,0|0,3:2|0:0,0:0:0:0:
286,120,26497,2,0,L|282:57,1,53,0|0,3:2|0:0,0:0:0:0:
478,278,26669,2,0,L|483:215,1,53,2|0,3:2|0:0,0:0:0:0:
307,237,26841,2,0,L|303:173,1,53,2|0,3:2|0:0,0:0:0:0:
120,158,27014,2,0,L|99:93,1,53,2|2,3:2|3:2,0:0:0:0:
321,87,27186,2,0,L|342:22,1,53,2|2,3:2|3:2,0:0:0:0:
105,60,27358,6,0,L|81:111,2,53,2|0|2,3:2|0:0|0:0,0:0:0:0:
157,55,27617,1,0,0:0:0:0:
105,60,27703,2,0,L|68:103,2,53,2|0|2,0:0|0:0|0:0,0:0:0:0:
157,55,27962,1,0,0:0:0:0:
105,60,28048,2,0,L|58:92,1,53,2|0,0:0|0:0,0:0:0:0:
265,181,28220,6,0,L|347:178,1,53,12|2,0:3|0:0,0:0:0:0:
248,223,28393,1,2,0:0:0:0:
167,227,28479,1,2,0:0:0:0:
326,287,28565,1,2,0:0:0:0:
489,297,28652,1,2,0:0:0:0:
262,366,28738,6,0,B|153:271|153:271|225:266,1,214.650000818825,12|0,0:0|0:0,0:0:0:0:
31,163,29083,1,8,0:0:0:0:
59,162,29126,1,0,0:0:0:0:
88,162,29169,1,0,0:0:0:0:
117,162,29212,1,0,0:0:0:0:
104,180,29255,1,0,0:0:0:0:
117,162,29298,1,0,0:0:0:0:
104,180,29341,1,0,3:0:0:0:
296,74,29427,6,0,L|224:65,1,64.6599973360902,2|0,0:0|0:0,0:0:0:0:
66,38,29600,2,0,L|144:17,1,64.6599973360902,2|0,3:2|0:0,0:0:0:0:
311,150,29772,2,0,L|229:161,1,64.6599973360902,10|0,0:0|0:0,0:0:0:0:
429,234,29945,2,0,L|450:194,2,32.3299986680451,2|0|0,0:0|0:0|0:0,0:0:0:0:
220,266,30117,6,0,B|370:292|370:292|370:215,1,225.779988631074,2|0,3:2|0:0,0:0:0:0:
184,191,30462,2,0,L|224:123,1,64.6599973360902,10|2,0:0|0:0,0:0:0:0:
288,122,30634,1,2,0:0:0:0:
117,114,30720,2,0,L|177:66,1,64.6599973360902,2|2,3:2|0:0,0:0:0:0:
242,71,30893,1,2,0:0:0:0:
63,25,30979,2,0,L|58:116,1,64.6599973360902,2|2,3:2|0:0,0:0:0:0:
238,220,31152,2,0,L|166:231,1,64.6599973360902,10|2,0:0|0:0,0:0:0:0:
248,244,31324,2,0,L|155:262,1,64.6599973360902,2|2,0:0|0:0,0:0:0:0:
386,358,31496,6,0,B|122:308|122:308|122:161,1,402.269997084377,2|0,3:2|0:0,0:0:0:0:
320,181,31841,5,10,0:0:0:0:
332,151,31884,1,0,0:0:0:0:
325,120,31927,1,0,0:0:0:0:
301,99,31970,1,0,0:0:0:0:
269,95,32013,1,0,0:0:0:0:
98,58,32100,5,2,3:2:0:0:
131,56,32143,1,0,0:0:0:0:
163,53,32186,1,0,0:0:0:0:
197,51,32229,1,0,0:0:0:0:
237,50,32272,1,0,0:0:0:0:
80,179,32358,2,0,L|59:144,2,32.3299986680451,2|0|0,3:2|0:0|0:0,0:0:0:0:
248,244,32531,5,10,0:0:0:0:
215,242,32574,1,0,0:0:0:0:
169,237,32617,1,0,0:0:0:0:
158,213,32660,1,0,0:0:0:0:
169,237,32703,1,0,0:0:0:0:
334,158,32789,5,2,3:2:0:0:
320,181,32810,1,0,0:0:0:0:
303,201,32832,1,0,0:0:0:0:
280,209,32854,1,0,0:0:0:0:
256,211,32875,1,0,0:0:0:0:
279,229,32897,1,0,0:0:0:0:
256,211,32918,1,0,0:0:0:0:
280,255,32940,1,0,0:0:0:0:
256,211,32961,1,0,0:0:0:0:
424,162,33048,5,2,3:2:0:0:
455,162,33070,1,0,0:0:0:0:
429,142,33091,1,0,0:0:0:0:
448,142,33113,1,0,0:0:0:0:
439,126,33134,1,0,0:0:0:0:
270,56,33220,5,10,0:0:0:0:
253,56,33242,1,0,0:0:0:0:
270,56,33264,1,0,0:0:0:0:
244,72,33285,1,0,0:0:0:0:
270,56,33307,1,0,0:0:0:0:
237,88,33328,1,0,0:0:0:0:
270,56,33350,1,0,0:0:0:0:
231,108,33371,1,0,0:0:0:0:
270,56,33393,1,0,0:0:0:0:
100,87,33479,5,2,3:2:0:0:
57,139,33501,1,0,0:0:0:0:
100,87,33522,1,0,0:0:0:0:
65,119,33544,1,0,0:0:0:0:
100,87,33565,1,0,0:0:0:0:
70,103,33587,1,0,0:0:0:0:
100,87,33608,1,0,0:0:0:0:
82,87,33630,1,0,0:0:0:0:
100,87,33652,1,0,0:0:0:0:
271,224,33738,5,2,3:2:0:0:
290,224,33759,1,0,0:0:0:0:
271,224,33781,1,0,0:0:0:0:
305,244,33802,1,0,0:0:0:0:
271,224,33824,1,0,0:0:0:0:
455,305,33910,5,2,3:2:0:0:
307,356,33996,2,0,L|283:356,1,16.1649993340226,2|0,3:2|0:0,0:0:0:0:
144,296,34083,2,0,L|164:296,1,16.1649993340226,2|0,3:2|0:0,0:0:0:0:
291,356,34169,2,0,L|307:356,1,16.1649993340226,2|0,3:2|0:0,0:0:0:0:
464,225,34255,5,2,3:2:0:0:
475,197,34298,1,0,0:0:0:0:
461,163,34341,1,0,0:0:0:0:
428,146,34384,1,0,0:0:0:0:
396,145,34427,1,0,0:0:0:0:
465,130,34514,1,0,0:0:0:0:
281,153,34600,5,8,0:0:0:0:
267,121,34643,1,0,0:0:0:0:
282,90,34686,1,0,0:0:0:0:
316,74,34729,1,0,0:0:0:0:
350,75,34772,1,0,0:0:0:0:
188,46,34858,1,0,3:2:0:0:
17,140,34945,6,0,L|86:148,1,64.6599973360902,2|0,0:0|0:0,0:0:0:0:
258,264,35117,2,0,L|188:277,1,64.6599973360902,2|0,3:2|3:2,3:2:0:0:
378,347,35289,2,0,L|446:358,1,64.6599973360902,10|0,0:0|0:0,0:0:0:0:
256,187,35462,1,2,0:0:0:0:
223,187,35505,1,0,0:0:0:0:
191,187,35548,1,0,0:0:0:0:
395,116,35634,6,0,B|234:110|234:110|234:26,1,241.679997049805,2|0,3:2|0:0,0:0:0:0:
30,38,35979,6,0,L|103:48,1,64.6599973360902,0|0,3:2|0:0,0:0:0:0:
275,140,36152,2,0,L|276:213,1,64.6599973360902
456,285,36324,2,0,L|388:294,1,64.6599973360902,0|0,3:2|0:0,0:0:0:0:
207,277,36496,2,0,L|204:361,1,64.6599973360902
16,151,36669,2,0,L|87:156,1,64.6599973360902,0|2,3:2|0:0,0:0:0:0:
256,142,36841,1,2,0:0:0:0:
80,155,36927,1,2,0:0:0:0:
256,206,37014,6,0,B|390:136|390:136|279:139,1,225.779988631074,6|0,0:0|0:0,0:0:0:0:
126,125,37358,2,0,B|260:55|260:55|149:58,1,225.779988631074,8|0,0:0|3:2,0:0:0:0:
369,37,37703,2,0,L|499:105,1,129.31999467218,2|2,0:0|3:2,0:0:0:0:
414,133,37962,1,0,0:0:0:0:
207,277,38048,1,10,0:0:0:0:
482,305,38220,6,0,B|350:232|350:232|489:307,1,301.039984841431,6|2,0:0|3:2,0:0:0:0:
419,331,38652,1,0,0:0:0:0:
231,321,38738,2,0,L|352:260,1,129.31999467218,8|0,0:0|3:0,0:0:0:0:
415,256,38996,1,2,0:0:0:0:
222,192,39083,5,2,0:3:0:0:
261,186,39126,1,2,0:3:0:0:
298,181,39169,1,2,0:3:0:0:
259,186,39212,1,2,0:3:0:0:
220,192,39255,1,0,0:0:0:0:
405,112,39341,2,0,L|486:107,2,64.6599973360902,2|0|2,0:0|0:0|0:0,0:0:0:0:
210,55,39600,2,0,L|276:57,1,64.6599973360902,2|0,0:0|0:0,0:0:0:0:
55,113,39772,6,0,L|238:226,1,193.979992008271,6|0,0:0|3:0,0:0:0:0:
292,213,40117,2,0,L|117:229,1,161.119998033203,2|0,0:0|3:0,0:0:0:0:
56,254,40376,2,0,L|298:316,1,248.040000946197,2|0,0:0|3:0,0:0:0:0:
217,305,40634,2,0,L|503:330,1,280.900011787034,2|8,0:0|0:0,0:0:0:0:
342,379,40893,1,8,0:0:0:0:
496,329,40979,1,8,0:0:0:0:
342,379,41065,1,8,0:0:0:0:
171,355,41152,6,0,B|332:351|332:351|332:264,1,241.679997049805,6|0,0:0|0:0,0:0:0:0:
145,262,41496,2,0,L|197:211,1,64.6599973360902,10|2,0:0|0:0,0:0:0:0:
268,212,41669,1,2,0:0:0:0:
78,151,41755,1,2,3:2:0:0:
145,148,41841,1,2,0:0:0:0:
78,151,41927,1,2,0:0:0:0:
247,59,42014,2,0,L|312:67,1,64.6599973360902,2|2,3:2|0:0,0:0:0:0:
126,207,42186,2,0,L|61:211,1,64.6599973360902,10|2,0:0|0:0,0:0:0:0:
253,269,42358,2,0,L|189:275,1,64.6599973360902,2|2,0:0|0:0,0:0:0:0:
380,365,42531,6,0,B|116:315|116:315|116:168,1,402.269997084377,2|0,3:2|0:0,0:0:0:0:
306,185,42876,5,10,0:0:0:0:
362,179,42919,1,0,0:0:0:0:
401,156,42962,1,0,0:0:0:0:
408,124,43005,1,0,0:0:0:0:
384,97,43048,1,0,0:0:0:0:
206,123,43134,5,2,3:2:0:0:
150,117,43177,1,0,0:0:0:0:
111,94,43220,1,0,0:0:0:0:
104,62,43263,1,0,0:0:0:0:
128,35,43306,1,0,0:0:0:0:
313,49,43393,2,0,L|278:72,1,32.3299986680451,2|0,3:2|0:0,0:0:0:0:
238,72,43479,1,0,0:0:0:0:
421,159,43565,5,10,0:0:0:0:
442,161,43608,1,0,0:0:0:0:
421,159,43652,1,0,0:0:0:0:
454,181,43695,1,0,0:0:0:0:
421,159,43738,1,0,0:0:0:0:
258,190,43824,5,2,3:2:0:0:
272,213,43845,1,0,0:0:0:0:
292,233,43867,1,0,0:0:0:0:
318,241,43889,1,0,0:0:0:0:
344,243,43910,1,0,0:0:0:0:
319,261,43932,1,0,0:0:0:0:
344,243,43953,1,0,0:0:0:0:
317,287,43975,1,0,0:0:0:0:
344,243,43996,1,0,0:0:0:0:
163,331,44083,5,2,3:2:0:0:
128,331,44105,1,0,0:0:0:0:
157,311,44126,1,0,0:0:0:0:
135,311,44148,1,0,0:0:0:0:
146,295,44169,1,0,0:0:0:0:
320,60,44255,5,10,0:0:0:0:
337,59,44277,1,0,0:0:0:0:
347,71,44298,1,0,0:0:0:0:
365,70,44320,1,0,0:0:0:0:
358,100,44341,1,0,0:0:0:0:
376,99,44363,1,0,0:0:0:0:
346,129,44384,1,0,0:0:0:0:
364,128,44406,1,0,0:0:0:0:
321,138,44427,1,0,0:0:0:0:
141,71,44514,5,2,3:2:0:0:
123,73,44536,1,0,0:0:0:0:
111,82,44557,1,0,0:0:0:0:
93,84,44579,1,0,0:0:0:0:
98,111,44600,1,0,0:0:0:0:
81,113,44622,1,0,0:0:0:0:
112,140,44643,1,0,0:0:0:0:
94,142,44665,1,0,0:0:0:0:
140,151,44686,1,0,0:0:0:0:
309,275,44773,5,2,3:2:0:0:
327,275,44794,1,0,0:0:0:0:
309,275,44816,1,0,0:0:0:0:
341,295,44837,1,0,0:0:0:0:
309,275,44859,1,0,0:0:0:0:
116,345,44945,5,2,3:2:0:0:
266,359,45031,2,0,L|290:359,1,16.1649993340226,2|0,3:2|0:0,0:0:0:0:
430,299,45118,2,0,L|410:299,1,16.1649993340226,2|0,3:2|0:0,0:0:0:0:
283,359,45204,2,0,L|267:359,1,16.1649993340226,2|0,3:2|0:0,0:0:0:0:
112,285,45289,5,2,3:2:0:0:
101,257,45332,1,0,0:0:0:0:
115,223,45375,1,0,0:0:0:0:
148,206,45418,1,0,0:0:0:0:
180,205,45461,1,0,0:0:0:0:
111,190,45548,1,0,0:0:0:0:
295,213,45634,5,10,0:0:0:0:
309,181,45677,1,0,0:0:0:0:
294,150,45720,1,0,0:0:0:0:
260,134,45763,1,0,0:0:0:0:
226,135,45806,1,0,0:0:0:0:
372,101,45892,1,0,3:2:0:0:
221,64,45979,6,0,L|146:83,1,64.6599973360902,2|0,0:0|0:0,0:0:0:0:
334,20,46152,2,0,L|264:30,1,64.6599973360902,2|0,3:2|3:2,3:2:0:0:
427,175,46324,2,0,L|509:196,1,64.6599973360902,10|0,0:0|0:0,0:0:0:0:
311,272,46496,2,0,L|351:288,1,32.3299986680451,2|0,0:0|0:0,0:0:0:0:
385,289,46583,1,0,0:0:0:0:
198,352,46669,6,0,L|122:338,1,64.6599973360902,2|2,3:2|0:0,0:0:0:0:
284,294,46841,1,2,0:0:0:0:
438,291,46927,1,2,0:0:0:0:
200,223,47014,5,12,0:0:0:0:
176,218,47035,2,0,L|415:89,1,249.497502855272
158,99,47272,5,12,0:0:0:0:
134,93,47294,2,0,L|380:221,1,249.497502855272
97,29,47531,6,0,L|98:349,1,302.10000288105,12|0,0:0|0:0,0:0:0:0:
132,344,47746,1,0,0:0:0:0:
173,346,47789,1,0,0:0:0:0:
385,356,47876,6,0,P|401:309|258:182,1,258.639989344361,6|2,0:0|3:2,0:0:0:0:
207,189,48307,1,0,0:0:0:0:
390,115,48393,1,8,0:0:0:0:
322,115,48479,2,0,L|458:173,1,129.31999467218,0|0,0:0|3:2,0:0:0:0:
241,280,48738,1,0,3:2:0:0:
395,313,48910,1,2,3:2:0:0:
135,369,49083,2,0,L|64:345,1,64.6599973360902,10|0,0:0|3:0,0:0:0:0:
301,219,49255,6,0,L|161:194,1,129.31999467218,6|2,3:2|0:3,0:0:0:0:
143,187,49470,1,0,0:3:0:0:
130,158,49513,1,2,0:3:0:0:
143,130,49556,1,0,0:3:0:0:
173,121,49599,1,2,0:3:0:0:
241,113,49686,1,0,0:0:0:0:
46,104,49772,2,0,L|37:36,1,64.6599973360902,8|0,0:0|3:0,0:0:0:0:
262,21,49945,6,0,L|191:28,1,64.6599973360902,6|2,3:2|0:3,0:0:0:0:
162,35,50074,1,0,0:3:0:0:
122,46,50117,2,0,L|119:122,1,64.6599973360902,2|0,3:3|0:0,0:0:0:0:
305,225,50289,6,0,L|233:239,1,64.6599973360902,2|0,3:2|3:2,0:0:0:0:
425,302,50462,2,0,L|513:322,1,64.6599973360902,10|10,3:2|0:0,0:0:0:0:
298,364,50634,2,0,L|364:350,1,64.6599973360902,10|10,0:0|0:0,0:0:0:0:
132,328,50807,5,6,0:0:0:0:
263,297,50979,1,2,0:0:0:0:
324,278,51065,1,2,0:0:0:0:
386,259,51151,1,10,0:0:0:0:
118,209,51324,5,0,0:0:0:0:
182,187,51410,2,0,L|40:157,1,129.31999467218,2|0,3:2|0:0,0:0:0:0:
265,113,51669,1,2,3:2:0:0:
23,40,51841,1,10,0:0:0:0:
309,38,52014,6,0,P|335:107|202:203,1,258.639989344361,6|2,3:2|3:2,0:0:0:0:
462,291,52531,1,10,0:0:0:0:
312,341,52703,2,0,L|380:355,1,64.6599973360902,2|2,0:0|3:2,0:0:0:0:
157,366,52876,1,0,0:0:0:0:
302,339,53048,1,2,3:2:0:0:
45,298,53220,2,0,L|30:225,1,64.6599973360902,10|0,0:0|0:0,3:2:0:0:
257,177,53393,6,0,L|120:159,1,129.31999467218,6|0,3:2|0:0,0:0:0:0:
289,93,53738,2,0,L|207:82,1,64.6599973360902,0|0,3:2|0:0,0:0:0:0:
447,49,53910,2,0,L|454:191,1,129.31999467218,8|2,0:0|3:2,0:0:0:0:
386,191,54169,1,2,3:2:0:0:
204,274,54255,6,0,L|280:288,1,64.6599973360902,10|2,0:0|0:0,0:0:0:0:
76,353,54427,2,0,L|2:358,1,64.6599973360902,2|2,3:2|3:2,0:0:0:0:
269,351,54600,1,10,0:0:0:0:
20,51,54772,6,0,P|141:139|201:100,1,212,14|2,0:0|3:2,0:0:0:0:
60,209,55289,1,8,3:3:0:0:
27,155,55376,1,0,0:0:0:0:
51,98,55462,1,2,3:2:0:0:
111,83,55547,1,0,0:0:0:0:
185,58,55634,2,0,L|61:50,1,64.6599973360902,8|0,3:3|0:0,0:0:0:0:
327,50,55807,2,0,L|393:38,1,64.6599973360902,2|2,3:2|0:0,0:0:0:0:
187,157,55979,5,2,3:2:0:0:
337,189,56065,1,2,3:2:0:0:
490,192,56152,2,0,L|493:270,1,64.6599973360902,2|2,3:2|3:2,0:0:0:0:
209,349,56324,6,0,P|180:290|286:217,1,212,6|0,0:0|0:0,0:0:0:0:
36,208,57014,2,0,L|30:94,1,106,10|2,0:0|0:0,0:0:0:0:
143,74,57358,1,2,3:2:0:0:
290,40,57531,2,0,L|179:53,1,106,10|0,0:0|0:0,0:0:0:0:
445,161,57876,6,0,L|377:173,1,53,2|0,3:2|3:2,0:0:0:0:
252,266,58134,2,0,L|325:272,1,53,8|2,0:3|3:2,0:0:0:0:
154,342,58393,2,0,L|143:282,1,53,8|0,0:0|0:0,0:0:0:0:
228,281,58565,2,0,L|239:198,1,53,2|0,0:0|0:0,0:0:0:0:
48,218,58738,2,0,L|35:102,1,106,2|10,3:2|0:0,0:0:0:0:
301,40,59083,6,0,L|150:127,1,159,2|8,3:2|0:3,0:0:0:0:
218,151,59427,1,0,0:0:0:0:
281,157,59514,1,8,0:0:0:0:
215,180,59600,1,0,3:2:0:0:
455,197,59772,6,0,L|465:314,1,106,10|8,0:0|0:3,0:0:0:0:
317,350,60117,1,2,3:2:0:0:
464,354,60289,2,0,L|388:346,1,53,10|2,0:0|0:0,0:0:0:0:
338,295,60462,2,0,L|465:273,1,106,2|0,0:0|3:2,0:0:0:0:
378,249,60720,1,2,3:2:0:0:
236,206,60893,2,0,L|315:211,2,53,0|0|0,3:2|3:2|3:2,0:0:0:0:
34,229,61152,5,10,0:0:0:0:
174,155,61324,1,2,0:0:0:0:
138,153,61381,1,2,0:0:0:0:
100,151,61438,1,2,0:0:0:0:
55,150,61496,1,2,3:2:0:0:
123,129,61583,1,2,0:0:0:0:
55,150,61669,2,0,L|37:108,2,26.5,10|0|2,0:0|0:0|0:0,0:0:0:0:
275,156,61841,6,0,P|305:213|235:265,1,159,6|8,3:2|0:3,0:0:0:0:
180,264,62186,1,2,0:0:0:0:
330,335,62358,2,0,L|214:350,1,106,2|8,3:2|0:0,0:0:0:0:
367,271,62703,1,2,0:0:0:0:
215,252,62876,1,2,3:2:0:0:
455,234,63048,6,0,L|461:122,1,106,10|2,0:0|3:2,0:0:0:0:
310,90,63393,2,0,L|368:92,1,53,10|0,3:2|3:2,0:0:0:0:
298,121,63565,2,0,L|240:128,2,53,2|8|2,3:2|3:3|3:2,0:0:0:0:
54,247,63910,5,10,0:0:0:0:
188,302,64083,2,0,L|119:313,1,53,2|2,3:2|0:0,0:0:0:0:
201,332,64255,2,0,L|131:344,1,53,2|2,3:2|0:0,0:0:0:0:
214,354,64427,2,0,L|281:357,1,53,10|10,0:0|0:0,0:0:0:0:
65,378,64600,6,0,L|59:257,1,106,8|2,0:0|3:2,0:0:0:0:
116,251,64858,1,2,3:2:0:0:
255,186,65031,2,0,L|176:176,1,53,8|2,0:3|3:2,0:0:0:0:
134,166,65203,1,2,0:0:0:0:
345,84,65289,6,0,L|354:318,1,212,10|0,0:0|3:2,0:0:0:0:
206,340,65807,2,0,L|276:349,1,53,10|0,3:2|0:0,0:0:0:0:
457,218,65979,2,0,L|328:204,1,106,2|8,3:2|3:3,0:0:0:0:
294,198,66238,1,8,0:3:0:0:
433,128,66410,2,0,L|498:128,2,53,8|10|10,3:3|3:2|0:0,0:0:0:0:
197,97,66669,5,10,0:0:0:0:
334,89,66841,1,2,0:0:0:0:
96,53,67014,1,2,3:2:0:0:
369,19,67186,1,10,0:0:0:0:
77,75,67358,5,14,3:2:0:0:
52,119,67444,1,0,0:0:0:0:
73,166,67530,1,0,0:0:0:0:
122,177,67616,1,0,0:0:0:0:
199,188,67703,2,0,L|225:258,3,53,0|0|0|0,3:2|0:0|0:0|0:0,0:0:0:0:
299,249,68048,6,0,L|292:304,1,53,2|0,3:2|0:0,0:0:0:0:
209,314,68220,2,0,L|224:372,1,53,2|0,0:0|0:0,0:0:0:0:
410,376,68393,2,0,L|471:372,1,53,2|0,3:2|0:0,0:0:0:0:
269,354,68565,6,0,L|243:298,3,53,2|0|0|0,0:0|0:0|3:2|0:0,0:0:0:0:
451,276,68910,5,2,0:0:0:0:
473,229,68996,1,0,0:0:0:0:
452,183,69082,1,0,3:2:0:0:
402,169,69168,1,0,0:0:0:0:
202,105,69255,5,2,0:0:0:0:
253,93,69341,1,0,0:0:0:0:
305,82,69427,1,0,3:2:0:0:
357,71,69513,1,0,0:0:0:0:
164,32,69600,6,0,L|163:95,1,53,2|0,0:0|0:0,0:0:0:0:
239,113,69772,2,0,L|244:189,1,53,2|0,3:2|0:0,0:0:0:0:
328,197,69945,2,0,L|270:206,1,53,2|0,0:0|0:0,0:0:0:0:
81,273,70117,6,0,L|70:198,1,53,2|0,3:2|0:0,0:0:0:0:
156,215,70289,1,8,0:3:0:0:
178,168,70375,1,0,0:0:0:0:
158,121,70461,1,0,3:2:0:0:
109,105,70547,1,0,0:0:0:0:
35,80,70634,2,0,L|113:68,1,53,2|2,0:0|0:0,0:0:0:0:
290,42,70807,5,2,3:2:0:0:
232,49,70893,1,0,0:0:0:0:
206,94,70979,1,0,0:0:0:0:
233,140,71065,1,0,0:0:0:0:
290,147,71152,2,0,L|354:149,1,53,0|0,3:2|0:0,0:0:0:0:
168,228,71324,2,0,L|243:234,1,53,2|2,0:0|0:0,0:0:0:0:
425,338,71496,5,2,3:2:0:0:
447,292,71582,1,0,0:0:0:0:
424,246,71668,1,0,0:0:0:0:
373,237,71754,1,0,0:0:0:0:
308,235,71841,2,0,L|302:167,1,53,0|0,3:2|0:0,0:0:0:0:
385,152,72014,2,0,L|320:145,1,53
128,66,72186,6,0,L|208:60,1,53,2|0,3:2|0:0,0:0:0:0:
245,38,72358,2,2,L|197:36,2,35.3333333333333,2|2|2,3:2|0:0|0:0,0:0:0:0:
411,77,72531,2,0,L|419:137,1,53,2|2,3:2|3:2,0:0:0:0:
343,149,72703,2,0,L|334:212,1,53,2|2,3:2|3:2,0:0:0:0:
117,253,72876,6,0,L|180:266,1,53,6|0,3:2|0:0,0:0:0:0:
248,259,73048,2,2,L|267:222,2,26.5,2|2|2,3:2|0:0|0:0,0:0:0:0:
45,317,73220,2,0,L|35:239,1,53,2|2,3:2|0:0,0:0:0:0:
117,235,73393,2,0,L|38:226,1,53,2|0,3:2|0:0,0:0:0:0:
250,193,73565,2,0,L|310:182,1,53,2|2,3:2|0:0,0:0:0:0:
232,162,73738,2,0,L|142:154,1,53,2|2,3:2|0:0,0:0:0:0:
388,112,73910,2,0,L|456:104,1,53,2|2,3:2|0:0,0:0:0:0:
364,86,74083,2,0,L|436:81,1,53,2|2,3:2|0:0,0:0:0:0:
204,83,74255,6,0,L|197:167,1,53,6|2,3:2|0:0,0:0:0:0:
277,165,74427,2,0,L|201:175,1,53,2|2,3:2|0:0,0:0:0:0:
309,210,74600,2,0,L|396:213,1,53,2|2,3:2|0:0,0:0:0:0:
178,304,74772,2,0,L|103:312,1,53,2|2,3:2|0:0,0:0:0:0:
338,357,74945,6,0,L|345:293,1,53,6|0,3:2|0:0,0:0:0:0:
260,287,75117,2,0,L|265:229,1,53,0|0,3:2|0:0,0:0:0:0:
65,210,75289,2,0,L|34:170,2,35.3333333333333,2|2|2,3:2|0:0|0:0,0:0:0:0:
233,157,75462,2,0,L|292:153,2,35.3333333333333,2|2|2,3:2|0:0|0:0,0:0:0:0:
43,182,75634,6,0,L|31:118,1,53,14|0,3:2|3:2,0:0:0:0:
118,127,75807,2,0,L|123:71,1,53,0|0,3:2|3:2,0:0:0:0:
310,80,75979,2,0,L|337:31,1,53,12|0,3:2|3:2,0:0:0:0:
118,285,76152,6,0,L|105:220,1,53,0|0,3:2|3:2,0:0:0:0:
207,228,76325,2,0,L|212:172,1,53,12|0,3:2|3:2,0:0:0:0:
407,165,76497,2,0,L|434:116,1,53,8|0,3:2|3:2,0:0:0:0:
210,360,76669,6,0,L|215:304,1,53,14|0,3:2|3:2,0:0:0:0:
451,289,76841,2,0,L|478:240,1,53,10|10,3:2|3:2,0:0:0:0:
215,307,77014,6,0,B|214:200|214:200|215:306|215:306|366:160|366:160|317:66|317:66|366:162|366:162|317:69,1,742,14|0,3:2|0:0,0:0:0:0:
121,87,77703,1,2,3:2:0:0:
142,68,77746,1,0,3:2:0:0:
169,55,77789,1,0,3:2:0:0:
200,49,77832,1,0,3:2:0:0:
231,50,77875,1,2,3:2:0:0:
297,64,77962,1,2,0:0:0:0:
78,219,78048,5,2,3:2:0:0:
50,207,78091,1,0,0:0:0:0:
38,183,78134,1,0,3:2:0:0:
49,159,78177,1,0,0:0:0:0:
76,147,78220,1,2,3:2:0:0:
272,154,78307,1,2,0:0:0:0:
477,276,78393,6,0,L|478:108,1,159,2|0,3:2|0:0,0:0:0:0:
233,70,78738,5,12,0:0:0:0:
481,37,78910,2,0,L|344:48,1,129.31999467218,0|2,3:0|0:0,0:0:0:0:
482,117,79255,1,10,0:0:0:0:
211,191,79427,2,0,L|279:225,1,64.6599973360902,2|0,3:2|3:2,0:0:0:0:
343,225,79600,1,0,3:2:0:0:
84,293,79772,6,0,L|4:307,1,64.6599973360902,12|0,0:0|0:0,0:0:0:0:
264,349,79945,2,0,L|268:217,1,129.31999467218,2|8,0:0|0:0,0:0:0:0:
26,137,80289,2,0,L|121:144,2,64.6599973360902,0|2|0,0:0|3:2|3:2,0:0:0:0:
166,85,80634,1,0,3:2:0:0:
421,48,80807,2,0,L|360:82,1,64.6599973360902,10|0,0:0|0:0,0:0:0:0:
161,158,80979,1,2,0:0:0:0:
434,330,81152,6,0,P|447:252|342:204,1,193.979992008271,2|0,3:2|0:0,0:0:0:0:
295,197,81496,1,8,0:0:0:0:
433,119,81669,2,0,L|353:114,1,64.6599973360902,2|2,3:2|0:0,0:0:0:0:
154,44,81841,6,0,L|302:73,1,129.31999467218,2|8,0:0|0:0,0:0:0:0:
215,108,82100,1,0,0:0:0:0:
136,116,82186,1,0,0:0:0:0:
381,227,82358,2,0,L|301:233,1,64.6599973360902,2|2,3:2|0:0,0:0:0:0:
121,347,82531,6,0,L|261:324,1,129.31999467218,2|0,0:0|3:2,0:0:0:0:
16,248,82876,1,8,0:0:0:0:
155,175,83048,2,0,L|78:171,1,64.6599973360902,2|2,3:2|0:0,0:0:0:0:
307,102,83220,6,0,L|182:64,1,129.31999467218,2|2,0:0|3:2,0:0:0:0:
219,58,83450,1,2,0:0:0:0:
183,64,83508,1,2,0:0:0:0:
360,167,83565,2,0,L|446:174,1,64.6599973360902,10|0,0:0|0:0,0:0:0:0:
205,244,83738,6,0,L|280:279,1,64.6599973360902,6|0,0:0|0:0,0:0:0:0:
341,280,83910,1,2,0:0:0:0:
192,345,84083,2,0,L|119:356,1,64.6599973360902,2|2,3:2|0:0,0:0:0:0:
344,209,84255,6,0,L|313:204,1,32.3299986680451,10|0,0:0|0:0,0:0:0:0:
88,127,84427,2,0,L|121:126,1,32.3299986680451,2|0,0:0|0:0,0:0:0:0:
354,48,84600,5,2,3:2:0:0:
317,50,84643,1,0,0:0:0:0:
280,53,84686,1,0,0:0:0:0:
315,50,84729,1,0,0:0:0:0:
354,48,84772,1,0,3:2:0:0:
496,166,84945,2,0,L|414:158,1,64.6599973360902,10|0,0:0|0:0,0:0:0:0:
212,255,85117,6,0,L|210:213,2,32.3299986680451,2|0|0,3:2|0:0|0:0,0:0:0:0:
127,256,85289,2,0,L|122:212,2,32.3299986680451,0|0|0,3:2|0:0|0:0,0:0:0:0:
366,290,85462,2,0,L|400:291,4,19.8750007581711,2|0|0|0|0,0:0|0:0|0:0|0:0|0:0,0:0:0:0:
174,148,85634,6,0,L|123:134,1,32.3299986680451,10|0,0:0|0:0,0:0:0:0:
266,85,85807,2,0,L|317:82,1,32.3299986680451,2|0,0:0|0:0,0:0:0:0:
68,46,85979,5,2,0:0:0:0:
105,48,86022,1,0,0:0:0:0:
142,51,86065,1,0,0:0:0:0:
107,48,86108,1,0,0:0:0:0:
68,46,86151,1,2,3:2:0:0:
135,82,86238,1,2,0:0:0:0:
310,193,86324,2,0,L|238:208,1,64.6599973360902,10|2,0:0|0:0,0:0:0:0:
426,277,86496,2,0,L|491:299,1,64.6599973360902,2|2,0:0|0:0,0:0:0:0:
271,364,86669,5,2,3:2:0:0:
400,363,86841,2,0,L|416:324,2,32.3299986680451,2|0|0,3:2|0:0|0:0,0:0:0:0:
192,301,87014,2,0,L|325:256,1,129.31999467218,8|0,0:0|0:0,0:0:0:0:
244,241,87272,1,2,3:2:0:0:
26,202,87358,6,0,L|12:182,2,16.1649993340226,2|0|0,3:2|0:0|0:0,0:0:0:0:
256,169,87531,2,0,L|257:140,2,16.1649993340226,0|0|0,3:2|0:0|0:0,0:0:0:0:
486,202,87703,2,0,L|500:182,2,16.1649993340226,8|0|0,0:0|0:0|0:0,0:0:0:0:
255,81,87876,2,0,L|321:62,1,64.6599973360902,2|0,0:0|0:0,0:0:0:0:
119,216,88048,6,0,L|78:158,1,64.6599973360902,2|0,3:2|0:0,0:0:0:0:
122,96,88220,2,0,L|197:43,1,64.6599973360902
391,218,88393,2,0,L|399:153,1,64.6599973360902,8|0,0:0|0:0,0:0:0:0:
214,133,88565,2,0,L|220:67,1,64.6599973360902,0|2,0:0|3:2,0:0:0:0:
42,90,88738,2,0,L|48:24,1,64.6599973360902,2|0,3:2|0:0,0:0:0:0:
132,109,88910,2,0,L|138:43,1,64.6599973360902,2|0,3:2|0:0,0:0:0:0:
305,27,89083,5,10,0:0:0:0:
137,44,89169,1,8,0:0:0:0:
305,27,89255,1,10,0:0:0:0:
476,83,89341,1,8,0:0:0:0:
274,212,89427,6,0,L|194:202,2,64.6599973360902,6|0|0,0:0|0:0|0:0,0:0:0:0:
74,285,89686,2,0,L|14:238,2,64.6599973360902,2|0|0,0:0|0:0|0:0,0:0:0:0:
277,319,89945,2,0,L|328:254,2,64.6599973360902,2|0|10,0:0|0:0|0:0,0:0:0:0:
478,268,90203,2,8,L|485:198,2,64.6599973360902,8|10|8,0:0|0:0|0:0,0:0:0:0:
236,135,90462,6,0,L|450:100,1,193.979992008271,14|0,3:2|0:0,0:0:0:0:
202,235,90807,5,4,3:2:0:0:
469,30,90979,2,0,L|346:79,1,129.31999467218,2|10,0:0|0:0,0:0:0:0:
102,102,91324,1,2,3:2:0:0:
168,121,91410,2,0,L|293:180,1,129.31999467218,2|0,3:2|0:0,0:0:0:0:
82,276,91669,1,2,3:2:0:0:
232,313,91841,2,0,L|148:366,1,64.6599973360902,10|0,0:0|0:0,0:0:0:0:
101,351,92014,1,2,0:0:0:0:
345,359,92186,6,0,P|367:282|275:242,1,193.979992008271,2|0,3:2|0:0,0:0:0:0:
343,216,92531,1,10,0:0:0:0:
491,113,92703,2,0,L|405:94,1,64.6599973360902,2|2,3:2|0:0,0:0:0:0:
211,50,92876,6,0,L|359:30,1,129.31999467218,2|8,3:2|0:0,0:0:0:0:
267,64,93134,1,0,0:0:0:0:
339,32,93220,1,0,0:0:0:0:
105,170,93393,2,0,L|186:189,1,64.6599973360902,2|2,3:2|0:0,0:0:0:0:
363,258,93565,6,0,L|221:277,1,129.31999467218,2|0,0:0|3:2,0:0:0:0:
490,356,93910,1,8,0:0:0:0:
345,292,94083,2,0,L|436:283,1,64.6599973360902,2|2,3:2|0:0,0:0:0:0:
205,230,94255,1,2,0:0:0:0:
461,169,94427,2,0,L|494:141,2,43.1066648907268,2|2|2,3:2|0:0|0:0,0:0:0:0:
281,147,94600,2,0,L|199:149,1,64.6599973360902,10|0,0:0|0:0,0:0:0:0:
432,243,94772,6,0,L|456:174,3,64.6599973360902,14|2|2|2,0:0|0:0|0:0|0:0,0:0:0:0:
258,131,95117,2,0,L|356:109,1,64.6599973360902,2|2,3:2|0:0,0:0:0:0:
108,248,95289,6,0,L|26:238,1,64.6599973360902,14|0,0:0|0:0,0:0:0:0:
254,323,95462,2,0,L|259:240,1,64.6599973360902,2|0,0:0|0:0,0:0:0:0:
179,244,95634,2,0,L|274:230,1,64.6599973360902,2|2,3:2|0:0,0:0:0:0:
316,190,95807,2,0,L|228:172,1,64.6599973360902,2|2,0:0|0:0,0:0:0:0:
45,50,95979,2,0,L|110:63,1,64.6599973360902,10|2,3:2|0:0,0:0:0:0:
185,101,96152,2,0,L|109:116,1,64.6599973360902,2|2,0:0|0:0,0:0:0:0:
334,166,96324,6,0,L|343:247,1,64.6599973360902,6|2,3:2|0:0,0:0:0:0:
257,237,96496,2,0,L|248:318,1,64.6599973360902,2|2,3:2|0:0,0:0:0:0:
457,350,96669,2,0,L|377:340,1,64.6599973360902,10|2,3:2|0:0,0:0:0:0:
471,319,96841,2,0,L|475:242,1,64.6599973360902,2|2,3:2|0:0,0:0:0:0:
257,237,97014,6,0,L|236:117,1,64.6599973360902,6|2,3:2|3:2,0:0:0:0:
457,169,97186,2,0,L|470:89,1,64.6599973360902,2|2,3:2|3:2,0:0:0:0:
261,104,97358,2,0,L|258:31,1,64.6599973360902,10|2,3:2|3:2,0:0:0:0:
44,48,97531,1,10,3:2:0:0:
247,29,97617,1,10,3:2:0:0:
450,31,97703,5,14,3:2:0:0:
212,173,97876,1,2,3:2:0:0:
450,31,98048,1,10,3:2:0:0:
84,283,98220,5,6,3:2:0:0:
455,326,98393,1,2,3:2:0:0:
84,283,98565,1,8,3:2:0:0:
455,326,98738,1,2,3:2:0:0:
251,363,98824,1,0,3:2:0:0:
58,362,98910,5,14,3:2:0:0:
256,192,98996,12,0,99945,0:0:0:0:
269,155,100117,6,0,L|342:147,1,60.950001162529,2|2,0:0|0:0,0:0:0:0:
110,80,100289,2,0,L|7:73,1,60.950001162529,2|2,0:0|0:0,0:0:0:0:
297,177,100462,6,0,L|307:313,1,121.900002325058,6|0,3:2|0:0,0:0:0:0:
153,344,100807,2,0,L|117:289,2,60.950001162529,0|0|0,3:2|0:0|0:0,0:0:0:0:
313,338,101152,2,0,L|239:295,1,60.950001162529,0|0,3:2|0:0,0:0:0:0:
188,308,101324,1,0,0:0:0:0:
351,248,101496,2,0,L|431:244,1,60.950001162529,0|0,3:2|0:0,0:0:0:0:
210,201,101669,2,0,L|281:190,1,60.950001162529,2|2,0:0|0:0,0:0:0:0:
60,173,101841,6,0,L|29:120,2,60.950001162529,6|0|0,3:2|0:0|0:0,0:0:0:0:
213,116,102186,2,0,L|216:35,2,60.950001162529,0|0|0,3:2|0:0|0:0,0:0:0:0:
467,89,102531,2,0,L|393:46,1,60.950001162529,2|0,3:2|0:0,0:0:0:0:
342,59,102703,1,0,0:0:0:0:
84,233,102876,2,0,L|167:255,1,60.950001162529,2|0,3:2|0:0,0:0:0:0:
335,334,103048,2,0,L|256:340,1,60.950001162529,2|2,0:0|0:0,0:0:0:0:
487,223,103220,6,0,L|352:204,1,121.900002325058,6|0,3:2|3:2,0:0:0:0:
201,166,103565,1,0,3:2:0:0:
365,206,103738,1,0,3:2:0:0:
32,108,103910,6,0,L|167:89,1,121.900002325058,0|0,3:2|3:2,0:0:0:0:
418,81,104255,1,0,3:2:0:0:
154,91,104427,2,0,L|80:87,1,60.950001162529,2|2,3:2|3:2,0:0:0:0:
365,206,104600,6,0,L|459:217,1,60.950001162529,14|0,3:2|0:0,0:0:0:0:
234,262,104772,2,0,L|227:348,1,60.950001162529,0|0,3:2|0:0,0:0:0:0:
29,355,104945,2,0,L|104:360,1,60.950001162529,8|0,3:2|0:0,0:0:0:0:
306,366,105117,2,0,L|379:359,1,60.950001162529,0|0,3:2|0:0,0:0:0:0:
153,288,105289,6,0,L|79:259,1,60.950001162529,14|0,3:2|0:0,0:0:0:0:
23,264,105462,1,0,3:2:0:0:
261,198,105548,1,2,3:2:0:0:
83,166,105634,2,0,L|10:164,1,60.950001162529,0|2,3:2|3:2,0:0:0:0:
223,104,105807,1,2,3:2:0:0:
422,102,105893,1,2,3:2:0:0:
202,66,105979,5,14,3:2:0:0:
256,192,106065,12,0,108738,0:0:0:0:
