osu file format v14

[General]
AudioFilename: beatmap-637451681832791236-asdn.mp3
AudioLeadIn: 0
PreviewTime: 27272
Countdown: 0
SampleSet: Soft
StackLeniency: 0.7
Mode: 2
LetterboxInBreaks: 0
WidescreenStoryboard: 1

[Editor]
Bookmarks: 95289,96324,97703,98910,100462,101841,103220,104600,105979
DistanceSpacing: 1.8
BeatDivisor: 4
GridSize: 32
TimelineZoom: 2.100001

[Metadata]
Title:Hypnos Metropolis
TitleUnicode:Hypnos Metropolis
Artist:polysha
ArtistUnicode:polysha
Creator:Jemzuu
Version:Cup
Source:
Tags:axs rocma deif gigachad dako ajamez dtm9 nowa BMS G2R2018 drumstep electronic instrumental drum and bass n dnb dubstep edm trap tech GO BACK 2 YOUR ROOTS 2018 CLIMAX Glittering Neurofunk 明日一限ブラザーズ
BeatmapID:2783433
BeatmapSetID:1339895

[Difficulty]
HPDrainRate:3
CircleSize:2.5
OverallDifficulty:6
ApproachRate:6
SliderMultiplier:1.25
SliderTickRate:1

[Events]
//Background and Video events
0,0,"31775-artwork-digital_art-fantasy_art-futuristic-city.jpg",0,0
//Break Periods
//Storyboard Layer 0 (Background)
//Storyboard Layer 1 (Fail)
//Storyboard Layer 2 (Pass)
//Storyboard Layer 3 (Foreground)
//Storyboard Layer 4 (Overlay)
//Storyboard Sound Samples

[TimingPoints]
1152,344.827586206897,4,2,1,70,1,0
1152,-100,4,2,1,70,0,0
3220,-100,4,2,1,70,0,0
3738,-100,4,2,1,70,0,0
5807,-100,4,2,1,70,0,0
9427,-100,4,2,1,70,0,0
12186,-100,4,2,1,70,0,0
16152,-100,4,2,1,70,0,0
22100,-100,4,2,1,70,0,0
22531,-100,4,2,1,70,0,0
23220,-100,4,2,1,70,0,0
25289,-100,4,2,1,70,0,0
25634,-100,4,2,1,70,0,0
25979,-100,4,2,1,70,0,0
27358,-100,4,2,1,70,0,0
28048,-100,4,2,1,70,0,0
28738,-100,4,2,1,80,0,1
29083,-100,4,2,1,80,0,1
29427,-100,4,2,1,80,0,1
29772,-100,4,2,1,80,0,1
30117,-100,4,2,1,80,0,1
30462,-100,4,2,1,80,0,1
31496,-100,4,2,1,80,0,1
31841,-100,4,2,1,80,0,1
32531,-100,4,2,1,80,0,1
33048,-100,4,2,1,80,0,1
33220,-100,4,2,1,80,0,1
34255,-100,4,2,1,80,0,1
34945,-100,4,2,1,80,0,1
35289,-100,4,2,1,80,0,1
35634,-100,4,2,1,80,0,1
35893,-100,4,2,1,80,0,1
37013,-100,4,2,1,80,0,1
37703,-100,4,2,1,80,0,1
38048,-100,4,2,1,80,0,1
38220,-100,4,2,1,80,0,1
38565,-100,4,2,1,80,0,1
38737,-100,4,2,1,80,0,1
39083,-100,4,2,1,70,0,0
39772,-100,4,2,1,80,0,0
39858,-100,4,2,1,80,0,0
40117,-100,4,2,1,80,0,0
40203,-100,4,2,1,80,0,0
40376,-100,4,2,1,80,0,0
40462,-100,4,2,1,80,0,0
40634,-100,4,2,1,80,0,0
40720,-100,4,2,1,70,0,0
41152,-100,4,2,1,80,0,1
41410,-100,4,2,1,80,0,1
42531,-100,4,2,1,80,0,1
42876,-100,4,2,1,80,0,1
43566,-100,4,2,1,80,0,1
44083,-100,4,2,1,80,0,1
44255,-100,4,2,1,80,0,1
45289,-100,4,2,1,80,0,1
45633,-100,4,2,1,80,0,1
45979,-100,4,2,1,80,0,1
46410,-100,4,2,1,80,0,1
47014,-100,4,2,1,80,0,1
47531,-100,4,2,1,80,0,1
47876,-100,4,2,1,80,0,1
48393,-100,4,2,1,80,0,1
49255,-100,4,2,1,80,0,1
50289,-100,4,2,1,80,0,1
50807,-100,4,2,1,80,0,1
52014,-100,4,2,1,80,0,1
52703,-100,4,2,1,80,0,1
53220,-100,4,2,1,80,0,1
53393,-100,4,2,1,80,0,1
54772,-100,4,2,1,80,0,1
55117,-100,4,2,1,80,0,1
56324,-100,4,2,1,70,0,0
61152,-100,4,2,1,70,0,0
61841,-100,4,2,1,70,0,0
63738,-100,4,2,1,70,0,0
64600,-100,4,2,1,70,0,0
67358,-100,4,2,1,70,0,0
71152,-100,4,2,1,70,0,0
77014,-100,4,2,1,70,0,0
77703,-100,4,2,1,70,0,0
78220,-100,4,2,1,70,0,0
78393,-100,4,2,1,70,0,0
78738,-100,4,2,1,80,0,0
78910,-100,4,2,1,80,0,0
79772,-100,4,2,1,80,0,1
79945,-100,4,2,1,80,0,1
80117,-100,4,2,1,80,0,1
80807,-100,4,2,1,80,0,1
81152,-100,4,2,1,80,0,1
82358,-100,4,2,1,80,0,1
83220,-100,4,2,1,80,0,1
84255,-100,4,2,1,80,0,1
84600,-100,4,2,1,80,0,1
84945,-100,4,2,1,80,0,1
85462,-100,4,2,1,80,0,1
85634,-100,4,2,1,80,0,1
85979,-100,4,2,1,80,0,1
86324,-100,4,2,1,80,0,1
87014,-100,4,2,1,80,0,1
87358,-100,4,2,1,80,0,1
89427,-100,4,2,1,70,0,0
90289,-100,4,2,1,70,0,0
90462,-100,4,2,1,70,0,0
90807,-100,4,2,1,80,0,1
91324,-100,4,2,1,80,0,1
91841,-100,4,2,1,80,0,1
92186,-100,4,2,1,80,0,1
93565,-100,4,2,1,80,0,1
94255,-100,4,2,1,80,0,1
98910,-100,4,2,1,70,0,0
98996,-100,4,2,1,30,0,0
99945,-100,4,2,1,5,0,0
100117,-100,4,2,1,60,0,0
101841,-100,4,2,1,70,0,0
106152,-100,4,2,1,40,0,0
106669,-100,4,2,1,30,0,0
107358,-100,4,2,1,25,0,0
108048,-100,4,2,1,10,0,0
108738,-100,4,2,1,5,0,0

[Colours]
Combo1 : 255,255,128
Combo2 : 255,165,121
Combo3 : 145,200,255

[HitObjects]
340,314,463,6,0,P|347:262|288:212,1,125,0|2,0:0|0:0,0:0:0:0:
233,210,980,1,2,0:0:0:0:
158,217,1152,6,0,P|230:83|282:224,1,375,6|2,3:2|0:0,0:0:0:0:
146,276,2531,6,0,P|78:265|70:106,1,250,2|2,0:0|0:0,0:0:0:0:
264,46,3738,6,0,P|239:102|114:144,1,187.5,2|2,0:0|0:0,0:0:0:0:
127,146,4427,1,2,0:0:0:0:
252,230,4772,1,2,0:0:0:0:
380,266,5117,5,2,0:0:0:0:
252,230,5462,1,2,0:0:0:0:
121,337,5807,1,2,0:0:0:0:
258,351,6152,2,0,L|329:356,2,62.5,2|2|2,0:0|0:0|0:0,0:0:0:0:
190,368,6669,6,0,P|125:346|226:143,1,375,2|2,0:0|0:0,0:0:0:0:
346,92,8048,2,0,P|397:106|327:235,1,250,2|2,0:0|0:0,0:0:0:0:
203,250,9083,6,0,L|161:197,2,62.5,2|0|0,0:0|0:0|0:0,0:0:0:0:
336,265,9772,1,0,0:3:0:0:
208,311,10117,2,0,L|141:322,1,62.5,2|0,0:0|0:0,0:0:0:0:
298,368,10634,6,0,L|426:309,2,125,2|0|0,0:0|0:0|0:0,0:0:0:0:
236,377,11496,1,0,0:0:0:0:
103,302,11841,2,0,L|182:290,1,62.5,2|2,0:0|0:0,0:0:0:0:
240,254,12186,6,0,L|126:225,1,93.75,6|8,3:2|0:3,0:0:0:0:
45,195,12703,2,0,L|120:179,1,62.5,0|8,3:0|0:0,0:0:0:0:
254,121,13220,1,2,3:2:0:0:
106,181,13565,5,2,3:2:0:0:
206,227,13824,2,0,L|211:309,1,62.5,0|8,3:2|0:3,0:0:0:0:
321,337,14255,6,0,L|130:259,1,187.5,10|10,0:0|3:2,0:0:0:0:
147,266,14945,1,0,3:2:0:0:
276,259,15289,2,0,L|277:186,1,62.5,2|0,0:0|3:0,0:0:0:0:
412,146,15807,1,2,0:0:0:0:
260,104,16152,6,0,L|128:155,2,125,10|10|0,3:2|3:2|0:0,0:0:0:0:
322,100,17014,1,10,0:0:0:0:
190,45,17358,2,0,L|258:21,1,62.5,2|10,3:2|0:0,0:0:0:0:
330,62,17703,6,0,L|441:93,2,93.75,6|0|8,3:2|3:0|0:0,0:0:0:0:
265,76,18393,1,8,0:0:0:0:
403,195,18738,1,2,3:2:0:0:
261,243,19083,6,0,L|132:208,1,125,2|2,3:2|3:2,0:0:0:0:
289,149,19772,2,0,P|321:184|271:251,1,125,8|2,0:0|0:0,0:0:0:0:
210,257,20289,5,6,3:2:0:0:
256,192,20634,12,6,22531,0:0:0:0:
255,261,23220,6,0,L|249:118,1,125,4|0,3:2|3:2,0:0:0:0:
388,86,23910,2,0,L|397:217,1,125,2|2,3:2|3:2,0:0:0:0:
257,273,24600,2,0,L|137:309,1,125,0|0,3:2|3:2,0:0:0:0:
277,358,25289,2,0,L|287:219,1,125,2|2,3:2|3:2,0:0:0:0:
136,194,25979,6,0,L|58:174,2,62.5,2|2|0,3:2|3:2|3:2,0:0:0:0:
285,146,26669,2,0,L|368:129,2,62.5,2|2|2,3:2|3:2|3:2,0:0:0:0:
132,74,27358,6,0,P|193:84|115:240,1,312.5,2|12,3:2|0:3,0:0:0:0:
63,262,28393,1,2,0:0:0:0:
128,245,28565,1,2,0:0:0:0:
206,275,28738,6,0,L|212:140,1,125,12|8,0:0|0:0,0:0:0:0:
316,102,29341,2,0,L|412:77,1,93.75,0|2,3:0|3:2,0:0:0:0:
406,78,29772,1,10,0:0:0:0:
254,88,30117,6,0,P|241:128|303:180,1,125,2|10,3:2|0:0,0:0:0:0:
395,208,30720,1,2,3:2:0:0:
296,247,30979,2,0,L|217:262,1,62.5,2|10,3:2|0:0,0:0:0:0:
382,356,31496,6,0,L|256:343,1,125,2|10,3:2|0:0,0:0:0:0:
151,357,32100,2,0,L|136:253,1,93.75,2|2,3:2|3:2,0:0:0:0:
204,231,32531,1,10,0:0:0:0:
310,256,32789,6,0,L|325:152,1,93.75,2|2,3:2|3:2,0:0:0:0:
257,130,33220,1,10,0:0:0:0:
147,193,33479,2,0,L|132:89,1,93.75,2|2,3:2|3:2,0:0:0:0:
200,67,33910,1,2,3:2:0:0:
352,77,34255,6,0,L|359:216,1,125,2|8,3:2|0:0,0:0:0:0:
252,235,34858,2,0,L|147:240,1,93.75,0|2,3:2|3:2,0:0:0:0:
126,285,35289,1,10,0:0:0:0:
162,240,35462,1,2,0:0:0:0:
231,233,35634,1,2,3:2:0:0:
87,223,35979,6,0,L|72:92,1,125,0|0,3:2|3:2,0:0:0:0:
200,64,36669,1,0,3:2:0:0:
352,156,37014,6,0,L|212:202,1,125,6|8,0:0|0:0,0:0:0:0:
336,266,37617,2,0,L|445:281,1,93.75,0|2,3:2|3:2,0:0:0:0:
366,327,38048,1,10,0:0:0:0:
289,339,38220,6,0,P|261:289|312:237,1,125,6|2,0:0|3:2,0:0:0:0:
363,228,38738,1,8,0:0:0:0:
225,177,39083,2,0,L|113:152,2,93.75,2|2|2,0:3|0:0|0:0,0:0:0:0:
300,171,39772,5,6,0:0:0:0:
206,115,40031,1,0,3:0:0:0:
107,104,40289,1,0,3:0:0:0:
203,66,40548,1,0,3:0:0:0:
301,51,40807,2,0,L|230:33,1,62.5,8|8,0:0|0:0,0:0:0:0:
159,54,41152,6,0,P|128:87|177:147,1,125,6|10,0:0|0:0,0:0:0:0:
267,208,41755,2,0,L|171:221,1,93.75,2|2,3:2|3:2,0:0:0:0:
108,283,42186,2,0,L|172:308,1,62.5,10|2,0:0|0:0,0:0:0:0:
235,314,42531,5,2,3:2:0:0:
106,362,42876,1,10,0:0:0:0:
205,360,43134,2,0,L|301:337,1,93.75,2|2,3:2|3:2,0:0:0:0:
296,338,43565,1,10,0:0:0:0:
192,284,43824,6,0,L|96:261,1,93.75,2|2,3:2|3:2,0:0:0:0:
100,262,44255,1,10,0:0:0:0:
205,214,44514,2,0,L|301:191,1,93.75,2|2,3:2|3:2,0:0:0:0:
297,192,44945,1,2,3:2:0:0:
149,231,45289,6,0,L|142:95,1,125,2|10,3:2|0:0,0:0:0:0:
248,62,45893,2,0,L|141:49,1,93.75,0|2,3:2|3:2,0:0:0:0:
154,50,46324,1,10,0:0:0:0:
298,175,46669,2,0,L|376:179,1,62.5,2|2,3:2|0:0,0:0:0:0:
280,216,47014,6,0,L|170:233,2,93.75,12|12|12,0:0|0:0|0:0,0:0:0:0:
435,321,47876,6,0,L|300:363,1,125,6|2,0:0|3:2,0:0:0:0:
248,354,48393,2,0,L|186:279,2,93.75,8|0|2,0:0|3:2|3:2,0:0:0:0:
314,360,49083,1,10,0:0:0:0:
392,363,49255,6,0,P|408:315|305:242,1,187.5,6|8,3:2|0:0,0:0:0:0:
244,242,49945,1,6,3:2:0:0:
370,169,50289,2,0,L|446:160,1,62.5,2|10,3:2|3:2,0:0:0:0:
271,84,50807,6,0,L|150:135,1,125,6|10,0:0|0:0,0:0:0:0:
223,158,51324,2,0,L|344:198,1,125,0|2,0:0|3:2,0:0:0:0:
278,229,51841,1,10,0:0:0:0:
197,238,52014,6,0,L|183:362,1,125,6|2,3:2|3:2,0:0:0:0:
115,378,52531,1,10,0:0:0:0:
218,304,52789,2,0,L|115:293,1,93.75,2|2,3:2|3:2,0:0:0:0:
61,275,53220,1,10,0:0:0:0:
140,237,53393,6,0,L|264:208,1,125,6|0,3:2|3:2,0:0:0:0:
261,208,53910,1,8,0:0:0:0:
126,148,54255,2,0,L|56:145,2,62.5,10|2|10,0:0|3:2|0:0,0:0:0:0:
208,128,54772,6,0,L|76:57,1,125,14|2,0:0|3:2,0:0:0:0:
161,38,55289,1,8,3:3:0:0:
236,43,55462,2,0,L|347:115,1,125,2|2,3:2|3:2,0:0:0:0:
406,126,55979,1,2,3:2:0:0:
242,275,56324,6,0,P|189:266|253:146,1,250,6|10,0:0|0:0,0:0:0:0:
303,132,57186,1,2,0:0:0:0:
366,118,57358,1,2,3:2:0:0:
302,112,57531,1,10,0:0:0:0:
175,94,57876,5,2,3:2:0:0:
303,113,58220,1,2,3:2:0:0:
174,133,58565,1,2,0:0:0:0:
114,149,58738,1,2,3:2:0:0:
52,160,58910,1,10,0:0:0:0:
114,149,59083,6,0,L|292:248,1,187.5,2|0,3:2|3:2,0:0:0:0:
277,240,59772,1,10,0:0:0:0:
87,348,60289,2,0,L|77:279,1,62.5,10|2,0:0|0:0,0:0:0:0:
271,301,60979,6,0,L|350:304,1,62.5,0|10,3:2|0:0,0:0:0:0:
194,247,61496,1,2,3:2:0:0:
342,209,61841,6,0,L|489:187,1,125,6|2,3:2|0:0,0:0:0:0:
403,154,62358,1,2,3:2:0:0:
273,164,62703,2,0,L|228:104,1,62.5,2|2,0:0|3:2,0:0:0:0:
273,164,63048,6,0,L|395:129,1,125,10|10,0:0|3:2,0:0:0:0:
393,129,63565,1,2,3:2:0:0:
258,114,63910,1,10,0:0:0:0:
393,129,64255,2,0,L|327:171,1,62.5,2|10,3:2|0:0,0:0:0:0:
267,170,64600,6,0,P|228:182|293:266,1,187.5,8|2,0:0|3:2,0:0:0:0:
340,276,65289,1,10,0:0:0:0:
146,360,65807,2,0,L|63:361,1,62.5,10|2,3:2|3:2,0:0:0:0:
271,320,66496,6,0,L|277:239,1,62.5,10|10,3:2|0:0,0:0:0:0:
126,232,67014,2,0,L|113:164,1,62.5,2|10,3:2|0:0,0:0:0:0:
196,143,67358,6,0,L|324:91,2,125,14|0|2,3:2|3:2|3:2,0:0:0:0:
135,169,68220,1,2,0:0:0:0:
199,141,68393,1,2,3:2:0:0:
267,143,68565,1,2,0:0:0:0:
132,105,68910,5,2,0:0:0:0:
267,143,69255,1,2,0:0:0:0:
396,179,69600,1,2,0:0:0:0:
419,234,69772,1,2,3:2:0:0:
392,288,69944,1,2,0:0:0:0:
333,301,70117,6,0,P|260:280|263:178,1,187.5,2|2,3:2|0:0,0:0:0:0:
326,211,70807,2,0,P|399:189|396:87,1,187.5,2|2,3:2|0:0,0:0:0:0:
334,79,71496,6,0,L|172:197,1,187.5,2|0,3:2|0:0,0:0:0:0:
182,189,72186,1,2,3:2:0:0:
319,117,72531,2,0,L|254:97,1,62.5,2|2,3:2|3:2,0:0:0:0:
184,95,72876,6,0,L|179:236,1,125,6|2,3:2|3:2,0:0:0:0:
42,234,73565,2,0,L|51:368,1,125,2|2,3:2|3:2,0:0:0:0:
203,358,74255,6,0,L|70:308,1,125,6|2,3:2|3:2,0:0:0:0:
238,266,74945,2,0,L|374:235,1,125,6|2,3:2|3:2,0:0:0:0:
203,247,75634,6,0,P|182:189|237:139,1,125,14|12,3:2|3:2,0:0:0:0:
292,126,76152,2,0,L|433:103,1,125,0|8,3:2|3:2,0:0:0:0:
357,82,76669,1,14,3:2:0:0:
291,77,76841,1,10,3:2:0:0:
365,67,77014,6,0,P|417:89|339:202,1,250,14|2,3:2|3:2,0:0:0:0:
199,212,78048,2,0,L|163:150,2,62.5,2|2|2,3:2|3:2|3:2,0:0:0:0:
356,239,78738,5,12,0:0:0:0:
356,239,78910,2,0,L|208:269,1,125,0|10,3:0|0:0,0:0:0:0:
170,285,79427,1,2,3:2:0:0:
331,356,79772,5,12,0:0:0:0:
395,351,79945,2,0,L|263:316,1,125,2|0,0:0|0:0,0:0:0:0:
131,327,80634,1,0,3:2:0:0:
102,273,80806,1,10,0:0:0:0:
127,218,80978,1,2,0:0:0:0:
186,204,81152,6,0,L|314:174,1,125,2|8,3:2|0:0,0:0:0:0:
246,146,81669,1,2,3:2:0:0:
180,128,81841,2,0,L|50:93,1,125,2|0,0:0|0:0,0:0:0:0:
122,65,82358,1,2,3:2:0:0:
186,64,82531,6,0,L|310:108,1,125,2|8,0:0|0:0,0:0:0:0:
169,183,83220,2,0,L|96:199,2,62.5,2|2|10,0:0|3:2|0:0,0:0:0:0:
249,185,83738,6,0,L|260:325,1,125,6|2,0:0|3:2,0:0:0:0:
323,331,84255,1,10,0:0:0:0:
388,335,84427,1,2,0:0:0:0:
323,331,84600,6,0,L|184:360,1,125,2|10,3:2|0:0,0:0:0:0:
200,356,85117,6,0,L|329:333,1,125,2|2,3:2|0:0,0:0:0:0:
261,301,85634,1,10,0:0:0:0:
197,294,85807,1,2,0:0:0:0:
128,307,85979,6,0,L|118:171,1,125,2|10,0:0|0:0,0:0:0:0:
257,141,86669,1,2,3:2:0:0:
194,116,86841,6,0,L|57:97,1,125,2|0,3:2|0:0,0:0:0:0:
38,147,87358,1,2,3:2:0:0:
70,98,87531,1,0,3:2:0:0:
140,84,87703,1,8,0:0:0:0:
292,197,88048,6,0,L|174:259,1,125,2|8,3:2|0:0,0:0:0:0:
319,325,88738,2,0,L|404:340,1,62.5,2|2,3:2|3:2,0:0:0:0:
316,350,89083,2,0,L|245:369,1,62.5,10|10,0:0|0:0,0:0:0:0:
174,347,89427,5,6,0:0:0:0:
267,286,89686,1,2,0:0:0:0:
346,262,89945,1,2,0:0:0:0:
369,294,90203,1,8,0:0:0:0:
264,331,90462,5,14,3:2:0:0:
429,359,90807,5,4,3:2:0:0:
429,359,90979,2,0,L|283:334,1,125,2|2,0:0|3:2,0:0:0:0:
164,351,91669,1,2,3:2:0:0:
138,296,91841,1,10,0:0:0:0:
162,240,92013,1,2,0:0:0:0:
220,221,92186,6,0,L|346:180,1,125,2|10,3:2|0:0,0:0:0:0:
276,149,92703,1,2,3:2:0:0:
211,133,92876,2,0,L|73:91,1,125,2|0,3:2|0:0,0:0:0:0:
154,62,93393,1,2,3:2:0:0:
223,57,93565,6,0,P|249:108|208:174,1,125,2|8,0:0|0:0,0:0:0:0:
85,197,94255,2,0,L|12:220,2,62.5,2|2|10,0:0|3:2|0:0,0:0:0:0:
162,263,94772,6,0,L|287:298,1,125,14|2,0:0|3:2,0:0:0:0:
202,328,95289,5,14,0:0:0:0:
334,353,95634,2,0,L|449:295,1,125,2|10,3:2|3:2,0:0:0:0:
293,251,96324,6,0,L|261:191,2,62.5,6|2|10,3:2|3:2|3:2,0:0:0:0:
447,225,97014,2,0,L|479:165,2,62.5,6|2|10,3:2|3:2|3:2,0:0:0:0:
284,177,97703,6,0,L|141:157,1,125,14|10,3:2|3:2,0:0:0:0:
245,125,98220,2,0,L|383:93,1,125,6|8,3:2|3:2,0:0:0:0:
301,62,98738,1,2,3:2:0:0:
215,68,98910,5,14,3:2:0:0:
256,192,99255,12,2,100117,0:0:0:0:
85,310,100462,6,0,L|74:176,1,125,6|0,3:2|3:2,0:0:0:0:
217,149,101152,2,0,L|87:113,1,125,0|0,3:2|3:2,0:0:0:0:
164,88,101669,1,2,0:0:0:0:
242,82,101841,6,0,L|367:122,2,125,6|0|2,3:2|3:2|3:2,0:0:0:0:
385,175,102876,2,0,L|459:189,1,62.5,2|2,3:2|0:0,0:0:0:0:
365,219,103220,6,0,L|243:258,1,125,6|0,3:2|3:2,0:0:0:0:
397,316,103910,2,0,L|402:182,1,125,0|0,3:2|3:2,0:0:0:0:
338,175,104427,1,2,3:2:0:0:
256,149,104600,6,0,L|121:111,1,125,14|8,3:2|3:2,0:0:0:0:
291,68,105289,2,0,L|398:86,2,93.75,14|2|2,3:2|3:2|3:2,0:0:0:0:
206,81,105979,5,14,3:2:0:0:
256,192,106324,12,0,108738,0:0:0:0:
