osu file format v14

[General]
AudioFilename: audio.mp3
AudioLeadIn: 0
PreviewTime: 99687
Countdown: 0
SampleSet: Soft
StackLeniency: 0.6
Mode: 0
LetterboxInBreaks: 0
WidescreenStoryboard: 1

[Editor]
Bookmarks: 1104,22270,43770,54438,67604,89104,99770,110437,123770,137103,148103
DistanceSpacing: 1
BeatDivisor: 4
GridSize: 16
TimelineZoom: 0.8999994

[Metadata]
Title:ExeQtion&Redemption
TitleUnicode:ExeQtion&Redemption
Artist:polysha
ArtistUnicode:polysha
Creator:Realazy
Version:Normal
Source:
Tags:kkipalt icekalt mir execution arcade core hardcore hard renaissance electronic instrumental fa featured artist
BeatmapID:2969099
BeatmapSetID:1443395

[Difficulty]
HPDrainRate:3
CircleSize:3
OverallDifficulty:4.5
ApproachRate:6
SliderMultiplier:1.1
SliderTickRate:1

[Events]
//Background and Video events
0,0,"exeQtion.jpg",0,0
//Break Periods
2,43971,53388
2,99971,109388
//Storyboard Layer 0 (Background)
//Storyboard Layer 1 (Fail)
//Storyboard Layer 2 (Pass)
//Storyboard Layer 3 (Foreground)
//Storyboard Layer 4 (Overlay)
//Storyboard Sound Samples

[TimingPoints]
1105,333.333333333333,4,2,0,50,1,0
1105,-111.111111111111,4,2,0,50,0,0
5188,-111.111111111111,4,2,0,5,0,0
5271,-111.111111111111,4,2,0,50,0,0
5521,-111.111111111111,4,2,0,5,0,0
5605,-111.111111111111,4,2,0,50,0,0
5854,-111.111111111111,4,2,0,5,0,0
5938,-111.111111111111,4,2,0,50,0,0
6188,-111.111111111111,4,2,0,5,0,0
6271,-111.111111111111,4,2,0,50,0,0
11771,-100,4,2,0,60,0,0
15605,-100,4,2,0,70,0,0
17438,-100,4,2,0,35,0,0
17771,-100,4,2,0,40,0,0
18104,-100,4,2,0,45,0,0
18438,-100,4,2,0,50,0,0
18771,-100,4,2,0,55,0,0
19104,-100,4,2,0,60,0,0
19438,-100,4,2,0,70,0,0
19771,-100,4,2,0,30,0,0
20104,-100,4,2,0,40,0,0
20438,-100,4,2,0,50,0,0
20604,-100,4,2,0,55,0,0
20771,-100,4,2,0,60,0,0
20938,-100,4,2,0,65,0,0
21105,-100,4,2,0,70,0,0
22104,-100,4,2,0,50,0,0
22271,-100,4,2,0,80,0,0
22771,-100,4,2,0,60,0,0
23105,-100,4,2,0,70,0,0
27604,-100,4,2,0,80,0,0
28104,-100,4,2,0,60,0,0
28438,-100,4,2,0,70,0,0
33104,-100,4,2,0,80,0,0
33438,-100,4,2,0,70,0,0
40938,-100,4,2,0,60,0,0
42438,-100,4,2,0,50,0,0
43104,-100,4,2,0,40,0,0
43438,-100,4,2,0,45,0,0
43771,-100,4,2,0,50,0,0
53771,-100,4,2,0,30,0,0
54438,-111.111111111111,4,2,0,40,0,0
57104,-111.111111111111,4,2,0,50,0,0
59771,-111.111111111111,4,2,0,70,0,0
61105,-111.111111111111,4,2,0,80,0,0
61605,-111.111111111111,4,2,0,70,0,0
62438,-100,4,2,0,90,0,0
64438,-100,4,2,0,80,0,0
65105,-100,4,2,0,60,0,0
65604,-100,4,2,0,50,0,0
66104,-100,4,2,0,40,0,0
66438,-100,4,2,0,50,0,0
66771,-100,4,2,0,60,0,0
67105,-100,4,2,0,70,0,0
67938,-100,4,2,0,80,0,0
68104,-90.9090909090909,4,2,0,80,0,0
83771,-111.111111111111,4,2,0,50,0,0
86271,-111.111111111111,4,2,0,60,0,0
87771,-111.111111111111,4,2,0,70,0,0
89105,-111.111111111111,4,2,0,80,0,0
94438,-99.9999999999999,4,2,0,80,0,0
97104,-90.9090909090909,4,2,0,80,0,0
98438,-90.9090909090909,4,2,0,60,0,0
99104,-90.9090909090909,4,2,0,50,0,0
110438,-111.111111111111,4,2,0,50,0,0
115771,-111.111111111111,4,2,0,60,0,0
117104,-111.111111111111,4,2,0,70,0,0
118438,-111.111111111111,4,2,0,80,0,0
118938,-111.111111111111,4,2,0,70,0,0
119438,-111.111111111111,4,2,0,60,0,0
119771,-111.111111111111,4,2,0,50,0,0
120104,-111.111111111111,4,2,0,60,0,0
120438,-90.9090909090908,4,2,0,70,0,0
121438,-90.9090909090908,4,2,0,60,0,0
122438,-90.9090909090908,4,2,0,65,0,0
122771,-90.9090909090908,4,2,0,70,0,0
123104,-90.9090909090908,4,2,0,75,0,0
123438,-90.9090909090908,4,2,0,70,0,0
123771,-90.9090909090908,4,2,0,80,0,0
129104,-90.9090909090908,4,2,0,90,0,0
131771,-90.9090909090908,4,2,0,80,0,0
134438,-90.9090909090908,4,2,0,90,0,0
137104,-90.9090909090908,4,2,0,70,0,0
137354,-90.9090909090908,4,2,0,75,0,0
137604,-90.9090909090908,4,2,0,80,0,0
137854,-90.9090909090908,4,2,0,85,0,0
138104,-90.9090909090908,4,2,0,90,0,0
139771,-90.9090909090908,4,2,0,80,0,0
141104,-90.9090909090908,4,2,0,90,0,0
142104,-90.9090909090908,4,2,0,70,0,0
142438,-90.9090909090908,4,2,0,60,0,0
142771,-90.9090909090908,4,2,0,50,0,0
143104,-90.9090909090908,4,2,0,55,0,0
143438,-90.9090909090908,4,2,0,60,0,0
143771,-90.9090909090908,4,2,0,65,0,0
144104,-90.9090909090908,4,2,0,70,0,0
145771,-90.9090909090908,4,2,0,80,0,0
146271,-90.9090909090908,4,2,0,90,0,0
147604,-90.9090909090908,4,2,0,80,0,0
148188,-90.9090909090908,4,2,0,5,0,0
148438,-90.9090909090908,4,2,0,12,0,0
148771,-90.9090909090908,4,2,0,19,0,0
149104,-90.9090909090908,4,2,0,26,0,0
149438,-90.9090909090908,4,2,0,33,0,0
149771,-90.9090909090908,4,2,0,40,0,0
150104,-90.9090909090908,4,2,0,47,0,0
150438,-90.9090909090908,4,2,0,55,0,0

[Colours]
Combo1 : 158,51,255
Combo2 : 215,155,255

[HitObjects]
10,312,1105,5,6,1:2:0:0:
86,251,1438,2,0,P|176:243|192:331,1,197.99999395752,2|2,0:0|0:0,0:0:0:0:
166,373,2271,1,2,0:0:0:0:
301,313,2771,2,0,B|339:318|339:318|352:326|352:326|397:331,2,98.9999969787599,4|4|4,1:0|1:0|1:0,0:0:0:0:
243,232,3771,6,0,B|283:162|283:162|399:176,1,197.99999395752,4|8,1:0|0:0,0:0:0:0:
448,184,4604,1,2,0:0:0:0:
414,90,4938,2,2,B|395:43|395:43|428:7,2,98.9999969787599,6|6|6,1:0|1:0|1:0,1:0:0:0:
329,142,5938,2,2,L|230:128,1,98.9999969787599,6|6,1:0|1:0,1:0:0:0:
108,13,6771,6,0,P|73:105|46:201,1,197.99999395752,4|0,0:1|0:0,0:0:0:0:
38,249,7604,1,2,0:0:0:0:
162,329,8104,2,0,P|166:279|174:230,2,98.9999969787599,4|4|4,1:0|1:0|1:0,0:0:0:0:
254,365,9104,6,0,P|300:348|349:342,1,98.9999969787599,6|10,1:0|1:0,0:0:0:0:
398,345,9604,1,6,1:0:0:0:
437,204,10104,1,8,1:0:0:0:
437,204,10271,2,0,P|387:198|338:199,1,98.9999969787599,4|8,1:0|1:0,0:0:0:0:
210,275,11104,2,0,P|160:272|112:261,1,98.9999969787599,2|8,1:3|0:0,0:0:0:0:
47,172,11771,6,0,L|26:63,2,110,6|2|0,1:2|1:2|1:0,0:0:0:0:
111,261,12771,1,0,1:0:0:0:
198,195,13104,2,0,P|222:146|214:92,1,110,0|2,1:0|1:2,0:0:0:0:
296,18,13771,2,0,P|350:20|393:52,1,110,2|2,1:2|1:2,0:0:0:0:
405,162,14438,5,2,1:2:0:0:
493,227,14771,1,0,1:0:0:0:
453,329,15104,2,0,L|343:314,1,110,2|2,1:2|1:2,0:0:0:0:
289,306,15604,1,2,1:0:0:0:
238,207,15938,1,2,1:0:0:0:
238,207,16104,1,10,1:0:0:0:
330,146,16438,2,0,B|368:152|368:152|371:155|371:155|410:162,2,82.5,2|10|4,1:0|1:0|1:0,0:0:0:0:
256,192,17438,12,4,21104,1:0:0:0:
53,63,22271,6,0,P|131:88|211:106,1,165,6|4,1:2|3:0,0:0:0:0:
302,167,23104,2,0,P|378:160|384:85,2,165,10|2|2,1:3|1:0|1:3,0:0:0:0:
279,275,24438,2,0,P|318:285|359:290,2,82.5,8|2|2,1:0|0:1|0:3,0:0:0:0:
238,237,25104,6,2,P|182:250|130:259,1,110,2|0,1:0|0:0,1:0:0:0:
24,289,25771,2,0,B|77:282|107:311|98:317|132:347|174:343,2,165,10|0|0,1:3|1:0|0:0,0:0:0:0:
41,180,27104,1,8,1:2:0:0:
41,180,27271,2,0,L|31:122,1,55,2|2,0:0|0:0,0:0:0:0:
44,71,27604,6,0,P|119:58|152:127,1,165,4|0,1:0|3:0,0:0:0:0:
228,208,28438,2,0,P|253:154|246:39,2,165,10|2|2,1:3|1:0|1:3,0:0:0:0:
150,286,29771,2,0,L|95:276,2,55,10|2|2,1:2|0:0|0:0,0:0:0:0:
181,330,30271,6,0,P|236:332|290:344,1,110,6|2,1:0|0:0,0:0:0:0:
341,366,30771,1,2,0:0:0:0:
413,283,31104,1,8,1:2:0:0:
493,358,31438,1,2,0:0:0:0:
493,358,31604,2,0,P|507:294|497:187,1,165,4|8,1:0|1:0,0:0:0:0:
475,145,32271,1,4,1:0:0:0:
498,37,32604,1,8,0:0:0:0:
352,114,33104,6,0,P|297:104|244:89,1,110,4|2,1:0|0:1,0:0:0:0:
162,16,33771,2,0,B|113:0|82:36|97:45|67:81|18:71,2,165,10|2|2,1:3|1:0|1:3,0:0:0:0:
244,89,35104,2,0,P|283:77|326:66,2,82.5,8|2|2,1:0|0:1|0:3,0:0:0:0:
203,126,35771,6,2,P|202:181|187:234,1,110,2|0,1:0|0:0,1:0:0:0:
107,310,36438,2,0,L|53:299,2,55,8|2|2,1:0|0:3|0:1,0:0:0:0:
146,348,36938,1,0,1:0:0:0:
146,348,37104,2,0,P|198:331|252:323,1,110,2|2,0:1|1:3,0:0:0:0:
363,323,37771,1,10,1:2:0:0:
408,223,38104,5,2,0:0:0:0:
407,223,38271,2,0,P|458:164|420:97,1,165,4|10,1:0|1:2,0:0:0:0:
377,62,38938,2,0,P|302:87|213:89,1,165,4|10,1:0|1:2,0:0:0:0:
166,67,39604,1,4,1:0:0:0:
39,172,40104,1,2,0:1:0:0:
112,262,40438,1,8,1:2:0:0:
112,262,40604,2,0,L|100:315,2,55,2|2|6,0:1|0:1|1:0,0:0:0:0:
256,192,41104,12,2,43771,1:2:0:0:
356,120,54438,6,0,P|422:126|425:59,2,148.49999546814,4|2|2,3:2|3:2|3:2,0:0:0:0:
285,189,55771,2,0,P|308:259|325:332,2,148.49999546814,2|2|2,3:2|3:2|3:0,0:0:0:0:
220,114,57104,2,0,P|189:89|75:99,2,148.49999546814,2|2|2,3:2|3:2|3:2,0:0:0:0:
285,189,58438,2,0,P|294:236|297:298,1,98.9999969787599,2|0,3:2|0:0,0:0:0:0:
231,360,59104,1,2,3:2:0:0:
131,362,59438,1,2,3:2:0:0:
61,291,59771,6,0,P|56:242|48:193,1,98.9999969787599,4|8,1:2|0:0,0:0:0:0:
146,178,60438,2,0,P|154:226|158:276,1,98.9999969787599,10|10,3:2|3:2,0:0:0:0:
237,334,61104,2,0,P|304:302|378:294,2,148.49999546814,4|6|8,1:2|1:2|0:0,0:0:0:0:
156,259,62438,6,0,L|101:253,1,55,2|2,1:0|1:0,0:0:0:0:
31,167,62938,2,0,L|36:112,1,55,2|2,1:0|1:0,0:0:0:0:
123,43,63438,2,0,L|177:48,1,55,2|2,1:0|1:0,0:0:0:0:
248,135,63938,2,0,L|242:189,1,55,2|2,1:0|1:0,0:0:0:0:
304,280,64438,1,2,1:0:0:0:
388,209,64771,1,8,1:0:0:0:
468,283,65104,1,2,0:0:0:0:
468,283,67104,2,0,P|473:242|480:201,2,82.5,4|4|0,1:0|1:0|1:0,0:0:0:0:
315,382,68104,5,2,1:2:0:0:
258,274,68438,2,0,P|269:230|312:206,2,90.7500027694703,2|2|2,1:2|0:0|0:0,0:0:0:0:
220,321,69104,2,0,P|161:305|101:300,1,121.000003692627,0|2,1:0|1:2,0:0:0:0:
70,182,69771,2,0,P|26:193|2:236,2,90.7500027694703,2|2|0,1:2|0:0|0:0,0:0:0:0:
118,145,70437,2,0,P|176:160|236:165,1,121.000003692627,0|2,1:0|1:2,0:0:0:0:
301,63,71104,6,0,P|255:61|210:54,2,90.7500027694703,2|2|2,1:2|0:0|0:0,0:0:0:0:
351,97,71771,2,0,P|341:141|335:186,2,90.7500027694703,2|2|2,1:2|0:0|0:0,0:0:0:0:
385,46,72438,1,2,1:2:0:0:
491,124,72771,5,0,1:0:0:0:
491,124,72938,1,0,1:0:0:0:
491,124,73104,2,0,P|458:240|445:360,1,242.000007385254,4|2,1:0|1:2,0:0:0:0:
324,373,74104,1,2,1:2:0:0:
250,274,74438,2,0,P|193:273|170:326,1,121.000003692627,2|0,1:2|1:0,0:0:0:0:
132,373,74938,1,2,0:0:0:0:
132,373,75104,2,0,P|66:360|64:302,1,121.000003692627,2|0,1:2|1:0,0:0:0:0:
25,198,75771,6,0,L|36:108,1,90.7500027694703,4|4,1:0|1:0,0:0:0:0:
175,47,76438,2,0,L|163:136,1,90.7500027694703,4|4,1:0|1:0,0:0:0:0:
282,230,77104,2,0,L|293:140,1,90.7500027694703,4|4,1:0|1:0,0:0:0:0:
399,32,77771,1,0,1:0:0:0:
482,119,78104,1,8,1:2:0:0:
392,201,78438,6,0,P|369:256|375:316,1,121.000003692627,4|0,1:0|1:0,0:0:0:0:
343,369,78938,1,2,0:0:0:0:
343,369,79104,2,0,P|286:347|226:344,1,121.000003692627,2|2,1:2|1:2,0:0:0:0:
152,247,79771,2,0,P|182:198|239:202,1,121.000003692627,2|0,1:2|1:0,0:0:0:0:
291,234,80271,1,2,0:0:0:0:
291,233,80438,2,0,P|299:174|312:114,1,121.000003692627,2|0,1:2|1:0,0:0:0:0:
386,19,81104,5,6,1:0:0:0:
265,6,81438,1,6,1:0:0:0:
187,99,81771,1,6,1:0:0:0:
66,86,82105,1,6,1:0:0:0:
6,191,82438,2,0,L|29:309,1,121.000003692627,0|0,3:0|3:0,0:0:0:0:
135,368,83104,1,0,3:0:0:0:
177,254,83438,1,0,3:0:0:0:
259,308,83771,6,0,P|392:338|397:131,1,395.999987915039,2|4,1:0|3:0,0:0:0:0:
348,53,85438,2,0,P|302:71|253:71,1,98.9999969787599,0|4,3:0|3:0,0:0:0:0:
156,184,86271,1,2,0:0:0:0:
155,184,86438,2,0,P|207:192|251:203,2,98.9999969787599,2|0|0,3:2|3:0|1:0,0:0:0:0:
103,99,87438,1,0,1:0:0:0:
172,29,87771,6,0,L|269:45,1,98.9999969787599,0|0,1:0|1:0,0:0:0:0:
367,62,88438,1,0,1:0:0:0:
463,107,88771,5,2,1:2:0:0:
463,107,88938,1,2,1:2:0:0:
462,106,89104,2,0,P|437:173|367:183,1,148.49999546814,6|4,1:0|1:0,0:0:0:0:
279,303,90104,2,0,P|253:236|183:226,1,148.49999546814,4|4,1:0|1:0,0:0:0:0:
50,291,91104,1,4,1:0:0:0:
7,201,91438,1,4,1:0:0:0:
65,121,91771,6,0,B|117:114|117:114|149:147|149:147|198:141,1,148.49999546814,4|4,1:0|1:0,0:0:0:0:
306,38,92771,2,0,B|358:31|358:31|390:64|390:64|439:58,1,148.49999546814,4|4,1:0|1:0,0:0:0:0:
497,194,93771,1,4,1:0:0:0:
470,289,94104,1,4,1:0:0:0:
386,360,94438,6,0,P|336:337|281:334,1,110,4|0,1:0|3:0,0:0:0:0:
228,348,94938,1,4,1:0:0:0:
228,348,95104,1,0,3:0:0:0:
132,292,95438,2,0,P|109:242|106:187,1,110,4|0,1:0|3:0,0:0:0:0:
120,134,95938,1,4,1:0:0:0:
120,134,96104,1,0,3:0:0:0:
79,31,96438,1,4,1:0:0:0:
185,4,96771,1,4,1:0:0:0:
248,91,97104,6,0,P|261:145|268:217,2,121.000003692627,4|8|4,1:0|1:2|1:0,0:0:0:0:
313,28,98021,2,0,L|401:50,1,90.7500027694703,4|4,1:0|1:0,0:0:0:0:
256,192,98438,12,2,99771,0:0:0:0:
151,209,110438,6,0,P|165:136|171:62,2,148.49999546814,4|2|2,1:0|0:0|3:2,0:0:0:0:
97,292,111771,2,0,P|24:284|18:212,2,148.49999546814,2|2|2,3:2|3:2|3:2,0:0:0:0:
172,355,113104,6,0,P|242:334|316:326,1,148.49999546814,2|2,3:2|3:2,0:0:0:0:
464,342,114104,1,2,3:2:0:0:
406,261,114438,2,0,P|390:163|406:66,1,197.99999395752,2|2,3:2|3:2,0:0:0:0:
323,12,115438,1,2,3:2:0:0:
244,72,115771,6,0,P|195:69|150:51,1,98.9999969787599,4|8,1:0|0:0,0:0:0:0:
81,123,116438,2,0,P|103:166|110:215,1,98.9999969787599,10|10,3:2|3:2,0:0:0:0:
63,302,117104,6,0,P|130:271|200:245,1,148.49999546814,4|4,1:0|1:0,0:0:0:0:
245,225,117771,1,2,3:2:0:0:
307,301,118104,1,8,0:0:0:0:
382,236,118438,1,2,1:2:0:0:
256,192,118521,12,6,120438,1:0:0:0:
359,347,121438,6,0,L|476:319,2,121.000003692627,0|0|10,1:0|1:0|3:2,0:0:0:0:
274,259,122438,1,10,3:2:0:0:
389,223,122771,1,10,3:2:0:0:
420,106,123104,1,10,3:2:0:0:
302,136,123438,1,8,0:0:0:0:
219,47,123771,6,0,P|174:43|131:59,2,90.7500027694703,6|2|2,1:2|0:0|0:0,0:0:0:0:
269,80,124438,2,0,L|366:64,2,90.7500027694703,2|2|2,1:2|0:0|0:0,0:0:0:0:
217,190,125271,2,0,P|218:220|225:249,2,60.5000018463135,2|10|2,0:2|1:2|0:2,0:2:0:0:
170,150,125771,2,0,P|112:145|71:186,1,121.000003692627,2|8,1:2|1:2,0:0:0:0:
28,229,126271,1,0,1:0:0:0:
28,229,126438,6,0,P|41:288|49:347,1,121.000003692627,6|10,1:2|1:2,0:0:0:0:
169,355,127104,2,0,P|166:311|130:286,2,90.7500027694703,2|2|2,1:2|0:0|0:0,0:0:0:0:
225,380,127771,6,0,P|284:367|344:362,1,121.000003692627,2|10,1:2|1:2,0:0:0:0:
437,284,128438,2,0,P|481:285|511:318,2,90.7500027694703,2|0|0,1:2|0:0|1:2,0:0:0:0:
395,239,129104,5,4,1:0:0:0:
414,150,129354,1,4,1:0:0:0:
289,64,129771,1,4,1:0:0:0:
270,153,130021,1,4,1:0:0:0:
127,203,130438,1,4,1:0:0:0:
146,114,130688,1,4,1:0:0:0:
29,17,131104,5,2,1:2:0:0:
47,136,131438,1,10,1:2:0:0:
64,254,131771,6,0,P|120:269|156:224,1,121.000003692627,2|8,1:0|1:0,0:0:0:0:
207,114,132438,1,2,1:2:0:0:
300,190,132771,2,0,L|306:253,1,60.5000018463135,10|2,1:2|0:0,0:0:0:0:
309,310,133104,2,0,P|358:343|417:339,1,121.000003692627,2|10,1:2|1:2,0:0:0:0:
499,250,133771,2,0,P|503:190|470:141,1,121.000003692627,2|10,1:2|1:2,0:0:0:0:
383,57,134438,6,0,L|262:72,1,121.000003692627,6|6,1:0|1:0,0:0:0:0:
142,86,135104,2,0,L|21:101,1,121.000003692627,6|6,1:0|1:0,0:0:0:0:
16,222,135771,1,2,3:2:0:0:
134,245,136104,1,2,3:2:0:0:
252,268,136438,1,2,3:2:0:0:
370,291,136771,1,2,3:2:0:0:
450,200,137104,6,0,P|482:150|470:92,1,121.000003692627,2|2,3:2|3:2,0:0:0:0:
351,69,137771,2,0,P|318:118|330:176,2,121.000003692627,2|2|2,3:2|3:2|3:2,0:0:0:0:
437,294,139104,2,0,P|482:290|521:313,2,90.7500027694703,4|0|0,1:0|1:0|1:0,0:0:0:0:
390,331,139771,6,0,L|269:315,1,121.000003692627,2|2,1:2|3:2,0:0:0:0:
150,298,140438,2,0,L|29:282,1,121.000003692627,2|2,3:2|3:2,0:0:0:0:
8,162,141104,6,0,P|5:118|31:81,1,90.7500027694703,4|4,1:0|1:0,0:0:0:0:
110,37,141604,2,0,P|154:33|191:59,1,90.7500027694703,4|4,1:0|1:0,0:0:0:0:
241,134,142104,2,0,L|252:264,1,121.000003692627,4|2,0:1|0:0,0:0:0:0:
347,327,142771,6,0,P|397:295|456:293,1,121.000003692627,8|8,3:2|3:2,0:0:0:0:
506,182,143438,2,0,P|455:149|396:147,1,121.000003692627,8|8,3:2|3:2,0:0:0:0:
310,232,144104,1,4,1:0:0:0:
190,213,144438,1,4,1:0:0:0:
154,97,144771,1,4,1:0:0:0:
237,10,145104,6,0,P|354:37|474:54,1,242.000007385254,4|8,1:0|0:0,0:0:0:0:
487,113,145938,2,0,L|497:184,1,60.5000018463135,2|2,0:0|0:0,0:0:0:0:
506,232,146271,1,6,1:0:0:0:
424,320,146604,1,6,1:0:0:0:
347,225,146938,1,6,1:0:0:0:
265,313,147271,2,0,L|130:332,1,121.000003692627,8|2,1:0|1:3,0:0:0:0:
256,192,148104,12,0,150771,0:0:0:0:
