osu file format v14

[General]
AudioFilename: audio.mp3
AudioLeadIn: 0
PreviewTime: 99687
Countdown: 0
SampleSet: Soft
StackLeniency: 0.2
Mode: 0
LetterboxInBreaks: 0
WidescreenStoryboard: 0

[Editor]
Bookmarks: 1104,22270,43770,54438,67604,89104,99770,110437,123770,137103,148103
DistanceSpacing: 1
BeatDivisor: 4
GridSize: 16
TimelineZoom: 1.9

[Metadata]
Title:ExeQtion&Redemption
TitleUnicode:ExeQtion&Redemption
Artist:polysha
ArtistUnicode:polysha
Creator:Realazy
Version:Heroism
Source:
Tags:kkipalt icekalt mir execution arcade core hardcore hard renaissance electronic instrumental fa featured artist
BeatmapID:2969095
BeatmapSetID:1443395

[Difficulty]
HPDrainRate:5
CircleSize:4.5
OverallDifficulty:9
ApproachRate:9.4
SliderMultiplier:2
SliderTickRate:1

[Events]
//Background and Video events
0,0,"exeQtion.jpg",0,0
//Break Periods
2,43971,53231
2,99971,109898
//Storyboard Layer 0 (Background)
//Storyboard Layer 1 (Fail)
//Storyboard Layer 2 (Pass)
//Storyboard Layer 3 (Foreground)
//Storyboard Layer 4 (Overlay)
//Storyboard Sound Samples

[TimingPoints]
1105,333.333333333333,4,2,0,50,1,0
1105,-57.1428571428571,4,2,0,50,0,0
1438,-100,4,2,0,50,0,0
2771,-200,4,2,0,50,0,0
4438,-50,4,2,0,50,0,0
5188,-50,4,2,0,5,0,0
5271,-40,4,2,0,50,0,0
5521,-40,4,2,0,5,0,0
5605,-44.4444444444445,4,2,0,50,0,0
5854,-44.4444444444445,4,2,0,5,0,0
5938,-36.3636363636364,4,2,0,50,0,0
6188,-36.3636363636364,4,2,0,5,0,0
6271,-133.333333333333,4,2,0,50,0,0
6771,-100,4,2,0,50,0,0
8104,-200,4,2,0,50,0,0
9105,-80,4,2,0,50,0,0
10271,-50,4,2,0,50,0,0
10605,-100,4,2,0,50,0,0
11105,-133.333333333333,4,2,0,50,0,0
11771,-100,4,2,0,60,0,0
15605,-50,4,2,0,70,0,0
15938,-200,4,2,0,70,0,0
16105,-40,4,2,0,70,0,0
16438,-66.6666666666667,4,2,0,70,0,0
16938,-50,4,2,0,70,0,0
17438,-100,4,2,0,35,0,0
17771,-100,4,2,0,40,0,0
18104,-100,4,2,0,45,0,0
18438,-100,4,2,0,50,0,0
18771,-100,4,2,0,55,0,0
19104,-100,4,2,0,60,0,0
19438,-100,4,2,0,70,0,0
19771,-100,4,2,0,30,0,0
20104,-100,4,2,0,40,0,0
20438,-100,4,2,0,50,0,0
20604,-100,4,2,0,55,0,0
20771,-100,4,2,0,60,0,0
20938,-100,4,2,0,65,0,0
21105,-50,4,2,0,70,0,0
22104,-200,4,2,0,50,0,0
22271,-50,4,2,0,80,0,0
22771,-250,4,2,0,60,0,0
23105,-50,4,2,0,70,0,0
23771,-44.4444444444445,4,2,0,70,0,0
23938,-50,4,2,0,70,0,0
24438,-200,4,2,0,70,0,0
24688,-40,4,2,0,70,0,0
24938,-50,4,2,0,70,0,0
25104,-40,4,2,0,70,0,0
25438,-133.333333333333,4,2,0,70,0,0
25771,-100,4,2,0,70,0,0
26438,-50,4,2,0,70,0,0
26605,-100,4,2,0,70,0,0
26855,-50,4,2,0,70,0,0
27104,-66.6666666666667,4,2,0,70,0,0
27271,-100,4,2,0,70,0,0
27438,-57.1428571428571,4,2,0,70,0,0
27604,-44.4444444444445,4,2,0,80,0,0
28104,-500,4,2,0,60,0,0
28438,-50,4,2,0,70,0,0
29104,-44.4444444444445,4,2,0,70,0,0
29271,-50,4,2,0,70,0,0
30271,-100,4,2,0,70,0,0
31604,-66.6666666666667,4,2,0,70,0,0
33104,-50,4,2,0,80,0,0
33438,-44.4444444444445,4,2,0,70,0,0
33771,-50,4,2,0,70,0,0
34438,-44.4444444444445,4,2,0,70,0,0
34605,-50,4,2,0,70,0,0
35105,-200,4,2,0,70,0,0
35354,-40,4,2,0,70,0,0
35605,-50,4,2,0,70,0,0
35771,-40,4,2,0,70,0,0
36105,-133.333333333333,4,2,0,70,0,0
36438,-44.4444444444444,4,2,0,70,0,0
36605,-133.333333333333,4,2,0,70,0,0
36771,-44.4444444444444,4,2,0,70,0,0
36938,-100,4,2,0,70,0,0
37104,-40,4,2,0,70,0,0
37605,-66.6666666666667,4,2,0,70,0,0
38271,-80,4,2,0,70,0,0
38605,-57.1428571428571,4,2,0,70,0,0
38938,-80,4,2,0,70,0,0
39271,-57.1428571428571,4,2,0,70,0,0
39605,-66.6666666666667,4,2,0,70,0,0
40105,-200,4,2,0,70,0,0
40605,-66.6666666666667,4,2,0,70,0,0
40938,-100,4,2,0,60,0,0
42438,-100,4,2,0,50,0,0
43104,-100,4,2,0,40,0,0
43438,-100,4,2,0,45,0,0
43771,-100,4,2,0,50,0,0
53771,-151.515151515152,4,2,0,30,0,0
54438,-100,4,2,0,40,0,0
57104,-80,4,2,0,50,0,0
59771,-80,4,2,0,70,0,0
61104,-66.6666666666667,4,2,0,80,0,0
61605,-57.1428571428571,4,2,0,70,0,0
62438,-50,4,2,0,90,0,0
64438,-57.1428571428571,4,2,0,80,0,0
64771,-40,4,2,0,80,0,0
65105,-100,4,2,0,60,0,0
65604,-100,4,2,0,50,0,0
66104,-100,4,2,0,40,0,0
66438,-100,4,2,0,50,0,0
66771,-100,4,2,0,60,0,0
67105,-44.4444444444445,4,2,0,70,0,0
67938,-66.6666666666667,4,2,0,80,0,0
72438,-50,4,2,0,80,0,0
72771,-100,4,2,0,80,0,0
73105,-66.6666666666667,4,2,0,80,0,0
75771,-40,4,2,0,80,0,0
78438,-66.6666666666667,4,2,0,80,0,0
80938,-57.1428571428571,4,2,0,80,0,0
82438,-40,4,2,0,80,0,0
83771,-142.857142857143,4,2,0,50,0,0
86271,-80,4,2,0,60,0,0
87771,-66.6666666666667,4,2,0,70,0,0
89104,-57.1428571428571,4,2,0,80,0,0
94438,-50,4,2,0,80,0,0
97271,-100,4,2,0,80,0,0
97438,-50,4,2,0,80,0,0
97605,-100,4,2,0,80,0,0
97771,-50,4,2,0,80,0,0
98438,-100,4,2,0,60,0,0
99104,-100,4,2,0,50,0,0
110438,-133.333333333333,4,2,0,50,0,0
112104,-100,4,2,0,50,0,0
115771,-133.333333333333,4,2,0,60,0,0
117104,-100,4,2,0,70,0,0
117604,-66.6666666666667,4,2,0,70,0,0
118104,-57.1428571428571,4,2,0,70,0,0
118438,-100,4,2,0,80,0,0
118938,-100,4,2,0,70,0,0
119438,-100,4,2,0,60,0,0
119771,-100,4,2,0,50,0,0
120104,-100,4,2,0,60,0,0
120438,-50,4,2,0,70,0,0
121438,-100,4,2,0,60,0,0
122438,-100,4,2,0,65,0,0
122771,-100,4,2,0,70,0,0
123104,-100,4,2,0,75,0,0
123438,-50,4,2,0,70,0,0
123771,-57.1428571428571,4,2,0,80,0,0
125771,-100,4,2,0,80,0,0
126104,-50,4,2,0,80,0,0
126438,-57.1428571428571,4,2,0,80,0,0
129104,-66.6666666666667,4,2,0,90,0,0
131771,-57.1428571428571,4,2,0,80,0,0
132271,-100,4,2,0,80,0,0
133271,-66.6666666666667,4,2,0,80,0,0
133438,-50,4,2,0,80,0,0
134438,-66.6666666666667,4,2,0,90,0,0
137104,-66.6666666666667,4,2,0,70,0,0
137354,-66.6666666666667,4,2,0,75,0,0
137604,-66.6666666666667,4,2,0,80,0,0
137854,-66.6666666666667,4,2,0,85,0,0
138104,-66.6666666666667,4,2,0,90,0,0
138604,-50,4,2,0,90,0,0
139771,-50,4,2,0,80,0,0
141104,-50,4,2,0,90,0,0
142104,-200,4,2,0,70,0,0
142438,-133.333333333333,4,2,0,60,0,0
142771,-200,4,2,0,50,0,0
143104,-166.666666666667,4,2,0,55,0,0
143438,-142.857142857143,4,2,0,60,0,0
143771,-125,4,2,0,65,0,0
144104,-200,4,2,0,70,0,0
145771,-50,4,2,0,80,0,0
146271,-50,4,2,0,90,0,0
147604,-100,4,2,0,80,0,0
148188,-100,4,2,0,5,0,0
148438,-100,4,2,0,12,0,0
148771,-100,4,2,0,19,0,0
149104,-100,4,2,0,26,0,0
149438,-100,4,2,0,33,0,0
149771,-100,4,2,0,40,0,0
150104,-100,4,2,0,47,0,0
150438,-100,4,2,0,55,0,0

[Colours]
Combo1 : 158,51,255
Combo2 : 215,155,255

[HitObjects]
115,256,771,5,2,0:0:0:0:
124,257,855,1,2,0:0:0:0:
134,258,938,1,2,0:0:0:0:
145,259,1021,1,2,0:0:0:0:
197,198,1105,2,0,P|115:228|35:264,1,175.00000166893,6|0,1:2|0:0,0:0:0:0:
31,149,1438,5,2,0:0:0:0:
31,149,1521,2,0,P|77:132|122:108,1,100,2|0,0:0|0:0,0:0:0:0:
0,62,1855,5,2,0:0:0:0:
0,62,1938,1,2,0:0:0:0:
118,122,2105,1,2,0:0:0:0:
235,18,2271,6,0,P|303:23|305:91,1,150,2|0,0:0|0:0,0:0:0:0:
293,105,2605,1,2,0:0:0:0:
506,22,2771,6,0,P|483:52|464:84,1,75,4|0,1:0|0:0,0:0:0:0:
280,115,3105,2,0,P|290:150|297:187,1,75,4|0,1:0|0:0,0:0:0:0:
473,285,3438,2,0,P|456:318|443:353,1,75,4|0,1:0|0:0,0:0:0:0:
412,187,3771,5,4,1:0:0:0:
291,297,3938,1,0,3:0:0:0:
273,303,4021,1,0,3:0:0:0:
248,304,4105,1,0,3:0:0:0:
219,292,4188,1,0,3:0:0:0:
199,270,4271,1,0,3:0:0:0:
192,232,4355,1,0,3:0:0:0:
230,161,4438,6,0,B|256:116|256:116|239:161,1,100,8|0,0:0|0:0,0:0:0:0:
27,384,4605,5,2,0:0:0:0:
37,365,4688,1,2,0:0:0:0:
53,325,4771,1,2,0:0:0:0:
77,252,4855,1,2,0:0:0:0:
102,167,4938,6,2,B|121:83|47:25|47:25|13:49|-8:89|-8:89|14:104|23:131,1,300,6|0,1:0|0:0,1:0:0:0:
77,252,5271,6,2,B|136:271|179:225|165:214|218:165|284:196|284:196|256:224|249:266|249:266|230:244|193:234,1,375,6|0,1:0|0:0,1:0:0:0:
102,167,5605,6,2,B|187:72|314:108|314:108|281:70|219:74,1,337.500012874604,6|0,1:0|0:0,1:0:0:0:
98,56,5938,6,2,P|283:145|461:249,1,412.500003933907,6|0,1:0|0:0,1:0:0:0:
406,103,6271,6,0,L|392:66,2,37.5000014305115,6|2|2,1:0|0:0|0:0,0:0:0:0:
433,176,6605,1,0,0:0:0:0:
320,304,6771,5,4,0:1:0:0:
320,304,6855,2,0,P|272:300|247:259,1,100,2|0,0:0|0:0,0:0:0:0:
419,378,7188,1,2,0:0:0:0:
418,378,7271,2,0,P|442:336|490:333,1,100,2|0,0:0|0:0,0:0:0:0:
320,304,7604,6,0,P|247:316|175:338,1,150,2|0,0:0|0:0,0:0:0:0:
102,372,7938,1,2,0:0:0:0:
14,166,8104,6,0,P|48:179|84:190,1,75,4|0,1:0|0:0,0:0:0:0:
243,115,8438,2,0,P|213:138|186:164,1,75,4|0,1:0|0:0,0:0:0:0:
173,338,8771,2,0,P|167:300|158:264,1,75,4|0,1:0|0:0,0:0:0:0:
113,83,9105,5,6,1:0:0:0:
64,283,9271,1,0,0:0:0:0:
158,16,9438,6,0,B|159:-18|159:-18|147:7,1,62.5,10|0,1:0|0:0,0:0:0:0:
10,99,9605,2,0,P|99:127|185:163,1,187.5,6|0,1:0|0:0,0:0:0:0:
185,163,9938,1,2,0:0:0:0:
54,23,10104,6,0,B|50:-10|50:-10|64:13,1,62.5,8|0,1:0|0:0,0:0:0:0:
158,264,10271,2,0,P|205:247|253:233,1,100,4|0,1:0|0:0,0:0:0:0:
253,233,10605,2,0,P|271:186|291:140,2,100,8|0|0,1:0|0:0|0:0,0:0:0:0:
217,59,11104,5,2,1:3:0:0:
217,59,11188,2,0,P|220:77|224:95,1,37.5000014305115,2|0,1:3|0:0,0:0:0:0:
224,95,11438,6,0,P|276:86|348:64,1,112.500004291535,8|0,0:0|0:0,0:0:0:0:
458,0,11771,5,6,1:2:0:0:
512,122,11938,1,0,0:0:0:0:
381,192,12105,5,2,1:2:0:0:
381,192,12188,1,2,0:0:0:0:
416,280,12355,1,2,0:0:0:0:
461,364,12521,1,2,0:0:0:0:
461,364,12605,2,0,P|506:351|513:305,1,100,2|0,0:0|1:0,0:0:0:0:
303,384,12938,6,0,P|291:309|279:235,1,150,2|0,0:0|0:0,0:0:0:0:
267,222,13271,2,0,P|270:197|273:172,1,50,2|0,0:0|0:0,0:0:0:0:
211,282,13438,1,2,1:2:0:0:
211,282,13521,2,0,P|187:291|164:300,2,50,2|0|0,0:0|0:0|0:0,0:0:0:0:
349,190,13770,1,2,1:2:0:0:
359,187,13855,1,2,0:0:0:0:
374,188,13938,1,2,0:0:0:0:
393,194,14021,1,2,0:0:0:0:
415,203,14104,1,2,1:2:0:0:
441,209,14188,1,2,0:0:0:0:
478,195,14271,1,2,0:0:0:0:
503,154,14355,1,2,0:0:0:0:
485,108,14438,6,0,P|413:84|341:63,2,150,2|2|2,1:2|0:0|0:0,0:0:0:0:
284,8,15104,1,2,1:2:0:0:
276,18,15188,1,2,0:0:0:0:
259,32,15271,1,2,0:0:0:0:
227,50,15355,1,2,0:0:0:0:
195,59,15438,2,0,P|170:64|146:70,1,50,2|0,1:2|0:0,0:0:0:0:
11,96,15605,6,0,P|-17:16|67:19,1,200,2|0,1:0|0:0,0:0:0:0:
68,21,15938,2,0,L|72:46,1,25,2|0,1:0|0:0,0:0:0:0:
22,231,16105,6,0,P|129:231|91:132,1,250,10|0,1:0|0:0,0:0:0:0:
91,132,16438,6,0,P|164:147|238:160,1,150.000005722046,2|0,1:0|0:0,0:0:0:0:
339,275,16688,2,0,P|265:260|191:247,1,150.000005722046,10|0,1:0|0:0,0:0:0:0:
91,132,16938,6,0,B|69:96|69:96|160:113|160:113|209:168|167:232|167:232|98:270|111:345,1,400,4|0,1:0|0:0,0:0:0:0:
110,344,17437,5,8,3:2:0:0:
94,349,17521,1,0,3:0:0:0:
75,350,17604,1,0,3:0:0:0:
57,345,17687,1,0,3:0:0:0:
40,335,17771,1,8,3:2:0:0:
27,319,17854,1,0,3:0:0:0:
19,297,17937,1,0,3:0:0:0:
19,269,18021,1,0,3:0:0:0:
30,244,18105,1,8,3:2:0:0:
51,225,18188,1,0,3:0:0:0:
82,218,18271,1,0,3:0:0:0:
113,225,18355,1,0,3:0:0:0:
144,241,18438,5,10,3:2:0:0:
149,249,18521,1,2,3:2:0:0:
153,257,18604,2,0,P|162:280|169:304,1,50,2|0,3:2|3:0,3:0:0:0:
256,359,18771,5,10,3:2:0:0:
258,351,18854,1,2,3:2:0:0:
261,342,18937,2,0,P|266:317|268:292,1,50,2|0,3:2|3:0,3:0:0:0:
368,281,19105,5,10,3:2:0:0:
376,228,19188,1,2,3:2:0:0:
344,182,19272,1,2,3:2:0:0:
288,170,19355,1,2,3:2:0:0:
234,196,19438,1,10,3:2:0:0:
174,186,19522,1,2,3:2:0:0:
140,132,19605,1,2,3:2:0:0:
164,62,19688,1,2,3:2:0:0:
241,45,19771,5,2,1:2:0:0:
322,64,19883,5,2,1:2:0:0:
402,86,19994,5,2,1:2:0:0:
460,26,20105,5,2,1:2:0:0:
479,107,20217,5,2,1:2:0:0:
501,187,20328,5,2,1:2:0:0:
457,250,20438,5,2,1:2:0:0:
433,241,20521,1,2,1:2:0:0:
409,233,20604,1,2,1:2:0:0:
385,226,20687,1,2,1:2:0:0:
375,208,20771,1,2,1:2:0:0:
331,230,20854,1,2,1:2:0:0:
285,250,20937,1,2,1:2:0:0:
238,267,21020,1,2,1:2:0:0:
188,197,21105,6,0,B|149:226|150:285|150:285|131:228|83:216,1,200,4|0,1:0|0:0,0:0:0:0:
70,140,21354,2,0,B|109:111|108:52|108:52|127:109|175:121,1,200,4|0,0:1|0:0,0:0:0:0:
239,366,21605,2,0,P|149:323|55:289,1,200,4|0,0:1|0:0,0:0:0:0:
70,140,22104,6,0,L|66:164,1,25,8|0,0:0|0:0,0:0:0:0:
1,377,22271,6,0,B|115:436|188:329|132:297|215:202|368:256|383:360|298:418|241:367,1,500,6|0,1:2|0:0,0:0:0:0:
175,331,22771,2,0,P|184:302|191:273,1,60,4|0,3:0|0:0,0:0:0:0:
274,159,23105,5,10,1:3:0:0:
337,186,23188,1,2,0:3:0:0:
364,142,23271,1,2,0:3:0:0:
409,165,23355,1,2,0:3:0:0:
444,136,23438,1,2,0:3:0:0:
472,146,23521,1,2,0:3:0:0:
486,131,23604,2,0,B|540:123|540:123|498:138,1,100,2|0,1:0|0:0,0:0:0:0:
245,80,23771,6,0,P|192:82|177:133,1,112.500004291535,2|0,0:3|0:0,0:0:0:0:
292,264,23938,5,2,0:3:0:0:
355,291,24021,1,2,0:3:0:0:
382,247,24104,1,2,1:3:0:0:
427,270,24188,1,2,0:3:0:0:
462,241,24271,2,0,B|514:231|514:231|472:252,1,100,2|0,0:1|0:0,0:0:0:0:
223,337,24438,6,0,P|231:360|240:384,1,50,8|0,1:0|0:0,0:0:0:0:
321,375,24688,6,0,P|200:350|77:324,1,250,2|0,0:1|0:0,0:0:0:0:
9,363,24938,2,0,P|-18:384|2:355,1,100,2|0,0:3|0:0,0:0:0:0:
191,148,25104,6,2,B|37:184|37:184|-7:196|-38:161|-28:115|16:103|16:103|87:87,1,375,2|0,1:0|0:0,1:0:0:0:
156,26,25438,6,0,B|136:3|104:7|104:7|131:12|151:33,1,112.500004291535,0|0,0:0|0:0,1:0:0:0:
247,212,25771,5,10,1:3:0:0:
251,201,25854,1,2,0:3:0:0:
191,148,25937,1,2,0:3:0:0:
195,137,26021,1,2,0:3:0:0:
275,125,26105,1,2,0:3:0:0:
279,114,26188,1,2,0:3:0:0:
219,61,26271,2,0,B|231:9,1,50,0|0,1:0|0:0,0:0:0:0:
439,0,26438,6,0,B|465:41|465:41|429:77,1,100,2|0,0:1|0:0,0:0:0:0:
302,39,26605,1,2,0:3:0:0:
319,36,26688,2,0,L|369:27,1,50,2|0,0:3|0:0,0:0:0:0:
500,118,26855,1,2,0:3:0:0:
512,106,26938,2,2,B|359:138,1,150,2|0,0:1|0:0,1:0:0:0:
365,137,27104,2,0,L|434:165,1,75.0000028610231,8|0,1:2|0:0,0:0:0:0:
510,198,27271,6,0,P|497:218|478:234,1,50,2|0,0:0|0:0,0:0:0:0:
488,311,27438,2,0,P|449:329|406:334,1,87.500000834465,2|0,0:0|0:0,0:0:0:0:
339,384,27604,6,0,B|175:339|175:339|165:287|119:268|119:268|186:235|249:257|263:328,1,450.000017166138,4|0,1:0|3:0,0:0:0:0:
260,348,28021,1,0,3:0:0:0:
248,367,28104,2,0,L|218:374,1,30,0|0,3:0|0:0,1:0:0:0:
88,350,28438,5,10,1:3:0:0:
44,296,28521,1,2,0:3:0:0:
80,257,28604,1,2,0:3:0:0:
47,220,28688,1,2,0:3:0:0:
66,178,28771,1,2,0:3:0:0:
49,154,28854,1,2,0:3:0:0:
56,136,28938,2,0,B|47:81|47:81|46:124,1,100,2|0,1:0|0:0,0:0:0:0:
146,295,29104,6,0,P|197:290|203:238,1,112.500004291535,2|0,0:3|0:0,0:0:0:0:
297,152,29271,5,2,0:3:0:0:
361,179,29354,1,2,0:3:0:0:
388,134,29438,1,2,1:3:0:0:
432,157,29521,1,2,0:3:0:0:
468,128,29604,2,0,B|520:118|520:118|478:138,1,100,2|0,0:1|0:0,0:0:0:0:
343,364,29771,5,10,1:2:0:0:
324,370,29855,1,2,0:0:0:0:
288,375,29938,1,2,0:0:0:0:
237,366,30021,1,2,0:0:0:0:
185,331,30105,1,2,0:0:0:0:
151,266,30188,1,2,0:0:0:0:
175,189,30271,6,0,P|248:204|321:220,1,150,6|0,1:0|0:0,0:0:0:0:
336,224,30605,5,2,0:0:0:0:
458,159,30771,1,2,0:0:0:0:
401,33,30938,2,0,P|384:80|372:128,1,100,2|8,0:0|1:2,0:0:0:0:
332,345,31271,5,2,0:0:0:0:
243,236,31438,1,2,0:0:0:0:
114,366,31604,6,0,B|55:347|-7:342|-7:342|35:245|45:97,1,375.000014305115,4|0,1:0|0:0,0:0:0:0:
0,37,32104,2,0,B|-15:3|-15:3|10:30,1,75.0000028610231,8|0,1:0|0:0,0:0:0:0:
163,303,32271,6,0,B|129:288|93:279|93:279|112:201|118:130,1,225.000008583069,4|0,1:0|0:0,0:0:0:0:
0,37,32605,2,0,B|-15:3|-15:3|10:30,1,75.0000028610231,8|0,0:0|0:0,0:0:0:0:
46,220,32771,5,2,0:0:0:0:
60,216,32855,1,2,0:0:0:0:
74,212,32938,1,2,0:0:0:0:
88,208,33021,1,2,0:0:0:0:
118,130,33104,6,0,P|264:162|412:187,1,300,4|0,1:0|0:0,0:0:0:0:
497,0,33438,6,0,P|442:10|387:19,1,112.500004291535,2|0,0:1|0:0,0:0:0:0:
512,81,33605,2,0,P|456:91|401:100,1,112.500004291535,2|0,0:3|0:0,0:0:0:0:
278,87,33771,5,10,1:3:0:0:
250,150,33854,1,2,0:3:0:0:
294,177,33937,1,2,0:3:0:0:
271,222,34021,1,2,0:3:0:0:
300,257,34104,1,2,0:3:0:0:
290,285,34187,1,2,0:3:0:0:
305,299,34271,2,0,B|313:353|313:353|298:311,1,100,2|0,1:0|0:0,0:0:0:0:
182,58,34438,6,0,P|129:53|112:102,1,112.500004291535,2|0,0:3|0:0,0:0:0:0:
52,156,34605,5,2,0:3:0:0:
103,200,34688,1,2,0:3:0:0:
74,245,34771,1,2,1:3:0:0:
114,275,34855,1,2,0:3:0:0:
102,318,34938,2,0,B|117:370|117:370|113:325,1,100,2|0,0:1|0:0,0:0:0:0:
179,135,35105,6,0,L|230:143,1,50,8|0,1:0|0:0,0:0:0:0:
228,219,35354,6,2,B|280:227|280:227|335:102|335:102|395:113,1,250,2|0,0:1|0:0,1:0:0:0:
462,68,35605,2,0,P|483:39|453:59,1,100,2|0,0:3|0:0,0:0:0:0:
268,0,35771,6,2,B|345:14|345:14|370:224|370:224|456:240,1,375,2|0,1:0|0:0,1:0:0:0:
499,170,36105,6,0,B|538:133|538:133|486:161,1,112.500004291535,0|0,0:0|0:0,1:0:0:0:
355,199,36438,6,0,L|368:310,1,112.500004291535,8|0,1:0|0:0,0:0:0:0:
438,351,36605,2,0,L|475:346,1,37.5000014305115,2|0,0:3|0:0,0:0:0:0:
289,306,36771,2,0,B|247:267|247:267|279:222,1,112.500004291535,2|0,0:1|0:0,0:0:0:0:
386,128,36938,2,0,B|401:107|401:107|396:131,1,50,0|0,1:0|0:0,0:0:0:0:
324,377,37104,6,0,P|266:352|206:336,1,125,2|0,0:1|0:0,0:0:0:0:
11,327,37271,1,2,0:3:0:0:
11,327,37355,1,2,0:3:0:0:
11,327,37438,2,0,P|68:329|81:272,1,125,2|0,1:3|0:0,0:0:0:0:
35,73,37605,2,0,P|30:56|31:78,1,75.0000028610231,2|0,0:1|0:0,0:0:0:0:
34,160,37771,5,10,1:2:0:0:
56,163,37855,1,2,0:0:0:0:
84,161,37938,1,2,0:0:0:0:
120,150,38021,1,2,0:0:0:0:
159,125,38105,1,2,0:0:0:0:
192,83,38188,1,2,0:0:0:0:
224,31,38271,6,0,P|307:30|303:114,1,187.5,4|0,1:0|0:0,0:0:0:0:
289,198,38604,5,2,0:0:0:0:
289,198,38688,1,2,0:0:0:0:
289,198,38771,2,0,P|331:187|374:178,1,87.500000834465,10|0,1:2|0:0,0:0:0:0:
431,0,38938,2,0,P|400:87|374:177,1,187.5,4|0,1:0|0:0,0:0:0:0:
446,253,39271,5,2,0:0:0:0:
446,253,39355,1,2,0:0:0:0:
446,252,39438,2,0,P|484:235|490:194,1,87.500000834465,10|0,1:2|0:0,0:0:0:0:
412,341,39605,2,0,B|298:437|119:312|257:177|330:260,1,375.000014305115,4|0,1:0|0:0,0:0:0:0:
277,329,40105,6,2,P|240:319|204:310,1,75,0|0,0:0|0:0,1:0:0:0:
330,260,40438,1,8,1:2:0:0:
37,383,40605,6,0,P|27:346|15:311,1,75,2|0,0:1|0:0,0:0:0:0:
90,259,40771,2,0,P|98:223|111:188,1,75,2|0,0:1|0:0,0:0:0:0:
3,141,40938,6,2,B|81:106|82:24|82:24|113:101|196:106,1,300,6|2,1:0|3:0,1:0:0:0:
111,187,41605,1,4,0:3:0:0:
176,0,41771,5,0,3:0:0:0:
181,8,41855,1,0,3:0:0:0:
186,16,41938,2,0,P|236:26|283:34,1,100,0|0,3:0|0:0,0:0:0:0:
423,66,42271,1,2,3:0:0:0:
468,222,42438,5,2,0:0:0:0:
393,202,42549,1,2,0:0:0:0:
318,182,42660,1,2,0:0:0:0:
373,127,42771,5,2,0:0:0:0:
393,202,42882,1,2,0:0:0:0:
413,276,42993,1,2,0:0:0:0:
360,334,43105,5,2,0:0:0:0:
345,323,43188,1,2,0:0:0:0:
330,312,43271,1,2,0:0:0:0:
312,302,43355,1,2,0:0:0:0:
285,288,43438,1,2,0:0:0:0:
253,271,43521,1,2,0:0:0:0:
209,254,43605,1,2,0:0:0:0:
159,241,43688,1,2,0:0:0:0:
79,234,43771,1,2,1:2:0:0:
217,215,53771,6,0,P|227:264|234:313,1,98.999999697876,2|0,0:0|0:0,0:0:0:0:
312,296,54105,2,0,P|303:248|296:199,1,98.999999697876,2|0,0:0|0:0,0:0:0:0:
241,141,54438,6,0,P|193:127|146:111,1,98.999999697876,4|0,3:2|0:0,0:0:0:0:
296,199,54771,1,0,3:0:0:0:
400,59,54938,2,0,P|490:65|486:156,1,200,2|0,3:2|0:0,0:0:0:0:
274,70,55438,6,0,P|226:56|179:40,1,98.999999697876,2|0,3:2|3:0,0:0:0:0:
109,13,55688,1,2,3:0:0:0:
94,5,55771,2,0,P|49:21|48:68,1,100,2|0,3:2|3:0,0:0:0:0:
121,142,56105,1,0,3:0:0:0:
18,255,56271,2,0,P|28:206|36:156,2,100,2|0|0,3:2|3:0|3:0,0:0:0:0:
128,362,56771,6,0,P|176:347|226:339,1,100,2|0,3:0|3:0,0:0:0:0:
238,262,57021,1,0,3:0:0:0:
220,263,57104,2,0,P|158:273|98:291,2,125,2|0|2,3:2|3:0|3:0,0:0:0:0:
424,275,57604,6,0,B|492:277|519:343|519:343|458:385|402:352,1,250,2|2,3:2|3:0,0:0:0:0:
314,296,58105,1,2,3:2:0:0:
396,101,58271,5,2,3:2:0:0:
396,101,58355,1,2,3:2:0:0:
396,101,58438,2,0,B|412:52|458:42|458:42|496:128|434:188,1,250,2|0,3:2|0:0,0:0:0:0:
303,56,58938,5,2,3:2:0:0:
277,39,59021,1,2,0:0:0:0:
246,38,59104,1,2,3:2:0:0:
220,54,59188,1,2,0:0:0:0:
206,82,59271,1,2,3:2:0:0:
209,112,59354,1,2,0:0:0:0:
228,135,59438,1,2,3:2:0:0:
180,162,59521,1,2,0:0:0:0:
127,147,59604,1,2,3:2:0:0:
102,98,59688,1,2,0:0:0:0:
116,47,59771,6,0,B|135:18|135:18|128:45,3,62.5,4|0|0|0,1:2|0:2|0:2|0:2,0:0:0:0:
21,107,60104,2,0,P|28:137|35:167,1,62.5,8|0,0:0|0:0,0:0:0:0:
37,347,60271,5,2,3:2:0:0:
63,364,60354,1,2,3:2:0:0:
94,365,60437,1,10,3:2:0:0:
120,349,60521,1,2,3:2:0:0:
134,321,60604,1,2,3:2:0:0:
131,291,60687,1,2,3:2:0:0:
111,267,60771,1,10,1:2:0:0:
146,225,60854,1,2,3:2:0:0:
200,222,60937,1,2,3:2:0:0:
239,261,61021,1,2,3:2:0:0:
237,315,61105,6,0,B|224:353|224:353|228:316,3,75.0000028610231,4|0|0|0,1:2|0:2|0:2|0:2,0:0:0:0:
254,166,61438,2,0,L|327:154,1,75.0000028610231,8|0,3:2|0:0,0:0:0:0:
360,27,61605,6,0,B|355:-14|355:-14|370:28,1,87.500000834465,6|0,1:2|0:0,0:0:0:0:
403,102,61771,2,0,B|398:143|398:143|413:100,3,87.500000834465,10|0|0|0,0:0|0:0|0:0|0:0,0:0:0:0:
512,41,62105,6,0,P|383:66|253:86,1,262.500002503395,8|0,0:0|0:0,0:0:0:0:
166,14,62438,6,0,P|154:62|144:111,1,100,2|0,1:0|0:0,0:0:0:0:
86,0,62604,2,0,P|76:49|64:97,1,100,2|0,1:0|0:0,0:0:0:0:
87,173,62771,2,0,P|78:206|95:176,1,100,8|0,1:0|0:0,0:0:0:0:
281,370,62938,6,0,P|269:321|259:272,1,100,2|0,1:0|0:0,0:0:0:0:
201,384,63105,2,0,P|191:334|179:286,1,100,2|0,1:0|0:0,0:0:0:0:
202,211,63271,2,0,P|193:177|210:207,1,100,8|0,1:0|0:0,0:0:0:0:
397,14,63438,6,0,P|385:62|375:111,1,100,2|0,1:0|0:0,0:0:0:0:
317,0,63605,2,0,P|307:49|295:97,1,100,2|0,1:0|0:0,0:0:0:0:
318,173,63771,2,0,P|309:206|326:176,1,100,8|0,1:0|0:0,0:0:0:0:
512,370,63938,6,0,P|500:321|490:272,1,100,2|0,1:0|0:0,0:0:0:0:
432,384,64105,2,0,P|422:334|410:286,1,100,2|0,1:0|0:0,0:0:0:0:
433,211,64271,2,0,P|424:177|441:207,1,100,8|0,1:0|0:0,0:0:0:0:
265,364,64438,6,0,P|143:315|16:282,1,262.500002503395,2|0,1:0|0:0,1:0:0:0:
0,384,64771,6,2,P|169:304|348:243,1,375,8|0,1:0|0:0,1:0:0:0:
431,195,65105,6,0,L|438:162,8,33.3333333333333,2|2|2|2|2|2|2|2|2,0:0|0:0|0:0|0:0|0:0|0:0|0:0|0:0|0:0,0:0:0:0:
489,56,65605,5,2,0:0:0:0:
489,56,65688,1,2,0:0:0:0:
489,55,65771,2,0,P|465:63|441:71,1,50,2|0,0:0|0:0,0:0:0:0:
418,89,65938,2,0,P|393:93|368:96,1,50,2|0,0:0|0:0,0:0:0:0:
319,161,66105,6,0,P|295:150|271:141,1,50,2|0,0:0|0:0,0:0:0:0:
249,123,66272,2,0,P|224:116|199:112,1,50,2|0,0:0|0:0,0:0:0:0:
140,59,66438,6,0,L|130:27,5,33.3333333333333,2|2|2|2|2|2,0:0|0:0|0:0|0:0|0:0|0:0,0:0:0:0:
124,52,66771,2,0,L|114:20,5,33.3333333333333,2|2|2|2|2|2,0:0|0:0|0:0|0:0|0:0|0:0,0:0:0:0:
125,141,67105,6,0,P|80:244|24:341,1,225.000008583069,4|0,1:0|0:0,0:0:0:0:
189,356,67354,2,0,P|151:250|125:141,1,225.000008583069,4|0,1:0|0:0,0:0:0:0:
101,379,67604,5,0,1:0:0:0:
140,59,67938,5,2,0:0:0:0:
138,52,67994,1,2,0:0:0:0:
136,45,68049,1,2,0:0:0:0:
134,38,68105,2,0,P|64:34|47:102,1,150.000005722046,2|0,1:2|0:0,0:0:0:0:
0,342,68438,6,0,P|35:328|71:319,1,75.0000028610231,2|0,1:2|0:0,0:0:0:0:
196,119,68605,1,2,0:0:0:0:
196,119,68688,2,0,P|160:132|124:141,1,75.0000028610231,2|0,0:0|1:0,0:0:0:0:
28,211,68855,1,2,0:0:0:0:
28,211,68938,2,0,P|100:231|171:254,1,150.000005722046,2|0,0:0|1:0,0:0:0:0:
389,384,69271,5,2,0:0:0:0:
398,381,69327,1,2,0:0:0:0:
407,378,69383,1,2,0:0:0:0:
415,375,69438,2,0,P|466:324|452:254,1,150.000005722046,2|0,1:2|0:0,0:0:0:0:
295,13,69771,6,0,P|282:48|270:83,1,75.0000028610231,2|0,1:2|0:0,0:0:0:0:
451,253,69938,1,2,0:0:0:0:
451,253,70021,2,0,P|463:217|475:182,1,75.0000028610231,2|0,0:0|1:0,0:0:0:0:
405,44,70188,1,2,0:0:0:0:
405,44,70271,2,0,P|378:114|355:185,1,150.000005722046,0|0,0:0|1:0,0:0:0:0:
223,384,70605,5,2,0:0:0:0:
220,374,70660,1,2,0:0:0:0:
217,364,70716,1,2,0:0:0:0:
214,354,70771,2,0,P|139:342|65:331,1,150.000005722046,2|0,1:2|0:0,0:0:0:0:
47,101,71105,6,0,P|83:93|118:104,1,75.0000028610231,2|0,1:2|0:0,0:0:0:0:
276,119,71271,1,2,0:0:0:0:
276,119,71355,2,0,P|264:154|237:179,1,75.0000028610231,2|0,0:0|1:0,0:0:0:0:
145,309,71521,1,2,0:0:0:0:
145,309,71604,2,0,P|120:281|111:245,1,75.0000028610231,2|0,0:0|0:0,0:0:0:0:
167,44,71771,6,0,P|191:71|200:107,1,75.0000028610231,2|0,1:2|0:0,0:0:0:0:
264,252,71937,1,2,0:0:0:0:
264,252,72021,2,0,P|227:259|192:248,1,75.0000028610231,2|0,0:0|1:0,0:0:0:0:
37,234,72188,1,2,0:0:0:0:
37,234,72271,2,0,P|48:198|75:173,1,75.0000028610231,2|0,0:0|0:0,0:0:0:0:
78,43,72438,6,0,P|222:82|368:118,1,300,2|0,1:2|0:0,0:0:0:0:
429,65,72771,6,0,P|453:60|477:54,1,50,0|0,1:0|0:0,0:0:0:0:
494,128,72938,2,0,P|470:133|446:140,1,50,0|0,1:0|0:0,0:0:0:0:
334,28,73105,6,0,B|302:108|366:172|398:140|462:204|430:284,1,300.000011444092,4|0,1:0|1:0,0:0:0:0:
287,378,73605,1,2,0:0:0:0:
273,349,73688,1,2,0:0:0:0:
259,320,73771,2,0,P|275:251|345:246,1,150.000005722046,2|0,1:2|0:0,0:0:0:0:
383,384,74105,2,0,P|277:345|169:313,1,225.000008583069,2|0,1:2|0:0,0:0:0:0:
159,298,74438,2,0,P|93:334|21:354,1,150.000005722046,2|0,1:2|0:0,0:0:0:0:
303,188,74771,1,0,1:0:0:0:
117,13,74938,5,2,0:0:0:0:
39,3,75021,1,2,0:0:0:0:
0,72,75105,2,0,P|25:142|37:216,1,150.000005722046,2|0,1:2|0:0,0:0:0:0:
244,361,75438,5,0,1:0:0:0:
235,290,75521,1,0,1:0:0:0:
227,219,75605,1,0,1:0:0:0:
218,149,75688,1,0,1:0:0:0:
271,91,75771,6,0,P|301:96|326:114,4,62.5,4|0|0|0|0,1:0|3:0|3:0|3:0|3:0,0:0:0:0:
382,60,76021,2,0,P|399:85|404:116,4,62.5,4|0|0|0|0,1:0|3:0|3:0|3:0|3:0,0:0:0:0:
317,15,76271,1,8,1:0:0:0:
365,184,76438,6,0,P|367:214|356:244,4,62.5,4|0|0|0|0,1:0|3:0|3:0|3:0|3:0,0:0:0:0:
423,282,76688,2,0,P|402:305|374:318,4,62.5,4|0|0|0|0,1:0|3:0|3:0|3:0|3:0,0:0:0:0:
449,207,76938,1,8,1:0:0:0:
298,297,77105,6,0,P|268:307|237:304,4,62.5,4|0|0|0|0,1:0|3:0|3:0|3:0|3:0,0:0:0:0:
218,378,77355,2,0,P|189:364|170:340,4,62.5,4|0|0|0|0,1:0|3:0|3:0|3:0|3:0,0:0:0:0:
297,384,77605,1,8,1:0:0:0:
33,300,77771,5,0,1:0:0:0:
77,300,77854,1,0,3:0:0:0:
120,285,77937,1,0,3:0:0:0:
154,256,78020,1,0,3:0:0:0:
175,216,78104,5,8,1:2:0:0:
122,217,78187,1,0,3:0:0:0:
69,198,78270,1,0,3:0:0:0:
28,164,78353,1,0,3:0:0:0:
4,115,78438,6,0,B|11:42|93:-3|165:1|165:1|132:25|121:70,1,300.000011444092,4|0,1:0|1:0,0:0:0:0:
307,204,78938,1,2,0:0:0:0:
291,130,79021,1,2,0:0:0:0:
271,60,79105,2,0,P|205:64|213:131,1,150.000005722046,2|0,1:2|0:0,0:0:0:0:
405,240,79438,6,0,P|441:246|479:251,1,75.0000028610231,2|0,1:2|0:0,0:0:0:0:
493,176,79604,2,0,P|456:169|418:164,1,75.0000028610231,2|0,0:0|0:0,0:0:0:0:
67,209,79771,6,0,B|46:138|46:138|134:126|193:211|156:283,1,300.000011444092,2|0,1:2|1:0,0:0:0:0:
369,384,80271,5,2,0:0:0:0:
385,310,80354,1,2,0:0:0:0:
405,240,80438,2,0,P|471:244|463:311,2,150.000005722046,2|0|0,1:2|0:0|1:0,0:0:0:0:
184,238,80938,5,2,0:0:0:0:
184,238,81021,1,2,0:0:0:0:
184,238,81105,2,0,P|141:249|99:261,1,87.500000834465,6|0,1:0|0:0,0:0:0:0:
26,294,81271,1,0,0:0:0:0:
252,166,81438,6,0,P|209:154|167:142,1,87.500000834465,6|0,1:0|0:0,0:0:0:0:
95,110,81604,1,0,0:0:0:0:
209,313,81771,6,0,P|166:324|124:336,1,87.500000834465,6|0,1:0|0:0,0:0:0:0:
52,369,81937,1,0,0:0:0:0:
278,91,82104,6,0,P|235:79|193:67,1,87.500000834465,6|0,1:0|0:0,0:0:0:0:
121,35,82270,1,0,0:0:0:0:
336,274,82438,6,0,P|344:253|331:271,4,62.5,0|0|0|0|0,3:0|3:0|3:0|3:0|3:0,0:0:0:0:
296,383,82771,6,0,P|300:363|308:344,6,41.6666666666667,0|0|0|0|0|0|0,3:0|3:0|3:0|3:0|3:0|3:0|3:0,0:0:0:0:
252,166,83105,2,0,P|267:180|282:196,6,41.6666666666667,0|0|0|0|0|0|0,3:0|3:0|3:0|3:0|3:0|3:0|3:0,0:0:0:0:
463,235,83438,2,0,P|443:241|423:247,6,41.6666666666667,0|0|0|0|0|0|0,3:0|3:0|3:0|3:0|3:0|3:0|3:0,0:0:0:0:
239,283,83771,6,0,B|213:197|279:153|290:178|356:124|321:39,1,279.999991455078,2|0,1:0|3:0,0:0:0:0:
321,39,84771,2,0,P|354:48|388:55,1,69.9999978637696,4|0,3:0|3:0,0:0:0:0:
248,88,85104,2,0,P|178:67|105:51,2,139.999995727539,4|0|4,3:0|3:0|3:0,0:0:0:0:
297,150,85938,2,0,P|303:184|310:218,1,69.9999978637696,0|0,3:0|0:0,0:0:0:0:
407,370,86271,5,2,0:0:0:0:
465,318,86355,1,2,0:0:0:0:
412,259,86438,2,0,P|291:269|225:370,1,250,2|0,3:2|3:0,0:0:0:0:
274,313,86938,1,0,1:0:0:0:
185,254,87105,1,0,1:0:0:0:
319,171,87271,1,2,1:3:0:0:
141,94,87438,1,0,1:0:0:0:
402,12,87604,5,2,1:2:0:0:
402,12,87688,1,2,0:0:0:0:
402,12,87771,1,0,1:0:0:0:
405,40,87854,1,0,1:0:0:0:
410,69,87937,1,0,1:0:0:0:
415,99,88020,1,0,1:0:0:0:
420,128,88104,1,0,1:0:0:0:
424,158,88187,1,0,1:0:0:0:
429,187,88270,1,0,1:0:0:0:
434,217,88354,1,0,1:0:0:0:
439,246,88437,1,0,1:0:0:0:
444,274,88520,1,0,1:0:0:0:
448,304,88604,1,0,1:0:0:0:
453,333,88687,1,0,1:0:0:0:
457,363,88771,5,2,1:2:0:0:
404,384,88854,1,2,1:2:0:0:
351,359,88937,1,2,1:2:0:0:
335,303,89020,1,2,1:2:0:0:
266,263,89104,6,0,P|140:302|12:330,1,262.500002503395,6|0,1:0|0:0,0:0:0:0:
0,332,89437,1,0,0:0:0:0:
205,371,89605,6,0,P|280:342|266:263,1,175.00000166893,4|0,1:0|3:0,0:0:0:0:
192,199,89855,1,0,3:0:0:0:
192,199,89938,1,0,3:0:0:0:
453,114,90105,6,0,P|369:136|282:146,1,175.00000166893,4|0,1:0|3:0,0:0:0:0:
192,199,90355,1,0,3:0:0:0:
192,199,90438,1,0,3:0:0:0:
92,48,90604,6,0,B|106:-5|106:-5|148:108,1,175.00000166893,4|0,1:0|3:0,0:0:0:0:
192,199,90855,1,0,3:0:0:0:
192,199,90938,1,0,3:0:0:0:
5,266,91105,6,0,L|88:239,1,87.500000834465,4|0,1:0|0:0,0:0:0:0:
192,199,91271,1,0,3:0:0:0:
0,125,91438,6,0,L|80:158,1,87.500000834465,4|0,1:0|0:0,0:0:0:0:
297,247,91604,1,0,3:0:0:0:
440,91,91771,6,0,B|408:66|399:16|399:16|374:61|336:74,1,175.00000166893,4|0,1:0|3:0,0:0:0:0:
375,173,92021,1,0,3:0:0:0:
375,173,92105,1,0,3:0:0:0:
293,332,92271,6,0,P|250:341|208:354,1,87.500000834465,4|0,1:0|0:0,0:0:0:0:
271,253,92438,2,0,P|229:266|187:276,1,87.500000834465,0|0,3:0|0:0,0:0:0:0:
132,333,92605,1,0,3:0:0:0:
456,354,92771,6,0,B|532:313|532:313|467:255,1,175.00000166893,4|0,1:0|3:0,0:0:0:0:
375,173,93021,1,0,3:0:0:0:
375,173,93105,1,0,3:0:0:0:
99,219,93271,6,0,P|185:239|271:253,1,175.00000166893,4|0,1:0|3:0,0:0:0:0:
375,173,93521,1,0,3:0:0:0:
375,173,93605,1,0,3:0:0:0:
208,67,93771,6,0,P|129:50|101:125,1,175.00000166893,4|0,1:0|3:0,0:0:0:0:
0,48,94021,1,0,3:0:0:0:
0,48,94104,2,0,P|79:31|107:106,1,175.00000166893,4|0,1:0|0:0,0:0:0:0:
74,316,94438,6,0,P|85:267|98:218,1,100,4|0,1:0|0:0,0:0:0:0:
208,67,94605,5,0,3:0:0:0:
200,60,94688,1,0,3:0:0:0:
193,54,94771,1,0,3:0:0:0:
186,48,94855,1,0,3:0:0:0:
180,42,94938,2,0,P|191:90|204:139,1,100,4|0,1:0|0:0,0:0:0:0:
296,331,95104,5,0,3:0:0:0:
288,338,95187,1,0,3:0:0:0:
281,344,95270,1,0,3:0:0:0:
274,350,95354,1,0,3:0:0:0:
268,356,95437,2,0,P|279:308|292:259,1,100,4|0,1:0|0:0,0:0:0:0:
384,27,95604,5,0,3:0:0:0:
376,20,95687,1,0,3:0:0:0:
369,14,95770,1,0,3:0:0:0:
362,8,95854,1,0,3:0:0:0:
356,2,95937,2,0,P|367:50|380:99,1,100,4|0,1:0|0:0,0:0:0:0:
481,356,96105,5,0,3:0:0:0:
473,362,96188,1,0,3:0:0:0:
466,368,96271,1,0,3:0:0:0:
459,374,96355,1,0,3:0:0:0:
454,383,96438,2,0,P|477:285|500:188,1,200,4|0,1:0|3:0,0:0:0:0:
427,168,96688,1,0,3:0:0:0:
427,168,96771,2,0,P|403:265|380:362,1,200,4|0,1:0|0:0,0:0:0:0:
308,156,97105,6,0,L|213:190,1,100,4|0,1:0|0:0,0:0:0:0:
141,221,97271,2,0,L|93:237,1,50,0|0,1:0|0:0,0:0:0:0:
8,116,97438,6,0,L|102:150,1,100,8|0,1:2|0:0,0:0:0:0:
214,190,97605,2,0,L|261:206,1,50,0|0,1:0|0:0,0:0:0:0:
440,73,97771,6,0,B|459:30|459:30|451:82,1,100,4|0,1:0|0:0,0:0:0:0:
297,317,98021,6,0,B|304:369|304:369|285:326,1,100,4|0,1:0|0:0,0:0:0:0:
147,41,98271,6,0,B|128:-2|128:-2|136:50,1,100,4|0,1:0|0:0,0:0:0:0:
102,150,98438,5,2,0:0:0:0:
173,173,98549,1,2,0:0:0:0:
223,140,98660,1,2,0:0:0:0:
236,92,98771,1,2,0:0:0:0:
266,56,98882,1,2,0:0:0:0:
307,44,98993,1,2,0:0:0:0:
345,59,99104,1,2,0:0:0:0:
365,86,99216,1,2,0:0:0:0:
370,116,99327,1,2,0:0:0:0:
361,141,99438,1,2,0:0:0:0:
341,154,99549,1,2,0:0:0:0:
320,154,99660,1,2,0:0:0:0:
305,142,99771,1,2,0:0:0:0:
74,181,110438,6,0,P|90:254|103:327,1,150.000005722046,4|0,1:0|0:0,0:0:0:0:
1,233,110938,2,0,P|68:238|78:171,1,150.000005722046,2|0,0:0|0:0,0:0:0:0:
16,55,111438,1,2,3:2:0:0:
202,56,111604,5,2,3:2:0:0:
192,60,111688,1,2,3:2:0:0:
182,64,111771,2,0,P|147:77|111:89,1,75.0000028610231,2|0,3:2|0:0,0:0:0:0:
305,230,112104,5,0,3:0:0:0:
305,230,112188,1,0,3:0:0:0:
305,230,112271,2,0,P|313:180|322:131,2,100,2|0|0,3:2|3:0|3:0,0:0:0:0:
335,41,112771,6,0,P|383:24|428:8,1,100,2|0,3:2|3:0,0:0:0:0:
512,69,113021,1,0,3:0:0:0:
512,69,113104,2,0,P|418:93|313:136,1,200,2|2,3:2|3:0,0:0:0:0:
432,253,113604,6,0,P|511:272|484:195,1,200,2|2,3:2|3:0,0:0:0:0:
360,348,114104,1,2,3:2:0:0:
258,263,114271,1,2,3:2:0:0:
258,263,114354,1,2,3:2:0:0:
258,263,114438,1,2,3:2:0:0:
333,167,114604,2,0,L|324:216,2,50,0|0|0,3:0|3:0|3:0,0:0:0:0:
255,353,114938,5,2,3:2:0:0:
226,360,115021,1,2,0:0:0:0:
197,354,115104,1,2,3:2:0:0:
176,332,115187,1,2,0:0:0:0:
167,303,115271,1,2,3:2:0:0:
168,273,115355,1,2,0:0:0:0:
161,244,115439,1,2,3:2:0:0:
139,223,115522,1,2,0:0:0:0:
110,218,115605,1,2,3:2:0:0:
81,224,115688,1,2,0:0:0:0:
60,242,115771,6,0,L|52:278,3,37.5000014305115,4|0|0|0,1:0|0:0|0:0|0:0,0:0:0:0:
30,384,116104,2,0,L|37:347,1,37.5000014305115,8|0,0:0|0:0,0:0:0:0:
153,95,116271,5,2,3:2:0:0:
117,83,116354,1,2,3:2:0:0:
82,95,116437,1,10,3:2:0:0:
63,126,116520,1,2,3:2:0:0:
69,162,116604,1,2,3:2:0:0:
95,188,116687,1,2,3:2:0:0:
131,200,116770,1,10,3:2:0:0:
168,200,116854,1,2,3:2:0:0:
204,189,116937,1,2,3:2:0:0:
236,170,117020,1,2,3:2:0:0:
260,136,117104,6,0,L|270:87,3,50,4|0|0|0,1:0|0:0|0:0|0:0,0:0:0:0:
227,23,117438,2,0,B|209:6|209:6|218:29,1,50,8|0,0:0|0:0,0:0:0:0:
316,278,117604,6,0,L|388:260,1,75.0000028610231,4|0,1:0|0:0,0:0:0:0:
446,207,117771,1,2,3:2:0:0:
450,186,117855,1,2,3:2:0:0:
456,166,117938,1,2,3:2:0:0:
461,145,118021,1,2,3:2:0:0:
465,124,118104,6,0,P|390:55|381:182,1,262.500002503395,8|0,0:0|0:0,1:0:0:0:
465,287,118438,6,0,L|493:306,8,33.3333333333333,2|2|2|2|2|2|2|2|2,1:2|0:0|0:0|0:0|0:0|0:0|0:0|0:0|0:0,0:0:0:0:
407,344,118938,5,2,0:0:0:0:
370,384,119021,1,2,0:0:0:0:
374,347,119104,5,2,0:0:0:0:
338,375,119187,1,2,0:0:0:0:
342,338,119271,5,2,0:0:0:0:
312,355,119354,1,2,0:0:0:0:
317,317,119438,5,2,0:0:0:0:
294,327,119521,1,2,0:0:0:0:
301,289,119604,5,2,0:0:0:0:
290,294,119687,1,2,0:0:0:0:
290,273,119771,6,0,L|296:240,5,33.3333333333333,2|2|2|2|2|2,0:0|0:0|0:0|0:0|0:0|0:0,0:0:0:0:
230,172,120104,2,0,L|227:138,5,33.3333333333333,2|2|2|2|2|2,0:0|0:0|0:0|0:0|0:0|0:0,0:0:0:0:
136,138,120438,6,0,P|155:236|164:335,1,200,6|0,1:0|0:0,0:0:0:0:
296,240,120688,2,0,P|315:141|323:42,1,200,6|0,1:0|0:0,0:0:0:0:
457,132,120938,2,0,P|476:230|485:329,1,200,6|0,1:0|0:0,0:0:0:0:
485,329,121438,6,0,L|436:317,3,50,0|0|0|0,1:0|3:0|3:0|3:0,0:0:0:0:
296,240,121771,2,0,L|284:192,3,50,0|0|0|0,1:0|3:0|3:0|3:0,0:0:0:0:
154,317,122104,5,10,3:2:0:0:
149,328,122187,1,2,3:2:0:0:
145,339,122270,1,2,3:2:0:0:
141,350,122353,1,2,3:2:0:0:
135,362,122438,5,10,3:2:0:0:
181,378,122521,1,2,3:2:0:0:
227,362,122604,1,2,3:2:0:0:
253,320,122687,1,2,3:2:0:0:
246,272,122771,5,10,3:2:0:0:
292,255,122854,1,2,3:2:0:0:
338,271,122937,1,2,3:2:0:0:
364,313,123020,1,2,3:2:0:0:
357,361,123104,5,10,3:2:0:0:
403,377,123187,1,2,3:2:0:0:
449,361,123270,1,2,3:2:0:0:
475,319,123353,1,2,3:2:0:0:
453,241,123438,6,0,B|431:223|405:232|405:232|423:251|453:242,1,100,8|0,0:0|0:0,0:0:0:0:
506,66,123604,5,2,0:0:0:0:
508,72,123660,1,2,0:0:0:0:
510,78,123716,1,2,0:0:0:0:
512,84,123771,2,0,P|425:69|340:49,1,175.00000166893,6|0,1:2|0:0,0:0:0:0:
265,70,124021,2,0,P|237:82|267:77,1,87.500000834465,2|8,0:0|1:0,0:0:0:0:
409,15,124188,1,2,0:0:0:0:
414,28,124271,2,0,P|428:69|441:110,1,87.500000834465,2|0,0:0|0:0,0:0:0:0:
375,258,124438,6,0,P|360:179|281:187,1,175.00000166893,2|0,1:2|0:0,0:0:0:0:
194,214,124688,2,0,P|235:223|274:204,1,87.500000834465,2|8,0:0|1:0,0:0:0:0:
445,115,124854,1,2,0:0:0:0:
445,115,124938,2,0,P|481:193|473:279,1,175.00000166893,2|0,0:0|1:0,0:0:0:0:
236,384,125271,6,0,P|194:370|152:359,1,87.500000834465,2|0,0:2|0:2,0:2:0:0:
23,246,125438,2,0,P|64:259|106:270,1,87.500000834465,10|0,1:2|0:2,0:2:0:0:
277,238,125604,2,0,P|235:223|193:213,1,87.500000834465,2|0,0:2|0:2,0:2:0:0:
16,101,125771,6,0,P|11:76|6:52,1,50,2|0,1:2|0:0,0:0:0:0:
78,19,125938,2,0,P|82:43|88:67,1,50,2|0,0:0|0:0,0:0:0:0:
140,131,126104,6,0,P|186:125|194:79,1,100,8|0,1:2|0:0,0:0:0:0:
270,0,126271,2,0,P|316:5|324:51,1,100,0|0,1:0|0:0,0:0:0:0:
194,214,126438,6,0,P|275:181|359:159,1,175.00000166893,6|0,1:2|0:0,0:0:0:0:
439,166,126688,1,2,0:0:0:0:
439,166,126771,2,0,B|478:186|478:186|433:176,1,87.500000834465,10|0,1:2|0:0,0:0:0:0:
277,130,126938,1,2,0:0:0:0:
497,65,127104,5,2,1:2:0:0:
497,65,127188,2,0,P|456:80|414:93,1,87.500000834465,2|0,0:0|0:0,0:0:0:0:
277,130,127354,2,0,P|318:143|359:158,1,87.500000834465,2|8,0:0|1:2,0:0:0:0:
494,297,127521,1,2,0:0:0:0:
485,321,127604,1,2,0:0:0:0:
464,337,127687,1,2,0:0:0:0:
438,339,127771,6,0,P|354:314|267:300,1,175.00000166893,2|0,1:2|0:0,0:0:0:0:
201,260,128021,1,2,0:0:0:0:
200,260,128104,2,0,P|223:224|265:224,1,87.500000834465,10|0,1:2|0:0,0:0:0:0:
337,352,128271,2,0,P|295:367|256:384,1,87.500000834465,2|0,0:0|0:0,0:0:0:0:
89,384,128438,5,2,1:2:0:0:
89,384,128521,2,0,P|77:297|51:213,1,175.00000166893,2|0,0:0|0:0,0:0:0:0:
197,164,128771,5,10,1:2:0:0:
133,210,128854,1,0,1:2:0:0:
58,189,128937,1,0,1:2:0:0:
28,117,129020,1,0,1:2:0:0:
68,48,129104,6,0,L|104:54,4,37.5000014305115,4|0|0|0|0,1:0|3:0|3:0|3:0|0:0,0:0:0:0:
177,67,129354,2,0,L|213:73,4,37.5000014305115,4|0|0|0|0,1:0|3:0|3:0|3:0|0:0,0:0:0:0:
52,44,129604,1,8,1:0:0:0:
192,214,129771,6,0,L|228:207,4,37.5000014305115,4|0|0|0|0,1:0|3:0|3:0|3:0|0:0,0:0:0:0:
301,195,130021,2,0,L|337:188,4,37.5000014305115,4|0|0|0|0,1:0|3:0|3:0|3:0|0:0,0:0:0:0:
176,218,130271,1,8,1:0:0:0:
300,25,130438,6,0,L|336:31,4,37.5000014305115,4|0|0|0|0,1:0|3:0|3:0|3:0|0:0,0:0:0:0:
409,44,130688,2,0,L|445:50,4,37.5000014305115,4|0|0|0|0,1:0|3:0|3:0|3:0|0:0,0:0:0:0:
284,21,130938,1,8,1:0:0:0:
481,141,131104,5,10,1:2:0:0:
444,140,131187,1,2,3:2:0:0:
413,160,131270,1,2,3:2:0:0:
402,195,131354,1,2,3:2:0:0:
413,231,131438,1,2,1:2:0:0:
358,239,131521,1,2,3:2:0:0:
308,215,131604,1,2,3:2:0:0:
281,167,131688,1,2,3:2:0:0:
286,113,131771,6,0,P|271:183|213:366,1,262.500002503395,2|0,1:0|0:0,0:0:0:0:
206,380,132104,1,8,1:0:0:0:
395,338,132271,2,0,L|443:324,2,50,2|2|2,0:0|0:0|1:2,0:0:0:0:
307,358,132604,1,0,0:0:0:0:
132,284,132771,5,10,1:2:0:0:
91,257,132854,1,2,0:0:0:0:
44,269,132937,1,2,0:0:0:0:
21,312,133021,1,2,0:0:0:0:
37,358,133104,2,0,L|86:348,1,50,2|0,1:2|0:0,0:0:0:0:
201,237,133271,2,0,P|204:199|209:162,1,75.0000028610231,2|0,0:0|0:0,0:0:0:0:
154,96,133438,5,10,1:2:0:0:
154,96,133521,2,0,P|125:135|77:138,1,100,2|0,0:0|0:0,0:0:0:0:
30,57,133688,1,2,0:0:0:0:
30,57,133771,2,0,P|59:18|107:15,1,100,2|0,1:2|0:0,0:0:0:0:
231,83,133938,5,2,0:0:0:0:
240,91,134021,1,2,0:0:0:0:
254,98,134104,1,10,1:2:0:0:
277,103,134187,1,2,0:0:0:0:
322,91,134270,1,2,0:0:0:0:
349,60,134354,1,2,0:0:0:0:
403,4,134438,6,0,B|443:44|505:47|505:47|446:55|413:105,1,225.000008583069,6|0,1:0|0:0,0:0:0:0:
301,213,134771,2,0,B|267:262|209:270|209:270|270:273|311:314,1,225.000008583069,6|0,1:0|0:0,0:0:0:0:
429,306,135104,2,0,B|462:256|520:248|520:248|459:245|418:204,1,225.000008583069,6|0,1:0|0:0,0:0:0:0:
293,109,135438,2,0,B|252:68|190:65|190:65|249:57|282:7,1,225.000008583069,6|0,1:0|0:0,0:0:0:0:
340,167,135771,6,0,L|347:204,6,37.5000014305115,2|0|0|0|0|0|0,3:2|3:0|3:0|3:0|3:0|3:0|3:0,0:0:0:0:
267,180,136104,2,0,L|273:216,6,37.5000014305115,2|0|0|0|0|0|0,3:2|3:0|3:0|3:0|3:0|3:0|3:0,0:0:0:0:
198,111,136438,2,0,L|204:86,9,25.0000009536744,2|0|0|0|0|0|0|0|0|0,3:2|3:0|3:0|3:0|3:0|3:0|3:0|3:0|3:0|3:0,0:0:0:0:
127,95,136771,2,0,L|133:70,9,25.0000009536744,2|0|0|0|0|0|0|0|0|0,3:2|3:0|3:0|3:0|3:0|3:0|3:0|3:0|3:0|3:0,0:0:0:0:
21,212,137104,5,2,3:2:0:0:
77,208,137187,1,2,3:2:0:0:
106,257,137270,1,2,3:2:0:0:
86,302,137354,5,2,3:2:0:0:
114,351,137437,1,2,3:2:0:0:
171,347,137520,1,2,3:2:0:0:
196,300,137604,5,2,3:2:0:0:
228,254,137687,1,2,3:2:0:0:
285,263,137770,1,2,3:2:0:0:
309,305,137854,5,2,3:2:0:0:
364,315,137937,1,2,3:2:0:0:
398,269,138020,1,2,3:2:0:0:
382,219,138104,5,2,3:2:0:0:
375,168,138187,1,2,3:2:0:0:
406,127,138270,1,2,3:2:0:0:
457,120,138354,1,2,3:2:0:0:
498,150,138437,1,2,3:2:0:0:
502,384,138604,6,0,P|493:334|486:285,1,100,4|0,1:0|0:0,0:0:0:0:
279,105,138771,2,0,P|300:203|319:302,1,200,4|0,1:0|0:0,0:0:0:0:
433,24,139104,2,0,P|371:160|319:301,2,300,4|0|0,1:0|1:0|1:0,0:0:0:0:
325,210,139772,5,2,1:2:0:0:
315,213,139855,1,2,3:2:0:0:
303,196,139937,1,2,3:2:0:0:
293,199,140021,1,2,3:2:0:0:
286,220,140105,1,2,3:2:0:0:
276,222,140188,1,2,3:2:0:0:
264,206,140271,1,2,3:2:0:0:
255,208,140354,1,2,3:2:0:0:
247,230,140438,1,2,3:2:0:0:
237,232,140521,1,2,3:2:0:0:
225,215,140604,1,2,3:2:0:0:
216,218,140687,1,2,3:2:0:0:
208,239,140771,1,2,3:2:0:0:
198,242,140854,1,2,3:2:0:0:
186,225,140937,5,2,1:2:0:0:
167,153,141021,1,2,1:2:0:0:
149,77,141104,6,0,B|48:45|48:45|84:131,1,200,4|0,1:0|0:0,0:0:0:0:
208,299,141354,2,0,B|309:331|309:331|272:244,1,200,4|0,1:0|0:0,0:0:0:0:
230,92,141604,2,0,B|335:96|335:96|271:165,1,200,4|0,1:0|0:0,0:0:0:0:
123,290,141854,2,0,B|17:285|17:285|82:217,1,200,4|0,1:0|0:0,0:0:0:0:
167,153,142104,6,0,L|186:225,1,75,4|0,0:1|0:0,0:0:0:0:
208,299,142438,6,0,L|277:326,1,75.0000028610231,2|0,0:0|0:0,0:0:0:0:
463,384,142771,6,0,L|456:359,3,25,8|0|0|0,3:2|3:0|3:0|3:0,0:0:0:0:
277,326,143104,2,0,L|284:296,3,29.9999990844727,8|0|0|0,3:2|3:0|3:0|3:0,0:0:0:0:
492,241,143438,2,0,L|483:207,3,34.9999989318848,8|0|0|0,3:2|3:0|3:0|3:0,0:0:0:0:
305,139,143771,2,0,L|314:100,3,40,8|0|0|0,3:2|3:0|3:0|3:0,0:0:0:0:
464,36,144104,6,0,P|449:70|435:105,1,75,4|0,1:0|0:0,0:0:0:0:
362,298,144438,2,0,P|347:263|333:228,1,75,4|0,1:0|0:0,0:0:0:0:
224,37,144771,2,0,P|209:71|195:106,1,75,4|0,1:0|0:0,0:0:0:0:
342,19,145104,5,4,1:0:0:0:
148,214,145271,1,2,0:3:0:0:
130,221,145354,1,2,0:3:0:0:
105,224,145438,1,2,0:3:0:0:
74,216,145521,1,2,0:3:0:0:
48,190,145604,1,2,0:3:0:0:
43,146,145688,1,2,0:3:0:0:
75,83,145771,6,0,B|96:35|96:35|83:82,1,100,8|0,0:0|0:0,0:0:0:0:
218,277,145938,6,0,P|267:286|316:295,1,100,2|0,0:0|0:0,0:0:0:0:
239,177,146104,2,0,P|288:186|338:196,1,100,2|0,0:0|0:0,0:0:0:0:
391,378,146271,6,0,P|406:330|425:284,1,100,6|0,1:0|0:0,0:0:0:0:
155,221,146438,5,2,3:3:0:0:
155,221,146521,1,2,3:3:0:0:
155,221,146604,2,0,P|139:174|121:128,1,100,6|0,1:0|0:0,0:0:0:0:
471,124,146771,5,2,0:3:0:0:
471,124,146854,1,2,0:3:0:0:
471,124,146938,2,0,P|490:78|513:33,1,100,6|0,1:0|0:0,0:0:0:0:
212,35,147104,5,2,0:3:0:0:
212,35,147188,1,2,0:3:0:0:
212,35,147271,2,0,P|248:127|284:220,1,200,8|0,1:0|0:0,0:0:0:0:
120,127,147604,6,0,P|262:172|406:214,1,300,2|4,1:3|0:1,0:0:0:0:
256,192,148188,12,0,150771,0:0:0:0:
