osu file format v14

[General]
AudioFilename: audio.mp3
AudioLeadIn: 0
PreviewTime: 40005
Countdown: 0
SampleSet: Soft
StackLeniency: 0.7
Mode: 3
LetterboxInBreaks: 0
SpecialStyle: 0
WidescreenStoryboard: 1

[Editor]
Bookmarks: 84975
DistanceSpacing: 0.8
BeatDivisor: 4
GridSize: 32
TimelineZoom: 1.9

[Metadata]
Title:Evanescent Edge
TitleUnicode:Evanescent Edge
Artist:polysha
ArtistUnicode:polysha
Creator:Kim_GodSSI
Version:Hard
Source:
Tags:fa featured artist Piano Electronic instrumental kimgodssi
BeatmapID:3487937
BeatmapSetID:1706967

[Difficulty]
HPDrainRate:7.5
CircleSize:7
OverallDifficulty:7
ApproachRate:5
SliderMultiplier:1.4
SliderTickRate:1

[Events]
//Background and Video events
0,0,"BG.jpg",0,0
//Break Periods
//Storyboard Layer 0 (Background)
//Storyboard Layer 1 (Fail)
//Storyboard Layer 2 (Pass)
//Storyboard Layer 3 (Foreground)
//Storyboard Layer 4 (Overlay)
//Storyboard Sound Samples

[TimingPoints]
1005,375,4,2,1,33,1,0

[HitObjects]
109,192,505,5,0,0:0:0:0:
182,192,755,1,0,0:0:0:0:
329,192,1005,1,0,0:0:0:0:
475,192,1005,1,0,0:0:0:0:
36,192,1005,1,0,0:0:0:0:
109,192,1755,1,0,0:0:0:0:
256,192,1755,1,0,0:0:0:0:
402,192,2505,1,0,0:0:0:0:
256,192,2505,1,0,0:0:0:0:
36,192,2505,1,0,0:0:0:0:
182,192,2755,1,0,0:0:0:0:
329,192,3005,1,0,0:0:0:0:
109,192,3255,1,0,0:0:0:0:
402,192,3255,1,0,0:0:0:0:
256,192,3505,1,0,0:0:0:0:
475,192,3755,1,0,0:0:0:0:
256,192,4005,1,0,0:0:0:0:
36,192,4005,1,0,0:0:0:0:
475,192,4005,1,0,0:0:0:0:
329,192,4255,1,0,0:0:0:0:
182,192,4380,1,0,0:0:0:0:
256,192,4755,1,0,0:0:0:0:
402,192,4755,1,0,0:0:0:0:
109,192,4755,1,0,0:0:0:0:
182,192,5005,1,0,0:0:0:0:
329,192,5130,1,0,0:0:0:0:
36,192,5442,1,0,0:0:0:0:
329,192,5505,1,0,0:0:0:0:
182,192,5505,1,0,0:0:0:0:
475,192,5505,1,0,0:0:0:0:
329,192,5755,1,0,0:0:0:0:
182,192,5921,1,0,0:0:0:0:
329,192,6005,1,0,0:0:0:0:
256,192,6255,1,0,0:0:0:0:
475,192,6255,1,0,0:0:0:0:
402,192,6255,1,0,0:0:0:0:
109,192,7005,1,0,0:0:0:0:
402,192,7005,1,0,0:0:0:0:
256,192,7005,1,0,0:0:0:0:
329,192,7255,1,0,0:0:0:0:
256,192,7505,1,0,0:0:0:0:
182,192,7755,1,0,0:0:0:0:
402,192,7755,1,0,0:0:0:0:
256,192,8005,1,0,0:0:0:0:
109,192,8255,1,0,0:0:0:0:
182,192,8380,1,0,0:0:0:0:
256,192,8505,1,0,0:0:0:0:
402,192,8505,1,0,0:0:0:0:
36,192,8505,1,0,0:0:0:0:
182,192,8692,1,0,0:0:0:0:
329,192,8755,1,0,0:0:0:0:
402,192,8921,1,0,0:0:0:0:
182,192,9005,1,0,0:0:0:0:
36,192,9005,1,0,0:0:0:0:
475,192,9130,1,0,0:0:0:0:
329,192,9130,1,0,0:0:0:0:
182,192,9255,1,0,0:0:0:0:
36,192,9255,1,0,0:0:0:0:
402,192,9380,1,0,0:0:0:0:
329,192,9505,1,0,0:0:0:0:
256,192,9630,1,0,0:0:0:0:
182,192,9755,1,0,0:0:0:0:
329,192,9880,1,0,0:0:0:0:
36,192,10005,1,0,0:0:0:0:
475,192,10005,1,0,0:0:0:0:
182,192,10005,128,0,11505:0:0:0:0:
475,192,11317,1,0,0:0:0:0:
402,192,11411,1,0,0:0:0:0:
109,192,11505,1,0,0:0:0:0:
329,192,11505,1,0,0:0:0:0:
36,192,11505,128,0,13005:0:0:0:0:
402,192,11692,1,0,0:0:0:0:
329,192,11786,1,0,0:0:0:0:
109,192,11880,1,0,0:0:0:0:
256,192,11880,1,0,0:0:0:0:
329,192,12067,1,0,0:0:0:0:
182,192,12255,1,0,0:0:0:0:
402,192,12348,1,0,0:0:0:0:
256,192,12442,1,0,0:0:0:0:
109,192,12630,1,0,0:0:0:0:
402,192,12630,1,0,0:0:0:0:
182,192,12755,1,0,0:0:0:0:
329,192,12880,1,0,0:0:0:0:
109,192,13005,1,0,0:0:0:0:
256,192,13005,1,0,0:0:0:0:
475,192,13005,1,0,0:0:0:0:
182,192,13192,1,0,0:0:0:0:
256,192,13286,1,0,0:0:0:0:
329,192,13380,1,0,0:0:0:0:
475,192,13380,1,0,0:0:0:0:
109,192,13473,1,0,0:0:0:0:
402,192,13567,1,0,0:0:0:0:
329,192,13661,1,0,0:0:0:0:
182,192,13755,1,0,0:0:0:0:
36,192,13755,1,0,0:0:0:0:
402,192,13848,1,0,0:0:0:0:
109,192,13942,1,0,0:0:0:0:
182,192,14036,1,0,0:0:0:0:
256,192,14130,1,0,0:0:0:0:
402,192,14130,1,0,0:0:0:0:
109,192,14223,1,0,0:0:0:0:
329,192,14317,1,0,0:0:0:0:
256,192,14411,1,0,0:0:0:0:
402,192,14505,1,0,0:0:0:0:
182,192,14505,1,0,0:0:0:0:
36,192,14505,1,0,0:0:0:0:
329,192,14692,1,0,0:0:0:0:
182,192,14786,1,0,0:0:0:0:
329,192,14880,1,0,0:0:0:0:
475,192,14880,1,0,0:0:0:0:
109,192,14973,1,0,0:0:0:0:
329,192,15067,1,0,0:0:0:0:
256,192,15161,1,0,0:0:0:0:
182,192,15255,1,0,0:0:0:0:
36,192,15255,1,0,0:0:0:0:
329,192,15348,1,0,0:0:0:0:
182,192,15442,1,0,0:0:0:0:
256,192,15536,1,0,0:0:0:0:
475,192,15630,1,0,0:0:0:0:
329,192,15630,1,0,0:0:0:0:
109,192,15723,1,0,0:0:0:0:
402,192,15817,1,0,0:0:0:0:
256,192,15911,1,0,0:0:0:0:
329,192,16005,1,0,0:0:0:0:
182,192,16005,1,0,0:0:0:0:
36,192,16005,1,0,0:0:0:0:
182,192,16192,1,0,0:0:0:0:
329,192,16286,1,0,0:0:0:0:
109,192,16380,1,0,0:0:0:0:
256,192,16380,1,0,0:0:0:0:
402,192,16473,1,0,0:0:0:0:
182,192,16567,1,0,0:0:0:0:
256,192,16661,1,0,0:0:0:0:
329,192,16755,1,0,0:0:0:0:
475,192,16755,1,0,0:0:0:0:
109,192,16848,1,0,0:0:0:0:
329,192,16942,1,0,0:0:0:0:
256,192,17036,1,0,0:0:0:0:
182,192,17130,1,0,0:0:0:0:
36,192,17130,1,0,0:0:0:0:
402,192,17223,1,0,0:0:0:0:
256,192,17317,1,0,0:0:0:0:
109,192,17411,1,0,0:0:0:0:
402,192,17505,1,0,0:0:0:0:
329,192,17505,1,0,0:0:0:0:
182,192,17505,1,0,0:0:0:0:
256,192,17692,1,0,0:0:0:0:
109,192,17786,1,0,0:0:0:0:
329,192,17880,1,0,0:0:0:0:
475,192,17880,1,0,0:0:0:0:
182,192,17973,1,0,0:0:0:0:
402,192,18067,1,0,0:0:0:0:
329,192,18161,1,0,0:0:0:0:
182,192,18255,1,0,0:0:0:0:
36,192,18255,1,0,0:0:0:0:
402,192,18348,1,0,0:0:0:0:
256,192,18442,1,0,0:0:0:0:
329,192,18536,1,0,0:0:0:0:
109,192,18630,1,0,0:0:0:0:
402,192,18630,1,0,0:0:0:0:
256,192,18723,1,0,0:0:0:0:
329,192,18817,1,0,0:0:0:0:
182,192,18911,1,0,0:0:0:0:
475,192,19005,1,0,0:0:0:0:
329,192,19005,1,0,0:0:0:0:
109,192,19005,1,0,0:0:0:0:
256,192,19192,1,0,0:0:0:0:
402,192,19286,1,0,0:0:0:0:
182,192,19380,1,0,0:0:0:0:
36,192,19380,1,0,0:0:0:0:
329,192,19473,1,0,0:0:0:0:
109,192,19567,1,0,0:0:0:0:
182,192,19661,1,0,0:0:0:0:
329,192,19755,1,0,0:0:0:0:
475,192,19755,1,0,0:0:0:0:
256,192,19848,1,0,0:0:0:0:
109,192,19942,1,0,0:0:0:0:
329,192,20036,1,0,0:0:0:0:
182,192,20130,1,0,0:0:0:0:
36,192,20130,1,0,0:0:0:0:
402,192,20223,1,0,0:0:0:0:
256,192,20317,1,0,0:0:0:0:
109,192,20411,1,0,0:0:0:0:
182,192,20505,1,0,0:0:0:0:
475,192,20505,1,0,0:0:0:0:
329,192,20505,1,0,0:0:0:0:
109,192,20692,1,0,0:0:0:0:
256,192,20786,1,0,0:0:0:0:
36,192,20880,1,0,0:0:0:0:
402,192,20880,1,0,0:0:0:0:
329,192,20973,1,0,0:0:0:0:
182,192,21067,1,0,0:0:0:0:
402,192,21161,1,0,0:0:0:0:
256,192,21255,1,0,0:0:0:0:
36,192,21255,1,0,0:0:0:0:
402,192,21348,1,0,0:0:0:0:
109,192,21442,1,0,0:0:0:0:
256,192,21536,1,0,0:0:0:0:
475,192,21630,1,0,0:0:0:0:
329,192,21630,1,0,0:0:0:0:
109,192,21723,1,0,0:0:0:0:
329,192,21817,1,0,0:0:0:0:
256,192,21911,1,0,0:0:0:0:
402,192,22005,1,0,0:0:0:0:
36,192,22005,1,0,0:0:0:0:
182,192,22005,1,0,0:0:0:0:
109,192,22192,1,0,0:0:0:0:
256,192,22286,1,0,0:0:0:0:
182,192,22380,1,0,0:0:0:0:
402,192,22380,1,0,0:0:0:0:
329,192,22473,1,0,0:0:0:0:
109,192,22567,1,0,0:0:0:0:
182,192,22661,1,0,0:0:0:0:
475,192,22755,1,0,0:0:0:0:
329,192,22755,1,0,0:0:0:0:
256,192,22848,1,0,0:0:0:0:
182,192,22942,1,0,0:0:0:0:
329,192,23036,1,0,0:0:0:0:
182,192,23130,1,0,0:0:0:0:
36,192,23130,1,0,0:0:0:0:
402,192,23317,1,0,0:0:0:0:
182,192,23505,1,0,0:0:0:0:
36,192,23505,1,0,0:0:0:0:
475,192,23505,1,0,0:0:0:0:
329,192,23598,1,0,0:0:0:0:
256,192,23692,1,0,0:0:0:0:
182,192,23786,1,0,0:0:0:0:
109,192,23880,1,0,0:0:0:0:
256,192,23973,1,0,0:0:0:0:
182,192,24067,1,0,0:0:0:0:
109,192,24161,1,0,0:0:0:0:
36,192,24255,1,0,0:0:0:0:
402,192,24348,1,0,0:0:0:0:
329,192,24348,1,0,0:0:0:0:
109,192,24442,1,0,0:0:0:0:
182,192,24442,1,0,0:0:0:0:
109,192,24630,1,0,0:0:0:0:
402,192,24630,1,0,0:0:0:0:
256,192,24630,128,0,25005:0:0:0:0:
182,192,25005,1,0,0:0:0:0:
36,192,25005,1,0,0:0:0:0:
475,192,25005,1,0,0:0:0:0:
329,192,25192,1,0,0:0:0:0:
182,192,25380,1,0,0:0:0:0:
109,192,25380,1,0,0:0:0:0:
402,192,25567,1,0,0:0:0:0:
329,192,25661,1,0,0:0:0:0:
182,192,25755,1,0,0:0:0:0:
109,192,25755,1,0,0:0:0:0:
329,192,25942,1,0,0:0:0:0:
402,192,26036,1,0,0:0:0:0:
182,192,26130,1,0,0:0:0:0:
109,192,26130,1,0,0:0:0:0:
256,192,26317,128,0,26505:0:0:0:0:
329,192,26505,1,0,0:0:0:0:
402,192,26505,1,0,0:0:0:0:
182,192,26692,1,0,0:0:0:0:
329,192,26880,1,0,0:0:0:0:
402,192,26880,1,0,0:0:0:0:
109,192,27067,1,0,0:0:0:0:
182,192,27161,1,0,0:0:0:0:
329,192,27255,1,0,0:0:0:0:
402,192,27255,1,0,0:0:0:0:
256,192,27348,1,0,0:0:0:0:
182,192,27442,1,0,0:0:0:0:
329,192,27536,1,0,0:0:0:0:
109,192,27630,1,0,0:0:0:0:
402,192,27630,1,0,0:0:0:0:
256,192,27630,1,0,0:0:0:0:
36,192,28005,1,0,0:0:0:0:
475,192,28005,1,0,0:0:0:0:
256,192,28005,1,0,0:0:0:0:
182,192,28192,1,0,0:0:0:0:
475,192,28380,1,0,0:0:0:0:
329,192,28380,1,0,0:0:0:0:
109,192,28567,1,0,0:0:0:0:
182,192,28661,1,0,0:0:0:0:
256,192,28755,1,0,0:0:0:0:
402,192,28755,1,0,0:0:0:0:
182,192,28848,1,0,0:0:0:0:
109,192,28942,1,0,0:0:0:0:
402,192,29036,1,0,0:0:0:0:
109,192,29130,1,0,0:0:0:0:
256,192,29130,1,0,0:0:0:0:
329,192,29223,1,0,0:0:0:0:
402,192,29317,1,0,0:0:0:0:
182,192,29317,1,0,0:0:0:0:
256,192,29505,1,0,0:0:0:0:
475,192,29505,1,0,0:0:0:0:
36,192,29505,1,0,0:0:0:0:
182,192,29692,1,0,0:0:0:0:
475,192,29880,1,0,0:0:0:0:
329,192,29880,1,0,0:0:0:0:
109,192,30067,1,0,0:0:0:0:
182,192,30161,1,0,0:0:0:0:
402,192,30255,1,0,0:0:0:0:
256,192,30255,1,0,0:0:0:0:
109,192,30348,1,0,0:0:0:0:
329,192,30442,1,0,0:0:0:0:
182,192,30536,1,0,0:0:0:0:
329,192,30630,1,0,0:0:0:0:
475,192,30630,1,0,0:0:0:0:
256,192,30723,1,0,0:0:0:0:
402,192,30817,1,0,0:0:0:0:
182,192,30911,1,0,0:0:0:0:
109,192,31005,1,0,0:0:0:0:
329,192,31005,1,0,0:0:0:0:
36,192,31005,1,0,0:0:0:0:
329,192,31192,1,0,0:0:0:0:
182,192,31380,1,0,0:0:0:0:
36,192,31380,1,0,0:0:0:0:
402,192,31567,1,0,0:0:0:0:
329,192,31661,1,0,0:0:0:0:
109,192,31755,1,0,0:0:0:0:
256,192,31755,1,0,0:0:0:0:
182,192,31942,1,0,0:0:0:0:
329,192,32036,1,0,0:0:0:0:
182,192,32130,1,0,0:0:0:0:
36,192,32130,1,0,0:0:0:0:
256,192,32223,1,0,0:0:0:0:
329,192,32317,1,0,0:0:0:0:
475,192,32317,1,0,0:0:0:0:
182,192,32505,1,0,0:0:0:0:
402,192,32505,1,0,0:0:0:0:
36,192,32505,1,0,0:0:0:0:
329,192,32692,1,0,0:0:0:0:
182,192,32880,1,0,0:0:0:0:
36,192,32880,1,0,0:0:0:0:
402,192,33067,1,0,0:0:0:0:
329,192,33161,1,0,0:0:0:0:
256,192,33255,1,0,0:0:0:0:
109,192,33255,1,0,0:0:0:0:
402,192,33348,1,0,0:0:0:0:
182,192,33442,1,0,0:0:0:0:
329,192,33536,1,0,0:0:0:0:
36,192,33630,1,0,0:0:0:0:
256,192,33630,1,0,0:0:0:0:
109,192,33630,1,0,0:0:0:0:
402,192,33723,1,0,0:0:0:0:
182,192,33817,1,0,0:0:0:0:
329,192,33911,1,0,0:0:0:0:
109,192,34005,1,0,0:0:0:0:
402,192,34005,1,0,0:0:0:0:
256,192,34005,1,0,0:0:0:0:
256,192,34380,1,0,0:0:0:0:
402,192,34380,1,0,0:0:0:0:
109,192,34567,1,0,0:0:0:0:
182,192,34661,1,0,0:0:0:0:
256,192,34755,1,0,0:0:0:0:
402,192,34755,1,0,0:0:0:0:
329,192,34942,1,0,0:0:0:0:
182,192,35036,1,0,0:0:0:0:
475,192,35130,1,0,0:0:0:0:
329,192,35130,1,0,0:0:0:0:
256,192,35223,1,0,0:0:0:0:
182,192,35317,1,0,0:0:0:0:
36,192,35317,1,0,0:0:0:0:
256,192,35505,1,0,0:0:0:0:
475,192,35505,1,0,0:0:0:0:
36,192,35505,1,0,0:0:0:0:
109,192,35692,1,0,0:0:0:0:
329,192,35880,1,0,0:0:0:0:
182,192,35880,1,0,0:0:0:0:
402,192,36067,1,0,0:0:0:0:
329,192,36161,1,0,0:0:0:0:
109,192,36255,1,0,0:0:0:0:
256,192,36255,1,0,0:0:0:0:
329,192,36348,1,0,0:0:0:0:
402,192,36442,1,0,0:0:0:0:
182,192,36536,1,0,0:0:0:0:
256,192,36630,1,0,0:0:0:0:
402,192,36630,1,0,0:0:0:0:
182,192,36723,1,0,0:0:0:0:
109,192,36817,1,0,0:0:0:0:
256,192,36911,1,0,0:0:0:0:
329,192,37005,1,0,0:0:0:0:
475,192,37005,1,0,0:0:0:0:
109,192,37005,1,0,0:0:0:0:
182,192,37192,1,0,0:0:0:0:
402,192,37380,1,0,0:0:0:0:
256,192,37380,1,0,0:0:0:0:
182,192,37567,1,0,0:0:0:0:
329,192,37661,1,0,0:0:0:0:
109,192,37755,1,0,0:0:0:0:
402,192,37755,1,0,0:0:0:0:
182,192,37942,1,0,0:0:0:0:
402,192,38036,1,0,0:0:0:0:
109,192,38130,1,0,0:0:0:0:
256,192,38130,1,0,0:0:0:0:
329,192,38223,1,0,0:0:0:0:
36,192,38317,1,0,0:0:0:0:
109,192,38380,1,0,0:0:0:0:
182,192,38442,1,0,0:0:0:0:
475,192,38505,1,0,0:0:0:0:
402,192,38505,1,0,0:0:0:0:
329,192,38505,128,0,38786:0:0:0:0:
36,192,38786,1,0,0:0:0:0:
182,192,38786,128,0,38973:0:0:0:0:
256,192,39067,1,0,0:0:0:0:
475,192,39067,1,0,0:0:0:0:
402,192,39067,128,0,39348:0:0:0:0:
256,192,39348,1,0,0:0:0:0:
109,192,39348,128,0,39536:0:0:0:0:
475,192,39630,1,0,0:0:0:0:
329,192,39630,128,0,39817:0:0:0:0:
36,192,39630,1,0,0:0:0:0:
256,192,39817,128,0,40005:0:0:0:0:
109,192,40005,1,0,0:0:0:0:
36,192,40005,1,0,0:0:0:0:
475,192,40005,1,0,0:0:0:0:
402,192,40005,128,0,40192:0:0:0:0:
329,192,40192,1,0,0:0:0:0:
182,192,40286,128,0,40473:0:0:0:0:
36,192,40286,1,0,0:0:0:0:
475,192,40473,128,0,40567:0:0:0:0:
329,192,40567,128,0,40661:0:0:0:0:
109,192,40567,1,0,0:0:0:0:
256,192,40755,1,0,0:0:0:0:
402,192,40755,1,0,0:0:0:0:
109,192,40755,128,0,40942:0:0:0:0:
182,192,40942,1,0,0:0:0:0:
402,192,41036,128,0,41223:0:0:0:0:
256,192,41036,1,0,0:0:0:0:
182,192,41223,128,0,41317:0:0:0:0:
329,192,41317,128,0,41411:0:0:0:0:
475,192,41317,1,0,0:0:0:0:
36,192,41505,1,0,0:0:0:0:
182,192,41505,1,0,0:0:0:0:
402,192,41505,128,0,41692:0:0:0:0:
329,192,41692,1,0,0:0:0:0:
109,192,41786,128,0,41973:0:0:0:0:
256,192,41786,1,0,0:0:0:0:
329,192,41973,128,0,42067:0:0:0:0:
182,192,42067,128,0,42161:0:0:0:0:
36,192,42067,1,0,0:0:0:0:
256,192,42255,1,0,0:0:0:0:
402,192,42255,1,0,0:0:0:0:
475,192,42255,1,0,0:0:0:0:
182,192,42348,1,0,0:0:0:0:
109,192,42442,1,0,0:0:0:0:
329,192,42536,128,0,42630:0:0:0:0:
475,192,42536,1,0,0:0:0:0:
329,192,42723,128,0,42817:0:0:0:0:
475,192,42723,1,0,0:0:0:0:
182,192,42817,128,0,43005:0:0:0:0:
36,192,42817,1,0,0:0:0:0:
475,192,43005,1,0,0:0:0:0:
36,192,43005,1,0,0:0:0:0:
329,192,43005,128,0,43192:0:0:0:0:
109,192,43192,1,0,0:0:0:0:
402,192,43286,128,0,43473:0:0:0:0:
256,192,43286,1,0,0:0:0:0:
182,192,43473,128,0,43567:0:0:0:0:
329,192,43567,128,0,43661:0:0:0:0:
475,192,43567,1,0,0:0:0:0:
402,192,43755,1,0,0:0:0:0:
36,192,43755,1,0,0:0:0:0:
182,192,43755,128,0,43942:0:0:0:0:
329,192,43942,1,0,0:0:0:0:
109,192,44036,128,0,44223:0:0:0:0:
256,192,44036,1,0,0:0:0:0:
329,192,44223,128,0,44317:0:0:0:0:
182,192,44317,128,0,44411:0:0:0:0:
36,192,44317,1,0,0:0:0:0:
475,192,44505,1,0,0:0:0:0:
109,192,44505,1,0,0:0:0:0:
329,192,44505,128,0,44692:0:0:0:0:
182,192,44692,1,0,0:0:0:0:
402,192,44786,128,0,44973:0:0:0:0:
256,192,44786,1,0,0:0:0:0:
109,192,44973,128,0,45067:0:0:0:0:
329,192,45067,128,0,45161:0:0:0:0:
475,192,45067,1,0,0:0:0:0:
182,192,45161,1,0,0:0:0:0:
475,192,45255,1,0,0:0:0:0:
36,192,45255,1,0,0:0:0:0:
256,192,45255,1,0,0:0:0:0:
402,192,45348,1,0,0:0:0:0:
329,192,45442,1,0,0:0:0:0:
109,192,45536,1,0,0:0:0:0:
256,192,45536,128,0,45723:0:0:0:0:
182,192,45723,1,0,0:0:0:0:
36,192,45723,1,0,0:0:0:0:
329,192,45817,1,0,0:0:0:0:
475,192,45817,1,0,0:0:0:0:
256,192,46005,1,0,0:0:0:0:
402,192,46005,1,0,0:0:0:0:
109,192,46005,128,0,46192:0:0:0:0:
182,192,46192,1,0,0:0:0:0:
329,192,46286,128,0,46473:0:0:0:0:
475,192,46286,1,0,0:0:0:0:
36,192,46473,128,0,46567:0:0:0:0:
182,192,46567,128,0,46661:0:0:0:0:
402,192,46567,1,0,0:0:0:0:
475,192,46755,1,0,0:0:0:0:
36,192,46755,1,0,0:0:0:0:
256,192,46755,128,0,46942:0:0:0:0:
329,192,46942,1,0,0:0:0:0:
182,192,47036,128,0,47223:0:0:0:0:
36,192,47036,1,0,0:0:0:0:
329,192,47223,128,0,47317:0:0:0:0:
109,192,47317,128,0,47411:0:0:0:0:
256,192,47317,1,0,0:0:0:0:
36,192,47505,1,0,0:0:0:0:
475,192,47505,1,0,0:0:0:0:
182,192,47505,128,0,47692:0:0:0:0:
109,192,47692,1,0,0:0:0:0:
329,192,47786,128,0,47973:0:0:0:0:
475,192,47786,1,0,0:0:0:0:
182,192,47973,128,0,48067:0:0:0:0:
402,192,48067,128,0,48161:0:0:0:0:
256,192,48067,1,0,0:0:0:0:
402,192,48255,1,0,0:0:0:0:
109,192,48255,1,0,0:0:0:0:
36,192,48255,1,0,0:0:0:0:
182,192,48348,1,0,0:0:0:0:
256,192,48442,1,0,0:0:0:0:
329,192,48536,128,0,48630:0:0:0:0:
475,192,48536,1,0,0:0:0:0:
329,192,48723,128,0,48817:0:0:0:0:
475,192,48723,1,0,0:0:0:0:
182,192,48817,128,0,49005:0:0:0:0:
36,192,48817,1,0,0:0:0:0:
475,192,49005,1,0,0:0:0:0:
36,192,49005,1,0,0:0:0:0:
402,192,49005,128,0,49192:0:0:0:0:
256,192,49192,1,0,0:0:0:0:
182,192,49286,128,0,49473:0:0:0:0:
36,192,49286,1,0,0:0:0:0:
402,192,49473,128,0,49567:0:0:0:0:
256,192,49567,128,0,49661:0:0:0:0:
109,192,49567,1,0,0:0:0:0:
36,192,49755,1,0,0:0:0:0:
475,192,49755,1,0,0:0:0:0:
182,192,49755,128,0,49942:0:0:0:0:
256,192,49942,1,0,0:0:0:0:
329,192,50036,128,0,50223:0:0:0:0:
475,192,50036,1,0,0:0:0:0:
109,192,50223,128,0,50317:0:0:0:0:
256,192,50317,128,0,50411:0:0:0:0:
402,192,50317,1,0,0:0:0:0:
475,192,50505,1,0,0:0:0:0:
36,192,50505,1,0,0:0:0:0:
329,192,50505,1,0,0:0:0:0:
256,192,50598,1,0,0:0:0:0:
182,192,50692,1,0,0:0:0:0:
109,192,50786,1,0,0:0:0:0:
329,192,50786,128,0,50973:0:0:0:0:
402,192,50973,1,0,0:0:0:0:
182,192,51067,128,0,51255:0:0:0:0:
475,192,51255,1,0,0:0:0:0:
402,192,51255,1,0,0:0:0:0:
36,192,51255,1,0,0:0:0:0:
109,192,51348,1,0,0:0:0:0:
256,192,51442,1,0,0:0:0:0:
402,192,51536,128,0,51723:0:0:0:0:
475,192,51536,1,0,0:0:0:0:
109,192,51723,128,0,51817:0:0:0:0:
256,192,51817,128,0,51911:0:0:0:0:
402,192,51817,1,0,0:0:0:0:
36,192,52005,1,0,0:0:0:0:
475,192,52005,1,0,0:0:0:0:
182,192,52005,1,0,0:0:0:0:
329,192,52192,1,0,0:0:0:0:
256,192,52286,1,0,0:0:0:0:
109,192,52380,1,0,0:0:0:0:
402,192,52380,1,0,0:0:0:0:
182,192,52473,1,0,0:0:0:0:
329,192,52567,1,0,0:0:0:0:
182,192,52661,1,0,0:0:0:0:
36,192,52755,1,0,0:0:0:0:
475,192,52755,1,0,0:0:0:0:
256,192,52848,1,0,0:0:0:0:
109,192,52942,1,0,0:0:0:0:
329,192,53036,1,0,0:0:0:0:
402,192,53130,1,0,0:0:0:0:
182,192,53130,1,0,0:0:0:0:
109,192,53223,1,0,0:0:0:0:
329,192,53317,1,0,0:0:0:0:
256,192,53411,1,0,0:0:0:0:
36,192,53505,1,0,0:0:0:0:
329,192,53505,1,0,0:0:0:0:
475,192,53505,1,0,0:0:0:0:
402,192,53692,1,0,0:0:0:0:
182,192,53786,1,0,0:0:0:0:
475,192,53880,1,0,0:0:0:0:
329,192,53880,1,0,0:0:0:0:
256,192,53973,1,0,0:0:0:0:
109,192,54067,1,0,0:0:0:0:
329,192,54161,1,0,0:0:0:0:
475,192,54255,1,0,0:0:0:0:
36,192,54255,1,0,0:0:0:0:
182,192,54255,1,0,0:0:0:0:
402,192,54348,1,0,0:0:0:0:
109,192,54442,1,0,0:0:0:0:
256,192,54536,1,0,0:0:0:0:
329,192,54630,1,0,0:0:0:0:
475,192,54630,1,0,0:0:0:0:
182,192,54723,1,0,0:0:0:0:
109,192,54817,1,0,0:0:0:0:
329,192,54911,1,0,0:0:0:0:
256,192,55005,1,0,0:0:0:0:
475,192,55005,1,0,0:0:0:0:
36,192,55005,1,0,0:0:0:0:
329,192,55192,1,0,0:0:0:0:
109,192,55286,1,0,0:0:0:0:
256,192,55380,1,0,0:0:0:0:
475,192,55380,1,0,0:0:0:0:
182,192,55473,1,0,0:0:0:0:
329,192,55567,1,0,0:0:0:0:
109,192,55661,1,0,0:0:0:0:
256,192,55755,1,0,0:0:0:0:
36,192,55755,1,0,0:0:0:0:
475,192,55755,1,0,0:0:0:0:
402,192,55848,1,0,0:0:0:0:
329,192,55942,1,0,0:0:0:0:
182,192,56036,1,0,0:0:0:0:
109,192,56130,1,0,0:0:0:0:
329,192,56130,1,0,0:0:0:0:
402,192,56223,1,0,0:0:0:0:
182,192,56317,1,0,0:0:0:0:
329,192,56411,1,0,0:0:0:0:
475,192,56505,1,0,0:0:0:0:
36,192,56505,1,0,0:0:0:0:
182,192,56505,1,0,0:0:0:0:
402,192,56692,1,0,0:0:0:0:
256,192,56786,1,0,0:0:0:0:
109,192,56880,1,0,0:0:0:0:
402,192,56880,1,0,0:0:0:0:
182,192,56973,1,0,0:0:0:0:
329,192,57067,1,0,0:0:0:0:
182,192,57161,1,0,0:0:0:0:
329,192,57255,1,0,0:0:0:0:
475,192,57255,1,0,0:0:0:0:
36,192,57255,1,0,0:0:0:0:
256,192,57348,1,0,0:0:0:0:
109,192,57442,1,0,0:0:0:0:
329,192,57536,1,0,0:0:0:0:
402,192,57630,1,0,0:0:0:0:
182,192,57630,1,0,0:0:0:0:
109,192,57723,1,0,0:0:0:0:
329,192,57817,1,0,0:0:0:0:
256,192,57911,1,0,0:0:0:0:
36,192,58005,1,0,0:0:0:0:
402,192,58005,1,0,0:0:0:0:
475,192,58005,1,0,0:0:0:0:
182,192,58192,1,0,0:0:0:0:
402,192,58286,1,0,0:0:0:0:
36,192,58380,1,0,0:0:0:0:
475,192,58380,1,0,0:0:0:0:
256,192,58473,1,0,0:0:0:0:
402,192,58567,1,0,0:0:0:0:
182,192,58661,1,0,0:0:0:0:
329,192,58755,1,0,0:0:0:0:
36,192,58755,1,0,0:0:0:0:
475,192,58755,1,0,0:0:0:0:
256,192,58848,1,0,0:0:0:0:
109,192,58942,1,0,0:0:0:0:
182,192,59036,1,0,0:0:0:0:
475,192,59130,1,0,0:0:0:0:
36,192,59130,1,0,0:0:0:0:
329,192,59223,1,0,0:0:0:0:
182,192,59317,1,0,0:0:0:0:
109,192,59411,1,0,0:0:0:0:
475,192,59505,1,0,0:0:0:0:
256,192,59505,1,0,0:0:0:0:
36,192,59505,1,0,0:0:0:0:
329,192,59692,1,0,0:0:0:0:
402,192,59786,1,0,0:0:0:0:
475,192,59880,1,0,0:0:0:0:
109,192,59880,1,0,0:0:0:0:
182,192,59973,1,0,0:0:0:0:
256,192,60067,1,0,0:0:0:0:
329,192,60161,1,0,0:0:0:0:
402,192,60255,1,0,0:0:0:0:
36,192,60255,1,0,0:0:0:0:
475,192,60255,1,0,0:0:0:0:
182,192,60442,1,0,0:0:0:0:
256,192,60536,1,0,0:0:0:0:
36,192,60630,1,0,0:0:0:0:
329,192,60630,1,0,0:0:0:0:
109,192,60723,1,0,0:0:0:0:
182,192,60817,1,0,0:0:0:0:
256,192,60911,1,0,0:0:0:0:
475,192,61005,1,0,0:0:0:0:
329,192,61005,1,0,0:0:0:0:
402,192,61005,1,0,0:0:0:0:
109,192,61098,1,0,0:0:0:0:
182,192,61192,1,0,0:0:0:0:
256,192,61286,1,0,0:0:0:0:
402,192,61286,1,0,0:0:0:0:
36,192,61380,1,0,0:0:0:0:
109,192,61473,1,0,0:0:0:0:
182,192,61567,1,0,0:0:0:0:
329,192,61567,1,0,0:0:0:0:
475,192,61661,1,0,0:0:0:0:
402,192,61755,1,0,0:0:0:0:
109,192,61848,1,0,0:0:0:0:
256,192,61848,1,0,0:0:0:0:
402,192,61942,1,0,0:0:0:0:
329,192,62036,1,0,0:0:0:0:
182,192,62130,1,0,0:0:0:0:
36,192,62130,1,0,0:0:0:0:
402,192,62223,1,0,0:0:0:0:
256,192,62317,1,0,0:0:0:0:
109,192,62317,1,0,0:0:0:0:
329,192,62411,1,0,0:0:0:0:
475,192,62505,128,0,63255:0:0:0:0:
182,192,62505,1,0,0:0:0:0:
329,192,62692,1,0,0:0:0:0:
36,192,62880,1,0,0:0:0:0:
182,192,62973,1,0,0:0:0:0:
402,192,63067,1,0,0:0:0:0:
329,192,63161,1,0,0:0:0:0:
182,192,63255,1,0,0:0:0:0:
256,192,63348,1,0,0:0:0:0:
329,192,63442,1,0,0:0:0:0:
402,192,63536,1,0,0:0:0:0:
109,192,63630,1,0,0:0:0:0:
182,192,63723,1,0,0:0:0:0:
256,192,63817,1,0,0:0:0:0:
329,192,63911,1,0,0:0:0:0:
182,192,64005,1,0,0:0:0:0:
36,192,64005,1,0,0:0:0:0:
36,192,64567,128,0,64661:0:0:0:0:
182,192,64661,128,0,64755:0:0:0:0:
329,192,64755,128,0,65505:0:0:0:0:
475,192,64755,1,0,0:0:0:0:
402,192,65505,128,0,65786:0:0:0:0:
182,192,65505,1,0,0:0:0:0:
182,192,65786,128,0,66067:0:0:0:0:
36,192,65786,1,0,0:0:0:0:
256,192,66067,128,0,66348:0:0:0:0:
402,192,66067,1,0,0:0:0:0:
329,192,66348,128,0,66630:0:0:0:0:
109,192,66348,1,0,0:0:0:0:
402,192,66630,1,0,0:0:0:0:
329,192,66723,1,0,0:0:0:0:
109,192,66817,1,0,0:0:0:0:
182,192,66911,1,0,0:0:0:0:
256,192,67005,128,0,67380:0:0:0:0:
402,192,67005,1,0,0:0:0:0:
402,192,67380,128,0,67567:0:0:0:0:
475,192,67380,1,0,0:0:0:0:
109,192,67567,128,0,68130:0:0:0:0:
256,192,67567,1,0,0:0:0:0:
329,192,67755,128,0,68130:0:0:0:0:
402,192,68130,128,0,68505:0:0:0:0:
182,192,68130,128,0,68505:0:0:0:0:
475,192,68505,1,0,0:0:0:0:
256,192,68505,1,0,0:0:0:0:
36,192,68505,1,0,0:0:0:0:
182,192,68786,1,0,0:0:0:0:
329,192,68786,1,0,0:0:0:0:
402,192,68786,1,0,0:0:0:0:
475,192,69067,1,0,0:0:0:0:
256,192,69067,128,0,69442:0:0:0:0:
36,192,69067,1,0,0:0:0:0:
402,192,69161,1,0,0:0:0:0:
182,192,69255,1,0,0:0:0:0:
329,192,69348,1,0,0:0:0:0:
402,192,69442,1,0,0:0:0:0:
109,192,69442,1,0,0:0:0:0:
256,192,69630,1,0,0:0:0:0:
475,192,69630,1,0,0:0:0:0:
36,192,69630,1,0,0:0:0:0:
36,192,69817,1,0,0:0:0:0:
109,192,69911,1,0,0:0:0:0:
475,192,70005,128,0,71317:0:0:0:0:
182,192,70005,128,0,70192:0:0:0:0:
329,192,70005,1,0,0:0:0:0:
256,192,70286,128,0,70473:0:0:0:0:
329,192,70567,128,0,70661:0:0:0:0:
256,192,70755,128,0,70848:0:0:0:0:
182,192,70942,128,0,71036:0:0:0:0:
109,192,71130,128,0,71223:0:0:0:0:
402,192,71317,1,0,0:0:0:0:
329,192,71317,128,0,71411:0:0:0:0:
182,192,71317,1,0,0:0:0:0:
36,192,71505,128,0,72630:0:0:0:0:
475,192,71505,128,0,71692:0:0:0:0:
329,192,71786,128,0,71973:0:0:0:0:
402,192,72067,128,0,72255:0:0:0:0:
182,192,72255,1,0,0:0:0:0:
329,192,72348,1,0,0:0:0:0:
256,192,72442,1,0,0:0:0:0:
329,192,72630,1,0,0:0:0:0:
182,192,72630,1,0,0:0:0:0:
402,192,72817,1,0,0:0:0:0:
256,192,72911,1,0,0:0:0:0:
36,192,73005,1,0,0:0:0:0:
329,192,73005,1,0,0:0:0:0:
182,192,73005,128,0,73192:0:0:0:0:
109,192,73286,1,0,0:0:0:0:
256,192,73286,128,0,73473:0:0:0:0:
182,192,73567,1,0,0:0:0:0:
329,192,73567,128,0,73661:0:0:0:0:
256,192,73755,1,0,0:0:0:0:
402,192,73755,128,0,73848:0:0:0:0:
475,192,73942,1,0,0:0:0:0:
329,192,73942,128,0,74036:0:0:0:0:
109,192,73942,1,0,0:0:0:0:
36,192,74130,1,0,0:0:0:0:
182,192,74130,128,0,74223:0:0:0:0:
475,192,74317,1,0,0:0:0:0:
402,192,74317,128,0,74411:0:0:0:0:
256,192,74317,1,0,0:0:0:0:
36,192,74505,1,0,0:0:0:0:
182,192,74505,128,0,74692:0:0:0:0:
475,192,74786,1,0,0:0:0:0:
329,192,74786,128,0,74880:0:0:0:0:
329,192,74973,128,0,75067:0:0:0:0:
182,192,75067,1,0,0:0:0:0:
36,192,75067,128,0,75442:0:0:0:0:
475,192,75067,1,0,0:0:0:0:
402,192,75255,1,0,0:0:0:0:
329,192,75348,1,0,0:0:0:0:
256,192,75442,1,0,0:0:0:0:
182,192,75630,1,0,0:0:0:0:
329,192,75630,1,0,0:0:0:0:
36,192,75817,1,0,0:0:0:0:
475,192,75817,1,0,0:0:0:0:
256,192,75817,1,0,0:0:0:0:
402,192,75911,1,0,0:0:0:0:
329,192,76005,1,0,0:0:0:0:
109,192,76098,1,0,0:0:0:0:
182,192,76192,1,0,0:0:0:0:
329,192,76192,1,0,0:0:0:0:
402,192,76286,1,0,0:0:0:0:
109,192,76380,1,0,0:0:0:0:
402,192,76473,1,0,0:0:0:0:
256,192,76473,1,0,0:0:0:0:
182,192,76661,1,0,0:0:0:0:
475,192,76661,1,0,0:0:0:0:
256,192,76755,1,0,0:0:0:0:
329,192,76848,1,0,0:0:0:0:
402,192,76942,1,0,0:0:0:0:
109,192,76942,1,0,0:0:0:0:
256,192,77036,1,0,0:0:0:0:
182,192,77130,1,0,0:0:0:0:
36,192,77130,1,0,0:0:0:0:
329,192,77317,1,0,0:0:0:0:
475,192,77317,1,0,0:0:0:0:
256,192,77411,1,0,0:0:0:0:
36,192,77505,1,0,0:0:0:0:
109,192,77505,1,0,0:0:0:0:
109,192,77692,1,0,0:0:0:0:
36,192,77692,1,0,0:0:0:0:
182,192,77786,1,0,0:0:0:0:
256,192,77786,1,0,0:0:0:0:
182,192,78067,1,0,0:0:0:0:
109,192,78067,1,0,0:0:0:0:
182,192,78255,1,0,0:0:0:0:
109,192,78255,1,0,0:0:0:0:
256,192,78348,1,0,0:0:0:0:
329,192,78348,1,0,0:0:0:0:
329,192,78630,1,0,0:0:0:0:
256,192,78630,1,0,0:0:0:0:
402,192,78817,1,0,0:0:0:0:
329,192,78817,1,0,0:0:0:0:
475,192,79005,1,0,0:0:0:0:
36,192,79005,1,0,0:0:0:0:
182,192,79005,1,0,0:0:0:0:
402,192,79098,1,0,0:0:0:0:
256,192,79192,1,0,0:0:0:0:
109,192,79286,1,0,0:0:0:0:
329,192,79380,1,0,0:0:0:0:
475,192,79380,1,0,0:0:0:0:
402,192,79567,1,0,0:0:0:0:
329,192,79661,1,0,0:0:0:0:
182,192,79755,1,0,0:0:0:0:
36,192,79755,1,0,0:0:0:0:
475,192,79755,1,0,0:0:0:0:
402,192,79848,1,0,0:0:0:0:
256,192,79942,1,0,0:0:0:0:
109,192,79942,1,0,0:0:0:0:
402,192,80130,1,0,0:0:0:0:
109,192,80130,1,0,0:0:0:0:
182,192,80223,1,0,0:0:0:0:
329,192,80317,1,0,0:0:0:0:
256,192,80411,1,0,0:0:0:0:
182,192,80505,128,0,80786:0:0:0:0:
475,192,80505,1,0,0:0:0:0:
36,192,80505,1,0,0:0:0:0:
329,192,80786,128,0,81067:0:0:0:0:
475,192,80786,1,0,0:0:0:0:
36,192,80786,1,0,0:0:0:0:
182,192,81067,128,0,81255:0:0:0:0:
109,192,81067,1,0,0:0:0:0:
402,192,81067,1,0,0:0:0:0:
256,192,81255,128,0,81630:0:0:0:0:
475,192,81255,1,0,0:0:0:0:
36,192,81255,1,0,0:0:0:0:
402,192,81630,1,0,0:0:0:0:
36,192,81630,1,0,0:0:0:0:
182,192,81630,1,0,0:0:0:0:
256,192,81817,1,0,0:0:0:0:
475,192,82005,1,0,0:0:0:0:
36,192,82005,1,0,0:0:0:0:
329,192,82005,128,0,82098:0:0:0:0:
182,192,82098,1,0,0:0:0:0:
109,192,82192,128,0,82286:0:0:0:0:
402,192,82286,128,0,82380:0:0:0:0:
36,192,82380,1,0,0:0:0:0:
475,192,82380,1,0,0:0:0:0:
256,192,82473,1,0,0:0:0:0:
182,192,82567,128,0,82661:0:0:0:0:
329,192,82661,1,0,0:0:0:0:
402,192,82755,128,0,82848:0:0:0:0:
475,192,82755,1,0,0:0:0:0:
36,192,82755,1,0,0:0:0:0:
109,192,82848,128,0,82942:0:0:0:0:
329,192,82942,1,0,0:0:0:0:
182,192,83036,1,0,0:0:0:0:
256,192,83130,1,0,0:0:0:0:
402,192,83130,128,0,83223:0:0:0:0:
475,192,83130,1,0,0:0:0:0:
182,192,83317,1,0,0:0:0:0:
329,192,83317,128,0,83411:0:0:0:0:
36,192,83505,1,0,0:0:0:0:
475,192,83505,1,0,0:0:0:0:
256,192,83505,128,0,83598:0:0:0:0:
109,192,83598,1,0,0:0:0:0:
402,192,83692,128,0,83786:0:0:0:0:
182,192,83786,128,0,83880:0:0:0:0:
36,192,83880,1,0,0:0:0:0:
475,192,83880,1,0,0:0:0:0:
402,192,83973,1,0,0:0:0:0:
109,192,84067,128,0,84630:0:0:0:0:
329,192,84161,1,0,0:0:0:0:
475,192,84255,1,0,0:0:0:0:
256,192,84348,1,0,0:0:0:0:
402,192,84442,1,0,0:0:0:0:
182,192,84536,1,0,0:0:0:0:
36,192,84630,1,0,0:0:0:0:
475,192,84630,1,0,0:0:0:0:
256,192,84630,128,0,84723:0:0:0:0:
329,192,84817,128,0,84911:0:0:0:0:
109,192,84817,1,0,0:0:0:0:
36,192,85005,1,0,0:0:0:0:
475,192,85005,1,0,0:0:0:0:
256,192,85005,128,0,85098:0:0:0:0:
182,192,85098,1,0,0:0:0:0:
402,192,85192,128,0,85286:0:0:0:0:
109,192,85286,128,0,85380:0:0:0:0:
475,192,85380,1,0,0:0:0:0:
329,192,85380,1,0,0:0:0:0:
182,192,85473,1,0,0:0:0:0:
256,192,85567,128,0,85661:0:0:0:0:
109,192,85661,1,0,0:0:0:0:
329,192,85755,128,0,85848:0:0:0:0:
36,192,85755,1,0,0:0:0:0:
475,192,85755,1,0,0:0:0:0:
182,192,85848,128,0,85942:0:0:0:0:
475,192,85942,1,0,0:0:0:0:
402,192,86036,1,0,0:0:0:0:
109,192,86130,1,0,0:0:0:0:
329,192,86130,128,0,86223:0:0:0:0:
36,192,86130,1,0,0:0:0:0:
182,192,86317,1,0,0:0:0:0:
402,192,86317,128,0,86411:0:0:0:0:
36,192,86505,1,0,0:0:0:0:
256,192,86505,1,0,0:0:0:0:
475,192,86505,128,0,86598:0:0:0:0:
109,192,86598,1,0,0:0:0:0:
182,192,86692,128,0,86786:0:0:0:0:
329,192,86786,128,0,86880:0:0:0:0:
36,192,86880,1,0,0:0:0:0:
475,192,86880,1,0,0:0:0:0:
109,192,86973,1,0,0:0:0:0:
256,192,87067,128,0,87630:0:0:0:0:
475,192,87161,1,0,0:0:0:0:
109,192,87255,1,0,0:0:0:0:
402,192,87348,1,0,0:0:0:0:
36,192,87442,1,0,0:0:0:0:
329,192,87536,1,0,0:0:0:0:
402,192,87630,1,0,0:0:0:0:
109,192,87630,128,0,87723:0:0:0:0:
475,192,87630,1,0,0:0:0:0:
329,192,87817,1,0,0:0:0:0:
182,192,87817,128,0,87911:0:0:0:0:
36,192,88005,1,0,0:0:0:0:
475,192,88005,128,0,88380:0:0:0:0:
256,192,88005,1,0,0:0:0:0:
182,192,88098,1,0,0:0:0:0:
36,192,88192,1,0,0:0:0:0:
109,192,88286,1,0,0:0:0:0:
402,192,88380,128,0,88755:0:0:0:0:
256,192,88380,1,0,0:0:0:0:
329,192,88473,1,0,0:0:0:0:
109,192,88567,1,0,0:0:0:0:
182,192,88661,1,0,0:0:0:0:
329,192,88755,1,0,0:0:0:0:
475,192,88755,128,0,88848:0:0:0:0:
36,192,88755,1,0,0:0:0:0:
256,192,88942,1,0,0:0:0:0:
402,192,88942,128,0,89036:0:0:0:0:
182,192,89130,1,0,0:0:0:0:
329,192,89130,128,0,89223:0:0:0:0:
475,192,89130,1,0,0:0:0:0:
109,192,89317,1,0,0:0:0:0:
256,192,89317,128,0,89411:0:0:0:0:
182,192,89505,128,0,89880:0:0:0:0:
475,192,89505,1,0,0:0:0:0:
36,192,89505,1,0,0:0:0:0:
329,192,89598,1,0,0:0:0:0:
475,192,89692,1,0,0:0:0:0:
256,192,89786,1,0,0:0:0:0:
36,192,89880,1,0,0:0:0:0:
402,192,89880,1,0,0:0:0:0:
402,192,90067,128,0,90442:0:0:0:0:
109,192,90067,1,0,0:0:0:0:
256,192,90161,1,0,0:0:0:0:
182,192,90255,1,0,0:0:0:0:
36,192,90348,1,0,0:0:0:0:
109,192,90442,1,0,0:0:0:0:
256,192,90536,128,0,90723:0:0:0:0:
475,192,90630,1,0,0:0:0:0:
402,192,90723,1,0,0:0:0:0:
109,192,90817,1,0,0:0:0:0:
256,192,90817,1,0,0:0:0:0:
329,192,90911,1,0,0:0:0:0:
182,192,91005,1,0,0:0:0:0:
36,192,91005,1,0,0:0:0:0:
475,192,91005,1,0,0:0:0:0:
256,192,91098,1,0,0:0:0:0:
329,192,91192,1,0,0:0:0:0:
402,192,91380,1,0,0:0:0:0:
475,192,91380,1,0,0:0:0:0:
109,192,91380,1,0,0:0:0:0:
329,192,91473,1,0,0:0:0:0:
182,192,91567,1,0,0:0:0:0:
256,192,91661,1,0,0:0:0:0:
402,192,91755,1,0,0:0:0:0:
36,192,91755,1,0,0:0:0:0:
109,192,91848,1,0,0:0:0:0:
182,192,91942,1,0,0:0:0:0:
402,192,92130,1,0,0:0:0:0:
256,192,92130,1,0,0:0:0:0:
36,192,92130,1,0,0:0:0:0:
329,192,92223,1,0,0:0:0:0:
182,192,92317,1,0,0:0:0:0:
329,192,92411,1,0,0:0:0:0:
36,192,92505,1,0,0:0:0:0:
475,192,92505,1,0,0:0:0:0:
256,192,92505,1,0,0:0:0:0:
109,192,92598,1,0,0:0:0:0:
182,192,92692,1,0,0:0:0:0:
329,192,92692,1,0,0:0:0:0:
256,192,92880,1,0,0:0:0:0:
402,192,92880,1,0,0:0:0:0:
182,192,92973,1,0,0:0:0:0:
109,192,93067,1,0,0:0:0:0:
402,192,93161,1,0,0:0:0:0:
475,192,93161,1,0,0:0:0:0:
329,192,93161,1,0,0:0:0:0:
109,192,93348,1,0,0:0:0:0:
182,192,93348,1,0,0:0:0:0:
36,192,93348,1,0,0:0:0:0:
256,192,93536,1,0,0:0:0:0:
329,192,93536,1,0,0:0:0:0:
402,192,93536,1,0,0:0:0:0:
182,192,93723,1,0,0:0:0:0:
256,192,93723,1,0,0:0:0:0:
109,192,93723,1,0,0:0:0:0:
402,192,94005,1,0,0:0:0:0:
109,192,94005,128,0,94286:0:0:0:0:
256,192,94005,1,0,0:0:0:0:
329,192,94286,1,0,0:0:0:0:
475,192,94286,1,0,0:0:0:0:
402,192,94567,128,0,94848:0:0:0:0:
256,192,94567,1,0,0:0:0:0:
109,192,94567,1,0,0:0:0:0:
182,192,94848,1,0,0:0:0:0:
36,192,94848,1,0,0:0:0:0:
402,192,95130,1,0,0:0:0:0:
329,192,95223,1,0,0:0:0:0:
109,192,95317,1,0,0:0:0:0:
182,192,95411,1,0,0:0:0:0:
256,192,95505,1,0,0:0:0:0:
402,192,95505,1,0,0:0:0:0:
36,192,95505,1,0,0:0:0:0:
182,192,95598,1,0,0:0:0:0:
109,192,95692,1,0,0:0:0:0:
329,192,95786,1,0,0:0:0:0:
475,192,95786,1,0,0:0:0:0:
109,192,95880,1,0,0:0:0:0:
256,192,95973,1,0,0:0:0:0:
36,192,96067,1,0,0:0:0:0:
402,192,96067,1,0,0:0:0:0:
182,192,96161,1,0,0:0:0:0:
475,192,96255,1,0,0:0:0:0:
402,192,96317,1,0,0:0:0:0:
329,192,96380,1,0,0:0:0:0:
36,192,96442,1,0,0:0:0:0:
109,192,96505,1,0,0:0:0:0:
182,192,96567,1,0,0:0:0:0:
475,192,96630,1,0,0:0:0:0:
329,192,96630,1,0,0:0:0:0:
402,192,96817,1,0,0:0:0:0:
256,192,96817,1,0,0:0:0:0:
36,192,97005,1,0,0:0:0:0:
475,192,97005,1,0,0:0:0:0:
182,192,97005,128,0,97098:0:0:0:0:
329,192,97098,1,0,0:0:0:0:
402,192,97192,128,0,97286:0:0:0:0:
182,192,97286,128,0,97380:0:0:0:0:
36,192,97380,1,0,0:0:0:0:
475,192,97380,1,0,0:0:0:0:
109,192,97473,1,0,0:0:0:0:
256,192,97567,128,0,97661:0:0:0:0:
402,192,97661,1,0,0:0:0:0:
109,192,97755,128,0,97848:0:0:0:0:
475,192,97755,1,0,0:0:0:0:
36,192,97755,1,0,0:0:0:0:
329,192,97848,128,0,97942:0:0:0:0:
182,192,97942,1,0,0:0:0:0:
402,192,98036,1,0,0:0:0:0:
256,192,98130,128,0,98223:0:0:0:0:
475,192,98130,1,0,0:0:0:0:
36,192,98130,1,0,0:0:0:0:
329,192,98317,128,0,98411:0:0:0:0:
109,192,98317,1,0,0:0:0:0:
256,192,98505,1,0,0:0:0:0:
36,192,98505,1,0,0:0:0:0:
402,192,98505,128,0,98598:0:0:0:0:
109,192,98598,1,0,0:0:0:0:
182,192,98692,128,0,98786:0:0:0:0:
329,192,98786,128,0,98880:0:0:0:0:
475,192,98880,1,0,0:0:0:0:
36,192,98880,1,0,0:0:0:0:
182,192,98973,1,0,0:0:0:0:
256,192,99067,128,0,99630:0:0:0:0:
402,192,99161,1,0,0:0:0:0:
109,192,99255,1,0,0:0:0:0:
475,192,99348,1,0,0:0:0:0:
36,192,99442,1,0,0:0:0:0:
402,192,99536,1,0,0:0:0:0:
109,192,99630,1,0,0:0:0:0:
475,192,99630,1,0,0:0:0:0:
329,192,99723,1,0,0:0:0:0:
256,192,99817,1,0,0:0:0:0:
182,192,99911,1,0,0:0:0:0:
109,192,100005,1,0,0:0:0:0:
36,192,100005,1,0,0:0:0:0:
475,192,100005,1,0,0:0:0:0:
256,192,100192,1,0,0:0:0:0:
329,192,100286,1,0,0:0:0:0:
402,192,100380,1,0,0:0:0:0:
36,192,100380,1,0,0:0:0:0:
329,192,100473,1,0,0:0:0:0:
256,192,100567,1,0,0:0:0:0:
182,192,100661,1,0,0:0:0:0:
109,192,100755,1,0,0:0:0:0:
475,192,100755,1,0,0:0:0:0:
182,192,100848,1,0,0:0:0:0:
256,192,100942,1,0,0:0:0:0:
36,192,101036,1,0,0:0:0:0:
402,192,101036,1,0,0:0:0:0:
182,192,101130,1,0,0:0:0:0:
329,192,101223,1,0,0:0:0:0:
36,192,101317,1,0,0:0:0:0:
109,192,101317,1,0,0:0:0:0:
182,192,101411,1,0,0:0:0:0:
329,192,101505,1,0,0:0:0:0:
475,192,101505,1,0,0:0:0:0:
402,192,101505,1,0,0:0:0:0:
36,192,101692,1,0,0:0:0:0:
402,192,101786,1,0,0:0:0:0:
256,192,101786,1,0,0:0:0:0:
182,192,101880,1,0,0:0:0:0:
109,192,101973,1,0,0:0:0:0:
475,192,102067,1,0,0:0:0:0:
329,192,102067,1,0,0:0:0:0:
36,192,102161,1,0,0:0:0:0:
182,192,102255,1,0,0:0:0:0:
402,192,102348,1,0,0:0:0:0:
256,192,102348,1,0,0:0:0:0:
36,192,102442,1,0,0:0:0:0:
182,192,102536,1,0,0:0:0:0:
475,192,102630,1,0,0:0:0:0:
329,192,102630,1,0,0:0:0:0:
256,192,102723,1,0,0:0:0:0:
402,192,102817,1,0,0:0:0:0:
109,192,102817,1,0,0:0:0:0:
182,192,102911,1,0,0:0:0:0:
256,192,103005,128,0,103755:0:0:0:0:
475,192,103005,1,0,0:0:0:0:
36,192,103005,1,0,0:0:0:0:
109,192,103192,1,0,0:0:0:0:
402,192,103286,1,0,0:0:0:0:
182,192,103380,1,0,0:0:0:0:
475,192,103473,1,0,0:0:0:0:
109,192,103567,1,0,0:0:0:0:
402,192,103661,1,0,0:0:0:0:
182,192,103755,1,0,0:0:0:0:
36,192,103755,1,0,0:0:0:0:
329,192,103755,1,0,0:0:0:0:
109,192,104036,1,0,0:0:0:0:
256,192,104036,1,0,0:0:0:0:
402,192,104036,1,0,0:0:0:0:
182,192,104317,1,0,0:0:0:0:
329,192,104317,1,0,0:0:0:0:
36,192,104692,1,0,0:0:0:0:
182,192,104692,1,0,0:0:0:0:
329,192,104692,1,0,0:0:0:0:
256,192,104880,1,0,0:0:0:0:
109,192,104880,1,0,0:0:0:0:
402,192,104880,128,0,106005:0:0:0:0:
329,192,104973,1,0,0:0:0:0:
182,192,105067,1,0,0:0:0:0:
256,192,105161,1,0,0:0:0:0:
109,192,105255,1,0,0:0:0:0:
182,192,105348,1,0,0:0:0:0:
329,192,105442,1,0,0:0:0:0:
256,192,105536,1,0,0:0:0:0:
182,192,105630,1,0,0:0:0:0:
109,192,105723,1,0,0:0:0:0:
36,192,105817,1,0,0:0:0:0:
109,192,105911,1,0,0:0:0:0:
182,192,106005,128,0,106755:0:0:0:0:
329,192,106005,1,0,0:0:0:0:
475,192,106755,128,0,107317:0:0:0:0:
329,192,106755,1,0,0:0:0:0:
329,192,107317,1,0,0:0:0:0:
109,192,107411,1,0,0:0:0:0:
182,192,107505,128,0,108255:0:0:0:0:
402,192,107505,1,0,0:0:0:0:
329,192,108255,128,0,109005:0:0:0:0:
36,192,108255,1,0,0:0:0:0:
402,192,109005,128,0,109567:0:0:0:0:
109,192,109005,1,0,0:0:0:0:
256,192,109567,128,0,110130:0:0:0:0:
109,192,109567,1,0,0:0:0:0:
109,192,110130,128,0,110505:0:0:0:0:
402,192,110130,1,0,0:0:0:0:
329,192,110505,128,0,111067:0:0:0:0:
182,192,110505,1,0,0:0:0:0:
109,192,111067,128,0,111630:0:0:0:0:
402,192,111067,1,0,0:0:0:0:
402,192,111630,128,0,112005:0:0:0:0:
256,192,111630,1,0,0:0:0:0:
36,192,112005,1,0,0:0:0:0:
475,192,112005,1,0,0:0:0:0:
256,192,112005,1,0,0:0:0:0:
109,192,112192,1,0,0:0:0:0:
329,192,112192,1,0,0:0:0:0:
182,192,112380,1,0,0:0:0:0:
475,192,112380,1,0,0:0:0:0:
256,192,112473,1,0,0:0:0:0:
402,192,112661,1,0,0:0:0:0:
182,192,112661,1,0,0:0:0:0:
329,192,112942,1,0,0:0:0:0:
109,192,112942,1,0,0:0:0:0:
402,192,113130,1,0,0:0:0:0:
182,192,113130,1,0,0:0:0:0:
256,192,113317,1,0,0:0:0:0:
329,192,113505,1,0,0:0:0:0:
109,192,113505,1,0,0:0:0:0:
475,192,113505,1,0,0:0:0:0:
109,192,113692,1,0,0:0:0:0:
182,192,113786,1,0,0:0:0:0:
182,192,114067,1,0,0:0:0:0:
182,192,114255,1,0,0:0:0:0:
256,192,114348,1,0,0:0:0:0:
182,192,114630,1,0,0:0:0:0:
109,192,114630,1,0,0:0:0:0:
329,192,114817,1,0,0:0:0:0:
402,192,114817,1,0,0:0:0:0:
109,192,115005,128,0,115286:0:0:0:0:
256,192,115005,1,0,0:0:0:0:
402,192,115286,128,0,115567:0:0:0:0:
475,192,115286,1,0,0:0:0:0:
329,192,115567,128,0,115848:0:0:0:0:
182,192,115567,1,0,0:0:0:0:
256,192,115848,128,0,116036:0:0:0:0:
109,192,115848,1,0,0:0:0:0:
182,192,116036,128,0,116130:0:0:0:0:
109,192,116130,128,0,116223:0:0:0:0:
36,192,116317,128,0,116411:0:0:0:0:
182,192,116505,128,0,117067:0:0:0:0:
329,192,116505,1,0,0:0:0:0:
402,192,117067,128,0,117630:0:0:0:0:
109,192,117067,1,0,0:0:0:0:
109,192,117630,1,0,0:0:0:0:
475,192,117630,1,0,0:0:0:0:
182,192,117723,1,0,0:0:0:0:
256,192,117817,1,0,0:0:0:0:
182,192,118005,1,0,0:0:0:0:
329,192,118005,1,0,0:0:0:0:
36,192,118005,1,0,0:0:0:0:
402,192,118286,1,0,0:0:0:0:
475,192,118286,1,0,0:0:0:0:
182,192,118567,1,0,0:0:0:0:
109,192,118567,1,0,0:0:0:0:
402,192,118848,1,0,0:0:0:0:
475,192,118848,1,0,0:0:0:0:
329,192,119130,1,0,0:0:0:0:
256,192,119130,1,0,0:0:0:0:
109,192,119317,1,0,0:0:0:0:
36,192,119317,1,0,0:0:0:0:
182,192,119505,1,0,0:0:0:0:
329,192,119505,1,0,0:0:0:0:
475,192,119505,1,0,0:0:0:0:
109,192,119786,1,0,0:0:0:0:
36,192,119786,1,0,0:0:0:0:
402,192,120067,1,0,0:0:0:0:
475,192,120067,1,0,0:0:0:0:
109,192,120630,1,0,0:0:0:0:
256,192,120630,1,0,0:0:0:0:
182,192,120817,1,0,0:0:0:0:
329,192,120817,1,0,0:0:0:0:
256,192,121005,1,0,0:0:0:0:
402,192,121005,1,0,0:0:0:0:
36,192,121005,1,0,0:0:0:0:
109,192,121286,1,0,0:0:0:0:
182,192,121286,1,0,0:0:0:0:
329,192,121567,1,0,0:0:0:0:
402,192,121567,1,0,0:0:0:0:
109,192,121848,1,0,0:0:0:0:
182,192,121848,1,0,0:0:0:0:
329,192,122130,1,0,0:0:0:0:
256,192,122130,1,0,0:0:0:0:
402,192,122317,1,0,0:0:0:0:
475,192,122317,1,0,0:0:0:0:
329,192,122505,1,0,0:0:0:0:
182,192,122505,1,0,0:0:0:0:
36,192,122505,1,0,0:0:0:0:
109,192,122786,1,0,0:0:0:0:
402,192,122786,1,0,0:0:0:0:
256,192,123067,128,0,124005:0:0:0:0:
109,192,123255,1,0,0:0:0:0:
402,192,123255,1,0,0:0:0:0:
182,192,123630,1,0,0:0:0:0:
329,192,123630,1,0,0:0:0:0:
109,192,124005,1,0,0:0:0:0:
475,192,124005,1,0,0:0:0:0:
36,192,124005,1,0,0:0:0:0:
182,192,124192,1,0,0:0:0:0:
256,192,124286,1,0,0:0:0:0:
402,192,124380,1,0,0:0:0:0:
109,192,124380,1,0,0:0:0:0:
329,192,124473,1,0,0:0:0:0:
256,192,124567,1,0,0:0:0:0:
182,192,124661,1,0,0:0:0:0:
109,192,124755,1,0,0:0:0:0:
475,192,124755,1,0,0:0:0:0:
329,192,124848,1,0,0:0:0:0:
182,192,124942,1,0,0:0:0:0:
402,192,125036,1,0,0:0:0:0:
36,192,125130,1,0,0:0:0:0:
182,192,125130,1,0,0:0:0:0:
402,192,125223,1,0,0:0:0:0:
256,192,125317,1,0,0:0:0:0:
109,192,125411,1,0,0:0:0:0:
329,192,125505,1,0,0:0:0:0:
182,192,125505,1,0,0:0:0:0:
402,192,125630,1,0,0:0:0:0:
475,192,125755,1,0,0:0:0:0:
256,192,125880,1,0,0:0:0:0:
109,192,125880,1,0,0:0:0:0:
329,192,126005,1,0,0:0:0:0:
402,192,126130,1,0,0:0:0:0:
182,192,126255,1,0,0:0:0:0:
36,192,126255,1,0,0:0:0:0:
256,192,126348,1,0,0:0:0:0:
329,192,126442,1,0,0:0:0:0:
109,192,126536,1,0,0:0:0:0:
402,192,126630,1,0,0:0:0:0:
475,192,126630,1,0,0:0:0:0:
329,192,126755,1,0,0:0:0:0:
256,192,126880,1,0,0:0:0:0:
182,192,127005,1,0,0:0:0:0:
36,192,127005,1,0,0:0:0:0:
402,192,127005,1,0,0:0:0:0:
256,192,127192,1,0,0:0:0:0:
402,192,127286,1,0,0:0:0:0:
182,192,127380,1,0,0:0:0:0:
36,192,127380,1,0,0:0:0:0:
109,192,127567,1,0,0:0:0:0:
256,192,127567,1,0,0:0:0:0:
329,192,127755,1,0,0:0:0:0:
475,192,127755,1,0,0:0:0:0:
182,192,127755,1,0,0:0:0:0:
256,192,127942,1,0,0:0:0:0:
109,192,128036,1,0,0:0:0:0:
329,192,128130,1,0,0:0:0:0:
182,192,128130,1,0,0:0:0:0:
402,192,128317,1,0,0:0:0:0:
256,192,128317,128,0,129067:0:0:0:0:
109,192,128317,1,0,0:0:0:0:
475,192,128692,1,0,0:0:0:0:
329,192,128786,1,0,0:0:0:0:
402,192,128880,1,0,0:0:0:0:
182,192,128973,1,0,0:0:0:0:
109,192,129067,1,0,0:0:0:0:
36,192,129067,1,0,0:0:0:0:
329,192,129161,1,0,0:0:0:0:
402,192,129161,1,0,0:0:0:0:
256,192,129348,1,0,0:0:0:0:
329,192,129348,1,0,0:0:0:0:
256,192,129536,1,0,0:0:0:0:
182,192,129536,1,0,0:0:0:0:
402,192,129723,128,0,130005:0:0:0:0:
109,192,129723,1,0,0:0:0:0:
475,192,130005,1,0,0:0:0:0:
36,192,130005,1,0,0:0:0:0:
256,192,130005,128,0,130098:0:0:0:0:
402,192,130192,128,0,130286:0:0:0:0:
182,192,130286,128,0,130380:0:0:0:0:
329,192,130380,1,0,0:0:0:0:
475,192,130380,1,0,0:0:0:0:
109,192,130473,1,0,0:0:0:0:
256,192,130567,128,0,130661:0:0:0:0:
402,192,130661,1,0,0:0:0:0:
182,192,130755,128,0,130848:0:0:0:0:
475,192,130755,1,0,0:0:0:0:
36,192,130755,1,0,0:0:0:0:
329,192,130848,128,0,130942:0:0:0:0:
109,192,130942,1,0,0:0:0:0:
182,192,131036,1,0,0:0:0:0:
402,192,131130,128,0,131223:0:0:0:0:
256,192,131130,1,0,0:0:0:0:
36,192,131130,1,0,0:0:0:0:
329,192,131223,128,0,131317:0:0:0:0:
109,192,131317,128,0,131411:0:0:0:0:
182,192,131411,128,0,131505:0:0:0:0:
475,192,131505,1,0,0:0:0:0:
402,192,131505,128,0,131598:0:0:0:0:
36,192,131505,1,0,0:0:0:0:
256,192,131598,1,0,0:0:0:0:
182,192,131692,128,0,131786:0:0:0:0:
329,192,131786,128,0,131880:0:0:0:0:
36,192,131880,1,0,0:0:0:0:
475,192,131880,1,0,0:0:0:0:
182,192,131973,1,0,0:0:0:0:
256,192,132067,128,0,132630:0:0:0:0:
475,192,132161,1,0,0:0:0:0:
36,192,132255,1,0,0:0:0:0:
402,192,132348,1,0,0:0:0:0:
182,192,132442,1,0,0:0:0:0:
475,192,132536,1,0,0:0:0:0:
329,192,132630,1,0,0:0:0:0:
109,192,132630,128,0,132723:0:0:0:0:
36,192,132630,1,0,0:0:0:0:
182,192,132817,128,0,132911:0:0:0:0:
402,192,132817,1,0,0:0:0:0:
475,192,133005,1,0,0:0:0:0:
36,192,133005,1,0,0:0:0:0:
329,192,133005,128,0,133098:0:0:0:0:
256,192,133098,1,0,0:0:0:0:
109,192,133192,128,0,133286:0:0:0:0:
402,192,133286,128,0,133380:0:0:0:0:
182,192,133380,1,0,0:0:0:0:
36,192,133380,1,0,0:0:0:0:
329,192,133473,1,0,0:0:0:0:
182,192,133567,128,0,133661:0:0:0:0:
256,192,133661,1,0,0:0:0:0:
402,192,133755,128,0,133848:0:0:0:0:
475,192,133755,1,0,0:0:0:0:
36,192,133755,1,0,0:0:0:0:
109,192,133848,128,0,133942:0:0:0:0:
329,192,133942,1,0,0:0:0:0:
182,192,134036,1,0,0:0:0:0:
109,192,134130,1,0,0:0:0:0:
256,192,134130,128,0,134223:0:0:0:0:
36,192,134130,1,0,0:0:0:0:
182,192,134317,1,0,0:0:0:0:
329,192,134317,128,0,134411:0:0:0:0:
475,192,134505,1,0,0:0:0:0:
256,192,134505,128,0,134598:0:0:0:0:
36,192,134505,1,0,0:0:0:0:
402,192,134598,1,0,0:0:0:0:
109,192,134692,128,0,134786:0:0:0:0:
402,192,134786,128,0,134880:0:0:0:0:
36,192,134880,1,0,0:0:0:0:
329,192,134880,1,0,0:0:0:0:
182,192,134973,1,0,0:0:0:0:
256,192,135067,128,0,135630:0:0:0:0:
475,192,135161,1,0,0:0:0:0:
109,192,135255,1,0,0:0:0:0:
402,192,135348,1,0,0:0:0:0:
36,192,135442,1,0,0:0:0:0:
329,192,135536,1,0,0:0:0:0:
109,192,135630,1,0,0:0:0:0:
36,192,135630,1,0,0:0:0:0:
402,192,135723,1,0,0:0:0:0:
329,192,135817,1,0,0:0:0:0:
256,192,135911,1,0,0:0:0:0:
182,192,136005,1,0,0:0:0:0:
36,192,136005,1,0,0:0:0:0:
475,192,136005,1,0,0:0:0:0:
329,192,136192,1,0,0:0:0:0:
182,192,136286,1,0,0:0:0:0:
475,192,136380,1,0,0:0:0:0:
36,192,136380,1,0,0:0:0:0:
256,192,136473,1,0,0:0:0:0:
329,192,136567,1,0,0:0:0:0:
402,192,136661,1,0,0:0:0:0:
256,192,136755,1,0,0:0:0:0:
109,192,136755,1,0,0:0:0:0:
475,192,136848,1,0,0:0:0:0:
329,192,136942,1,0,0:0:0:0:
475,192,137036,1,0,0:0:0:0:
182,192,137036,1,0,0:0:0:0:
36,192,137130,1,0,0:0:0:0:
329,192,137223,1,0,0:0:0:0:
109,192,137317,1,0,0:0:0:0:
256,192,137317,1,0,0:0:0:0:
402,192,137411,1,0,0:0:0:0:
329,192,137505,1,0,0:0:0:0:
182,192,137505,1,0,0:0:0:0:
109,192,137692,1,0,0:0:0:0:
329,192,137786,1,0,0:0:0:0:
475,192,137786,1,0,0:0:0:0:
256,192,137880,1,0,0:0:0:0:
402,192,137973,1,0,0:0:0:0:
182,192,138067,1,0,0:0:0:0:
36,192,138067,1,0,0:0:0:0:
256,192,138161,1,0,0:0:0:0:
109,192,138255,1,0,0:0:0:0:
329,192,138348,1,0,0:0:0:0:
475,192,138348,1,0,0:0:0:0:
256,192,138442,1,0,0:0:0:0:
182,192,138536,1,0,0:0:0:0:
36,192,138630,1,0,0:0:0:0:
475,192,138630,1,0,0:0:0:0:
109,192,138723,1,0,0:0:0:0:
402,192,138817,1,0,0:0:0:0:
182,192,138817,1,0,0:0:0:0:
329,192,138911,1,0,0:0:0:0:
36,192,139005,1,0,0:0:0:0:
109,192,139005,128,0,139755:0:0:0:0:
256,192,139005,1,0,0:0:0:0:
475,192,139098,1,0,0:0:0:0:
402,192,139192,1,0,0:0:0:0:
329,192,139286,1,0,0:0:0:0:
475,192,139380,1,0,0:0:0:0:
402,192,139473,1,0,0:0:0:0:
182,192,139567,1,0,0:0:0:0:
256,192,139661,1,0,0:0:0:0:
36,192,139755,128,0,140036:0:0:0:0:
475,192,139755,1,0,0:0:0:0:
329,192,139755,1,0,0:0:0:0:
182,192,140036,128,0,140317:0:0:0:0:
329,192,140036,1,0,0:0:0:0:
475,192,140036,1,0,0:0:0:0:
402,192,140317,128,0,140692:0:0:0:0:
36,192,140317,1,0,0:0:0:0:
109,192,140692,1,0,0:0:0:0:
256,192,140692,1,0,0:0:0:0:
36,192,140692,1,0,0:0:0:0:
182,192,140880,1,0,0:0:0:0:
329,192,140880,128,0,141255:0:0:0:0:
475,192,140880,1,0,0:0:0:0:
109,192,141067,1,0,0:0:0:0:
182,192,141161,1,0,0:0:0:0:
36,192,141255,1,0,0:0:0:0:
256,192,141348,1,0,0:0:0:0:
109,192,141442,1,0,0:0:0:0:
402,192,141442,1,0,0:0:0:0:
182,192,141442,1,0,0:0:0:0:
109,192,141723,1,0,0:0:0:0:
402,192,141723,1,0,0:0:0:0:
329,192,141723,1,0,0:0:0:0:
475,192,142005,128,0,142286:0:0:0:0:
256,192,142005,1,0,0:0:0:0:
36,192,142005,1,0,0:0:0:0:
402,192,142286,128,0,142567:0:0:0:0:
329,192,142567,128,0,142755:0:0:0:0:
256,192,142755,128,0,142942:0:0:0:0:
182,192,142942,128,0,143130:0:0:0:0:
109,192,143130,128,0,143317:0:0:0:0:
182,192,143317,128,0,143505:0:0:0:0:
256,192,143505,128,0,144067:0:0:0:0:
109,192,144067,1,0,0:0:0:0:
402,192,144161,1,0,0:0:0:0:
329,192,144255,1,0,0:0:0:0:
182,192,144255,1,0,0:0:0:0:
36,192,144255,1,0,0:0:0:0:
256,192,144442,1,0,0:0:0:0:
109,192,144536,1,0,0:0:0:0:
475,192,144723,1,0,0:0:0:0:
329,192,144817,1,0,0:0:0:0:
36,192,145005,1,0,0:0:0:0:
182,192,145005,128,0,146317:0:0:0:0:
402,192,145005,1,0,0:0:0:0:
402,192,146317,1,0,0:0:0:0:
329,192,146411,1,0,0:0:0:0:
256,192,146505,128,0,148005:0:0:0:0:
109,192,146505,1,0,0:0:0:0:
109,192,148005,1,0,0:0:0:0:
402,192,148005,1,0,0:0:0:0:
