osu file format v14

[General]
AudioFilename: audio.mp3
AudioLeadIn: 0
PreviewTime: 78585
Countdown: 0
SampleSet: Soft
StackLeniency: 0.7
Mode: 0
LetterboxInBreaks: 0
WidescreenStoryboard: 0

[Editor]
Bookmarks: 76289,88840
DistanceSpacing: 1.2
BeatDivisor: 4
GridSize: 32
TimelineZoom: 2

[Metadata]
Title:Wondertainer
TitleUnicode:Wondertainer
Artist:polycube
ArtistUnicode:polycube
Creator:Shirasaka Koume
Version:Shirasaka Koume
Source:BMS
Tags:FRENZ2016 BOFU2016 -legendary again- jabc just another beatmap contest number two #2
BeatmapID:1431770
BeatmapSetID:676966

[Difficulty]
HPDrainRate:4.5
CircleSize:3.9
OverallDifficulty:8.5
ApproachRate:9.4
SliderMultiplier:2
SliderTickRate:1

[Events]
//Background and Video events
0,0,"bg.jpg",0,0
//Break Periods
2,78738,87994
//Storyboard Layer 0 (Background)
//Storyboard Layer 1 (Fail)
//Storyboard Layer 2 (Pass)
//Storyboard Layer 3 (Foreground)
//Storyboard Sound Samples

[TimingPoints]
2820,306.122448979592,4,2,0,50,1,0
2820,-200,4,2,0,50,0,0
7335,-100,4,3,0,70,0,0
7717,-76.9230769230769,4,3,0,75,0,0
10013,-133.333333333333,4,3,0,75,0,0
11391,-100,4,3,0,75,0,0
12462,-50,4,3,0,60,0,0
12922,-100,4,3,0,70,0,0
17360,-76.9230769230769,4,3,0,75,0,0
19809,-100,4,3,0,75,0,0
20422,-76.9230769230769,4,3,0,75,0,0
22258,-133.333333333333,4,3,0,75,0,0
22717,-100,4,3,0,70,0,0
24401,-76.9230769230769,4,3,0,70,0,0
24860,-100,4,3,0,70,0,0
26850,-76.9230769230769,4,3,0,70,0,0
27309,-76.9230769230769,4,3,0,75,0,0
29605,-133.333333333333,4,3,0,75,0,0
30983,-100,4,3,0,70,0,0
32054,-133.333333333333,4,3,0,80,0,1
32513,-90.9090909090909,4,3,0,80,0,1
40626,-76.9230769230769,4,3,0,80,0,1
42003,-90.9090909090909,4,3,0,80,0,1
49350,-76.9230769230769,4,3,0,80,0,1
51799,-133.333333333333,4,3,0,80,0,1
52411,-133.333333333333,4,2,0,55,0,0
57615,-100,4,2,0,65,0,0
59146,-133.333333333333,4,2,0,65,0,0
61442,-100,4,3,0,70,0,0
71697,-133.333333333333,4,3,0,70,0,0
88534,-200,4,2,0,50,0,0
93049,-100,4,3,0,70,0,0
93432,-76.9230769230769,4,3,0,75,0,0
95728,-133.333333333333,4,3,0,75,0,0
97105,-100,4,3,0,70,0,0
98177,-133.333333333333,4,3,0,80,0,1
98636,-83.3333333333333,4,3,0,80,0,1
105677,-100,4,3,0,80,0,1
106901,-133.333333333333,4,3,0,80,0,1
108126,-133.333333333333,4,3,0,70,0,0
112717,-166.666666666667,4,3,0,60,0,0
115473,-166.666666666667,4,3,0,70,0,0
117922,-166.666666666667,4,3,0,60,0,0
122820,315.789473684211,4,3,0,60,1,0
122820,-166.666666666667,4,3,0,60,0,0
124083,319.148936170213,4,3,0,60,1,0
124083,-166.666666666667,4,3,0,60,0,0
125359,324.324324324324,4,3,0,50,1,0
125359,-166.666666666667,4,3,0,50,0,0
126007,333.333333333333,4,3,0,50,1,0
126673,365.853658536585,4,3,0,50,1,0
127404,428.571428571429,4,3,0,50,1,0
128261,937.5,4,3,0,50,1,0
131045,794.701986754967,4,2,0,40,1,0
131840,750,4,2,0,40,1,0
131840,-133.333333333333,4,2,0,40,0,0
136340,816.326530612245,4,2,0,40,1,0
137156,845.070422535211,4,2,0,40,1,0
138001,930.232558139535,4,2,0,40,1,0
141721,1057.26872246696,4,2,0,40,1,0
141721,-166.666666666667,4,2,0,40,0,0
143835,1983.47107438017,4,2,0,40,1,0
143835,-166.666666666667,4,2,0,40,0,0
144826,2307.69230769231,4,2,0,40,1,0
145402,2727.27272727273,4,2,0,40,1,0
146083,315.789473684211,4,2,0,60,1,0
146398,300,4,3,0,70,1,0
147298,289.855072463768,4,3,0,70,1,0
148457,283.018867924528,4,1,0,80,1,0
149589,277.777777777778,4,1,0,80,1,0
150144,300,4,1,0,80,1,0
150444,326.086956521739,4,1,0,80,1,0
150770,306.122448979592,4,1,0,80,1,0
151994,478.724677459249,4,1,0,80,1,0
152632,810.810810810811,4,1,0,50,1,0
153442,827.586206896552,4,1,0,70,1,0

[HitObjects]
138,40,2820,6,0,L|146:147,1,100,0|2,0:0|0:0,0:0:0:0:
57,303,3432,1,2,0:0:0:0:
105,227,3585,1,2,0:0:0:0:
192,207,3738,1,2,0:0:0:0:
267,254,3891,2,0,L|263:303,1,50,2|0,0:0|0:0,0:0:0:0:
115,378,4197,5,2,0:0:0:0:
115,378,4274,1,2,0:0:0:0:
115,378,4350,1,2,0:0:0:0:
268,160,4503,2,0,P|321:169|352:204,1,100,2|2,0:0|0:0,0:0:0:0:
502,340,5268,6,0,L|401:328,1,100,0|2,0:0|0:0,0:0:0:0:
268,160,5881,1,2,0:0:0:0:
316,236,6034,1,2,0:0:0:0:
403,256,6187,1,2,0:0:0:0:
478,209,6340,2,0,L|474:159,1,50,2|0,0:0|0:0,0:0:0:0:
333,53,6646,5,2,0:0:0:0:
333,53,6723,1,2,0:0:0:0:
333,53,6799,1,2,0:0:0:0:
75,231,6952,2,0,L|178:223,1,100,2|0,0:0|0:0,0:0:0:0:
248,197,7335,5,8,0:0:0:0:
268,160,7411,2,0,P|276:132|275:102,1,50,2|0,0:0|0:0,0:0:0:0:
176,304,7565,2,0,P|176:328|184:352,1,50,8|0,0:0|0:0,0:0:0:0:
364,275,7717,6,0,L|299:267,1,64.9999970245363,2|0,0:0|0:0,0:0:0:0:
121,136,7871,2,0,L|186:128,1,64.9999970245363,2|0,0:0|0:0,0:0:0:0:
423,206,8024,1,8,0:0:0:0:
266,14,8177,6,0,P|249:45|246:90,1,64.9999970245363,2|0,0:0|0:0,0:0:0:0:
454,156,8330,2,0,P|448:124|432:96,1,64.9999970245363,2|0,0:0|0:0,0:0:0:0:
299,267,8483,1,8,0:0:0:0:
121,136,8636,6,0,L|56:144,1,64.9999970245363,2|0,0:0|0:0,0:0:0:0:
176,304,8789,2,0,L|241:312,1,64.9999970245363,2|0,0:0|0:0,0:0:0:0:
373,149,8942,1,8,0:0:0:0:
102,338,9095,6,0,P|94:307|98:275,1,64.9999970245363,2|0,0:0|0:0,0:0:0:0:
252,97,9248,2,0,P|256:128|247:160,1,64.9999970245363,2|0,0:0|0:0,0:0:0:0:
3,255,9401,1,8,0:0:0:0:
137,49,9554,6,0,L|144:129,1,64.9999970245363,2|0,0:0|0:0,0:0:0:0:
318,280,9707,2,0,L|325:200,1,64.9999970245363,8|0,0:0|0:0,0:0:0:0:
425,12,9860,1,8,0:0:0:0:
341,356,10013,6,2,B|285:374|213:328|240:246|240:246|215:212|177:213|177:213|148:267|166:319|166:319|141:268|93:240|54:252|54:252|114:200|85:136,1,637.500024318696,2|0,0:3|0:0,0:1:0:0:
7,109,11391,6,0,L|157:84,1,150,2|0,0:0|0:0,0:0:0:0:
238,149,11697,1,8,0:0:0:0:
452,200,12003,5,2,0:0:0:0:
188,50,12156,1,2,0:0:0:0:
318,280,12462,6,0,L|380:270,10,50
249,351,12922,6,0,P|276:292|153:254,1,200,0|0,1:0|0:0,0:0:0:0:
100,360,13381,1,8,0:0:0:0:
0,144,13534,2,0,L|105:133,1,100,0|0,1:0|0:0,0:0:0:0:
259,77,13763,1,0,0:0:0:0:
224,44,13840,6,0,L|171:38,1,50,8|0,0:0|0:0,0:0:0:0:
37,219,13993,2,0,L|89:213,1,50
336,143,14146,1,0,1:0:0:0:
267,325,14299,6,0,B|234:223|234:223|282:178,1,150,8|0,0:0|0:0,0:0:0:0:
336,143,14605,1,8,0:0:0:0:
512,289,14758,2,0,P|459:243|377:243,1,150,0|0,1:0|0:0,0:0:0:0:
221,371,15064,6,0,L|419:342,1,200,8|0,0:0|1:0,0:0:0:0:
484,151,15524,1,0,0:0:0:0:
256,34,15677,2,0,L|355:48,1,100,0|8,0:0|0:0,0:0:0:0:
222,235,15983,2,0,P|189:203|181:147,1,100,0|0,1:0|0:0,0:0:0:0:
312,115,16212,1,0,0:0:0:0:
341,145,16289,6,0,L|335:201,1,50,8|0,0:0|0:0,0:0:0:0:
151,334,16442,2,0,L|145:284,1,50
58,76,16595,1,0,1:0:0:0:
259,105,16748,6,0,P|226:37|140:30,1,150,8|0,0:0|0:0,0:0:0:0:
58,76,17054,1,8,0:0:0:0:
335,194,17207,1,0,1:0:0:0:
16,226,17360,5,8,0:0:0:0:
16,226,17437,1,8,0:0:0:0:
16,226,17513,2,0,P|61:205|88:207,1,64.9999970245363,2|0,0:0|0:0,0:0:0:0:
279,313,17666,2,0,P|234:292|207:294,1,64.9999970245363,2|0,0:0|0:0,0:0:0:0:
61,381,17820,1,8,0:0:0:0:
184,113,17973,6,0,L|189:184,1,64.9999970245363,2|0,0:0|0:0,0:0:0:0:
372,308,18126,2,0,L|376:243,1,64.9999970245363,2|0,0:0|0:0,0:0:0:0:
269,54,18279,1,8,0:0:0:0:
132,280,18432,6,0,L|201:272,1,64.9999970245363,2|0,0:0|0:0,0:0:0:0:
456,161,18585,2,0,L|387:153,1,64.9999970245363,2|0,0:0|0:0,0:0:0:0:
183,24,18738,1,8,0:0:0:0:
314,334,18891,6,0,P|333:308|337:276,1,64.9999970245363,2|0,0:0|0:0,0:0:0:0:
269,54,19044,2,0,P|249:79|245:111,1,64.9999970245363,2|0,0:0|0:0,0:0:0:0:
450,270,19197,1,8,0:0:0:0:
195,355,19350,6,0,L|185:284,1,64.9999970245363,2|0,0:0|0:0,0:0:0:0:
75,103,19503,2,0,L|65:167,1,64.9999970245363,8|0,0:0|0:0,0:0:0:0:
0,384,19656,1,8,0:0:0:0:
337,259,19809,6,2,B|321:209|274:179|220:204|220:204|198:176|207:146|207:146|147:167|140:235|182:271,1,350,2|2,0:3|0:1,0:1:0:0:
314,334,20422,6,0,P|354:337|389:322,1,64.9999970245363,2|0,0:0|0:0,0:0:0:0:
478,174,20575,2,0,P|446:165|414:169,1,64.9999970245363,2|0,0:0|0:0,0:0:0:0:
257,274,20728,1,8,0:0:0:0:
356,37,20881,1,8,0:0:0:0:
512,242,21034,1,2,0:0:0:0:
198,64,21187,6,0,B|164:106|164:106|181:183,1,129.999994049073,8|0,0:0|0:0,0:0:0:0:
270,236,21416,1,8,0:0:0:0:
270,236,21493,2,0,P|314:223|337:201,1,64.9999970245363,2|0,0:0|0:0,0:0:0:0:
83,162,21646,1,8,0:0:0:0:
28,312,21799,6,0,L|102:296,1,64.9999970245363,2|0,0:0|0:0,0:0:0:0:
339,177,21952,1,2,0:0:0:0:
298,318,22105,1,2,0:0:0:0:
440,283,22258,6,0,B|464:192|464:192|430:125,1,150.000005722046,8|0,0:0|0:0,0:0:0:0:
232,10,22717,6,0,L|242:121,1,100,0|0,1:0|0:0,0:0:0:0:
309,170,22947,1,0,0:0:0:0:
309,170,23024,2,0,P|345:168|370:153,1,50
155,77,23177,2,0,P|130:76|106:84,1,50,8|0,0:0|0:0,0:0:0:0:
40,250,23330,1,0,1:0:0:0:
139,263,23483,6,0,L|40:250,1,100,0|8,0:0|0:0,0:0:0:0:
192,182,23789,1,0,0:0:0:0:
219,179,23865,1,0,0:0:0:0:
243,189,23942,2,0,P|249:223|243:249,1,50,0|0,1:0|0:0,0:0:0:0:
202,384,24095,6,0,P|197:322|264:341,1,150,8|0,0:0|0:0,0:0:0:0:
459,252,24401,6,0,L|381:242,1,64.9999970245363,8|0,0:0|0:0,0:0:0:0:
251,56,24554,2,0,P|275:129|394:129,1,194.999991073609,0|0,1:0|0:0,0:0:0:0:
424,40,24860,6,0,B|396:25|396:25|406:113,1,100,8|0,0:0|0:0,0:0:0:0:
512,185,25166,2,0,P|447:136|375:143,1,150,0|0,1:0|0:0,0:0:0:0:
321,249,25473,2,0,L|315:194,1,50
227,30,25626,2,0,L|221:79,1,50,8|0,0:0|0:0,0:0:0:0:
137,270,25779,1,0,1:0:0:0:
126,170,25932,6,0,L|137:270,1,100,0|8,0:0|0:0,0:0:0:0:
294,364,26238,1,0,0:0:0:0:
320,369,26314,1,0,0:0:0:0:
344,358,26391,2,0,P|350:325|345:303,1,50,0|0,1:0|0:0,0:0:0:0:
272,146,26544,6,0,P|261:203|318:163,1,150,8|0,0:0|0:0,0:0:0:0:
455,137,26850,6,0,L|376:125,1,64.9999970245363,8|0,0:0|0:0,0:0:0:0:
174,42,27003,2,0,P|239:48|295:7,1,129.999994049073,0|8,1:0|0:0,0:0:0:0:
451,19,27233,1,8,0:0:0:0:
400,0,27309,6,0,P|380:29|374:74,1,64.9999970245363,2|0,0:0|0:0,0:0:0:0:
430,285,27462,2,0,P|450:256|456:211,1,64.9999970245363,2|0,0:0|0:0,0:0:0:0:
285,125,27615,1,8,0:0:0:0:
201,337,27768,6,0,L|280:331,1,64.9999970245363,2|0,0:0|0:0,0:0:0:0:
128,163,27922,2,0,L|63:158,1,64.9999970245363,2|0,0:0|0:0,0:0:0:0:
0,377,28075,1,8,0:0:0:0:
187,108,28228,6,0,P|207:138|210:174,1,64.9999970245363,2|0,0:0|0:0,0:0:0:0:
341,282,28381,2,0,P|346:250|364:223,1,64.9999970245363,2|0,0:0|0:0,0:0:0:0:
456,64,28534,1,8,0:0:0:0:
233,248,28687,6,0,L|164:240,1,64.9999970245363,2|0,0:0|0:0,0:0:0:0:
308,65,28840,2,0,L|377:57,1,64.9999970245363,2|0,0:0|0:0,0:0:0:0:
474,270,28993,1,8,0:0:0:0:
248,10,29146,6,0,P|231:38|229:82,1,64.9999970245363,2|0,0:0|0:0,0:0:0:0:
310,316,29299,2,0,P|327:288|329:244,1,64.9999970245363,8|0,0:0|0:0,0:0:0:0:
146,119,29452,1,8,0:0:0:0:
408,239,29605,6,2,B|399:175|320:146|270:195|270:195|254:261|254:261|238:223|185:216|185:216|196:287|144:342|41:329|10:232|69:177,1,637.500024318696,2|0,0:3|0:0,0:1:0:0:
146,119,30983,6,0,L|0:151,1,150.000005722046,2|0,0:0|0:0,0:0:0:0:
116,235,31289,1,8,0:0:0:0:
224,33,31595,5,2,0:0:0:0:
384,309,31748,1,2,0:0:0:0:
512,166,32054,6,0,B|497:155|497:155|478:158|478:158|462:147|462:147|444:151|444:151|428:141|428:141|410:145|410:145|395:134|395:134|377:138,1,150.000005722046,8|0,0:0|0:0,0:0:0:0:
250,275,32513,6,0,P|288:227|343:221,1,110.000003356934,0|0,1:0|0:0,0:0:0:0:
410,263,32743,1,0,0:0:0:0:
429,278,32820,6,0,L|420:343,1,55.0000016784668,8|0,0:0|0:0,0:0:0:0:
192,379,32973,2,0,L|184:324,1,55.0000016784668
356,139,33126,2,0,P|318:187|263:193,1,110.000003356934,0|0,1:0|0:0,0:0:0:0:
186,147,33355,1,0,0:0:0:0:
193,117,33432,5,8,0:0:0:0:
431,168,33585,1,0,0:0:0:0:
275,22,33738,1,0,1:0:0:0:
155,234,33891,1,0,0:0:0:0:
155,234,33967,1,0,0:0:0:0:
155,234,34044,6,0,L|211:225,1,55.0000016784668,8|0,0:0|0:0,0:0:0:0:
354,111,34197,2,0,L|298:102,1,55.0000016784668
30,184,34350,1,0,1:0:0:0:
172,22,34503,1,0,0:0:0:0:
306,266,34656,6,0,B|350:210|350:210|458:233,1,165.000005035401,8|0,0:0|0:0,0:0:0:0:
332,366,34962,2,0,P|288:372|231:340,1,110.000003356934,0|0,1:0|0:0,0:0:0:0:
173,247,35192,1,0,0:0:0:0:
195,218,35268,6,0,L|257:206,1,55.0000016784668,8|0,0:0|0:0,0:0:0:0:
447,310,35422,2,0,L|385:298,1,55.0000016784668
298,115,35575,1,0,1:0:0:0:
129,352,35728,5,0,0:0:0:0:
129,352,35804,1,0,0:0:0:0:
129,352,35881,2,0,P|107:302|59:279,1,110.000003356934,8|0,0:0|0:0,0:0:0:0:
204,24,36187,2,0,L|218:144,1,110.000003356934,8|0,1:3|0:0,0:0:0:0:
326,289,36493,2,0,B|352:258|355:227|355:227|417:237|459:191,1,165.000005035401,8|0,0:0|0:0,0:0:0:0:
471,122,36799,6,0,L|416:129,1,55.0000016784668,0|0,1:0|0:0,0:0:0:0:
219,215,36952,2,0,L|273:222,1,55.0000016784668
447,310,37105,6,0,P|411:353|346:365,1,110.000003356934,8|0,0:0|0:0,0:0:0:0:
228,304,37335,1,0,0:0:0:0:
210,269,37411,2,0,L|218:214,1,55.0000016784668,0|0,1:0|0:0,0:0:0:0:
416,129,37564,2,0,L|424:183,1,55.0000016784668
274,384,37717,5,8,0:0:0:0:
154,148,37871,1,0,0:0:0:0:
108,151,37947,1,0,0:0:0:0:
70,177,38024,1,0,1:0:0:0:
366,285,38177,5,0,0:0:0:0:
366,285,38253,1,0,0:0:0:0:
366,285,38330,2,0,L|348:176,1,110.000003356934,8|0,0:0|0:0,0:0:0:0:
158,32,38636,1,0,1:0:0:0:
52,285,38789,5,0,0:0:0:0:
52,285,38865,1,0,0:0:0:0:
52,285,38942,2,0,L|70:177,1,110.000003356934,8|0,0:0|0:0,0:0:0:0:
129,81,39172,1,0,0:0:0:0:
164,64,39248,2,0,P|194:69|219:86,1,55.0000016784668,0|0,1:0|0:0,0:0:0:0:
297,193,39401,2,0,P|324:189|348:176,1,55.0000016784668
451,23,39554,6,0,B|429:54|429:54|441:129,1,110.000003356934,8|0,0:0|0:0,0:0:0:0:
503,257,39784,1,0,0:0:0:0:
472,218,39860,2,0,P|445:205|411:207,1,55.0000016784668,0|0,1:0|0:0,0:0:0:0:
389,350,40013,2,0,P|416:363|450:361,1,55.0000016784668
251,112,40166,6,0,L|271:288,1,165.000005035401,8|0,0:0|0:0,0:0:0:0:
204,347,40473,1,0,1:0:0:0:
80,93,40626,6,0,B|125:93|146:56|146:56|179:77|179:77|194:33|250:32,1,194.999991073609,8|0,0:0|0:0,0:0:0:0:
421,135,40932,6,0,P|346:104|361:183,1,194.999991073609,0|0,1:0|0:0,0:0:0:0:
503,257,41238,6,0,B|439:247|439:247|382:279|382:279|317:269,1,194.999991073609,8|0,0:0|0:0,0:0:0:0:
155,154,41544,6,0,B|137:183|137:183|144:212,1,64.9999970245363,8|0,0:0|0:0,0:0:0:0:
221,369,41697,6,0,P|235:290|161:320,1,194.999991073609,0|0,1:0|0:0,0:0:0:0:
7,256,42003,6,0,L|120:236,1,110.000003356934,8|0,0:0|0:0,0:0:0:0:
253,54,42309,2,0,P|216:95|214:154,1,110.000003356934,0|0,1:0|0:0,0:0:0:0:
362,173,42539,1,0,0:0:0:0:
346,133,42615,2,0,L|288:122,1,55.0000016784668
92,43,42768,2,0,L|150:32,1,55.0000016784668,8|0,0:0|0:0,0:0:0:0:
286,221,42922,1,0,1:0:0:0:
449,14,43075,5,0,0:0:0:0:
449,14,43151,1,0,0:0:0:0:
449,14,43228,2,0,B|492:42|492:42|469:172,1,165.000005035401,8|0,0:0|0:0,0:0:0:0:
346,304,43534,2,0,P|378:255|431:240,1,110.000003356934,0|0,1:0|0:0,0:0:0:0:
464,245,43763,1,0,0:0:0:0:
496,269,43840,1,0,0:0:0:0:
251,350,43993,6,0,P|238:324|237:298,1,55.0000016784668,8|0,0:0|0:0,0:0:0:0:
286,141,44146,2,0,B|241:141|216:178|216:178|174:153|132:183,1,165.000005035401,0|0,1:0|0:0,0:0:0:0:
81,242,44452,6,0,L|98:126,1,110.000003356934,8|0,0:0|0:0,0:0:0:0:
271,17,44758,1,0,1:0:0:0:
427,311,44911,5,0,0:0:0:0:
427,311,44988,1,0,0:0:0:0:
427,311,45064,2,0,L|410:195,1,110.000003356934,0|8,0:0|0:0,0:0:0:0:
200,73,45371,2,0,P|136:39|137:112,1,165.000005035401,0|0,1:0|0:0,0:0:0:0:
266,217,45677,6,0,L|148:203,1,110.000003356934,8|0,0:0|0:0,0:0:0:0:
68,237,45906,1,0,0:0:0:0:
42,275,45983,2,0,P|34:302|43:340,1,55.0000016784668,0|0,1:0|0:0,0:0:0:0:
203,379,46136,2,0,P|194:309|159:355,1,165.000005035401,8|0,0:0|0:0,0:0:0:0:
314,293,46442,6,0,L|373:286,1,55.0000016784668,8|0,0:0|0:0,0:0:0:0:
509,137,46595,2,0,L|450:130,1,55.0000016784668,0|0,1:0|0:0,0:0:0:0:
424,344,46748,5,0,0:0:0:0:
424,344,46825,1,0,0:0:0:0:
424,344,46901,2,0,P|448:271|382:211,1,165.000005035401,8|0,0:0|0:0,0:0:0:0:
272,180,47207,6,0,L|390:166,1,110.000003356934,0|0,1:0|0:0,0:0:0:0:
417,162,47436,1,0,0:0:0:0:
453,158,47513,1,0,0:0:0:0:
212,321,47666,6,0,P|196:283|197:255,1,55.0000016784668,8|0,0:0|0:0,0:0:0:0:
145,97,47820,2,0,P|100:163|21:171,1,165.000005035401,0|0,1:0|0:0,0:0:0:0:
71,264,48126,6,0,L|189:250,1,110.000003356934,8|0,0:0|0:0,0:0:0:0:
349,73,48432,2,0,L|231:59,1,110.000003356934,0|0,1:0|0:0,0:0:0:0:
204,55,48661,1,0,0:0:0:0:
168,51,48738,1,0,0:0:0:0:
370,296,48891,6,0,P|402:316|427:320,1,55.0000016784668,8|0,0:0|0:0,0:0:0:0:
487,167,49044,2,0,P|428:139|350:195,1,165.000005035401,0|0,1:0|0:0,0:0:0:0:
286,267,49350,6,0,B|331:216|331:216|304:73,1,194.999991073609,8|0,0:0|0:0,0:0:0:0:
238,29,49656,1,0,1:0:0:0:
12,187,49809,6,0,B|49:210|94:169|94:169|102:204|102:204|125:167|165:159,1,194.999991073609,8|0,0:0|0:0,0:0:0:0:
246,321,50115,6,0,P|240:245|166:298,1,194.999991073609,0|0,1:0|0:0,0:0:0:0:
100,384,50422,6,0,L|293:356,1,194.999991073609,8|0,0:0|0:0,0:0:0:0:
477,274,50728,6,0,B|413:265|413:265|372:213|372:213|308:204,1,194.999991073609,0|0,1:0|0:0,0:0:0:0:
107,131,51034,6,0,P|197:140|266:70,1,194.999991073609,8|0,0:0|0:0,0:0:0:0:
362,7,51340,6,0,L|369:89,1,64.9999970245363,8|0,0:0|0:0,0:0:0:0:
337,291,51493,6,0,P|356:222|268:244,1,194.999991073609,0|0,1:0|0:0,0:0:0:0:
320,370,51799,5,12,0:0:0:0:
177,100,52411,5,2,0:0:0:0:
44,294,53483,2,0,B|107:289|131:233|131:233|180:275|236:245,1,225.000008583069,2|2,0:0|0:0,0:0:0:0:
286,167,54248,1,2,0:0:0:0:
401,299,55320,5,2,0:0:0:0:
398,331,55396,1,2,0:0:0:0:
395,363,55473,1,2,0:0:0:0:
291,84,56085,5,8,0:3:0:0:
359,37,56238,1,2,0:0:0:0:
372,64,56314,1,2,0:0:0:0:
375,95,56391,1,2,0:0:0:0:
366,125,56467,1,2,0:0:0:0:
346,149,56544,1,2,0:0:0:0:
319,164,56620,1,2,0:0:0:0:
288,168,56697,6,0,B|244:169|219:136|219:136|182:98|134:124,1,150.000005722046,8|0,0:3|0:0,0:0:0:0:
18,322,57309,1,0,0:0:0:0:
265,260,57462,1,0,1:0:0:0:
104,360,57615,5,2,0:3:0:0:
104,360,57692,1,2,0:3:0:0:
104,360,57768,1,2,0:3:0:0:
104,360,57845,1,2,0:3:0:0:
104,360,57922,2,0,B|155:382|155:382|128:225,1,200,0|0,1:0|0:0,0:0:0:0:
25,75,58381,6,0,P|61:125|116:130,1,100,8|0,0:3|0:0,0:0:0:0:
225,41,58687,2,8,L|229:4,3,33.3333333333333,8|8|8|8,0:3|0:3|0:3|0:3,0:3:0:0:
188,207,58993,1,0,0:0:0:0:
429,163,59146,6,0,B|418:126|371:107|345:142|345:142|331:200|358:235|358:235|300:209|300:209|245:267|289:342|289:342|308:317|338:321,1,450.000017166138,8|0,0:3|1:0,0:0:0:0:
420,363,60141,1,2,0:3:0:0:
443,367,60217,1,2,0:3:0:0:
466,371,60294,1,2,0:3:0:0:
489,375,60371,6,0,L|475:217,1,150.000005722046,8|0,0:3|0:0,0:0:0:0:
401,49,60830,2,0,P|323:42|276:122,1,150.000005722046,8|0,0:3|0:0,0:0:0:0:
43,297,61442,6,0,B|66:160|66:160|106:224,1,200,8|2,0:3|0:0,0:0:0:0:
98,211,61825,1,2,0:0:0:0:
98,211,61901,1,2,0:0:0:0:
240,359,62054,6,0,L|139:338,1,100,8|2,0:0|0:0,0:0:0:0:
142,338,62284,1,2,0:0:0:0:
142,338,62360,1,2,0:0:0:0:
331,169,62513,6,0,L|230:190,1,100,8|2,0:0|0:0,0:0:0:0:
233,189,62743,1,2,0:0:0:0:
233,189,62820,1,2,0:0:0:0:
456,384,62973,6,0,L|355:363,1,100,8|2,0:0|0:0,0:0:0:0:
358,363,63203,1,2,0:0:0:0:
358,363,63279,1,2,0:0:0:0:
464,91,63432,6,0,P|492:131|493:190,1,100,8|0,0:0|0:0,0:0:0:0:
265,97,63738,2,0,P|268:47|296:7,1,100,2|0,0:0|0:0,0:0:0:0:
512,275,64044,6,0,L|411:254,1,100,8|2,0:0|0:0,0:0:0:0:
414,254,64274,1,2,0:0:0:0:
414,254,64350,1,2,0:0:0:0:
167,117,64503,6,0,L|268:96,1,100,8|2,0:0|0:0,0:0:0:0:
265,96,64733,1,2,0:0:0:0:
265,96,64809,1,2,0:0:0:0:
351,316,64962,6,0,P|322:278|327:221,1,100,8|2,0:0|0:0,0:0:0:0:
323,227,65192,1,2,0:0:0:0:
323,227,65268,1,2,0:0:0:0:
57,145,65422,6,0,P|86:107|81:50,1,100,8|2,0:0|0:0,0:0:0:0:
84,56,65652,1,2,0:0:0:0:
84,56,65728,1,2,0:0:0:0:
133,257,65881,6,0,L|32:236,1,100,8|0,0:0|0:0,0:0:0:0:
265,96,66187,2,0,L|366:75,1,100,2|0,0:0|0:0,0:0:0:0:
501,167,66493,5,8,0:0:0:0:
323,227,66646,1,2,0:0:0:0:
323,227,66723,1,2,0:0:0:0:
323,227,66799,1,2,0:0:0:0:
415,370,66952,5,8,0:0:0:0:
237,310,67105,1,2,0:0:0:0:
237,310,67182,1,2,0:0:0:0:
237,310,67258,1,2,0:0:0:0:
274,127,67411,5,8,0:0:0:0:
96,187,67564,1,2,0:0:0:0:
96,187,67641,1,2,0:0:0:0:
96,187,67717,1,2,0:0:0:0:
335,5,67871,6,0,B|399:45|399:45|371:183,1,200,8|2,0:0|0:0,0:0:0:0:
237,310,68330,2,0,L|217:211,1,100,8|0,0:0|0:0,0:0:0:0:
482,92,68636,1,2,0:0:0:0:
413,245,68789,5,8,0:0:0:0:
217,211,68942,2,0,L|327:231,1,100,2|0,0:0|0:0,0:0:0:0:
275,36,69248,5,8,0:0:0:0:
79,70,69401,2,0,L|189:50,1,100,2|0,0:0|0:0,0:0:0:0:
429,147,69707,5,8,0:0:0:0:
395,343,69860,2,0,L|415:233,1,100,2|0,0:0|0:0,0:0:0:0:
97,169,70166,5,8,0:0:0:0:
131,365,70319,2,0,L|111:255,1,100,2|0,0:0|0:0,0:0:0:0:
365,0,70626,5,8,0:0:0:0:
331,196,70779,2,0,L|351:86,1,100,2|0,0:0|0:0,0:0:0:0:
79,70,71085,2,0,L|96:168,1,100,2|8,0:0|0:0,0:0:0:0:
96,168,71314,1,8,0:0:0:0:
96,168,71391,1,8,0:0:0:0:
205,358,71697,6,2,B|248:347|269:314|269:314|313:252|295:171|226:130|167:206|186:308|329:330|329:330|373:292|373:197|310:140|310:140|362:180|412:171|412:171|444:235|435:300|413:341|413:341|449:307|503:308,1,1050.00004005432,2|2,0:3|0:1,0:1:0:0:
489,59,74146,5,2,0:1:0:0:
489,59,74452,2,2,L|502:184,2,112.500004291535,2|2|2,0:1|0:1|0:1,0:1:0:0:
409,11,74988,2,2,P|382:11|347:35,8,37.5000014305115,2|2|2|2|2|2|2|2|2,0:1|0:1|0:1|0:1|0:1|0:1|0:1|0:1|0:1,0:1:0:0:
288,105,75677,2,2,L|206:96,3,75.0000028610231,2|2|2|2,0:1|0:1|0:1|0:1,0:1:0:0:
98,264,88534,6,0,L|200:252,1,100,0|2,0:0|0:0,0:0:0:0:
355,149,89146,1,2,0:0:0:0:
269,175,89299,1,2,0:0:0:0:
189,135,89452,1,2,0:0:0:0:
162,51,89605,2,0,L|171:0,1,50,2|0,0:0|0:0,0:0:0:0:
48,178,89911,5,2,0:0:0:0:
48,178,89988,1,2,0:0:0:0:
48,178,90064,1,2,0:0:0:0:
195,348,90217,2,0,P|244:345|281:312,1,100,2|2,0:0|0:0,0:0:0:0:
358,51,90983,6,0,L|365:155,1,100,0|2,0:0|0:0,0:0:0:0:
509,264,91595,1,2,0:0:0:0:
431,218,91748,1,2,0:0:0:0:
343,240,91901,1,2,0:0:0:0:
296,317,92054,2,0,L|299:369,1,50,2|2,0:0|0:0,0:0:0:0:
475,384,92360,5,2,0:0:0:0:
475,384,92437,1,2,0:0:0:0:
475,384,92513,1,2,0:0:0:0:
277,166,92666,2,0,L|173:181,1,100,2|0,0:0|0:0,0:0:0:0:
61,224,93049,5,8,0:0:0:0:
85,256,93126,2,0,P|114:270|144:270,1,50,2|0,0:0|0:0,0:0:0:0:
229,77,93279,2,0,P|204:80|182:92,1,50,8|0,0:0|0:0,0:0:0:0:
22,345,93432,6,0,L|88:338,1,64.9999970245363,2|0,0:0|0:0,0:0:0:0:
327,252,93585,2,0,L|261:245,1,64.9999970245363,2|0,0:0|0:0,0:0:0:0:
77,107,93738,1,8,0:0:0:0:
229,383,93891,6,0,P|242:349|243:318,1,64.9999970245363,2|0,0:0|0:0,0:0:0:0:
330,89,94044,2,0,P|332:121|344:151,1,64.9999970245363,2|0,0:0|0:0,0:0:0:0:
469,297,94197,1,8,0:0:0:0:
185,182,94350,6,0,L|251:175,1,64.9999970245363,2|0,0:0|0:0,0:0:0:0:
504,52,94503,2,0,L|438:59,1,64.9999970245363,2|0,0:0|0:0,0:0:0:0:
340,286,94656,1,8,0:0:0:0:
188,38,94809,6,0,P|173:71|172:103,1,64.9999970245363,2|0,0:0|0:0,0:0:0:0:
428,230,94962,2,0,P|443:197|444:165,1,64.9999970245363,2|0,0:0|0:0,0:0:0:0:
291,0,95115,1,8,0:0:0:0:
37,261,95268,6,0,L|103:254,1,64.9999970245363,2|0,0:0|0:0,0:0:0:0:
381,131,95422,2,0,L|315:124,1,64.9999970245363,8|0,0:0|0:0,0:0:0:0:
117,6,95575,1,8,0:0:0:0:
357,366,95728,6,2,B|408:331|396:263|326:237|272:264|276:333|276:333|249:369|205:357|205:357|186:249|286:195|286:195|236:200|197:184|184:121,1,637.500024318696,2|2,0:3|0:1,0:1:0:0:
268,67,97105,6,0,L|122:104,1,150,2|0,0:0|0:0,0:0:0:0:
58,172,97411,1,8,0:0:0:0:
457,229,97717,5,2,0:0:0:0:
166,16,97871,1,2,0:0:0:0:
17,312,98177,6,0,B|32:301|32:301|51:304|51:304|67:293|67:293|85:297|85:297|101:287|101:287|119:291|119:291|134:280|134:280|152:284,1,150.000005722046,8|0,0:0|0:0,0:0:0:0:
322,114,98636,6,0,B|313:165|313:165|321:183|321:183|312:234,1,119.999996337891,0|0,1:0|0:0,0:0:0:0:
398,305,98865,1,0,0:0:0:0:
432,282,98942,6,0,L|421:220,1,59.9999981689454,8|0,0:0|0:0,0:0:0:0:
224,139,99095,2,0,L|213:198,1,59.9999981689454
324,362,99248,1,0,1:0:0:0:
493,127,99401,1,0,0:0:0:0:
460,131,99478,1,0,0:0:0:0:
427,135,99554,6,0,L|416:75,1,59.9999981689454,8|0,0:0|0:0,0:0:0:0:
163,263,99707,2,0,L|173:203,1,59.9999981689454
294,5,99860,2,0,B|328:31|328:31|313:118,1,119.999996337891,0|0,1:0|0:0,0:0:0:0:
248,149,100090,1,0,0:0:0:0:
224,139,100166,1,8,0:0:0:0:
435,371,100320,6,0,P|474:367|498:352,1,59.9999981689454,2|0,0:1|0:0,0:0:0:0:
376,190,100473,2,0,P|349:177|319:176,1,59.9999981689454,2|0,1:0|0:0,0:0:0:0:
181,299,100626,2,0,L|191:358,1,59.9999981689454,2|0,0:1|0:0,0:0:0:0:
46,178,100779,6,0,B|24:151|24:151|132:120|132:120|127:152,1,179.999994506836,8|0,0:0|0:0,0:0:0:0:
181,299,101085,2,0,L|58:285,1,119.999996337891,0|0,1:0|0:0,0:0:0:0:
221,211,101314,1,0,0:0:0:0:
268,240,101391,6,0,P|283:274|283:303,1,59.9999981689454,8|0,0:0|0:0,0:0:0:0:
408,384,101544,2,0,P|410:354|423:327,1,59.9999981689454
512,156,101697,1,0,1:0:0:0:
245,7,101850,5,0,0:0:0:0:
245,7,101927,1,0,0:0:0:0:
245,7,102003,2,0,L|265:129,1,119.999996337891,8|0,0:0|0:0,0:0:0:0:
470,292,102309,2,0,P|442:233|365:219,1,119.999996337891,8|0,1:3|0:0,0:0:0:0:
102,363,102615,2,0,B|149:327|185:357|185:357|211:318|268:324,1,179.999994506836,8|0,0:0|0:0,0:0:0:0:
297,224,102922,6,0,L|226:241,1,59.9999981689454,0|0,1:0|0:0,0:0:0:0:
39,151,103075,2,0,P|146:169|172:63,1,239.999992675781,8|0,0:0|0:0,0:0:0:0:
8,235,103534,6,0,L|23:376,1,119.999996337891,0|0,1:0|0:0,0:0:0:0:
128,384,103763,1,0,0:0:0:0:
165,347,103840,2,0,L|228:354,1,59.9999981689454,8|0,0:0|0:0,0:0:0:0:
356,217,103993,2,0,L|296:223,1,59.9999981689454
103,134,104146,1,0,1:0:0:0:
350,319,104299,5,0,0:0:0:0:
350,319,104376,1,0,0:0:0:0:
350,319,104452,2,0,L|471:299,1,119.999996337891,8|0,0:0|0:0,0:0:0:0:
368,53,104758,1,0,1:0:0:0:
135,223,104911,5,0,0:0:0:0:
135,223,104988,1,0,0:0:0:0:
135,223,105064,2,0,L|256:243,1,119.999996337891,8|0,0:0|0:0,0:0:0:0:
400,196,105294,1,0,0:0:0:0:
431,169,105371,2,0,P|433:136|424:111,1,59.9999981689454,0|0,1:0|0:0,0:0:0:0:
266,11,105524,2,0,P|256:39|259:68,1,59.9999981689454
347,266,105677,6,0,B|415:284|415:284|451:260|451:260|492:268,1,150,8|0,0:0|0:0,0:0:0:0:
373,366,105983,2,0,P|338:308|239:342,1,150,0|0,1:0|0:0,0:0:0:0:
203,357,106289,5,8,0:0:0:0:
128,356,106391,5,8,0:0:0:0:
69,311,106493,5,8,0:0:0:0:
49,239,106595,5,8,0:0:0:0:
76,169,106697,5,8,0:0:0:0:
141,131,106799,5,8,0:0:0:0:
215,139,106901,6,2,B|275:136|293:189|293:189|323:177|337:144|337:144|388:144|396:181|396:181|413:217|465:216,2,300.000011444092,10|2|10,0:3|1:1|0:3,0:1:0:0:
364,334,108432,6,0,L|520:311,2,150.000005722046,8|0|8,0:0|1:0|0:0,0:0:0:0:
201,384,109197,2,0,P|258:339|256:267,1,150.000005722046,0|8,1:0|0:0,0:0:0:0:
187,216,109580,1,8,0:0:0:0:
187,216,109656,2,0,L|106:231,1,75.0000028610231,2|0,0:0|0:0,0:0:0:0:
30,82,109962,2,0,L|111:97,1,75.0000028610231,2|0,0:0|0:0,0:0:0:0:
293,21,110268,2,0,L|284:63,3,37.5000014305115,8|8|8|8,0:0|0:0|0:0|0:0,0:0:0:0:
329,127,110575,6,0,P|403:137|460:77,1,150.000005722046,2|2,0:0|0:0,0:0:0:0:
273,201,111187,1,8,0:0:0:0:
496,332,111493,6,2,B|466:309|433:315|433:315|456:271|426:210|350:216|326:277|359:324|359:324|332:330|303:370|303:370|282:302|217:304,1,450.000017166138,2|8,0:3|0:2,0:1:0:0:
37,201,112717,5,0,0:0:0:0:
58,206,112794,1,0,0:0:0:0:
79,211,112871,1,0,0:0:0:0:
100,216,112947,1,0,0:0:0:0:
121,221,113024,2,2,B|172:207|156:125|156:125|196:169|265:169|285:108|257:55|192:57|192:57|242:52|273:14|273:14|338:50|331:129|331:129|382:68|429:102|429:102|386:162|427:200|427:200|401:179|373:180,1,839.999974365235,0|8,0:0|0:3,0:1:0:0:
306,216,115320,1,8,0:0:0:0:
353,351,115473,6,0,P|370:310|463:297,1,119.999996337891,2|8,0:0|0:0,0:0:0:0:
511,258,115932,2,0,L|394:234,1,119.999996337891,2|0,0:0|0:0,0:0:0:0:
260,287,116391,1,8,0:0:0:0:
306,75,116544,6,0,B|357:42|357:42|333:174,1,179.999994506836,2|8,0:0|0:0,0:0:0:0:
191,226,117156,2,0,P|239:198|235:128,1,119.999996337891,2|8,0:0|0:0,0:0:0:0:
183,73,117615,1,0,0:0:0:0:
12,161,117768,1,0,0:0:0:0:
113,0,117922,6,0,B|98:121,1,119.999996337891,2|0,0:0|0:0,0:0:0:0:
36,307,118381,1,0,0:0:0:0:
33,294,118457,1,0,0:0:0:0:
30,281,118534,2,2,B|32:230|70:176|151:188|171:263|108:363|108:363|189:306|189:306|215:356|282:353,1,479.999985351563,2|2,0:3|0:3,0:1:0:0:
390,317,119911,5,8,0:0:0:0:
265,195,120064,2,0,L|271:255,1,59.9999981689454,8|0,0:0|0:0,0:0:0:0:
496,179,120371,2,0,P|417:188|369:109,1,179.999994506836,2|8,0:0|0:0,0:0:0:0:
400,72,120906,1,8,0:0:0:0:
423,77,120983,1,8,0:0:0:0:
161,22,121595,6,0,P|87:60|95:155,1,179.999994506836,2|0,0:0|0:0,0:0:0:0:
172,190,122207,2,0,P|246:152|238:57,1,179.999994506836,2|0,0:0|0:0,0:0:0:0:
35,239,122820,6,0,B|68:238|89:205|89:205|102:249|138:276|181:274,1,179.999994506836,2|0,0:0|0:0,0:0:0:0:
253,233,123451,1,2,0:0:0:0:
430,60,123925,5,0,0:0:0:0:
430,60,124004,1,0,0:0:0:0:
430,60,124083,2,0,B|377:27|377:27|400:167,1,179.999994506836,2|0,0:0|0:0,0:0:0:0:
452,210,124721,2,0,B|505:243|505:243|482:103,1,179.999994506836,2|0,0:0|0:0,0:0:0:0:
292,221,125359,6,2,B|333:186|391:206|413:278|377:331|302:334|249:292|249:292|187:339|187:339|228:268|201:201|201:201|160:190|109:134|109:134|147:202|150:275|109:305|109:305|122:252|92:205|47:180|-4:211|-22:273|-5:324|32:317|41:293,1,1072.4999672699,2|0,0:3|0:0,0:1:0:0:
151,50,131045,5,2,0:0:0:0:
211,120,131840,2,0,P|293:124|343:74,1,150.000005722046,2|2,0:0|0:0,0:0:0:0:
421,212,133715,6,0,L|432:132,2,75.0000028610231,2|2|2,0:0|0:0|0:0,0:0:0:0:
472,286,134840,1,2,0:0:0:0:
298,303,135590,6,0,B|278:251|312:211|312:211|284:197|242:226|242:226|251:164|221:114|151:121|121:172|143:222|171:250|171:250|133:240|111:245,1,478.125018239022,2|0,0:0|0:0,0:0:0:0:
43,146,141721,6,0,P|154:161|220:89,1,209.999993591309,2|0,0:0|0:0,0:0:0:0:
339,19,143835,6,0,L|330:146,1,119.999996337891,2|0,0:0|0:0,0:0:0:0:
233,208,146083,6,0,B|286:155|286:155|412:182,1,200,2|2,0:0|0:0,0:0:0:0:
512,282,146548,2,0,P|465:292|421:345,1,100,8|0,0:0|0:0,0:0:0:0:
364,384,146848,5,2,0:0:0:0:
278,382,146998,1,8,0:0:0:0:
215,322,147148,1,8,0:0:0:0:
208,235,147298,5,2,0:0:0:0:
145,175,147442,1,8,0:0:0:0:
58,172,147587,1,8,0:0:0:0:
9,289,147732,6,0,P|77:285|111:261,1,100,2|8,0:0|0:0,0:0:0:0:
228,150,148022,1,8,0:0:0:0:
44,72,148167,2,0,L|58:172,1,100,2|8,0:0|0:0,0:0:0:0:
210,321,148457,5,8,0:3:0:0:
238,227,148598,1,2,0:3:0:0:
319,172,148740,1,2,0:3:0:0:
416,183,148881,1,2,0:3:0:0:
484,253,149023,1,2,0:3:0:0:
491,350,149164,1,2,0:3:0:0:
312,383,149306,5,2,0:3:0:0:
210,321,149447,1,2,0:3:0:0:
167,209,149589,1,2,0:3:0:0:
202,95,149727,1,2,0:3:0:0:
300,26,149866,1,2,0:3:0:0:
419,31,150005,1,2,0:3:0:0:
509,108,150144,5,2,0:3:0:0:
405,216,150294,1,2,0:3:0:0:
255,232,150444,1,2,0:3:0:0:
129,149,150607,1,2,0:3:0:0:
85,3,150770,1,2,0:3:0:0:
256,192,150846,12,0,153037,0:0:0:0:
9,196,153442,6,2,B|42:182|58:145|58:145|51:207|63:251|102:274|102:274|167:268|261:215|260:89|180:39|95:98|95:205|186:283|186:283|255:250|303:322|303:322|256:201|328:142|328:142|278:114|290:17|378:1|427:78|405:123|405:123|389:178|433:223|495:239|495:239|473:275|421:285|377:257|377:257|369:284|391:315,1,1600,2|2,0:2|0:1,0:1:0:0:
