osu file format v14

[General]
AudioFilename: audio.mp3
AudioLeadIn: 0
PreviewTime: 144300
Countdown: 0
SampleSet: Soft
StackLeniency: 0.7
Mode: 0
LetterboxInBreaks: 0
WidescreenStoryboard: 1

[Editor]
Bookmarks: 11518,79684,147850
DistanceSpacing: 1.1
BeatDivisor: 4
GridSize: 4
TimelineZoom: 1

[Metadata]
Title:nostalgia
TitleUnicode:nostalgia
Artist:poiss
ArtistUnicode:poiss
Creator:riot1133
Version:hard
Source:
Tags:hip hop hip-hop estonian electronic dnb drum and bass single
BeatmapID:3072304
BeatmapSetID:1494766

[Difficulty]
HPDrainRate:5
CircleSize:3.5
OverallDifficulty:6.2
ApproachRate:7.6
SliderMultiplier:1
SliderTickRate:1

[Events]
//Background and Video events
0,0,"386033.jpg",0,0
//Break Periods
2,79841,101714
//Storyboard Layer 0 (Background)
//Storyboard Layer 1 (Fail)
//Storyboard Layer 2 (Pass)
//Storyboard Layer 3 (Foreground)
//Storyboard Layer 4 (Overlay)
//Storyboard Sound Samples

[TimingPoints]
115,355.029585798817,4,2,1,100,1,0
8635,-133.333333333333,4,2,1,50,0,0
10410,-100,4,2,1,100,0,0
11475,-66.6666666666667,4,2,1,100,0,1
22836,-133.333333333333,4,2,1,50,0,1
23191,-66.6666666666667,4,2,1,100,0,1
32600,-100,4,2,1,100,0,0
56919,-133.333333333333,4,2,1,100,0,0
57274,-100,4,2,1,100,0,0
68280,-133.333333333333,4,2,1,50,0,0
68635,-100,4,2,1,100,0,0
78576,-133.333333333333,4,2,1,100,0,0
102541,-133.333333333333,4,2,1,70,0,0
105203,-100,4,2,1,100,0,0
124907,-133.333333333333,4,2,1,100,0,0
136268,-200,4,2,1,25,0,0
136801,-200,4,2,1,100,0,0
136978,-133.333333333333,4,2,1,100,0,0
144967,-133.333333333333,4,2,1,50,0,0
146742,-100,4,2,1,50,0,0
147807,-66.6666666666667,4,2,1,100,0,1
159168,-133.333333333333,4,2,1,50,0,1
159523,-133.333333333333,4,2,1,100,0,1
159700,-66.6666666666667,4,2,1,100,0,1
168931,-100,4,2,1,100,0,0
170529,-133.333333333333,4,2,1,70,0,0

[Colours]
Combo1 : 61,80,56
Combo2 : 73,104,129
Combo3 : 176,140,170
Combo4 : 216,210,175
Combo5 : 177,145,46

[HitObjects]
132,86,115,6,0,L|126:151,1,50,0|0,3:0|0:0,0:0:0:0:
211,190,470,2,0,L|217:125,2,50,8|0|0,0:0|0:0|0:0,0:0:0:0:
117,230,1002,1,0,3:0:0:0:
117,230,1180,1,8,0:0:0:0:
258,200,1535,6,0,P|227:188|207:190,1,50,0|0,3:0|0:0,0:0:0:0:
127,135,1890,2,0,P|102:135|79:145,2,50,8|0|0,0:0|0:0|0:0,0:0:0:0:
214,98,2422,1,0,3:0:0:0:
214,98,2600,1,8,0:0:0:0:
262,249,2955,6,0,L|257:199,1,50,0|0,3:0|0:0,0:0:0:0:
350,189,3310,2,0,L|354:238,2,50,8|0|0,0:0|0:0|0:0,0:0:0:0:
423,129,3842,1,0,3:0:0:0:
423,129,4020,1,8,0:0:0:0:
486,279,4375,6,0,P|455:291|435:289,1,50,0|0,3:0|0:0,0:0:0:0:
318,331,4730,2,0,P|349:343|369:341,2,50,8|0|0,0:0|0:0|0:0,0:0:0:0:
354,238,5262,1,0,3:0:0:0:
354,238,5440,1,8,0:0:0:0:
216,315,5795,6,0,L|220:364,1,50,0|0,3:0|0:0,0:0:0:0:
120,298,6150,2,0,L|115:248,2,50,8|0|0,0:0|0:0|0:0,0:0:0:0:
53,368,6683,1,0,3:0:0:0:
53,368,6860,1,8,0:0:0:0:
34,212,7215,6,0,P|58:212|81:222,1,50,0|0,3:0|0:0,0:0:0:0:
166,165,7570,2,0,P|190:164|213:154,2,50,8|0|0,0:0|0:0|0:0,0:0:0:0:
82,113,8103,1,0,3:0:0:0:
82,113,8280,1,8,0:0:0:0:
256,232,8635,6,0,B|241:82|241:82|269:110|312:106,1,225.000008583069
358,12,10410,2,0,L|305:18,1,50,2|2,0:0|0:0,0:0:0:0:
308,105,10765,2,0,L|358:100,1,50,2|2,0:0|0:0,0:0:0:0:
358,188,11120,2,0,L|305:194,1,50,2|2,0:0|0:0,0:0:0:0:
358,276,11475,5,2,3:0:0:0:
358,276,11653,2,0,P|414:283|464:360,1,150.000005722046
448,265,12186,2,0,L|454:188,1,75.000002861023,0|0,0:0|3:0,0:0:0:0:
460,92,12541,1,8,0:0:0:0:
460,92,12718,2,0,P|389:75|354:11,1,150.000005722046
269,75,13251,5,10,0:0:0:0:
269,75,13428,1,2,0:0:0:0:
189,22,13606,2,0,P|147:32|108:19,1,75.000002861023,2|2,0:0|3:0,0:0:0:0:
9,120,13961,2,0,P|51:110|90:123,1,75.000002861023,10|2,0:0|0:0,0:0:0:0:
185,200,14316,6,0,L|179:123,1,75.000002861023,2|0,3:0|0:0,0:0:0:0:
47,207,14671,2,0,L|53:284,1,75.000002861023,10|0,0:0|0:0,0:0:0:0:
159,312,15026,2,0,B|228:284|233:348|304:324,1,150.000005722046,0|8,0:0|0:0,0:0:0:0:
406,343,15558,2,0,P|369:335|333:345,1,75.000002861023,0|0,0:0|3:0,0:0:0:0:
279,241,15913,1,2,0:0:0:0:
279,241,16091,6,0,L|273:164,1,75.000002861023,10|2,0:0|0:0,0:0:0:0:
377,200,16446,2,0,L|383:123,1,75.000002861023,2|2,0:0|3:0,0:0:0:0:
458,257,16801,1,10,0:0:0:0:
458,257,16978,1,2,0:0:0:0:
510,175,17156,6,0,P|520:139|512:102,1,75.000002861023,2|0,3:0|0:0,0:0:0:0:
433,42,17511,1,10,0:0:0:0:
433,42,17688,1,2,0:0:0:0:
382,125,17866,2,0,B|312:148|307:84|238:112,1,150.000005722046,0|8,0:0|0:0,0:0:0:0:
141,26,18399,2,0,L|215:20,1,75.000002861023,0|0,0:0|3:0,0:0:0:0:
202,131,18754,1,2,0:0:0:0:
202,131,18931,6,0,P|191:166|199:203,1,75.000002861023,10|2,0:0|0:0,0:0:0:0:
86,186,19286,2,0,P|96:221|88:258,1,75.000002861023,2|2,0:0|3:0,0:0:0:0:
54,359,19641,1,10,0:0:0:0:
54,359,19819,1,2,0:0:0:0:
155,337,19996,6,0,L|229:342,1,75.000002861023,2|0,3:0|0:0,0:0:0:0:
333,261,20351,2,0,L|258:255,1,75.000002861023,10|0,0:0|0:0,0:0:0:0:
71,259,20706,2,0,P|135:224|152:154,1,150.000005722046,0|8,0:0|0:0,0:0:0:0:
56,162,21239,1,0,0:0:0:0:
56,162,21416,2,0,P|48:125|59:90,1,75.000002861023,0|0,3:0|0:0,0:0:0:0:
153,48,21771,6,0,B|190:62|190:62|226:59,1,75.0000028610231,10|2,0:0|0:0,0:0:0:0:
376,21,22126,2,0,B|345:46|345:46|329:78,1,75.0000028610231,2|2,0:0|3:0,0:0:0:0:
287,227,22481,2,0,B|280:187|280:187|260:158,1,75.0000028610231,10|2,0:0|0:0,0:0:0:0:
420,99,22836,5,2,3:0:0:0:
420,99,23014,2,0,L|471:104,1,37.5000014305115,0|10,0:0|0:0,0:0:0:0:
393,181,23369,1,2,0:0:0:0:
393,181,23546,2,0,P|409:251|473:286,1,150.000005722046,0|8,0:0|0:0,0:0:0:0:
384,274,24079,2,0,L|309:268,1,75.000002861023,0|0,0:0|3:0,0:0:0:0:
245,343,24434,1,2,0:0:0:0:
245,343,24612,6,0,P|210:332|174:340,1,75.000002861023,10|2,0:0|0:0,0:0:0:0:
16,374,24967,2,0,P|51:385|87:377,1,75.000002861023,2|2,0:0|3:0,0:0:0:0:
55,284,25322,1,10,0:0:0:0:
55,284,25499,1,2,0:0:0:0:
157,240,25677,6,0,L|151:315,1,75.000002861023,2|0,3:0|0:0,0:0:0:0:
55,284,26032,1,10,0:0:0:0:
55,284,26209,1,2,0:0:0:0:
45,179,26387,2,0,B|114:151|119:215|190:191,1,150.000005722046,0|8,0:0|0:0,0:0:0:0:
281,166,26919,2,0,P|246:155|210:163,1,75.000002861023,0|0,0:0|3:0,0:0:0:0:
153,98,27274,1,0,0:0:0:0:
205,18,27452,5,8,0:0:0:0:
205,18,27629,1,2,0:0:0:0:
286,65,27807,2,0,P|321:76|357:68,1,75.000002861023,2|2,0:0|3:0,0:0:0:0:
512,113,28162,2,0,P|477:124|441:116,1,75.000002861023,10|2,0:0|0:0,0:0:0:0:
474,32,28517,5,2,3:0:0:0:
474,32,28694,1,2,0:0:0:0:
411,98,28872,2,0,L|405:173,1,75.000002861023,10|2,0:0|0:0,0:0:0:0:
462,277,29227,2,0,B|394:283|394:283|374:277|374:277|313:282,1,150.000005722046,2|8,0:0|0:0,0:0:0:0:
203,359,29759,2,0,L|278:365,1,75.000002861023,0|0,0:0|3:0,0:0:0:0:
313,281,30115,1,2,0:0:0:0:
266,203,30292,5,10,0:0:0:0:
266,203,30470,1,2,0:0:0:0:
183,242,30647,2,0,P|146:250|111:239,1,75.000002861023,2|2,0:0|3:0,0:0:0:0:
50,172,31002,1,10,0:0:0:0:
50,172,31180,1,2,0:0:0:0:
1,289,31357,6,0,P|35:224|106:208,1,150.000005722046,2|10,3:0|0:0,0:0:0:0:
183,242,31890,1,2,0:0:0:0:
231,337,32067,2,0,B|161:360|156:296|87:324,1,150.000005722046,0|8,0:0|0:0,0:0:0:0:
2,378,32600,1,0,0:0:0:0:
92,232,33132,6,0,B|32:227|32:227|0:250,2,100,2|2|2,0:0|0:0|0:0,0:0:0:0:
190,249,34197,5,0,3:0:0:0:
190,249,34375,2,0,P|235:222|290:233,1,100,2|0,0:0|0:0,0:0:0:0:
370,173,34907,2,0,L|373:276,1,100,2|8,0:0|0:0,0:0:0:0:
462,314,35440,1,2,0:0:0:0:
462,314,35617,5,0,3:0:0:0:
463,163,35972,2,0,B|429:140|429:140|366:142,1,100,10|0,0:0|0:0,0:0:0:0:
293,107,36505,2,0,L|342:106,1,50,2|8,3:0|0:0,0:0:0:0:
306,199,36860,2,0,L|281:242,1,50,2|0,0:0|3:0,0:0:0:0:
219,164,37215,6,0,L|193:121,1,50,2|8,0:0|0:0,0:0:0:0:
225,40,37570,1,0,0:0:0:0:
225,40,37748,2,0,B|191:63|191:63|128:61,1,100,2|8,0:0|0:0,0:0:0:0:
34,53,38280,1,2,0:0:0:0:
34,53,38458,5,0,3:0:0:0:
172,158,38813,2,0,L|170:257,1,100,10|0,0:0|0:0,0:0:0:0:
164,359,39345,2,0,P|139:358|115:366,1,50,2|8,3:0|0:0,0:0:0:0:
25,271,39700,2,0,P|49:270|73:278,1,50,2|0,0:0|3:0,0:0:0:0:
169,257,40055,5,2,0:0:0:0:
169,257,40233,2,0,P|193:257|217:249,1,50,8|0,0:0|0:0,0:0:0:0:
295,171,40588,2,0,P|335:163|398:200,1,100,2|8,0:0|0:0,0:0:0:0:
448,271,41120,2,0,P|404:293|355:286,1,100,2|0,0:0|0:0,0:0:0:0:
276,351,41653,2,0,P|227:343|183:366,1,100,10|0,0:0|0:0,0:0:0:0:
133,280,42186,6,0,L|84:278,1,50,2|8,3:0|0:0,0:0:0:0:
187,196,42541,2,0,L|236:198,1,50,2|0,0:0|3:0,0:0:0:0:
138,114,42896,2,0,L|88:111,1,50,2|8,0:0|0:0,0:0:0:0:
0,90,43251,1,0,0:0:0:0:
0,90,43428,2,0,L|118:96,1,100,2|8,0:0|0:0,0:0:0:0:
171,40,43961,1,2,0:0:0:0:
171,40,44138,5,0,3:0:0:0:
314,78,44493,2,0,L|316:29,1,50,10|0,0:0|0:0,0:0:0:0:
409,97,44848,2,0,L|407:146,1,50,2|0,0:0|3:0,0:0:0:0:
363,218,45203,2,0,L|365:169,1,50,10|0,0:0|0:0,0:0:0:0:
511,314,45558,5,0,3:0:0:0:
511,314,45736,2,0,P|469:287|420:292,1,100,2|0,0:0|0:0,0:0:0:0:
335,372,46268,2,0,L|333:273,1,100,2|8,0:0|0:0,0:0:0:0:
252,214,46801,1,2,0:0:0:0:
252,214,46978,5,0,3:0:0:0:
129,134,47333,2,0,B|163:111|163:111|226:113,1,100,10|0,0:0|0:0,0:0:0:0:
299,78,47866,2,0,L|250:77,1,50,2|8,3:0|0:0,0:0:0:0:
371,149,48221,2,0,L|420:148,1,50,2|0,0:0|3:0,0:0:0:0:
293,206,48576,6,0,L|244:205,1,50,2|8,0:0|0:0,0:0:0:0:
148,204,48931,1,0,0:0:0:0:
148,204,49109,2,0,B|114:227|114:227|51:225,1,100,2|8,0:0|0:0,0:0:0:0:
0,154,49641,1,2,0:0:0:0:
0,154,49819,5,0,3:0:0:0:
115,22,50174,2,0,L|113:121,1,100,10|0,0:0|0:0,0:0:0:0:
196,197,50706,2,0,P|171:196|147:204,1,50,2|8,3:0|0:0,0:0:0:0:
26,267,51061,2,0,P|50:266|74:274,1,50,2|0,0:0|3:0,0:0:0:0:
143,347,51416,5,2,0:0:0:0:
143,347,51594,2,0,P|167:347|191:339,1,50,8|0,0:0|0:0,0:0:0:0:
268,268,51949,2,0,P|308:260|371:297,1,100,2|8,0:0|0:0,0:0:0:0:
411,147,52481,2,0,P|367:169|318:162,1,100,2|0,0:0|0:0,0:0:0:0:
257,84,53014,2,0,P|300:61|349:69,1,100,10|0,0:0|0:0,0:0:0:0:
447,60,53547,6,0,L|449:11,1,50,2|8,3:0|0:0,0:0:0:0:
411,147,53901,2,0,L|452:173,1,50,2|0,0:0|3:0,0:0:0:0:
349,69,54257,2,0,L|305:91,1,50,2|8,0:0|0:0,0:0:0:0:
223,141,54612,1,0,0:0:0:0:
223,141,54789,2,0,P|179:163|130:155,1,100,2|8,0:0|0:0,0:0:0:0:
58,75,55322,1,2,0:0:0:0:
45,165,55499,5,8,0:0:0:0:
31,257,55677,2,0,L|28:281,2,25,0|0|0,3:0|3:0|3:0,0:0:0:0:
12,362,56032,1,8,0:0:0:0:
5,381,56387,5,0,3:0:0:0:
147,284,56564,1,8,0:0:0:0:
160,273,56919,6,0,L|205:276,1,37.5000014305115,2|2,0:0|0:0,0:0:0:0:
306,349,57274,2,0,L|235:354,1,50,10|2,0:0|0:0,0:0:0:0:
267,218,57629,2,0,P|280:241|285:268,1,50,2|0,0:0|3:0,0:0:0:0:
392,242,57984,2,0,P|378:265|374:292,1,50,10|0,0:0|0:0,0:0:0:0:
410,371,58339,5,2,3:0:0:0:
410,371,58517,1,2,0:0:0:0:
463,297,58694,2,0,L|534:302,1,50,10|2,0:0|0:0,0:0:0:0:
479,207,59049,1,2,0:0:0:0:
479,207,59227,1,2,3:0:0:0:
392,242,59404,1,10,0:0:0:0:
495,65,59759,6,0,P|508:88|513:115,1,50,2|2,3:0|0:0,0:0:0:0:
420,2,60115,2,0,P|406:25|402:52,1,50,10|2,0:0|0:0,0:0:0:0:
373,140,60470,2,0,L|422:136,1,50,2|0,0:0|3:0,0:0:0:0:
313,68,60825,2,0,L|263:64,1,50,10|0,0:0|0:0,0:0:0:0:
210,145,61180,5,2,3:0:0:0:
210,145,61357,1,2,0:0:0:0:
134,90,61535,2,0,P|120:113|116:140,1,50,10|2,0:0|0:0,0:0:0:0:
152,221,61890,1,2,0:0:0:0:
152,221,62067,1,2,3:0:0:0:
58,207,62245,1,10,0:0:0:0:
0,41,62600,6,0,L|49:37,1,50,2|2,3:0|0:0,0:0:0:0:
134,90,62955,2,0,L|183:94,1,50,10|2,0:0|0:0,0:0:0:0:
260,18,63310,2,0,P|235:13|214:0,1,50,2|2,0:0|3:0,0:0:0:0:
320,102,63665,2,0,P|295:106|274:120,1,50,10|2,0:0|0:0,0:0:0:0:
204,187,64020,5,2,3:0:0:0:
204,187,64197,1,2,0:0:0:0:
287,265,64375,2,0,L|291:216,1,50,10|2,0:0|0:0,0:0:0:0:
383,175,64730,1,2,0:0:0:0:
383,175,64907,1,2,3:0:0:0:
473,222,65085,1,10,0:0:0:0:
466,69,65440,6,0,P|444:82|420:87,1,50,2|2,3:0|0:0,0:0:0:0:
337,34,65795,2,0,P|312:38|291:52,1,50,10|2,0:0|0:0,0:0:0:0:
336,141,66150,2,0,L|332:190,1,50,2|2,0:0|3:0,0:0:0:0:
237,214,66505,2,0,L|233:165,1,50,10|2,0:0|0:0,0:0:0:0:
194,78,66860,5,2,3:0:0:0:
194,78,67038,1,2,0:0:0:0:
96,52,67215,2,0,P|71:56|50:70,1,50,10|2,0:0|0:0,0:0:0:0:
108,145,67570,1,2,0:0:0:0:
108,145,67748,1,2,3:0:0:0:
66,229,67925,1,10,0:0:0:0:
54,256,68280,6,0,L|57:295,1,37.5000014305115,2|2,0:0|0:0,0:0:0:0:
163,318,68635,2,0,L|167:269,1,50,10|2,0:0|0:0,0:0:0:0:
252,238,68990,2,0,P|272:251|297:255,1,50,2|2,0:0|3:0,0:0:0:0:
374,301,69345,2,0,P|394:287|419:283,1,50,10|2,0:0|0:0,0:0:0:0:
491,229,69700,5,2,3:0:0:0:
491,229,69878,1,2,0:0:0:0:
409,191,70055,2,0,L|360:187,1,50,10|2,0:0|0:0,0:0:0:0:
297,255,70410,1,2,0:0:0:0:
297,255,70588,1,2,3:0:0:0:
268,169,70765,1,0,0:0:0:0:
391,100,71120,6,0,P|394:75|408:54,1,50,2|2,3:0|0:0,0:0:0:0:
484,123,71475,2,0,P|498:144|502:169,1,50,10|2,0:0|0:0,0:0:0:0:
459,249,71830,2,0,L|410:245,1,50,2|2,0:0|3:0,0:0:0:0:
343,329,72186,2,0,L|392:333,1,50,10|0,0:0|0:0,0:0:0:0:
482,339,72541,5,2,3:0:0:0:
482,339,72718,1,2,0:0:0:0:
459,249,72896,2,0,P|463:224|477:203,1,50,10|2,0:0|0:0,0:0:0:0:
402,153,73251,1,2,0:0:0:0:
402,153,73428,1,2,3:0:0:0:
347,227,73606,2,0,P|360:247|365:272,1,50,10|0,0:0|0:0,0:0:0:0:
347,360,73961,6,0,L|298:356,1,50,2|2,3:0|0:0,0:0:0:0:
212,324,74316,2,0,L|261:320,1,50,10|2,0:0|0:0,0:0:0:0:
198,236,74671,2,0,P|173:240|152:254,1,50,2|2,0:0|3:0,0:0:0:0:
118,337,75026,2,0,P|97:323|72:318,1,50,10|2,0:0|0:0,0:0:0:0:
0,220,75381,5,2,3:0:0:0:
0,220,75558,1,2,0:0:0:0:
85,193,75736,2,0,P|109:197|130:211,1,50,10|2,0:0|0:0,0:0:0:0:
237,261,76091,1,2,0:0:0:0:
237,261,76268,1,2,3:0:0:0:
163,318,76446,2,0,P|138:322|117:336,1,50,10|0,0:0|0:0,0:0:0:0:
301,384,76801,6,0,L|297:335,1,50,2|2,3:0|0:0,0:0:0:0:
395,347,77156,2,0,L|399:298,1,50,10|2,0:0|0:0,0:0:0:0:
497,384,77511,2,0,L|493:335,1,50,2|2,0:0|3:0,0:0:0:0:
449,244,77866,2,0,P|428:257|403:261,1,50,10|0,0:0|0:0,0:0:0:0:
322,198,78221,5,0,0:0:0:0:
330,169,78576,2,0,L|336:131,1,37.5000014305115
267,23,78931,2,0,L|296:47,1,37.5000014305115
424,41,79286,2,0,L|388:54,1,37.5000014305115
240,121,79641,5,0,0:0:0:0:
85,293,102541,5,2,0:0:0:0:
85,293,102718,2,0,L|126:300,1,37.5000014305115,8|0,0:0|0:0,0:0:0:0:
199,248,103073,2,0,L|240:241,2,37.5000014305115,2|0|8,0:0|3:0|0:0,0:0:0:0:
122,191,103606,1,2,0:0:0:0:
116,158,104138,2,0,P|121:130|164:88,1,75.0000028610231,2|0,0:0|0:0,0:0:0:0:
249,84,104671,1,2,3:0:0:0:
249,84,104848,2,0,L|250:131,1,37.5000014305115,2|8,0:0|0:0,0:0:0:0:
364,167,105203,5,0,3:0:0:0:
364,167,105381,2,0,L|362:117,1,50,2|8,0:0|0:0,0:0:0:0:
455,64,105736,1,0,0:0:0:0:
455,64,105914,2,0,B|421:87|421:87|358:85,1,100,2|8,0:0|0:0,0:0:0:0:
268,53,106446,1,2,0:0:0:0:
268,53,106623,5,0,3:0:0:0:
125,140,106979,2,0,L|224:142,1,100,10|0,0:0|0:0,0:0:0:0:
326,140,107511,2,0,P|324:164|332:188,1,50,2|8,3:0|0:0,0:0:0:0:
422,188,107866,2,0,P|423:212|415:236,1,50,2|0,0:0|3:0,0:0:0:0:
369,328,108221,5,2,0:0:0:0:
369,328,108399,2,0,L|423:327,1,50,8|0,0:0|0:0,0:0:0:0:
301,271,108754,2,0,P|278:314|285:363,1,100,2|8,0:0|0:0,0:0:0:0:
173,378,109286,2,0,P|146:336|100:318,1,100,2|0,0:0|0:0,0:0:0:0:
144,213,109819,2,0,P|193:210|231:180,1,100,10|0,0:0|0:0,0:0:0:0:
301,271,110352,6,0,L|350:273,1,50,2|8,3:0|0:0,0:0:0:0:
281,182,110707,2,0,L|232:180,1,50,2|0,0:0|3:0,0:0:0:0:
335,107,111062,2,0,L|385:110,1,50,2|8,0:0|0:0,0:0:0:0:
440,181,111417,1,0,0:0:0:0:
440,181,111594,2,0,L|434:299,1,100,2|8,0:0|0:0,0:0:0:0:
426,372,112127,1,2,0:0:0:0:
426,372,112304,5,0,3:0:0:0:
292,295,112659,2,0,L|294:344,1,50,10|0,0:0|0:0,0:0:0:0:
394,295,113014,2,0,L|392:246,1,50,2|0,0:0|3:0,0:0:0:0:
310,144,113369,2,0,L|312:193,1,50,10|0,0:0|0:0,0:0:0:0:
399,90,113724,5,0,3:0:0:0:
399,90,113902,2,0,P|354:117|299:106,1,100,2|0,0:0|0:0,0:0:0:0:
269,183,114434,2,0,L|272:80,1,100,2|8,0:0|0:0,0:0:0:0:
347,21,114967,1,2,0:0:0:0:
347,21,115144,5,0,3:0:0:0:
367,184,115499,2,0,B|425:182|425:182|459:205,1,100,10|0,0:0|0:0,0:0:0:0:
392,275,116032,2,0,L|343:276,1,50,2|8,3:0|0:0,0:0:0:0:
304,384,116387,2,0,L|353:383,1,50,2|0,0:0|3:0,0:0:0:0:
494,352,116742,6,0,L|445:353,1,50,2|8,0:0|0:0,0:0:0:0:
342,276,117097,1,0,0:0:0:0:
342,276,117275,2,0,B|308:299|308:299|245:297,1,100,2|8,0:0|0:0,0:0:0:0:
189,372,117807,1,2,0:0:0:0:
189,372,117984,5,0,3:0:0:0:
57,279,118340,2,0,L|156:281,1,100,10|0,0:0|0:0,0:0:0:0:
249,297,118872,2,0,P|250:272|242:248,1,50,2|8,3:0|0:0,0:0:0:0:
216,118,119227,2,0,P|217:142|209:166,1,50,2|0,0:0|3:0,0:0:0:0:
118,182,119582,5,2,0:0:0:0:
118,182,119760,2,0,P|118:158|110:134,1,50,8|0,0:0|0:0,0:0:0:0:
18,85,120115,2,0,P|58:77|121:114,1,100,2|8,0:0|0:0,0:0:0:0:
167,29,120647,2,0,P|215:35|259:13,1,100,2|0,0:0|0:0,0:0:0:0:
315,86,121180,2,0,P|358:63|407:71,1,100,10|0,0:0|0:0,0:0:0:0:
373,157,121713,6,0,L|422:159,1,50,2|8,3:0|0:0,0:0:0:0:
369,242,122068,2,0,L|418:244,1,50,2|0,0:0|3:0,0:0:0:0:
365,327,122422,2,0,L|414:329,1,50,2|8,0:0|0:0,0:0:0:0:
441,354,122688,1,8,0:0:0:0:
441,354,122777,2,0,L|392:352,1,50,0|2,3:0|0:0,0:0:0:0:
263,330,123132,5,8,0:0:0:0:
263,330,123310,1,0,0:0:0:0:
96,359,123665,1,8,0:0:0:0:
96,359,123843,2,0,L|94:310,1,50,2|0,3:0|3:0,0:0:0:0:
164,242,124197,1,8,0:0:0:0:
201,158,124375,5,2,3:0:0:0:
201,158,124552,1,2,3:0:0:0:
287,110,124730,1,10,0:0:0:0:
287,110,124907,6,0,L|340:119,1,37.5000014305115,10|0,0:0|3:0,0:0:0:0:
361,22,125262,2,0,L|308:31,1,37.5000014305115,2|8,0:0|0:0,0:0:0:0:
410,114,125617,2,0,L|463:123,1,37.5000014305115,2|0,0:0|0:0,0:0:0:0:
484,26,125972,2,0,L|431:35,1,37.5000014305115,2|8,3:0|0:0,0:0:0:0:
323,116,126328,6,0,L|331:193,1,75.0000028610231,2|0,0:0|0:0,0:0:0:0:
418,207,126860,2,0,P|436:207|454:213,1,37.5000014305115,8|0,0:0|0:0,0:0:0:0:
418,295,127215,5,2,0:0:0:0:
418,295,127393,1,2,3:0:0:0:
455,378,127570,1,10,0:0:0:0:
455,378,127748,6,0,P|437:384|418:384,1,37.5000014305115,2|0,0:0|3:0,0:0:0:0:
339,344,128103,2,0,P|321:337|302:337,1,37.5000014305115,2|8,0:0|0:0,0:0:0:0:
151,293,128458,2,0,P|168:299|187:299,1,37.5000014305115,2|0,0:0|0:0,0:0:0:0:
267,259,128813,2,0,P|284:252|303:252,1,37.5000014305115,2|8,3:0|0:0,0:0:0:0:
389,236,129168,6,0,P|371:191|334:170,1,75.0000028610231,2|0,0:0|0:0,0:0:0:0:
334,96,129700,2,0,P|334:119|343:136,1,37.5000014305115,8|0,0:0|0:0,0:0:0:0:
430,129,130055,5,2,0:0:0:0:
430,129,130233,1,2,3:0:0:0:
476,205,130410,1,10,0:0:0:0:
476,205,130588,6,0,L|473:245,1,37.5000014305115,2|0,0:0|3:0,0:0:0:0:
500,323,130943,2,0,L|497:283,1,37.5000014305115,2|8,0:0|0:0,0:0:0:0:
389,236,131298,2,0,L|392:276,1,37.5000014305115,2|0,0:0|0:0,0:0:0:0:
365,354,131653,2,0,L|368:314,1,37.5000014305115,2|8,3:0|0:0,0:0:0:0:
264,247,132008,6,0,L|189:254,1,75.0000028610231,2|0,0:0|0:0,0:0:0:0:
127,343,132541,2,0,L|167:340,1,37.5000014305115,8|0,0:0|0:0,0:0:0:0:
249,376,132896,5,2,0:0:0:0:
249,376,133073,1,2,3:0:0:0:
277,292,133251,1,10,0:0:0:0:
277,292,133428,6,0,P|270:274|271:256,1,37.5000014305115,2|0,0:0|3:0,0:0:0:0:
163,199,133783,2,0,P|181:201|197:211,1,37.5000014305115,2|8,0:0|0:0,0:0:0:0:
300,146,134138,2,0,P|288:160|271:169,1,37.5000014305115,2|0,0:0|0:0,0:0:0:0:
199,119,134493,2,0,P|192:101|193:83,1,37.5000014305115,2|8,3:0|0:0,0:0:0:0:
140,12,134848,6,0,L|65:19,1,75.0000028610231,2|0,0:0|0:0,0:0:0:0:
0,106,135381,2,0,L|40:103,1,37.5000014305115,8|0,0:0|0:0,0:0:0:0:
112,148,135736,5,2,0:0:0:0:
112,148,135913,1,2,3:0:0:0:
60,221,136091,1,8,0:0:0:0:
60,221,136268,5,2,0:0:0:0:
70,350,136623,2,0,L|71:377,1,25,2|8,0:0|0:0,0:0:0:0:
142,284,136978,2,0,P|159:277|177:278,1,37.5000014305115,2|0,0:0|0:0,0:0:0:0:
251,326,137333,2,0,P|269:326|286:320,1,37.5000014305115,2|8,3:0|0:0,0:0:0:0:
377,304,137688,6,0,L|384:378,1,75.0000028610231,2|0,0:0|0:0,0:0:0:0:
508,354,138221,2,0,P|490:347|472:348,1,37.5000014305115,8|0,0:0|0:0,0:0:0:0:
459,261,138576,5,2,0:0:0:0:
459,261,138754,1,2,3:0:0:0:
378,217,138931,1,10,0:0:0:0:
378,217,139109,6,0,L|339:219,1,37.5000014305115,2|0,0:0|3:0,0:0:0:0:
239,156,139464,2,0,L|278:154,1,37.5000014305115,2|8,0:0|0:0,0:0:0:0:
378,87,139819,2,0,L|339:89,1,37.5000014305115,2|0,0:0|0:0,0:0:0:0:
239,26,140174,2,0,L|278:24,1,37.5000014305115,2|8,3:0|0:0,0:0:0:0:
411,176,140529,6,0,P|449:146|491:146,1,75.0000028610231,2|0,0:0|0:0,0:0:0:0:
512,64,141061,2,0,P|495:58|477:59,1,37.5000014305115,8|0,0:0|0:0,0:0:0:0:
404,6,141416,5,2,0:0:0:0:
404,6,141594,1,2,3:0:0:0:
329,53,141771,1,10,0:0:0:0:
329,53,141949,6,0,P|310:53|293:47,1,37.5000014305115,2|0,0:0|3:0,0:0:0:0:
178,5,142304,2,0,P|196:5|213:0,1,37.5000014305115,2|8,0:0|0:0,0:0:0:0:
171,88,142659,2,0,P|152:88|135:82,1,37.5000014305115,2|0,0:0|0:0,0:0:0:0:
20,40,143014,2,0,P|38:40|55:34,1,37.5000014305115,2|8,3:0|0:0,0:0:0:0:
58,127,143369,6,0,L|65:201,1,75.0000028610231,2|0,0:0|0:0,0:0:0:0:
151,177,143901,2,0,P|168:183|186:182,1,37.5000014305115,8|0,0:0|0:0,0:0:0:0:
264,232,144257,5,2,0:0:0:0:
264,232,144434,1,2,3:0:0:0:
220,310,144612,1,10,0:0:0:0:
220,310,144789,1,2,0:0:0:0:
284,375,144967,6,0,B|316:383|343:369|335:360|362:348|391:353,2,112.500004291535
246,287,146742,2,0,P|273:283|302:294,1,50,2|2,0:0|0:0,0:0:0:0:
183,227,147097,2,0,P|204:210|234:205,1,50,2|2,0:0|0:0,0:0:0:0:
98,206,147452,2,0,P|108:180|132:161,1,50,2|2,0:0|0:0,0:0:0:0:
59,94,147807,5,2,3:0:0:0:
59,94,147984,2,0,B|88:69|88:69|201:74,1,150.000005722046
297,171,148518,2,0,L|221:168,1,75.0000028610231,0|0,0:0|3:0,0:0:0:0:
290,16,148873,1,8,0:0:0:0:
290,16,149049,2,0,P|325:79|395:96,1,150.000005722046
475,30,149583,5,10,0:0:0:0:
475,30,149760,1,2,0:0:0:0:
427,117,149938,2,0,P|417:159|430:198,1,75.000002861023,2|2,0:0|3:0,0:0:0:0:
509,253,150293,2,0,P|519:217|512:180,1,75.000002861023,10|2,0:0|0:0,0:0:0:0:
326,223,150648,6,0,L|403:217,1,75.000002861023,2|0,3:0|0:0,0:0:0:0:
383,357,151003,2,0,L|308:351,1,75.000002861023,10|0,0:0|0:0,0:0:0:0:
222,232,151358,2,0,B|152:255|147:191|78:219,1,150.000005722046,0|8,0:0|0:0,0:0:0:0:
116,381,151890,2,0,L|110:304,1,75.000002861023,0|0,0:0|3:0,0:0:0:0:
88,130,152245,1,2,0:0:0:0:
88,130,152422,6,0,P|124:122|160:132,1,75.000002861023,10|2,0:0|0:0,0:0:0:0:
294,229,152777,2,0,P|257:221|221:231,1,75.000002861023,2|2,0:0|3:0,0:0:0:0:
110,306,153133,1,10,0:0:0:0:
110,306,153310,1,2,0:0:0:0:
4,213,153487,6,0,L|78:218,1,75.000002861023,2|0,3:0|0:0,0:0:0:0:
160,132,153842,1,10,0:0:0:0:
160,132,154020,1,2,0:0:0:0:
144,31,154197,2,0,P|89:54|55:140,1,150.000005722046,0|8,0:0|0:0,0:0:0:0:
88,248,154731,2,0,L|162:242,1,75.000002861023,0|0,0:0|3:0,0:0:0:0:
276,231,155086,1,2,0:0:0:0:
276,231,155263,6,0,P|287:196|279:159,1,75.000002861023,10|2,0:0|0:0,0:0:0:0:
234,80,155618,2,0,P|224:45|232:8,1,75.000002861023,2|2,0:0|3:0,0:0:0:0:
316,47,155973,1,10,0:0:0:0:
316,47,156151,1,2,0:0:0:0:
378,173,156328,6,0,L|452:178,1,75.000002861023,2|0,3:0|0:0,0:0:0:0:
494,86,156683,2,0,L|419:80,1,75.000002861023,10|0,0:0|0:0,0:0:0:0:
236,153,157038,2,0,P|300:118|317:48,1,150.000005722046,0|8,0:0|0:0,0:0:0:0:
225,59,157570,1,0,0:0:0:0:
225,59,157748,2,0,L|150:53,1,75.000002861023,0|0,3:0|0:0,0:0:0:0:
30,61,158103,6,0,B|16:98|16:98|19:134,1,75.0000028610231,10|2,0:0|0:0,0:0:0:0:
133,148,158458,2,0,B|130:112|130:112|144:75,1,75.0000028610231,2|2,0:0|3:0,0:0:0:0:
257,89,158813,2,0,B|243:126|243:126|246:162,1,75.0000028610231,10|2,0:0|0:0,0:0:0:0:
139,246,159168,5,2,3:0:0:0:
139,246,159345,2,0,L|177:244,1,37.5000014305115,0|10,0:0|0:0,0:0:0:0:
276,234,159701,1,2,0:0:0:0:
276,234,159878,2,0,P|260:304|196:339,1,150.000005722046,0|8,0:0|0:0,0:0:0:0:
41,267,160411,2,0,L|116:273,1,75.000002861023,0|0,0:0|3:0,0:0:0:0:
183,201,160766,1,2,0:0:0:0:
183,201,160944,6,0,P|194:166|186:130,1,75.000002861023,10|2,0:0|0:0,0:0:0:0:
2,112,161299,2,0,P|-9:147|-1:183,1,75.000002861023,2|2,0:0|3:0,0:0:0:0:
41,267,161654,1,10,0:0:0:0:
41,267,161831,1,2,0:0:0:0:
0,353,162009,6,0,L|75:359,1,75.0000028610231,2|0,3:0|0:0,0:0:0:0:
155,296,162363,1,10,0:0:0:0:
155,296,162541,1,2,0:0:0:0:
227,367,162719,2,0,B|296:395|301:331|372:355,1,150.000005722046,0|8,0:0|0:0,0:0:0:0:
298,235,163251,2,0,P|263:224|227:232,1,75.000002861023,0|0,0:0|3:0,0:0:0:0:
132,198,163606,1,0,0:0:0:0:
206,125,163784,5,8,0:0:0:0:
206,125,163961,1,2,0:0:0:0:
303,160,164138,2,0,L|297:235,1,75.0000028610231,2|2,0:0|3:0,0:0:0:0:
399,98,164493,2,0,L|405:173,1,75.0000028610231,10|2,0:0|0:0,0:0:0:0:
511,238,164849,5,2,3:0:0:0:
511,238,165026,1,2,0:0:0:0:
445,301,165204,2,0,L|370:307,1,75.000002861023,10|2,0:0|0:0,0:0:0:0:
267,282,165559,2,0,B|328:277|328:277|348:283|348:283|416:277,1,150.000005722046,2|8,0:0|0:0,0:0:0:0:
495,218,166091,2,0,P|506:183|498:147,1,75.0000028610231,0|0,0:0|3:0,0:0:0:0:
406,178,166447,1,0,0:0:0:0:
317,135,166624,5,10,0:0:0:0:
317,135,166802,1,2,0:0:0:0:
260,209,166978,2,0,L|266:284,1,75.000002861023,2|2,0:0|3:0,0:0:0:0:
166,182,167334,1,10,0:0:0:0:
166,182,167512,1,2,0:0:0:0:
76,172,167689,6,0,P|110:107|181:91,1,150.000005722046,2|10,3:0|0:0,0:0:0:0:
260,209,168222,1,2,0:0:0:0:
170,280,168399,2,0,B|100:303|95:239|26:267,1,150.000005722046,0|8,0:0|0:0,0:0:0:0:
0,100,168932,1,0,0:0:0:0:
151,36,169464,6,0,B|119:13|119:13|59:18,2,100
216,103,170351,1,0,0:0:0:0:
216,103,170529,6,0,L|255:98,2,37.5000014305115,2|0|8,3:0|0:0|0:0,0:0:0:0:
214,190,171061,2,0,L|253:185,2,37.5000014305115,2|0|0,0:0|0:0|3:0,0:0:0:0:
211,285,171594,2,0,L|250:280,1,37.5000014305115,10|0,0:0|0:0,0:0:0:0:
334,249,171949,5,2,3:0:0:0:
334,249,172126,2,0,L|371:253,2,37.5000014305115,2|8|0,0:0|0:0|0:0,0:0:0:0:
322,338,172659,1,2,0:0:0:0:
322,338,172836,2,0,L|359:342,2,37.5000014305115,2|8|0,3:0|0:0|0:0,0:0:0:0:
249,281,173369,6,0,P|243:263|241:242,2,37.5000014305115,2|0|8,3:0|0:0|0:0,0:0:0:0:
153,231,173901,2,0,P|156:212|165:193,2,37.5000014305115,2|0|0,0:0|0:0|3:0,0:0:0:0:
94,139,174434,2,0,P|106:124|123:112,1,37.5000014305115,10|0,0:0|0:0,0:0:0:0:
202,64,174789,6,0,P|189:49|172:37,1,37.5000014305115,0|0,3:0|0:0,0:0:0:0:
71,0,175144,2,0,L|75:37,1,37.5000014305115,10|0,0:0|0:0,0:0:0:0:
121,113,175499,2,0,L|125:150,1,37.5000014305115,2|0,0:0|3:0,0:0:0:0:
171,226,175854,2,0,L|175:263,1,37.5000014305115,10|0,0:0|0:0,0:0:0:0:
81,323,176209,6,0,L|85:285,2,37.5000014305115,2|0|8,3:0|0:0|0:0,0:0:0:0:
158,384,176742,2,0,L|162:346,2,37.5000014305115,2|0|0,0:0|0:0|3:0,0:0:0:0:
244,323,177274,2,0,L|248:285,1,37.5000014305115,10|0,0:0|0:0,0:0:0:0:
329,245,177629,5,0,3:0:0:0:
329,245,177807,1,2,0:0:0:0:
391,309,177984,1,10,0:0:0:0:
391,309,178162,2,0,L|386:346,1,37.5000014305115,2|0,0:0|0:0,0:0:0:0:
477,317,178517,2,0,L|472:354,2,37.5000014305115,2|8|0,3:0|0:0|0:0,0:0:0:0:
481,223,179049,6,0,P|463:229|442:231,2,37.5000014305115,2|0|8,3:0|0:0|0:0,0:0:0:0:
365,191,179582,2,0,P|346:187|327:178,2,37.5000014305115,2|0|0,0:0|0:0|3:0,0:0:0:0:
280,105,180115,2,0,P|265:92|253:75,1,37.5000014305115,10|0,0:0|0:0,0:0:0:0:
376,94,180470,5,0,3:0:0:0:
405,88,180825,2,0,L|442:83,1,37.5000014305115,10|0,0:0|0:0,0:0:0:0:
420,169,181180,2,0,L|457:164,1,37.5000014305115,2|0,0:0|3:0,0:0:0:0:
435,250,181535,2,0,L|472:245,1,37.5000014305115,10|0,0:0|0:0,0:0:0:0:
309,372,182245,5,10,0:0:0:0:
309,372,182423,2,0,L|271:367,2,37.5000014305115,2|0|0,0:0|0:0|3:0,0:0:0:0:
215,286,182955,2,0,L|252:281,2,37.5000014305115,10|0|2,0:0|0:0|3:0,0:0:0:0:
309,200,183487,2,0,L|271:195,2,37.5000014305115,2|8|0,0:0|0:0|0:0,0:0:0:0:
215,114,184020,1,2,0:0:0:0:
215,114,184197,2,0,L|252:109,2,37.5000014305115,0|8|0,3:0|0:0|0:0,0:0:0:0:
158,40,184730,6,0,P|139:37|121:31,2,37.5000014305115,2|0|8,3:0|0:0|0:0,0:0:0:0:
38,113,185262,2,0,P|56:110|74:104,2,37.5000014305115,2|0|0,0:0|0:0|3:0,0:0:0:0:
158,186,185795,2,0,P|139:183|121:177,1,37.5000014305115,10|0,0:0|0:0,0:0:0:0:
38,259,186150,6,0,P|56:256|74:250,1,37.5000014305115,0|0,3:0|0:0,0:0:0:0:
92,336,186505,2,0,L|87:373,1,37.5000014305115,10|0,0:0|0:0,0:0:0:0:
175,336,186860,2,0,L|170:373,1,37.5000014305115,2|0,0:0|3:0,0:0:0:0:
258,336,187215,2,0,L|253:373,1,37.5000014305115,10|0,0:0|0:0,0:0:0:0:
333,299,187570,6,0,L|328:261,2,37.5000014305115,2|0|8,3:0|0:0|0:0,0:0:0:0:
413,257,188103,2,0,L|417:219,2,37.5000014305115,2|0|0,0:0|0:0|3:0,0:0:0:0:
505,301,188635,2,0,L|500:263,2,37.5000014305115,10|0|0,0:0|0:0|3:0,0:0:0:0:
420,350,189168,5,2,0:0:0:0:
333,299,189345,1,10,0:0:0:0:
333,299,189523,2,0,P|314:296|296:290,1,37.5000014305115,2|0,0:0|0:0,0:0:0:0:
215,375,189878,2,0,P|233:372|251:366,2,37.5000014305115,2|8|0,3:0|0:0|0:0,0:0:0:0:
207,284,190410,6,0,P|223:238|291:205,2,112.500004291535,2|2|2,0:0|0:0|0:0,0:0:0:0:
139,131,192186,2,0,B|145:193|145:193|154:181,2,75.0000028610231,2|2|2,0:0|0:0|0:0,0:0:0:0:
