osu file format v14

[General]
AudioFilename: pocotan - Burst Mountain.mp3
AudioLeadIn: 0
PreviewTime: 87258
Countdown: 0
SampleSet: Normal
StackLeniency: 0.7
Mode: 0
LetterboxInBreaks: 1
WidescreenStoryboard: 1

[Editor]
DistanceSpacing: 1.8
BeatDivisor: 4
GridSize: 4
TimelineZoom: 1.8

[Metadata]
Title:Burst Mountain
TitleUnicode:Burst Mountain
Artist:pocotan
ArtistUnicode:pocotan
Creator:Mathsma
Version:Algebronchitis
Source:Touhou
Tags:remix deep mountain perfect cherry blossom 無何有の郷 東方妖々夢 touhou youyoumu eastern
BeatmapID:863317
BeatmapSetID:392380

[Difficulty]
HPDrainRate:8
CircleSize:4.3
OverallDifficulty:9.3
ApproachRate:9.3
SliderMultiplier:2
SliderTickRate:1

[Events]
//Background and Video events
0,0,"34354140_p0.jpg",0,0
//Break Periods
//Storyboard Layer 0 (Background)
//Storyboard Layer 1 (Fail)
//Storyboard Layer 2 (Pass)
//Storyboard Layer 3 (Foreground)
//Storyboard Sound Samples

[TimingPoints]
1164.03021004622,300,4,1,0,80,1,0
10764,-100,4,2,0,80,0,0
12864,-66.6666666666667,4,2,0,80,0,0
13164,-100,4,2,0,80,0,0
14964,-66.6666666666667,4,2,0,80,0,0
15714,-100,4,1,0,80,0,0
20064,-100,4,1,0,80,0,0
20364,-100,4,1,0,80,0,0
28764,-66.6666666666667,4,1,0,80,0,0
28989,-80,4,1,0,80,0,0
29664,-50,4,1,0,80,0,0
29964,-80,4,1,0,80,0,0
38364,-100,4,2,0,80,0,0
39564,-133.333333333333,4,2,0,60,0,0
43914,-100,4,1,0,80,0,0
48864,-100,4,1,0,80,0,0
58764,-100,4,1,0,80,0,0
59964,-133.333333333333,4,3,0,80,0,0
61014,-100,4,1,0,80,0,0
63414,-133.333333333333,4,2,0,79,0,0
67014,-100,4,3,0,80,0,0
68364,-80,4,1,0,80,0,1
76764,-100,4,1,0,80,0,0
77964,-80,4,1,0,80,0,1
86214,-100,4,1,0,80,0,0
87564,-100,4,1,0,80,0,0
92364,-100,4,1,0,80,0,0
97164,-66.6666666666667,4,3,0,80,0,1
105564,-100,4,3,0,80,0,0
106764,-66.6666666666667,4,3,0,80,0,1
115164,-100,4,1,0,80,0,0

[Colours]
Combo1 : 255,193,74
Combo2 : 52,39,255
Combo3 : 190,39,33
Combo4 : 111,60,171

[HitObjects]
240,232,1166,5,0,0:0:0:0:
448,200,1464,1,0,0:0:0:0:
376,124,1614,1,0,0:0:0:0:
350,332,1914,5,0,0:0:0:0:
308,236,2064,1,0,0:0:0:0:
204,248,2214,1,0,0:0:0:0:
250,154,2364,2,0,L|272:100,3,50
212,127,2664,5,0,0:0:0:0:
124,184,2814,1,0,0:0:0:0:
328,136,3114,5,0,0:0:0:0:
197,86,3264,1,0,0:0:0:0:
201,261,3414,1,0,0:0:0:0:
130,184,3564,1,0,0:0:0:0:
340,184,3864,5,0,0:0:0:0:
340,289,4014,1,0,0:0:0:0:
156,188,4314,5,0,0:0:0:0:
254,88,4464,1,0,0:0:0:0:
282,225,4614,1,0,0:0:0:0:
188,121,4764,1,0,0:0:0:0:
385,194,5064,5,0,0:0:0:0:
208,308,5364,1,0,0:0:0:0:
124,196,5514,1,0,0:0:0:0:
334,179,5814,1,0,0:0:0:0:
127,141,6114,5,0,3:0:0:0:
232,135,6264,1,0,3:0:0:0:
280,228,6414,1,0,3:0:0:0:
348,148,6564,1,0,3:0:0:0:
317,48,6714,1,0,3:0:0:0:
215,73,6864,1,0,3:0:0:0:
214,178,7014,1,0,3:0:0:0:
412,108,7314,5,0,3:0:0:0:
315,148,7464,1,0,3:0:0:0:
416,176,7614,1,0,3:0:0:0:
379,311,7764,5,0,3:0:0:0:
339,279,7839,1,0,3:0:0:0:
291,263,7914,1,0,3:0:0:0:
239,259,7989,1,0,3:0:0:0:
191,239,8064,1,0,3:0:0:0:
183,134,8214,1,0,3:0:0:0:
4,244,8514,5,0,3:0:0:0:
52,224,8589,1,0,3:0:0:0:
72,176,8664,1,0,3:0:0:0:
104,136,8739,1,0,3:0:0:0:
156,132,8814,1,0,3:0:0:0:
208,140,8889,1,0,3:0:0:0:
260,128,8964,1,0,3:0:0:0:
352,176,9114,6,0,L|356:196,8,12.5,0|0|0|0|0|0|0|0|0,3:0|3:0|3:0|3:0|3:0|3:0|3:0|3:0|3:0,3:0:0:0:
433,245,9414,1,0,3:0:0:0:
225,282,9714,1,0,3:0:0:0:
71,140,10014,1,0,3:0:0:0:
276,92,10314,1,0,3:0:0:0:
333,238,10764,5,0,0:0:0:0:
237,280,10914,2,0,L|208:320,1,50
164,300,11064,1,0,0:0:0:0:
190,198,11214,1,0,0:0:0:0:
96,152,11364,2,0,L|56:120,1,50
120,123,11514,2,0,L|76:84,1,50
145,102,11664,2,0,P|169:78|236:72,1,100
304,100,11964,5,0,0:0:0:0:
306,212,12114,1,0,0:0:0:0:
306,212,12189,1,0,0:0:0:0:
306,212,12264,1,0,0:0:0:0:
217,265,12414,1,0,0:0:0:0:
180,168,12564,1,0,0:0:0:0:
255,95,12714,1,0,0:0:0:0:
100,68,12864,2,0,P|68:88|124:84,1,150.000005722046
243,144,13164,6,0,L|192:152,1,50
232,217,13314,2,0,L|296:216,1,50
287,284,13464,2,0,L|236:292,1,50
183,283,13614,1,0,0:0:0:0:
88,180,13764,1,0,0:0:0:0:
228,179,13914,1,0,0:0:0:0:
352,244,14064,2,0,P|396:252|420:208,1,100
408,96,14364,6,0,L|364:128,1,50
356,51,14514,2,0,L|324:116,1,50
293,32,14664,2,0,L|292:104,1,50
232,33,14814,2,0,L|248:92,1,50
157,117,14964,6,0,P|121:141|180:136,1,150.000005722046
366,153,15264,2,0,P|418:197|316:176,1,300.000011444092
250,126,15714,5,0,0:0:0:0:
204,244,15864,1,0,0:0:0:0:
148,132,16014,1,0,0:0:0:0:
108,252,16164,5,0,0:0:0:0:
252,220,16314,1,0,0:0:0:0:
148,324,16464,1,0,0:0:0:0:
292,288,16614,1,0,0:0:0:0:
340,128,16764,5,0,0:0:0:0:
380,292,16914,1,0,0:0:0:0:
440,136,17064,1,0,0:0:0:0:
472,300,17214,1,0,0:0:0:0:
324,308,17364,5,0,0:0:0:0:
440,220,17514,1,0,0:0:0:0:
292,208,17664,1,0,0:0:0:0:
416,128,17814,1,0,0:0:0:0:
304,68,17964,5,0,0:0:0:0:
304,68,18114,1,0,0:0:0:0:
180,80,18264,1,0,0:0:0:0:
180,80,18414,1,0,0:0:0:0:
96,176,18564,5,0,0:0:0:0:
96,176,18714,1,0,0:0:0:0:
160,284,18864,1,0,0:0:0:0:
160,284,19014,1,0,0:0:0:0:
284,304,19164,5,0,0:0:0:0:
324,268,19239,1,0,0:0:0:0:
368,236,19314,1,0,0:0:0:0:
392,188,19389,1,0,0:0:0:0:
408,136,19464,2,0,L|396:128,4,12.5
339,72,19764,2,0,L|328:84,8,12.5
315,147,20064,5,0,0:0:0:0:
318,199,20139,1,0,0:0:0:0:
302,249,20214,1,0,0:0:0:0:
250,256,20289,1,0,0:0:0:0:
212,236,20364,2,0,P|176:232|119:263,1,100
212,236,20814,5,0,0:0:0:0:
212,236,20964,1,0,0:0:0:0:
272,150,21114,1,0,0:0:0:0:
301,251,21264,1,0,0:0:0:0:
364,167,21414,1,0,0:0:0:0:
410,261,21564,2,0,P|434:301|423:355,1,100
410,261,22014,5,0,0:0:0:0:
410,261,22164,1,0,0:0:0:0:
323,320,22314,1,0,0:0:0:0:
220,299,22464,1,0,0:0:0:0:
279,212,22614,1,0,0:0:0:0:
188,181,22764,2,0,P|144:221|87:199,1,100
188,181,23214,5,0,0:0:0:0:
188,181,23364,1,0,0:0:0:0:
291,161,23514,1,0,0:0:0:0:
347,72,23664,1,0,0:0:0:0:
446,36,23814,1,0,0:0:0:0:
460,140,23964,2,0,P|424:128|384:172,1,100
427,284,24414,5,0,0:0:0:0:
427,284,24714,2,0,L|392:328,1,50
315,316,24864,1,0,0:0:0:0:
315,316,24939,1,0,0:0:0:0:
315,316,25014,1,0,0:0:0:0:
315,316,25089,1,0,0:0:0:0:
315,316,25164,2,0,P|255:299|232:264,1,100
170,182,25614,5,0,0:0:0:0:
170,182,25764,1,0,0:0:0:0:
242,106,25914,1,0,0:0:0:0:
276,205,26064,1,0,0:0:0:0:
356,137,26214,1,0,0:0:0:0:
371,249,26364,2,0,P|371:303|351:343,1,100
371,248,26814,5,0,0:0:0:0:
371,248,26964,1,0,0:0:0:0:
274,289,27114,1,0,0:0:0:0:
188,229,27264,1,0,0:0:0:0:
94,183,27414,1,0,0:0:0:0:
75,80,27564,2,0,P|111:64|191:67,1,100
75,80,28014,5,0,0:0:0:0:
249,101,28314,1,0,0:0:0:0:
150,173,28464,1,0,0:0:0:0:
206,282,28614,1,0,0:0:0:0:
309,262,28764,6,0,P|295:229|208:152,1,150.000005722046
212,153,28989,2,0,P|281:164|336:204,1,125
326,193,29214,6,0,P|320:132|308:112,1,62.5
319,131,29364,2,0,P|379:158|420:268,1,187.5
420,266,29664,6,0,P|452:292|396:272,1,200
