osu file format v14

[General]
AudioFilename: audio.mp3
AudioLeadIn: 0
PreviewTime: 24125
Countdown: 0
SampleSet: Soft
StackLeniency: 0.3
Mode: 0
LetterboxInBreaks: 0
WidescreenStoryboard: 1

[Editor]
Bookmarks: 15921,17129
DistanceSpacing: 1
BeatDivisor: 4
GridSize: 32
TimelineZoom: 1.9

[Metadata]
Title:teclitas locas (Short Ver.)
TitleUnicode:teclitas locas (Short Ver.)
Artist:pm04034
ArtistUnicode:pm04034
Creator:pewdekz
Version:pianitox
Source:
Tags:piano instrumental electronic crazy keyboard rainbow
BeatmapID:3068820
BeatmapSetID:1141064

[Difficulty]
HPDrainRate:6
CircleSize:4.2
OverallDifficulty:8.5
ApproachRate:9.5
SliderMultiplier:2.2
SliderTickRate:0.5

[Events]
//Background and Video events
0,0,"rainbow piano.jpg",0,0
//Break Periods
//Storyboard Layer 0 (Background)
//Storyboard Layer 1 (Fail)
//Storyboard Layer 2 (Pass)
//Storyboard Layer 3 (Foreground)
//Storyboard Layer 4 (Overlay)
//Storyboard Sound Samples

[TimingPoints]
15,402.684563758389,4,2,1,5,1,0
417,-25,4,2,1,10,0,0
820,-25,4,2,1,15,0,0
1223,-25,4,2,1,20,0,0
1625,-25,4,2,1,25,0,0
2028,-25,4,2,1,30,0,0
2431,-25,4,2,1,35,0,0
2833,-25,4,2,1,40,0,0
3236,-100,4,2,1,45,0,0
6457,-83.3333333333333,4,2,1,45,0,0
9679,-71.4285714285714,4,2,1,50,0,0
10384,-64.5161290322581,4,2,1,50,0,0
11290,-68.9655172413793,4,2,1,50,0,0
12699,-64.5161290322581,4,2,1,50,0,0
12900,-68.9655172413793,4,2,1,50,0,0
16323,-68.9655172413793,4,2,1,50,0,0
16827,-64.5161290322581,4,2,1,50,0,0
17733,-68.9655172413793,4,2,1,50,0,0
19142,-64.5161290322581,4,2,1,50,0,0
19343,-68.9655172413793,4,2,1,50,0,0
21457,-100,4,2,1,50,0,0
21860,-68.9655172413793,4,2,1,50,0,0
22061,-100,4,2,1,50,0,0
22363,-68.9655172413793,4,2,1,50,0,0
22666,-90.9090909090909,4,2,1,50,0,0
23068,-68.9655172413793,4,2,1,50,0,0
23270,-200,4,2,1,50,0,0
23370,-250,4,2,1,5,0,0
24176,-60.6060606060606,4,2,1,55,0,1
24377,-62.5,4,2,1,55,0,1
24981,-71.4285714285714,4,2,1,55,0,1
25182,-62.5,4,2,1,55,0,1
25786,-60.6060606060606,4,2,1,55,0,1
25988,-62.5,4,2,1,55,0,1
27095,-166.666666666667,4,2,1,55,0,0
27347,-166.666666666667,4,2,1,5,0,0
27397,-60.6060606060606,4,2,1,55,0,1
27598,-62.5,4,2,1,55,0,1
28202,-71.4285714285714,4,2,1,55,0,1
28403,-62.5,4,2,1,55,0,1
29008,-60.6060606060606,4,2,1,55,0,1
29209,-62.5,4,2,1,55,0,1
29813,-66.6666666666667,4,2,1,55,0,0
30317,-166.666666666667,4,2,1,55,0,0
30619,-60.6060606060606,4,2,1,55,0,1
30820,-62.5,4,2,1,55,0,1
31424,-71.4285714285714,4,2,1,55,0,1
32229,-60.6060606060606,4,2,1,55,0,1
32431,-62.5,4,2,1,55,0,1
33538,-166.666666666667,4,2,1,55,0,0
33790,-166.666666666667,4,2,1,5,0,0
33840,-62.5,4,2,1,55,0,1
34243,-62.5,4,2,1,55,0,0
34444,-58.8235294117647,4,2,1,55,0,1
34847,-62.5,4,2,1,55,0,0
35048,-55.5555555555556,4,2,1,55,0,1
35249,-62.5,4,2,1,55,0,0
35350,-55.5555555555556,4,2,1,55,0,1
35551,-62.5,4,2,1,55,0,0
35652,-55.5555555555556,4,2,1,55,0,1
35853,-62.5,4,2,1,55,0,0
35954,-55.5555555555556,4,2,1,55,0,1
36155,-62.5,4,2,1,55,0,0
36256,-76.9230769230769,4,2,1,40,0,0
36659,-25,4,2,1,35,0,0
37061,-25,4,2,1,30,0,0
37464,-25,4,2,1,25,0,0
37867,-25,4,2,1,20,0,0
38270,-25,4,2,1,15,0,0
38672,-25,4,2,1,10,0,0
39075,-25,4,2,1,5,0,0
39377,-76.9230769230769,4,2,1,30,0,0

[Colours]
Combo1 : 255,0,0
Combo2 : 191,191,0
Combo3 : 0,255,64
Combo4 : 0,98,196

[HitObjects]
256,192,15,12,8,3236,0:2:0:0:
115,78,3437,5,2,0:2:0:0:
67,142,3538,1,2,0:2:0:0:
67,142,3639,2,0,L|29:142,2,27.5,2|0|2,0:2|0:2|0:2,0:0:0:0:
170,172,3840,1,0,0:2:0:0:
169,204,3941,2,0,L|237:204,1,55,2|0,0:2|0:2,0:0:0:0:
172,287,4142,1,2,0:2:0:0:
77,287,4243,2,0,L|77:219,1,55,2|0,0:2|0:0,0:0:0:0:
172,287,4444,1,2,0:2:0:0:
129,368,4545,2,0,L|195:368,1,55,2|0,0:2|0:0,0:0:0:0:
324,341,4746,1,2,0:2:0:0:
324,341,4847,6,0,P|356:294|411:275,1,110,2|0,0:2|0:2,0:0:0:0:
481,315,5149,1,2,0:2:0:0:
486,195,5249,2,0,P|447:236|387:247,1,110,2|0,0:2|0:2,0:0:0:0:
344,117,5551,2,0,L|344:177,1,55,0|0,0:2|0:2,0:0:0:0:
448,83,5753,1,2,0:2:0:0:
448,48,5853,1,2,0:0:0:0:
375,15,5954,2,0,L|324:15,2,27.5,0|0|0,0:2|0:2|0:2,0:0:0:0:
235,120,6155,2,0,B|291:120|291:120|313:106|313:106|371:106,1,137.5,2|0,0:2|0:2,0:0:0:0:
448,157,6457,6,0,L|448:301,1,131.99999597168,2|2,0:2|0:2,0:0:0:0:
377,345,6759,1,0,0:2:0:0:
323,272,6860,2,0,L|323:224,2,32.99999899292,2|0|2,0:2|0:2|0:2,0:0:0:0:
240,320,7061,1,2,0:2:0:0:
240,352,7162,2,0,L|163:352,1,65.9999979858399,0|0,0:2|0:2,0:0:0:0:
101,296,7363,1,2,0:2:0:0:
183,194,7464,2,0,L|183:275,1,65.9999979858399,2|0,0:2|0:2,0:0:0:0:
101,296,7666,1,2,0:2:0:0:
39,178,7766,2,0,L|113:178,1,65.9999979858399,2|0,0:2|0:0,0:0:0:0:
224,118,7968,1,0,0:2:0:0:
224,118,8068,6,0,B|224:31|224:31|280:31,1,131.99999597168,2|0,0:2|0:2,0:0:0:0:
321,118,8370,1,0,0:2:0:0:
408,73,8471,2,0,B|408:118|408:118|321:118,1,131.99999597168,2|0,0:2|0:2,0:0:0:0:
270,225,8773,1,0,0:2:0:0:
270,194,8874,1,2,0:2:0:0:
356,249,8974,2,0,L|403:249,2,32.99999899292,0|0|0,0:2|0:2|0:2,0:0:0:0:
374,330,9176,1,2,0:2:0:0:
374,330,9478,1,2,0:2:0:0:
498,169,9679,6,0,B|424:200|424:136|343:170,1,153.999995300293,14|2,0:2|0:2,0:0:0:0:
343,54,9981,1,2,0:2:0:0:
453,100,10082,1,2,1:2:0:0:
453,100,10132,1,2,0:2:0:0:
453,100,10182,2,0,L|453:180,1,76.9999976501466,2|0,0:2|0:2,0:0:0:0:
361,248,10384,6,0,P|328:168|245:142,1,170.500001300812,10|0,0:2|0:2,0:0:0:0:
256,357,10686,2,0,P|335:324|361:241,1,170.500001300812,10|0,0:2|1:2,0:0:0:0:
148,252,10988,2,0,P|180:331|263:357,1,170.500001300812,2|0,0:2|1:2,0:0:0:0:
253,141,11290,2,0,L|74:141,1,159.500004867554,2|8,0:2|0:2,0:0:0:0:
25,91,11592,1,0,0:2:0:0:
12,291,11692,6,0,B|34:252|34:252|163:252,1,159.500004867554,2|0,1:2|0:2,0:0:0:0:
227,317,11994,1,0,0:2:0:0:
305,264,12095,1,10,0:2:0:0:
304,231,12196,1,2,0:2:0:0:
385,171,12296,6,0,L|385:342,1,159.500004867554,2|0,1:2|0:2,0:0:0:0:
433,91,12598,1,0,0:2:0:0:
475,212,12699,2,0,B|486:191|467:171|467:171|364:171,1,127.875000975609,10|0,0:2|0:2,0:0:0:0:
225,231,12900,6,0,B|225:153|225:153|216:146|216:146|216:61,1,159.500004867554,14|2,0:2|0:2,0:0:0:0:
124,10,13202,1,2,0:2:0:0:
43,178,13303,2,0,L|43:73,1,79.7500024337769,2|0,1:2|0:2,0:0:0:0:
130,149,13504,1,2,0:2:0:0:
192,97,13605,1,10,0:2:0:0:
256,149,13706,1,2,0:2:0:0:
318,96,13806,5,2,0:2:0:0:
297,231,13907,2,0,L|193:231,1,79.7500024337769,10|8,0:2|0:2,0:0:0:0:
318,96,14108,1,2,1:2:0:0:
376,191,14209,2,0,L|376:367,1,159.500004867554,2|2,0:2|1:2,0:0:0:0:
161,359,14511,6,0,B|161:279|161:279|65:279,1,159.500004867554,2|8,0:2|0:2,0:0:0:0:
73,373,14813,1,2,0:2:0:0:
43,194,14914,2,0,P|82:257|161:280,1,159.500004867554,2|0,1:2|0:2,0:0:0:0:
224,217,15216,1,0,0:2:0:0:
126,111,15317,1,10,0:2:0:0:
141,134,15417,2,0,L|141:183,2,39.8750012168885,2|0|0,0:2|0:2|1:2,0:0:0:0:
225,35,15619,5,10,0:2:0:0:
225,35,16323,6,0,B|304:2|304:66|378:35,1,159.500004867554,14|2,0:0|1:2,0:0:0:0:
378,34,16575,1,2,0:2:0:0:
378,34,16625,1,2,0:2:0:0:
415,124,16726,1,0,0:2:0:0:
363,239,16827,6,0,L|192:239,1,170.500001300812,10|0,0:2|0:2,0:0:0:0:
132,154,17129,2,0,L|302:154,1,170.500001300812,10|0,0:2|1:2,0:0:0:0:
360,66,17431,2,0,L|189:66,1,170.500001300812,2|0,0:2|1:2,0:0:0:0:
48,128,17733,2,0,P|44:190|117:245,1,159.500004867554,2|8,0:2|0:2,0:0:0:0:
132,154,18035,1,0,0:2:0:0:
178,306,18135,6,0,B|157:340|157:340|26:340,1,159.500004867554,2|0,1:2|0:2,0:0:0:0:
203,219,18437,1,0,0:2:0:0:
279,320,18538,1,10,0:2:0:0:
279,284,18639,1,2,0:2:0:0:
373,361,18739,6,0,L|373:171,1,159.500004867554,2|0,1:2|0:2,0:0:0:0:
457,234,19041,1,0,0:2:0:0:
282,160,19142,2,0,B|271:181|290:201|290:201|393:201,1,127.875000975609,10|0,0:2|0:2,0:0:0:0:
435,94,19343,6,0,B|368:94|368:94|333:67|333:67|265:67,1,159.500004867554,14|2,0:2|0:2,0:0:0:0:
217,21,19645,1,2,0:2:0:0:
165,176,19746,2,0,L|165:80,1,79.7500024337769,2|0,1:2|0:2,0:0:0:0:
271,177,19947,1,2,0:2:0:0:
219,248,20048,1,10,0:2:0:0:
165,176,20149,1,2,0:2:0:0:
112,245,20249,5,2,0:2:0:0:
154,339,20350,2,0,L|247:339,1,79.7500024337769,10|8,0:2|0:2,0:0:0:0:
112,245,20551,1,2,1:2:0:0:
34,352,20652,2,0,B|34:279|34:279|22:266|22:266|22:184,1,159.500004867554,2|2,0:2|1:2,0:0:0:0:
23,93,20954,5,10,0:2:0:0:
199,33,21155,1,0,0:2:0:0:
199,33,21256,2,0,L|199:142,1,79.7500024337769,0|0,0:2|1:2,0:0:0:0:
284,189,21457,6,0,L|284:57,1,110,10|0,0:2|0:2,0:0:0:0:
370,131,21759,1,0,0:2:0:0:
370,131,21860,2,0,L|370:238,1,79.7500024337769,0|0,0:2|1:2,0:0:0:0:
202,309,22061,6,0,L|202:177,1,110,10|0,0:2|0:2,0:0:0:0:
301,287,22363,1,0,0:2:0:0:
301,287,22464,2,0,L|301:394,1,79.7500024337769,0|0,0:2|1:2,0:0:0:0:
81,199,22666,6,0,L|224:199,1,121.000003692627,10|0,0:2|0:2,0:0:0:0:
138,364,22968,1,0,0:2:0:0:
138,364,23068,2,0,L|44:364,1,79.7500024337769,0|0,0:2|1:2,0:0:0:0:
27,124,23270,6,0,B|126:124|126:124|144:108|144:108|247:108,1,220,10|0,0:2|0:2,0:0:0:0:
297,48,24176,6,0,P|309:131|385:88,1,181.500001730919,14|0,0:2|0:2,0:0:0:0:
375,18,24478,1,0,0:2:0:0:
465,147,24578,2,0,L|357:147,1,88,0|0,1:2|0:2,0:0:0:0:
255,220,24780,5,2,0:2:0:0:
255,184,24880,1,10,0:2:0:0:
353,267,24981,6,0,L|353:210,2,51.3333317667644,0|0|0,0:2|0:0|0:0,0:0:0:0:
302,356,25182,5,10,0:2:0:0:
266,356,25282,1,10,0:2:0:0:
160,295,25384,5,2,1:2:0:0:
196,295,25484,1,0,0:2:0:0:
255,184,25585,5,2,0:2:0:0:
255,220,25685,1,2,1:2:0:0:
321,90,25786,6,0,B|279:110|254:152|254:152|229:107|190:80,1,181.500001730919,2|8,0:2|0:2,0:0:0:0:
256,17,26088,1,0,0:2:0:0:
116,66,26189,2,0,L|116:110,2,44,0|0|0,1:2|0:2|0:2,0:0:0:0:
40,22,26390,1,0,0:2:0:0:
2,133,26491,5,2,0:2:0:0:
1,101,26592,1,8,0:2:0:0:
70,198,26692,1,2,0:2:0:0:
70,198,26743,1,0,0:2:0:0:
70,198,26793,2,0,L|70:296,1,88,0|10,1:2|0:2,0:0:0:0:
162,161,26994,1,0,0:2:0:0:
268,340,27095,6,0,L|182:340,1,82.4999974822999,2|0,0:2|0:2,0:0:0:0:
163,314,27397,6,0,B|241:314|241:314|263:297|263:297|345:297,1,181.500001730919,14|0,0:2|0:2,0:0:0:0:
418,352,27699,1,0,0:2:0:0:
461,207,27800,2,0,L|362:207,1,88,0|0,1:2|0:2,0:0:0:0:
255,164,28001,5,2,0:2:0:0:
255,200,28101,1,10,0:2:0:0:
182,64,28202,6,0,L|182:135,2,51.3333317667644,0|0|0,0:2|0:0|0:0,0:0:0:0:
299,31,28404,5,10,0:2:0:0:
299,67,28504,1,10,0:2:0:0:
384,154,28605,5,2,1:2:0:0:
348,154,28705,1,0,0:2:0:0:
255,200,28806,5,2,0:2:0:0:
255,164,28906,1,2,1:2:0:0:
318,300,29008,6,0,B|294:256|255:233|255:233|218:255|192:305,1,181.500001730919,2|8,0:2|0:2,0:0:0:0:
256,361,29310,1,0,0:2:0:0:
101,222,29410,2,0,L|154:222,2,44,0|0|0,1:2|0:2|0:2,0:0:0:0:
48,155,29612,1,0,0:2:0:0:
121,104,29712,5,2,0:2:0:0:
121,68,29813,1,0,0:2:0:0:
212,59,29914,2,0,L|212:6,2,41.2500015735627,2|0|0,0:2|0:2|0:2,0:0:0:0:
303,107,30115,1,2,0:2:0:0:
303,107,30216,2,0,L|303:17,1,82.5000031471254,0|2,0:2|0:0,0:0:0:0:
403,131,30619,6,0,B|403:216|403:216|393:228|393:228|393:326,1,181.500001730919,14|0,0:2|0:2,0:0:0:0:
393,309,30921,1,0,0:2:0:0:
491,131,31021,2,0,L|382:131,1,88,0|0,1:2|0:2,0:0:0:0:
255,220,31223,5,2,0:2:0:0:
255,184,31323,1,10,0:2:0:0:
363,271,31424,6,0,L|363:209,2,51.3333317667644,0|0|0,0:2|0:0|0:0,0:0:0:0:
180,276,31625,5,10,0:2:0:0:
180,312,31726,1,10,0:2:0:0:
305,331,31827,5,2,1:2:0:0:
269,331,31927,1,0,0:2:0:0:
255,184,32028,5,2,0:2:0:0:
255,220,32129,1,2,1:2:0:0:
193,85,32229,6,0,B|255:148|255:148|326:84,1,181.500001730919,2|8,0:2|0:2,0:0:0:0:
256,20,32531,1,0,0:2:0:0:
111,56,32632,2,0,L|111:115,2,44,0|0|0,1:2|0:2|0:2,0:0:0:0:
43,13,32833,1,0,0:2:0:0:
2,122,32934,5,2,0:2:0:0:
2,86,33035,1,8,0:2:0:0:
74,187,33135,1,2,0:2:0:0:
74,187,33186,1,0,0:2:0:0:
74,187,33236,2,0,L|74:279,1,88,0|10,1:2|0:2,0:0:0:0:
42,353,33437,1,0,0:2:0:0:
201,352,33538,6,0,L|201:267,1,82.4999974822999,2|0,0:2|0:2,0:0:0:0:
226,372,33840,6,0,L|226:187,1,176,14|0,0:2|0:2,0:0:0:0:
292,130,34142,1,0,0:2:0:0:
423,216,34243,2,0,L|317:216,1,88,0|0,1:2|0:2,0:0:0:0:
226,372,34444,6,0,L|226:167,1,187.000003566742,14|0,0:2|0:2,0:0:0:0:
166,117,34746,1,0,0:2:0:0:
112,296,34847,2,0,L|112:200,1,88,0|0,1:2|0:2,0:0:0:0:
165,24,35048,6,0,L|363:24,1,197.99999395752,14|0,0:2|0:2,0:0:0:0:
434,248,35350,6,0,L|233:248,1,197.99999395752,14|0,0:2|0:2,0:0:0:0:
165,24,35652,6,0,L|366:24,1,197.99999395752,14|0,0:2|0:2,0:0:0:0:
434,248,35954,6,0,L|233:248,1,197.99999395752,14|0,0:2|0:2,0:0:0:0:
154,11,36256,6,0,L|107:11,3,35.749998363495,10|0|0|0,0:2|0:2|0:2|0:2,0:0:0:0:
256,192,36457,12,0,38270,0:0:0:0:
256,227,39377,6,0,L|256:153,1,71.4999967269899,2|0,0:0|0:2,0:0:0:0:
